osu file format v14

[General]
AudioFilename: audio.mp3
AudioLeadIn: 0
PreviewTime: 43494
Countdown: 0
SampleSet: Soft
StackLeniency: 0.2
Mode: 0
LetterboxInBreaks: 0
WidescreenStoryboard: 0

[Editor]
Bookmarks: 11080,33149,44183,66252,88321,99356,121425,132459,143494,154528,165563,176597
DistanceSpacing: 0.9
BeatDivisor: 4
GridSize: 4
TimelineZoom: 1.5

[Metadata]
Title:Chronicle
TitleUnicode:Chronicle
Artist:Frequent
ArtistUnicode:Frequent
Creator:thiev
Version:thiev
Source:
Tags:
BeatmapID:1734772
BeatmapSetID:827913

[Difficulty]
HPDrainRate:5
CircleSize:4
OverallDifficulty:8
ApproachRate:9
SliderMultiplier:1.7
SliderTickRate:1

[Events]
//Background and Video events
0,0,"p.png",0,0
//Break Periods
//Storyboard Layer 0 (Background)
//Storyboard Layer 1 (Fail)
//Storyboard Layer 2 (Pass)
//Storyboard Layer 3 (Foreground)
//Storyboard Sound Samples

[TimingPoints]
46,344.827586206897,4,2,1,10,1,0
46,-166.666666666667,4,2,1,10,0,0
1770,-200,4,2,1,11,0,0
3149,-250,4,2,1,12,0,0
4528,-333.333333333333,4,2,1,13,0,0
5563,-142.857142857143,4,2,1,15,0,0
7287,-125,4,2,1,16,0,0
7977,-200,4,2,1,12,0,0
8666,-111.111111111111,4,2,1,18,0,0
9356,-166.666666666667,4,2,1,15,0,0
9701,-142.857142857143,4,2,1,15,0,0
10046,-83.3333333333333,4,2,1,20,0,0
11080,-50,4,2,1,35,0,0
11597,-50,4,2,1,5,0,0
11683,-50,4,2,1,30,0,0
11770,-83.3333333333333,4,2,1,30,0,0
11942,-83.3333333333333,4,2,1,20,0,0
12114,-111.111111111111,4,2,1,20,0,0
12287,-66.6666666666667,4,2,1,30,0,0
12546,-66.6666666666667,4,2,1,5,0,0
12632,-111.111111111111,4,2,1,20,0,0
12804,-111.111111111111,4,2,1,30,0,0
13063,-111.111111111111,4,2,1,20,0,0
13149,-66.6666666666667,4,2,1,30,0,0
13321,-66.6666666666667,4,2,1,20,0,0
13494,-45.4545454545455,4,2,1,20,0,0
13580,-45.4545454545455,4,2,1,5,0,0
13666,-40,4,2,1,20,0,0
13752,-40,4,2,1,5,0,0
13839,-100,4,2,1,20,0,0
14183,-100,4,2,1,12,0,0
14442,-66.6666666666667,4,2,1,30,0,0
14873,-100,4,2,1,20,0,0
15046,-66.6666666666667,4,2,1,30,0,0
15477,-66.6666666666667,4,2,1,5,0,0
15563,-83.3333333333333,4,2,1,30,0,0
15735,-83.3333333333333,4,2,1,20,0,0
15821,-83.3333333333333,4,2,1,30,0,0
15908,-50,4,2,1,30,0,0
16166,-50,4,2,1,5,0,0
16252,-40,4,2,1,30,0,0
16511,-40,4,2,1,5,0,0
16597,-50,4,2,1,37,0,0
17114,-50,4,2,1,5,0,0
17201,-50,4,2,1,32,0,0
17287,-83.3333333333333,4,2,1,32,0,0
17459,-83.3333333333333,4,2,1,22,0,0
17632,-111.111111111111,4,2,1,32,0,0
17718,-111.111111111111,4,2,1,22,0,0
17804,-66.6666666666667,4,2,1,32,0,0
18063,-66.6666666666667,4,2,1,5,0,0
18149,-111.111111111111,4,2,1,22,0,0
18321,-111.111111111111,4,2,1,32,0,0
18408,-111.111111111111,4,2,1,22,0,0
18666,-66.6666666666667,4,2,1,32,0,0
18839,-66.6666666666667,4,2,1,22,0,0
19011,-45.4545454545455,4,2,1,32,0,0
19097,-45.4545454545455,4,2,1,5,0,0
19183,-40,4,2,1,32,0,0
19270,-40,4,2,1,5,0,0
19356,-100,4,2,1,22,0,0
19701,-100,4,2,1,14,0,0
19959,-100,4,2,1,32,0,0
20046,-66.6666666666667,4,2,1,32,0,0
20218,-66.6666666666667,4,2,1,22,0,0
20390,-100,4,2,1,22,0,0
20563,-66.6666666666667,4,2,1,32,0,0
20994,-66.6666666666667,4,2,1,5,0,0
21080,-83.3333333333333,4,2,1,32,0,0
21252,-83.3333333333333,4,2,1,22,0,0
21339,-83.3333333333333,4,2,1,32,0,0
21425,-50,4,2,1,32,0,0
21683,-50,4,2,1,5,0,0
21770,-40,4,2,1,32,0,0
22028,-40,4,2,1,5,0,0
22114,-45.4545454545455,4,2,1,39,0,0
22632,-45.4545454545455,4,2,1,5,0,0
22718,-83.3333333333333,4,2,1,34,0,0
22977,-83.3333333333333,4,2,1,24,0,0
23149,-111.111111111111,4,2,1,24,0,0
23321,-66.6666666666667,4,2,1,34,0,0
23580,-66.6666666666667,4,2,1,5,0,0
23666,-111.111111111111,4,2,1,24,0,0
23839,-111.111111111111,4,2,1,34,0,0
24097,-111.111111111111,4,2,1,24,0,0
24183,-66.6666666666667,4,2,1,34,0,0
24356,-66.6666666666667,4,2,1,24,0,0
24528,-45.4545454545455,4,2,1,34,0,0
24614,-45.4545454545455,4,2,1,5,0,0
24701,-37.037037037037,4,2,1,34,0,0
24787,-37.037037037037,4,2,1,5,0,0
24873,-100,4,2,1,24,0,0
25218,-100,4,2,1,21,0,0
25477,-100,4,2,1,34,0,0
25563,-66.6666666666667,4,2,1,34,0,0
25735,-66.6666666666667,4,2,1,24,0,0
25908,-111.111111111111,4,2,1,24,0,0
26080,-66.6666666666667,4,2,1,34,0,0
26511,-66.6666666666667,4,2,1,5,0,0
26597,-66.6666666666667,4,2,1,34,0,0
26770,-66.6666666666667,4,2,1,24,0,0
26856,-66.6666666666667,4,2,1,34,0,0
26942,-45.4545454545455,4,2,1,34,0,0
27201,-45.4545454545455,4,2,1,5,0,0
27287,-37.037037037037,4,2,1,34,0,0
27546,-37.037037037037,4,2,1,5,0,0
27632,-45.4545454545455,4,2,1,41,0,0
28149,-45.4545454545455,4,2,1,5,0,0
28235,-45.4545454545455,4,2,1,36,0,0
28321,-83.3333333333333,4,2,1,36,0,0
28494,-83.3333333333333,4,2,1,26,0,0
28839,-66.6666666666667,4,2,1,36,0,0
29270,-66.6666666666667,4,2,1,5,0,0
29356,-66.6666666666667,4,2,1,36,0,0
29528,-111.111111111111,4,2,1,36,0,0
29701,-83.3333333333333,4,2,1,36,0,0
30046,-50,4,2,1,36,0,0
30132,-50,4,2,1,5,0,0
30218,-40,4,2,1,36,0,0
30304,-40,4,2,1,5,0,0
30390,-100,4,2,1,26,0,0
30735,-100,4,2,1,23,0,0
30994,-100,4,2,1,36,0,0
31425,-111.111111111111,4,2,1,26,0,0
31597,-66.6666666666667,4,2,1,36,0,0
32028,-66.6666666666667,4,2,1,5,0,0
32114,-66.6666666666667,4,2,1,36,0,0
33494,-200,4,2,1,10,0,0
34701,-166.666666666667,4,2,1,10,0,0
35735,-45.4545454545455,4,2,1,30,0,0
35821,-45.4545454545455,4,2,1,5,0,0
35908,-45.4545454545455,4,2,1,35,0,0
36252,-45.4545454545455,4,2,1,15,0,0
36425,-125,4,2,1,15,0,0
36597,-100,4,2,1,15,0,0
37287,-83.3333333333333,4,2,1,15,0,0
37977,-66.6666666666667,4,2,1,15,0,0
38494,-66.6666666666667,4,2,1,10,0,0
38666,-66.6666666666667,4,2,1,40,0,0
38839,-66.6666666666667,4,2,1,20,0,0
39011,-47.6190476190476,4,2,1,20,0,0
41252,-38.4615384615385,4,2,1,20,0,0
42114,-45.4545454545455,4,2,1,20,0,0
42804,-40,4,2,1,20,0,0
43494,-45.4545454545455,4,2,1,20,0,0
43752,-45.4545454545455,4,2,1,5,0,0
43839,-28.5714285714286,4,2,1,7,0,0
43954,-33.3333333333333,4,2,1,7,0,0
44068,-40,4,2,1,7,0,0
44183,-76.9230769230769,4,1,1,50,0,0
44701,-76.9230769230769,4,1,1,5,0,0
44787,-76.9230769230769,4,1,1,40,0,0
44873,-55.5555555555556,4,1,1,50,0,0
45046,-55.5555555555556,4,1,1,40,0,0
45218,-66.6666666666667,4,1,1,50,0,0
45304,-66.6666666666667,4,1,1,40,0,0
45390,-76.9230769230769,4,1,1,50,0,0
45649,-76.9230769230769,4,1,1,5,0,0
45735,-100,4,1,1,50,0,0
45821,-100,4,1,1,40,0,0
45908,-100,4,1,1,50,0,0
46252,-40,4,1,1,50,0,0
46597,-50,4,1,1,10,0,0
46712,-57.1428571428571,4,1,1,10,0,0
46827,-66.6666666666667,4,1,1,10,0,0
46942,-133.333333333333,4,1,1,40,0,0
46985,-133.333333333333,4,1,1,10,0,0
47114,-133.333333333333,4,1,1,40,0,0
47287,-50,4,1,1,50,0,0
47546,-50,4,1,1,5,0,0
47632,-66.6666666666667,4,1,1,50,0,0
47804,-66.6666666666667,4,1,1,40,0,0
47977,-66.6666666666667,4,1,1,50,0,0
48063,-66.6666666666667,4,1,1,40,0,0
48149,-35.7142857142857,4,1,1,50,0,0
48321,-35.7142857142857,4,1,1,40,0,0
48580,-500,4,1,1,50,0,0
48839,-500,4,1,1,5,0,0
48925,-500,4,1,1,40,0,0
49011,-50,4,1,1,50,0,0
49270,-50,4,1,1,5,0,0
49356,-35.7142857142857,4,1,1,50,0,0
49614,-35.7142857142857,4,1,1,5,0,0
49701,-100,4,1,1,10,0,0
49873,-100,4,1,1,40,0,0
50046,-43.4782608695652,4,1,1,50,0,0
50304,-43.4782608695652,4,1,1,5,0,0
50390,-66.6666666666667,4,1,1,50,0,0
50563,-66.6666666666667,4,1,1,40,0,0
50735,-66.6666666666667,4,1,1,50,0,0
50821,-66.6666666666667,4,1,1,40,0,0
50908,-58.8235294117647,4,1,1,50,0,0
51166,-58.8235294117647,4,1,1,5,0,0
51252,-58.8235294117647,4,1,1,50,0,0
51296,-58.8235294117647,4,1,1,5,0,0
51339,-58.8235294117647,4,1,1,50,0,0
51382,-58.8235294117647,4,1,1,5,0,0
51425,-58.8235294117647,4,1,1,50,0,0
51683,-58.8235294117647,4,1,1,5,0,0
51770,-40,4,1,1,50,0,0
52028,-40,4,1,1,5,0,0
52114,-28.5714285714286,4,1,1,10,0,0
52229,-33.3333333333333,4,1,1,10,0,0
52344,-40,4,1,1,10,0,0
52459,-100,4,1,1,20,0,0
52804,-45.4545454545455,4,1,1,50,0,0
53063,-45.4545454545455,4,1,1,5,0,0
53149,-66.6666666666667,4,1,1,50,0,0
53321,-66.6666666666667,4,1,1,40,0,0
53494,-66.6666666666667,4,1,1,50,0,0
53580,-66.6666666666667,4,1,1,40,0,0
53666,-45.4545454545455,4,1,1,50,0,0
54011,-83.3333333333333,4,1,1,50,0,0
54097,-83.3333333333333,4,1,1,40,0,0
54183,-55.5555555555556,4,1,1,50,0,0
54442,-55.5555555555556,4,1,1,5,0,0
54528,-45.4545454545455,4,1,1,50,0,0
54787,-45.4545454545455,4,1,1,5,0,0
54873,-37.037037037037,4,1,1,50,0,0
55132,-37.037037037037,4,1,1,5,0,0
55218,-66.6666666666667,4,1,1,50,0,0
55735,-66.6666666666667,4,1,1,5,0,0
55821,-66.6666666666667,4,1,1,40,0,0
55908,-55.5555555555556,4,1,1,50,0,0
56080,-55.5555555555556,4,1,1,40,0,0
56252,-66.6666666666667,4,1,1,50,0,0
56339,-66.6666666666667,4,1,1,40,0,0
56425,-83.3333333333333,4,1,1,50,0,0
56683,-83.3333333333333,4,1,1,5,0,0
56770,-100,4,1,1,50,0,0
56856,-100,4,1,1,40,0,0
56942,-100,4,1,1,50,0,0
57114,-100,4,1,1,40,0,0
57287,-45.4545454545455,4,1,1,50,0,0
57546,-45.4545454545455,4,1,1,5,0,0
57632,-28.5714285714286,4,1,1,10,0,0
57747,-33.3333333333333,4,1,1,10,0,0
57862,-40,4,1,1,10,0,0
57977,-100,4,1,1,40,0,0
58020,-100,4,1,1,5,0,0
58149,-100,4,1,1,40,0,0
58321,-40,4,1,1,50,0,0
58580,-40,4,1,1,5,0,0
58666,-66.6666666666667,4,1,1,50,0,0
58839,-66.6666666666667,4,1,1,40,0,0
59011,-66.6666666666667,4,1,1,50,0,0
59097,-66.6666666666667,4,1,1,40,0,0
59183,-45.4545454545455,4,1,1,50,0,0
59356,-45.4545454545455,4,1,1,40,0,0
59614,-500,4,1,1,50,0,0
59873,-500,4,1,1,5,0,0
59959,-500,4,1,1,40,0,0
60046,-45.4545454545455,4,1,1,50,0,0
60304,-45.4545454545455,4,1,1,5,0,0
60390,-37.037037037037,4,1,1,50,0,0
60649,-37.037037037037,4,1,1,5,0,0
60735,-100,4,1,1,10,0,0
60908,-100,4,1,1,40,0,0
61080,-45.4545454545455,4,1,1,50,0,0
61339,-45.4545454545455,4,1,1,5,0,0
61425,-66.6666666666667,4,1,1,50,0,0
61597,-66.6666666666667,4,1,1,40,0,0
61770,-66.6666666666667,4,1,1,50,0,0
61856,-66.6666666666667,4,1,1,40,0,0
61942,-50,4,1,1,50,0,0
62201,-50,4,1,1,5,0,0
62287,-100,4,1,1,10,0,0
62459,-43.4782608695652,4,1,1,50,0,0
62718,-43.4782608695652,4,1,1,5,0,0
62804,-37.037037037037,4,1,1,50,0,0
63063,-37.037037037037,4,1,1,5,0,0
63149,-40,4,1,1,10,0,0
63264,-50,4,1,1,10,0,0
63379,-66.6666666666667,4,1,1,10,0,0
63580,-100,4,1,1,20,0,0
63839,-47.6190476190476,4,1,1,50,0,0
64097,-47.6190476190476,4,1,1,5,0,0
64183,-66.6666666666667,4,1,1,50,0,0
64356,-66.6666666666667,4,1,1,40,0,0
64528,-66.6666666666667,4,1,1,50,0,0
64614,-66.6666666666667,4,1,1,40,0,0
64701,-45.4545454545455,4,1,1,50,0,0
64873,-45.4545454545455,4,1,1,40,0,0
65046,-66.6666666666667,4,1,1,50,0,0
65132,-66.6666666666667,4,1,1,40,0,0
65218,-55.5555555555556,4,1,1,50,0,0
65477,-55.5555555555556,4,1,1,5,0,0
65563,-38.4615384615385,4,1,1,50,0,0
65821,-38.4615384615385,4,1,1,5,0,0
65908,-47.6190476190476,4,1,1,50,0,0
66166,-47.6190476190476,4,1,1,5,0,0
66252,-66.6666666666667,4,1,1,50,0,0
66511,-66.6666666666667,4,1,1,5,0,0
66597,-66.6666666666667,4,1,1,50,0,0
66770,-66.6666666666667,4,1,1,5,0,0
66856,-66.6666666666667,4,1,1,40,0,0
66942,-66.6666666666667,4,1,1,50,0,0
67114,-66.6666666666667,4,1,1,40,0,0
67287,-66.6666666666667,4,1,1,50,0,0
67373,-66.6666666666667,4,1,1,40,0,0
67457,-47.6190476190476,4,1,1,50,0,0
67632,-47.6190476190476,4,1,1,40,0,0
67977,-66.6666666666667,4,1,1,50,0,0
68149,-66.6666666666667,4,1,1,5,0,0
68321,-1000,4,1,1,50,0,0
68925,-1000,4,1,1,5,0,0
69011,-100,4,1,1,40,0,0
69054,-100,4,1,1,10,0,0
69183,-100,4,1,1,40,0,0
69356,-37.037037037037,4,1,1,50,0,0
69614,-37.037037037037,4,1,1,5,0,0
69701,-66.6666666666667,4,1,1,50,0,0
69873,-66.6666666666667,4,1,1,40,0,0
70046,-66.6666666666667,4,1,1,50,0,0
70132,-66.6666666666667,4,1,1,40,0,0
70218,-45.4545454545455,4,1,1,50,0,0
70390,-45.4545454545455,4,1,1,40,0,0
70649,-500,4,1,1,50,0,0
70908,-500,4,1,1,5,0,0
70994,-500,4,1,1,40,0,0
71080,-45.4545454545455,4,1,1,50,0,0
71339,-45.4545454545455,4,1,1,5,0,0
71425,-35.7142857142857,4,1,1,50,0,0
71683,-35.7142857142857,4,1,1,5,0,0
71770,-100,4,1,1,10,0,0
71942,-100,4,1,1,40,0,0
72114,-45.4545454545455,4,1,1,50,0,0
72373,-45.4545454545455,4,1,1,5,0,0
72459,-66.6666666666667,4,1,1,50,0,0
72632,-66.6666666666667,4,1,1,40,0,0
72804,-66.6666666666667,4,1,1,50,0,0
72890,-66.6666666666667,4,1,1,40,0,0
72977,-45.4545454545455,4,1,1,50,0,0
73235,-45.4545454545455,4,1,1,5,0,0
73321,-100,4,1,1,10,0,0
73494,-52.6315789473684,4,1,1,50,0,0
73752,-52.6315789473684,4,1,1,5,0,0
73839,-1000,4,1,1,50,0,0
74442,-1000,4,1,1,5,0,0
74528,-1000,4,1,1,20,0,0
74614,-100,4,1,1,20,0,0
74873,-45.4545454545455,4,1,1,50,0,0
75132,-45.4545454545455,4,1,1,5,0,0
75218,-66.6666666666667,4,1,1,50,0,0
75390,-66.6666666666667,4,1,1,30,0,0
75563,-66.6666666666667,4,1,1,50,0,0
75649,-66.6666666666667,4,1,1,40,0,0
75735,-45.4545454545455,4,1,1,50,0,0
75908,-45.4545454545455,4,1,1,40,0,0
76080,-66.6666666666667,4,1,1,50,0,0
76166,-66.6666666666667,4,1,1,40,0,0
76252,-55.5555555555556,4,1,1,50,0,0
76511,-55.5555555555556,4,1,1,5,0,0
76597,-45.4545454545455,4,1,1,50,0,0
76856,-45.4545454545455,4,1,1,5,0,0
76942,-37.037037037037,4,1,1,50,0,0
77201,-37.037037037037,4,1,1,5,0,0
77285,-66.6666666666667,4,1,1,50,0,0
77546,-66.6666666666667,4,1,1,5,0,0
77632,-66.6666666666667,4,1,1,50,0,0
77804,-66.6666666666667,4,1,1,5,0,0
77890,-66.6666666666667,4,1,1,40,0,0
77977,-66.6666666666667,4,1,1,50,0,0
78149,-66.6666666666667,4,1,1,40,0,0
78321,-66.6666666666667,4,1,1,50,0,0
78408,-66.6666666666667,4,1,1,40,0,0
78494,-45.4545454545455,4,1,1,50,0,0
78666,-45.4545454545455,4,1,1,40,0,0
79011,-66.6666666666667,4,1,1,50,0,0
79183,-66.6666666666667,4,1,1,5,0,0
79270,-66.6666666666667,4,1,1,40,0,0
79356,-1000,4,1,1,50,0,0
79959,-1000,4,1,1,5,0,0
80046,-100,4,1,1,40,0,0
80089,-100,4,1,1,5,0,0
80218,-100,4,1,1,40,0,0
80390,-45.4545454545455,4,1,1,50,0,0
80649,-45.4545454545455,4,1,1,5,0,0
80735,-66.6666666666667,4,1,1,50,0,0
80908,-66.6666666666667,4,1,1,40,0,0
81080,-66.6666666666667,4,1,1,50,0,0
81166,-66.6666666666667,4,1,1,40,0,0
81252,-45.4545454545455,4,1,1,50,0,0
81425,-45.4545454545455,4,1,1,40,0,0
81683,-500,4,1,1,50,0,0
81942,-500,4,1,1,5,0,0
82028,-500,4,1,1,40,0,0
82114,-45.4545454545455,4,1,1,50,0,0
82459,-37.037037037037,4,1,1,50,0,0
82804,-100,4,1,1,10,0,0
82977,-100,4,1,1,40,0,0
83149,-45.4545454545455,4,1,1,50,0,0
83408,-45.4545454545455,4,1,1,5,0,0
83494,-66.6666666666667,4,1,1,50,0,0
83666,-66.6666666666667,4,1,1,40,0,0
83839,-66.6666666666667,4,1,1,50,0,0
83925,-66.6666666666667,4,1,1,40,0,0
84011,-50,4,1,1,50,0,0
84270,-50,4,1,1,5,0,0
84356,-100,4,1,1,10,0,0
84528,-66.6666666666667,4,1,1,50,0,0
84787,-66.6666666666667,4,1,1,5,0,0
84873,-1000,4,1,1,50,0,0
85477,-1000,4,1,1,5,0,0
85563,-1000,4,1,1,20,0,0
85649,-100,4,1,1,20,0,0
85908,-50,4,1,1,50,0,0
86166,-50,4,1,1,5,0,0
86252,-66.6666666666667,4,1,1,50,0,0
86425,-66.6666666666667,4,1,1,40,0,0
86597,-66.6666666666667,4,1,1,50,0,0
86683,-66.6666666666667,4,1,1,40,0,0
86770,-55.5555555555556,4,1,1,50,0,0
86942,-55.5555555555556,4,1,1,40,0,0
87114,-55.5555555555556,4,1,1,50,0,0
87201,-55.5555555555556,4,1,1,40,0,0
87287,-45.4545454545455,4,1,1,50,0,0
87546,-45.4545454545455,4,2,1,5,0,0
87632,-333.333333333333,4,2,1,10,0,0
91080,-200,4,2,1,10,0,0
96597,-200,4,2,1,15,0,0
99356,-333.333333333334,4,2,1,30,0,0
99873,-333.333333333334,4,2,1,5,0,0
99959,-333.333333333334,4,2,1,15,0,0
100046,-333.333333333334,4,2,1,30,0,0
100908,-333.333333333334,4,2,1,5,0,0
100994,-333.333333333334,4,2,1,20,0,0
101080,-333.333333333334,4,2,1,20,0,0
101339,-333.333333333334,4,2,1,20,0,0
101425,-333.333333333334,4,2,1,30,0,0
101770,-333.333333333334,4,2,1,20,0,0
101813,-333.333333333334,4,2,1,5,0,0
101942,-333.333333333334,4,2,1,20,0,0
101985,-333.333333333334,4,2,1,5,0,0
102114,-333.333333333334,4,2,1,20,0,0
102158,-333.333333333334,4,2,1,5,0,0
102459,-333.333333333334,4,2,1,30,0,0
102718,-333.333333333334,4,2,1,20,0,0
102804,-333.333333333334,4,2,1,20,0,0
103235,-333.333333333334,4,2,1,5,0,0
103321,-333.333333333334,4,2,1,30,0,0
103752,-333.333333333334,4,2,1,5,0,0
103839,-333.333333333334,4,2,1,30,0,0
104011,-333.333333333334,4,2,1,5,0,0
104097,-333.333333333334,4,2,1,20,0,0
104183,-166.666666666667,4,2,1,30,0,0
104442,-166.666666666667,4,2,1,5,0,0
104528,-125,4,2,1,30,0,0
104787,-125,4,2,1,5,0,0
104873,-200,4,2,1,30,0,0
105390,-200,4,2,1,5,0,0
105477,-200,4,2,1,20,0,0
105563,-200,4,2,1,30,0,0
106425,-200,4,2,1,5,0,0
106511,-200,4,2,1,20,0,0
106597,-200,4,2,1,30,0,0
106856,-200,4,2,1,20,0,0
106942,-200,4,2,1,30,0,0
107287,-166.666666666667,4,2,1,20,0,0
107330,-166.666666666667,4,2,1,5,0,0
107459,-142.857142857143,4,2,1,20,0,0
107502,-142.857142857143,4,2,1,5,0,0
107632,-125,4,2,1,20,0,0
107675,-125,4,2,1,5,0,0
107977,-125,4,2,1,30,0,0
108235,-125,4,2,1,20,0,0
108321,-125,4,2,1,30,0,0
108752,-125,4,2,1,5,0,0
108839,-125,4,2,1,30,0,0
109270,-125,4,2,1,5,0,0
109356,-111.111111111111,4,2,1,30,0,0
109528,-111.111111111111,4,2,1,5,0,0
109614,-111.111111111111,4,2,1,20,0,0
109701,-90.9090909090908,4,2,1,30,0,0
109959,-90.9090909090908,4,2,1,5,0,0
110046,-83.3333333333333,4,2,1,18,0,0
110304,-83.3333333333333,4,2,1,5,0,0
110390,-76.9230769230769,4,2,1,35,0,0
110908,-76.9230769230769,4,2,1,5,0,0
110994,-76.9230769230769,4,2,1,25,0,0
111080,-76.9230769230769,4,2,1,35,0,0
111425,-76.9230769230769,4,2,1,35,0,0
111942,-76.9230769230769,4,2,1,5,0,0
112028,-76.9230769230769,4,2,1,25,0,0
112114,-76.9230769230769,4,2,1,35,0,0
112373,-76.9230769230769,4,2,1,20,0,0
112459,-76.9230769230769,4,2,1,35,0,0
112804,-83.3333333333333,4,2,1,20,0,0
112847,-83.3333333333333,4,2,1,5,0,0
112977,-83.3333333333333,4,2,1,20,0,0
113020,-83.3333333333333,4,2,1,5,0,0
113149,-83.3333333333333,4,2,1,20,0,0
113192,-83.3333333333333,4,2,1,5,0,0
113494,-83.3333333333333,4,2,1,35,0,0
113752,-83.3333333333333,4,2,1,20,0,0
113839,-83.3333333333333,4,2,1,35,0,0
114183,-76.9230769230769,4,2,1,35,0,0
114270,-76.9230769230769,4,2,1,5,0,0
114356,-76.9230769230769,4,2,1,35,0,0
114787,-76.9230769230769,4,2,1,5,0,0
114873,-76.9230769230769,4,2,1,35,0,0
115046,-76.9230769230769,4,2,1,5,0,0
115132,-76.9230769230769,4,2,1,20,0,0
115218,-83.3333333333333,4,2,1,35,0,0
115477,-83.3333333333333,4,2,1,5,0,0
115563,-100,4,2,1,35,0,0
115821,-100,4,2,1,5,0,0
115908,-125,4,2,1,30,0,0
116425,-125,4,2,1,5,0,0
116511,-125,4,2,1,20,0,0
116597,-111.111111111111,4,2,1,30,0,0
117114,-142.857142857143,4,2,1,30,0,0
117459,-142.857142857143,4,2,1,5,0,0
117546,-142.857142857143,4,2,1,20,0,0
117632,-142.857142857143,4,2,1,30,0,0
117890,-142.857142857143,4,2,1,20,0,0
117977,-142.857142857143,4,2,1,30,0,0
118321,-142.857142857143,4,2,1,20,0,0
118364,-142.857142857143,4,2,1,5,0,0
118494,-166.666666666667,4,2,1,20,0,0
118537,-166.666666666667,4,2,1,5,0,0
118666,-200,4,2,1,20,0,0
118709,-200,4,2,1,5,0,0
119011,-200,4,2,1,30,0,0
119270,-200,4,2,1,20,0,0
119356,-200,4,2,1,30,0,0
119701,-142.857142857143,4,2,1,30,0,0
119787,-142.857142857143,4,2,1,5,0,0
119873,-111.111111111111,4,2,1,30,0,0
120304,-111.111111111111,4,2,1,5,0,0
120390,-111.111111111111,4,2,1,30,0,0
121425,-500,4,2,1,5,0,0
122114,-333.333333333333,4,2,1,5,0,0
122804,-250,4,2,1,7,0,0
123149,-200,4,2,1,7,0,0
123494,-142.857142857143,4,2,1,7,0,0
123839,-125,4,2,1,7,0,0
124183,-100,4,2,1,9,0,0
125218,-100,4,2,1,11,0,0
125908,-100,4,2,1,13,0,0
126597,-100,4,2,1,15,0,0
127287,-76.9230769230769,4,1,1,20,0,0
127977,-76.9230769230769,4,1,1,22,0,0
128666,-76.9230769230769,4,1,1,24,0,0
129356,-76.9230769230769,4,1,1,26,0,0
129528,-58.8235294117647,4,1,1,30,0,0
129614,-58.8235294117647,4,1,1,20,0,0
129701,-58.8235294117647,4,1,1,10,0,0
130390,-58.8235294117647,4,1,1,20,0,0
131080,-58.8235294117647,4,1,1,30,0,0
131770,-58.8235294117647,4,1,1,40,0,0
132459,-45.4545454545455,4,1,1,55,0,0
132718,-45.4545454545455,4,1,1,30,0,0
132804,-55.5555555555556,4,1,1,55,0,0
132977,-55.5555555555556,4,1,1,30,0,0
133063,-55.5555555555556,4,1,1,40,0,0
133149,-40,4,1,1,55,0,0
133235,-40,4,1,1,30,0,0
133321,-55.5555555555556,4,1,1,40,0,0
133408,-55.5555555555556,4,1,1,30,0,0
133494,-45.4545454545455,4,1,1,55,0,0
133580,-45.4545454545455,4,1,1,30,0,0
133666,-55.5555555555556,4,1,1,55,0,0
134011,-55.5555555555556,4,1,1,40,0,0
134183,-40,4,1,1,55,0,0
134270,-40,4,1,1,30,0,0
134356,-40,4,1,1,40,0,0
134442,-40,4,1,1,30,0,0
134528,-40,4,1,1,55,0,0
134614,-40,4,1,1,40,0,0
134701,-40,4,1,1,55,0,0
134787,-40,4,1,1,40,0,0
134873,-28.5714285714286,4,1,1,55,0,0
134931,-28.5714285714286,4,1,1,20,0,0
134988,-33.3333333333333,4,1,1,20,0,0
135103,-40,4,1,1,20,0,0
135218,-66.6666666666667,4,1,1,55,0,0
135261,-66.6666666666667,4,1,1,30,0,0
135390,-55.5555555555556,4,1,1,55,0,0
135477,-55.5555555555556,4,1,1,40,0,0
135563,-45.4545454545455,4,1,1,55,0,0
135821,-45.4545454545455,4,1,1,5,0,0
135908,-55.5555555555556,4,1,1,55,0,0
136080,-55.5555555555556,4,1,1,30,0,0
136166,-55.5555555555556,4,1,1,40,0,0
136425,-35.7142857142857,4,1,1,55,0,0
136597,-35.7142857142857,4,1,1,30,0,0
136683,-35.7142857142857,4,1,1,40,0,0
136770,-45.4545454545455,4,1,1,55,0,0
136856,-45.4545454545455,4,1,1,40,0,0
136942,-45.4545454545455,4,1,1,55,0,0
137201,-45.4545454545455,4,1,1,30,0,0
137287,-52.6315789473684,4,1,1,55,0,0
137373,-52.6315789473684,4,1,1,30,0,0
137459,-52.6315789473684,4,1,1,55,0,0
137546,-52.6315789473684,4,1,1,30,0,0
137634,-35.7142857142857,4,1,1,55,0,0
137890,-35.7142857142857,4,1,1,30,0,0
137977,-35.7142857142857,4,1,1,55,0,0
138149,-100,4,1,1,20,0,0
138321,-43.4782608695652,4,1,1,55,0,0
138580,-43.4782608695652,4,1,1,30,0,0
138666,-55.5555555555556,4,1,1,55,0,0
138839,-55.5555555555556,4,1,1,30,0,0
138925,-55.5555555555556,4,1,1,40,0,0
139011,-55.5555555555556,4,1,1,55,0,0
139097,-55.5555555555556,4,1,1,40,0,0
139183,-55.5555555555556,4,1,1,55,0,0
139442,-55.5555555555556,4,1,1,30,0,0
139528,-100,4,1,1,30,0,0
139701,-43.4782608695652,4,1,1,55,0,0
139787,-43.4782608695652,4,1,1,30,0,0
139873,-43.4782608695652,4,1,1,55,0,0
139959,-43.4782608695652,4,1,1,30,0,0
140046,-40,4,1,1,55,0,0
140132,-40,4,1,1,30,0,0
140218,-40,4,1,1,55,0,0
140304,-40,4,1,1,30,0,0
140390,-28.5714285714286,4,1,1,55,0,0
140448,-28.5714285714286,4,1,1,30,0,0
140505,-33.3333333333333,4,1,1,30,0,0
140620,-40,4,1,1,30,0,0
140735,-40,4,1,1,30,0,0
140908,-100,4,1,1,30,0,0
141080,-43.4782608695652,4,1,1,55,0,0
141339,-43.4782608695652,4,1,1,20,0,0
141425,-55.5555555555556,4,1,1,55,0,0
141597,-55.5555555555556,4,1,1,30,0,0
141683,-55.5555555555556,4,1,1,40,0,0
141770,-55.5555555555556,4,1,1,55,0,0
141942,-37.037037037037,4,1,1,55,0,0
142114,-37.037037037037,4,1,1,30,0,0
142201,-37.037037037037,4,1,1,30,0,0
142287,-45.4545454545455,4,1,1,55,0,0
142373,-45.4545454545455,4,1,1,40,0,0
142459,-45.4545454545455,4,1,1,55,0,0
142718,-45.4545454545455,4,1,1,30,0,0
142804,-55.5555555555556,4,1,1,55,0,0
142890,-55.5555555555556,4,1,1,30,0,0
142977,-55.5555555555556,4,1,1,55,0,0
143063,-55.5555555555556,4,1,1,30,0,0
143149,-43.4782608695652,4,1,1,30,0,0
143494,-45.4545454545455,4,1,1,55,0,0
143752,-45.4545454545455,4,1,1,30,0,0
143839,-55.5555555555556,4,1,1,55,0,0
144011,-55.5555555555556,4,1,1,30,0,0
144097,-55.5555555555556,4,1,1,40,0,0
144183,-55.5555555555556,4,1,1,55,0,0
144270,-55.5555555555556,4,1,1,30,0,0
144356,-55.5555555555556,4,1,1,40,0,0
144442,-55.5555555555556,4,1,1,30,0,0
144528,-55.5555555555556,4,1,1,55,0,0
145046,-55.5555555555556,4,1,1,30,0,0
145218,-45.4545454545455,4,1,1,30,0,0
145390,-34.4827586206897,4,1,1,55,0,0
145477,-34.4827586206897,4,1,1,30,0,0
145563,-40,4,1,1,55,0,0
145649,-40,4,1,1,30,0,0
145735,-40,4,1,1,55,0,0
145821,-40,4,1,1,30,0,0
145908,-28.5714285714286,4,1,1,55,0,0
145965,-28.5714285714286,4,1,1,30,0,0
146023,-33.3333333333333,4,1,1,30,0,0
146137,-40,4,1,1,30,0,0
146252,-100,4,1,1,55,0,0
146296,-100,4,1,1,30,0,0
146425,-66.6666666666667,4,1,1,55,0,0
146597,-45.4545454545455,4,1,1,55,0,0
146856,-45.4545454545455,4,1,1,30,0,0
146942,-55.5555555555556,4,1,1,55,0,0
147114,-55.5555555555556,4,1,1,30,0,0
147201,-55.5555555555556,4,1,1,40,0,0
147287,-66.6666666666667,4,1,1,55,0,0
147459,-35.7142857142857,4,1,1,55,0,0
147632,-35.7142857142857,4,1,1,30,0,0
147718,-35.7142857142857,4,1,1,40,0,0
147804,-55.5555555555556,4,1,1,55,0,0
147890,-55.5555555555556,4,1,1,40,0,0
147977,-40,4,1,1,55,0,0
148321,-55.5555555555556,4,1,1,55,0,0
148408,-55.5555555555556,4,1,1,30,0,0
148494,-55.5555555555556,4,1,1,55,0,0
148580,-55.5555555555556,4,1,1,30,0,0
148666,-35.7142857142857,4,1,1,55,0,0
148925,-35.7142857142857,4,1,1,30,0,0
149011,-35.7142857142857,4,1,1,55,0,0
149183,-100,4,1,1,20,0,0
149356,-45.4545454545455,4,1,1,55,0,0
149614,-45.4545454545455,4,1,1,30,0,0
149701,-55.5555555555556,4,1,1,55,0,0
149873,-55.5555555555556,4,1,1,30,0,0
149959,-55.5555555555556,4,1,1,40,0,0
150046,-55.5555555555556,4,1,1,55,0,0
150218,-43.4782608695652,4,1,1,55,0,0
150563,-100,4,1,1,30,0,0
150735,-55.5555555555556,4,1,1,55,0,0
150821,-55.5555555555556,4,1,1,30,0,0
150908,-45.4545454545455,4,1,1,40,0,0
150994,-45.4545454545455,4,1,1,30,0,0
151080,-40,4,1,1,55,0,0
151166,-40,4,1,1,30,0,0
151252,-40,4,1,1,55,0,0
151339,-40,4,1,1,30,0,0
151425,-28.5714285714286,4,1,1,55,0,0
151482,-28.5714285714286,4,1,1,30,0,0
151540,-33.3333333333333,4,1,1,30,0,0
151655,-40,4,1,1,30,0,0
151770,-40,4,1,1,20,0,0
151942,-100,4,1,1,20,0,0
152114,-45.4545454545455,4,1,1,55,0,0
152373,-45.4545454545455,4,1,1,30,0,0
152459,-45.4545454545455,4,1,1,55,0,0
152632,-45.4545454545455,4,1,1,30,0,0
152718,-45.4545454545455,4,1,1,40,0,0
152804,-66.6666666666667,4,1,1,55,0,0
152977,-35.7142857142857,4,1,1,55,0,0
153149,-35.7142857142857,4,1,1,30,0,0
153235,-35.7142857142857,4,1,1,30,0,0
153321,-45.4545454545455,4,1,1,55,0,0
153494,-37.037037037037,4,1,1,55,0,0
153752,-37.037037037037,4,1,1,30,0,0
153839,-45.4545454545455,4,1,1,55,0,0
153925,-45.4545454545455,4,1,1,30,0,0
154011,-100,4,1,1,55,0,0
154054,-100,4,1,1,30,0,0
154097,-100,4,1,1,55,0,0
154140,-100,4,1,1,30,0,0
154183,-66.6666666666667,4,1,1,55,0,0
154356,-66.6666666666667,4,1,1,30,0,0
154442,-66.6666666666667,4,1,1,40,0,0
154528,-55.5555555555556,4,1,1,50,0,0
154787,-55.5555555555556,4,1,1,5,0,0
154873,-55.5555555555556,4,1,1,50,0,0
155132,-55.5555555555556,4,1,1,5,0,0
155218,-40,4,1,1,50,0,0
155563,-66.6666666666667,4,1,1,50,0,0
155649,-66.6666666666667,4,1,1,5,0,0
155735,-55.5555555555556,4,1,1,50,0,0
155994,-55.5555555555556,4,1,1,30,0,0
156252,-66.6666666666667,4,1,1,50,0,0
156425,-66.6666666666667,4,1,1,5,0,0
156511,-66.6666666666667,4,1,1,30,0,0
156597,-500,4,1,1,50,0,0
157201,-500,4,1,1,5,0,0
157287,-100,4,1,1,40,0,0
157330,-100,4,1,1,20,0,0
157459,-100,4,1,1,40,0,0
157632,-41.6666666666667,4,1,1,50,0,0
157892,-41.6666666666667,4,1,1,5,0,0
157977,-66.6666666666667,4,1,1,50,0,0
158149,-66.6666666666667,4,1,1,40,0,0
158321,-66.6666666666667,4,1,1,50,0,0
158408,-66.6666666666667,4,1,1,5,0,0
158494,-35.7142857142857,4,1,1,50,0,0
158666,-35.7142857142857,4,1,1,40,0,0
159011,-500,4,1,1,50,0,0
159270,-500,4,1,1,5,0,0
159356,-45.4545454545455,4,1,1,50,0,0
159614,-45.4545454545455,4,1,1,5,0,0
159701,-35.7142857142857,4,1,1,50,0,0
159959,-35.7142857142857,4,1,1,5,0,0
160046,-100,4,1,1,20,0,0
160218,-55.5555555555556,4,1,1,50,0,0
160304,-55.5555555555556,4,1,1,5,0,0
160390,-43.4782608695652,4,1,1,50,0,0
160649,-43.4782608695652,4,1,1,5,0,0
160735,-66.6666666666667,4,1,1,50,0,0
160908,-66.6666666666667,4,1,1,40,0,0
161080,-55.5555555555556,4,1,1,50,0,0
161166,-55.5555555555556,4,1,1,5,0,0
161252,-43.4782608695652,4,1,1,50,0,0
161511,-43.4782608695652,4,1,1,5,0,0
161597,-100,4,1,1,20,0,0
161770,-45.4545454545455,4,1,1,50,0,0
162028,-45.4545454545455,4,1,1,5,0,0
162114,-500,4,1,1,50,0,0
162718,-500,4,1,1,5,0,0
162804,-100,4,1,1,30,0,0
163149,-45.4545454545455,4,1,1,50,0,0
163408,-45.4545454545455,4,1,1,5,0,0
163494,-66.6666666666667,4,1,1,50,0,0
163666,-66.6666666666667,4,1,1,40,0,0
163839,-55.5555555555556,4,1,1,50,0,0
163925,-55.5555555555556,4,1,1,5,0,0
164011,-41.6666666666667,4,1,1,50,0,0
164183,-41.6666666666667,4,1,1,40,0,0
164442,-500,4,1,1,50,0,0
164787,-500,4,1,1,5,0,0
164873,-37.037037037037,4,1,1,50,0,0
165132,-37.037037037037,4,1,1,5,0,0
165218,-45.4545454545455,4,1,1,50,0,0
165477,-45.4545454545455,4,1,1,5,0,0
165563,-55.5555555555556,4,1,1,50,0,0
165821,-55.5555555555556,4,1,1,5,0,0
165908,-55.5555555555556,4,1,1,50,0,0
166166,-55.5555555555556,4,1,1,5,0,0
166252,-40,4,1,1,50,0,0
166425,-40,4,1,1,40,0,0
166597,-55.5555555555556,4,1,1,50,0,0
166683,-55.5555555555556,4,1,1,5,0,0
166770,-41.6666666666667,4,1,1,50,0,0
167028,-41.6666666666667,4,1,1,5,0,0
167114,-55.5555555555556,4,1,1,30,0,0
167287,-66.6666666666667,4,1,1,50,0,0
167459,-66.6666666666667,4,1,1,5,0,0
167546,-66.6666666666667,4,1,1,40,0,0
167632,-500,4,1,1,50,0,0
168321,-100,4,1,1,30,0,0
168364,-100,4,1,1,5,0,0
168494,-100,4,1,1,30,0,0
168666,-45.4545454545455,4,1,1,50,0,0
168925,-45.4545454545455,4,1,1,5,0,0
169011,-50,4,1,1,50,0,0
169183,-50,4,1,1,40,0,0
169356,-58.8235294117647,4,1,1,50,0,0
169442,-58.8235294117647,4,1,1,5,0,0
169528,-41.6666666666667,4,1,1,50,0,0
169701,-41.6666666666667,4,1,1,40,0,0
169959,-1000,4,1,1,50,0,0
170304,-1000,4,1,1,5,0,0
170390,-45.4545454545455,4,1,1,50,0,0
170649,-45.4545454545455,4,1,1,5,0,0
170735,-37.037037037037,4,1,1,50,0,0
170994,-37.037037037037,4,1,1,5,0,0
171080,-100,4,1,1,20,0,0
171252,-66.6666666666667,4,1,1,50,0,0
171339,-66.6666666666667,4,1,1,5,0,0
171425,-45.4545454545455,4,1,1,50,0,0
171683,-45.4545454545455,4,1,1,5,0,0
171770,-66.6666666666667,4,1,1,50,0,0
171942,-66.6666666666667,4,1,1,40,0,0
172114,-66.6666666666667,4,1,1,50,0,0
172201,-66.6666666666667,4,1,1,5,0,0
172287,-45.4545454545455,4,1,1,50,0,0
172546,-45.4545454545455,4,1,1,5,0,0
172632,-100,4,1,1,20,0,0
172804,-55.5555555555556,4,1,1,50,0,0
173063,-55.5555555555556,4,1,1,5,0,0
173149,-500,4,1,1,50,0,0
173752,-500,4,1,1,5,0,0
173839,-100,4,1,1,20,0,0
174183,-45.4545454545455,4,1,1,50,0,0
174442,-45.4545454545455,4,1,1,5,0,0
174528,-66.6666666666667,4,1,1,50,0,0
174701,-66.6666666666667,4,1,1,40,0,0
174873,-55.5555555555556,4,1,1,50,0,0
174959,-55.5555555555556,4,1,1,5,0,0
175046,-38.4615384615385,4,1,1,50,0,0
175218,-38.4615384615385,4,1,1,40,0,0
175390,-66.6666666666667,4,1,1,50,0,0
175477,-66.6666666666667,4,1,1,5,0,0
175563,-45.4545454545455,4,1,1,50,0,0
175821,-45.4545454545455,4,1,1,5,0,0
175908,-45.4545454545455,4,1,1,40,0,0
176252,-45.4545454545455,4,1,1,30,0,0
176597,-285.714285714286,4,2,1,20,0,0
176770,-285.714285714286,4,2,1,10,0,0
179356,-250,4,2,1,10,0,0
182114,-222.222222222222,4,2,1,10,0,0
183494,-222.222222222222,4,2,1,12,0,0
184873,-200,4,2,1,12,0,0
186252,-181.818181818182,4,2,1,12,0,0
187632,-166.666666666667,4,2,1,12,0,0
189011,-166.666666666667,4,2,1,14,0,0
190390,-153.846153846154,4,2,1,14,0,0
191080,-142.857142857143,4,2,1,14,0,0
191770,-133.333333333333,4,2,1,14,0,0
192459,-125,4,2,1,14,0,0
193149,-125,4,2,1,12,0,0
194528,-166.666666666667,4,2,1,9,0,0
195908,-250,4,2,1,6,0,0
197287,-500,4,2,1,5,0,0

[Colours]
Combo1 : 169,83,255
Combo2 : 128,128,192
Combo3 : 0,106,213

[HitObjects]
116,355,46,6,0,B|165:366|165:366|211:346,1,101.999996887207,4|0,3:0|0:0,0:0:0:0:
335,288,735,1,8,0:0:0:0:
419,295,1770,6,0,L|323:286,1,85,0|0,3:0|0:0,0:0:0:0:
202,191,2459,1,8,0:0:0:0:
134,196,3149,6,0,L|204:189,1,68,0|0,3:0|0:0,0:0:0:0:
341,113,3839,2,0,L|388:117,1,34,0|8,0:0|0:0,0:0:0:0:
424,119,4528,6,0,L|373:114,1,50.9999984436036,0|0,3:0|0:0,0:0:0:0:
219,27,5218,1,8,0:0:0:0:
219,27,5390,1,8,0:0:0:0:
153,103,5563,6,0,B|130:123|130:123|218:117,1,118.999996368408,0|0,3:0|0:0,0:0:0:0:
359,189,6252,1,8,0:0:0:0:
433,206,7287,6,0,B|459:181|459:181|359:189,1,136,0|0,3:0|0:0,0:0:0:0:
193,281,7977,2,0,L|197:328,3,42.5,2|2|2|2,0:0|0:0|0:0|0:0,0:0:0:0:
109,261,8666,6,0,B|79:288|79:288|192:280,1,152.999995330811,0|0,3:0|0:0,0:0:0:0:
429,256,9356,2,0,L|433:202,1,50.9999984436036,2|2,0:0|0:0,0:0:0:0:
315,241,9701,2,0,L|320:309,1,59.4999981842042,2|2,0:0|0:0,0:0:0:0:
432,384,10046,6,0,B|453:360|428:347|428:347|396:336|363:357|363:357|321:388|272:356,1,203.999993774414,0|0,3:0|0:0,0:0:0:0:
90,269,10735,1,8,0:0:0:0:
143,358,10908,1,8,0:0:0:0:
181,221,11080,6,0,B|175:189|175:189|178:184|178:184|168:125|168:125|162:118|162:118|148:38|94:31|57:49|59:90|59:90|68:123|100:127|126:115|137:98|137:98|141:89|199:47|270:83,1,510,4|0,3:1|0:0,0:0:0:0:
327,148,11683,1,2,0:2:0:0:
368,132,11770,2,0,L|347:250,1,101.999996887207,8|0,0:0|0:0,0:0:0:0:
263,298,12114,6,0,P|256:272|254:247,1,38.2499988327027
312,356,12287,2,0,B|264:388|216:356|216:356|168:324|120:356,1,191.250007295609,0|0,3:0|0:0,0:0:0:0:
62,369,12632,2,0,P|55:343|53:318,1,38.2499988327027
105,237,12804,1,0,3:0:0:0:
105,237,12977,6,0,P|112:263|114:288,1,38.2499988327027,0|0,3:0|0:0,0:0:0:0:
56,179,13149,2,0,B|37:98|37:98|57:25,1,127.500004863739,8|0,0:0|0:0,0:0:0:0:
199,101,13494,6,0,P|246:98|227:51,1,93.5000028533936,0|0,3:0|0:0,0:0:0:0:
175,177,13666,2,0,B|199:190|223:192|223:192|233:187|233:187|257:191|282:183,1,106.25,0|0,3:0|0:0,0:0:0:0:
354,249,13839,2,0,L|360:270,6,21.25
426,175,14183,2,0,L|431:154,4,21.25
370,85,14442,5,2,0:2:0:0:
350,68,14528,2,0,B|319:39|319:39|346:159,1,127.500004863739,8|0,0:0|0:0,0:0:0:0:
388,321,14873,2,0,P|409:318|429:315,1,42.5
355,249,15046,2,0,B|324:272|305:305|317:345|317:345|271:292|218:294|170:288|161:321|167:368|192:376|234:370,1,318.750012159348,0|0,3:0|0:0,0:0:0:0:
316,345,15563,6,0,L|417:335,1,101.999996887207,0|0,3:0|0:0,0:0:0:0:
506,255,15821,1,2,0:2:0:0:
508,219,15908,2,0,B|499:171|499:171|495:168|495:168|485:113|485:113|463:80|419:88|410:126|410:126|419:177,1,255,8|0,0:0|0:0,0:0:0:0:
353,249,16252,2,0,B|302:285|315:345|315:345|294:323|263:308|235:310|235:310|236:306|236:306|235:310|235:310|215:311|186:319|172:329|172:329|174:334|174:334|172:329|172:329|149:342|112:332,1,318.75,8|0,0:0|0:0,0:0:0:0:
67,279,16597,6,0,B|67:215|67:215|71:211|71:211|71:163|71:163|79:127|119:119|143:131|143:131|208:126|217:72|167:55|134:86|143:131|143:131|175:149|240:166|277:107,1,510,4|0,3:1|0:0,0:0:0:0:
418,98,17201,1,2,0:2:0:0:
454,72,17287,2,0,B|342:62,1,101.999996887207,8|0,0:0|0:0,0:0:0:0:
361,194,17632,6,0,P|387:201|412:203,1,38.2499988327027
299,145,17804,2,0,B|267:193|299:241|299:241|331:289|299:337,1,191.250007295609,0|0,3:0|0:0,0:0:0:0:
203,297,18149,2,0,P|229:290|254:288,1,38.2499988327027
391,289,18321,2,0,P|409:291|428:297,2,38.2499988327027,0|0|0,3:0|0:0|3:0,0:0:0:0:
279,358,18580,5,0,0:0:0:0:
301,335,18666,2,0,P|313:268|234:210,1,127.500004863739,8|0,0:0|0:0,0:0:0:0:
102,315,19011,6,0,B|111:321|123:333|123:333|108:283|118:247|172:222,1,93.5000028533936,0|0,3:0|0:0,0:0:0:0:
187,123,19183,2,0,B|192:112|185:92|185:92|164:141|202:192,1,106.25,0|0,3:0|0:0,0:0:0:0:
280,222,19356,2,0,L|312:216,6,21.25
365,162,19701,2,0,L|397:168,4,21.25
470,216,19959,5,2,0:2:0:0:
464,241,20046,2,0,B|445:324|445:324|430:284,1,127.500004863739
325,93,20390,2,0,P|351:86|383:87,1,42.5
286,27,20563,2,0,B|247:45|235:92|251:127|251:127|211:143|171:127|171:127|141:117|107:120|80:167|105:213|129:217,1,318.750012159348,0|0,3:0|0:0,0:0:0:0:
241,224,21080,6,0,P|259:177|252:127,1,101.999996887207,0|0,3:0|0:0,0:0:0:0:
167,254,21339,1,2,0:2:0:0:
184,279,21425,2,0,B|218:305|218:305|262:305|262:305|297:285|297:285|330:262|375:262|424:292,1,255,8|0,0:0|0:0,0:0:0:0:
322,351,21770,2,0,B|314:334|314:334|316:328|316:328|298:285|298:285|333:259|384:267|417:288|417:288|442:230|442:230|446:231|446:231|443:230|443:230|444:202|431:148,1,318.75,8|0,0:0|0:0,0:0:0:0:
406,87,22114,6,0,B|345:48|300:50|300:50|252:73|252:143|297:149|297:149|346:143|345:76|300:50|300:50|242:53|196:72|196:72|180:119|205:174,1,561.000017120362,4|0,3:1|0:0,0:0:0:0:
184,304,22718,1,2,0:2:0:0:
210,328,22804,2,0,B|227:263|227:263|208:205,1,101.999996887207,8|0,0:0|0:0,0:0:0:0:
108,103,23149,6,0,P|110:129|116:154,1,38.2499988327027
146,34,23321,2,0,P|80:25|38:139,1,191.250007295609,0|0,3:0|0:0,0:0:0:0:
57,206,23666,2,0,P|54:232|48:257,1,38.2499988327027
26,328,23839,1,0,3:0:0:0:
26,328,24011,6,0,P|4:325|-20:312,1,38.2499988327027,0|0,3:0|0:0,0:0:0:0:
113,292,24183,2,0,B|157:289|157:289|196:305|196:305|274:298,1,127.500004863739,8|0,0:0|0:0,0:0:0:0:
398,239,24528,6,0,B|420:250|420:250|459:232|501:253,1,93.5000028533936,0|0,3:0|0:0,0:0:0:0:
364,309,24701,2,0,B|338:298|327:275|327:275|322:279|322:279|327:275|327:275|314:247|327:209,1,114.750000437737,0|0,3:0|0:0,0:0:0:0:
411,92,24873,2,0,L|417:52,6,21.25
495,33,25218,2,0,L|501:72,4,21.25
485,141,25477,5,2,0:2:0:0:
456,160,25563,2,0,P|384:170|330:90,1,127.500004863739,8|0,0:0|0:0,0:0:0:0:
178,62,25908,2,0,P|151:64|126:70,1,38.2499988327027
257,120,26080,2,0,B|281:67|256:14|256:14|250:28|247:38|247:38|259:76|234:110|234:110|229:166|253:222,1,318.750012159348,0|0,3:0|0:0,0:0:0:0:
353,330,26597,6,0,B|372:305|372:305|323:280|269:293,1,127.500004863739,0|0,3:0|0:0,0:0:0:0:
172,339,26856,1,2,0:2:0:0:
153,350,26942,2,0,B|125:360|125:360|111:298|111:298|113:292|113:292|105:239|105:239|102:209|125:186|163:192|170:208|170:208|177:229|184:248,1,280.500008560181,8|0,0:0|0:0,0:0:0:0:
353,330,27287,2,0,B|334:355|334:355|383:380|437:381|468:362|488:344|488:344|475:278|475:278|469:269|469:269|457:207|457:207|459:198,1,344.25000131321,8|0,0:0|0:0,0:0:0:0:
346,78,27632,6,0,B|300:111|248:-14|409:-105|569:56|424:243|324:180|263:162|224:108|224:108|172:57|129:74,1,561.000017120362,4|0,3:1|0:0,0:0:0:0:
21,124,28235,1,2,2:0:0:0:
10,147,28321,2,0,P|2:196|17:263,1,101.999996887207,8|0,0:0|0:0,0:0:0:0:
88,358,28666,5,2,2:0:0:0:
174,197,28839,2,0,B|185:128|86:132|95:207|95:207|100:247|133:268|133:268|152:281|211:290|242:238,1,318.750012159348,0|0,3:0|0:0,0:0:0:0:
271,155,29356,2,0,B|282:139|270:108|270:108|243:153|271:196,1,127.500004863739,2|0,3:2|0:0,0:0:0:0:
386,274,29614,1,2,0:0:0:0:
416,257,29701,2,0,P|424:208|409:141,1,101.999996887207,10|0,0:2|0:0,0:0:0:0:
394,38,30046,6,0,B|428:22|463:25|463:25|448:44,1,85,0|0,3:0|0:0,0:0:0:0:
511,182,30218,2,0,B|487:159|487:159|443:173|406:153,1,106.25,0|0,3:0|0:0,0:0:0:0:
326,117,30390,2,0,L|320:85,6,21.25
252,23,30735,2,0,L|246:54,4,21.25
190,107,30994,5,2,0:0:0:0:
170,111,31080,1,8,0:0:0:0:
170,111,31425,6,0,P|148:114|120:112,1,38.2499988327027
65,232,31597,2,0,B|125:188|225:193|264:225|256:294|194:324|129:297,1,318.750012159348,0|0,3:0|0:0,0:0:0:0:
16,154,32114,1,0,3:0:0:0:
170,111,32287,5,0,0:0:0:0:
135,299,32459,1,8,0:0:0:0:
40,0,32632,5,8,0:0:0:0:
28,77,32718,1,8,0:0:0:0:
16,154,32804,1,8,0:0:0:0:
135,299,32977,1,0,3:0:0:0:
373,209,33149,5,4,3:1:0:0:
373,209,33494,6,0,L|468:200,1,85,2|0,0:2|0:0,0:0:0:0:
299,263,34011,2,0,L|244:258,2,42.5,2|0|0,0:2|0:0|0:0,0:0:0:0:
376,196,34528,1,8,0:0:0:0:
280,292,34701,2,0,L|225:287,2,50.9999984436036,2|0|0,0:2|0:0|0:0,0:0:0:0:
379,183,35218,1,2,0:2:0:0:
376,196,35304,1,2,0:2:0:0:
373,209,35390,1,2,0:2:0:0:
261,321,35563,1,8,0:0:0:0:
181,95,35735,6,0,B|245:105|245:105|210:112,1,93.5000028533936,0|0,3:0|0:0,0:0:0:0:
53,190,35908,1,4,3:1:0:0:
53,190,36252,5,0,0:0:0:0:
280,292,36425,2,0,L|230:282,1,34,2|0,0:0|0:0,0:0:0:0:
128,262,36597,2,0,L|177:252,1,42.5,2|0,0:0|0:0,0:0:0:0:
300,218,36770,1,2,0:0:0:0:
78,350,36942,5,8,0:0:0:0:
307,206,37114,2,0,L|257:215,1,42.5,2|0,0:0|0:0,0:0:0:0:
128,262,37287,2,0,L|177:271,1,50.9999984436036,2|0,0:0|0:0,0:0:0:0:
297,310,37459,1,2,0:0:0:0:
38,166,37632,5,8,0:0:0:0:
312,321,37804,2,0,L|261:311,1,50.9999984436036,2|0,0:0|0:0,0:0:0:0:
128,262,37977,2,0,L|201:247,1,63.7500024318696,2|0,0:0|0:0,0:0:0:0:
334,211,38149,1,2,0:0:0:0:
27,372,38321,5,8,0:0:0:0:
128,169,38494,1,2,0:2:0:0:
134,133,38580,1,2,0:2:0:0:
99,62,38666,6,0,B|181:42|181:42|243:71,1,127.500004863739,4|0,3:1|0:0,0:0:0:0:
384,129,39011,2,0,B|416:139|416:139|397:104|404:62|404:62|344:26|285:90|307:152|307:152|333:212,1,267.749991828919,8|0,0:0|0:0,0:0:0:0:
309,168,39356,1,2,0:0:0:0:
316,202,39442,1,0,0:0:0:0:
323,236,39528,1,2,0:0:0:0:
248,346,39701,1,8,0:0:0:0:
369,291,39873,5,2,0:0:0:0:
360,247,39959,1,0,0:0:0:0:
351,203,40045,1,2,0:0:0:0:
360,159,40132,1,0,0:0:0:0:
369,115,40218,1,2,0:0:0:0:
512,7,40390,1,8,0:0:0:0:
409,93,40563,5,2,0:0:0:0:
398,150,40649,1,0,0:0:0:0:
386,207,40736,1,2,0:0:0:0:
398,264,40822,1,0,0:0:0:0:
409,321,40908,1,2,0:0:0:0:
213,362,41080,1,8,0:0:0:0:
83,211,41252,6,0,B|62:225|62:225|88:234|88:234|149:206,1,110.499994941712
231,144,41425,1,4,3:1:0:0:
204,42,41597,1,0,0:0:0:0:
354,148,41770,1,4,3:0:0:0:
325,255,41942,1,0,0:0:0:0:
434,333,42114,2,0,B|442:344|452:331|452:331|414:302|378:329|378:329|339:358|276:332,1,187.000005706787,12|0,3:0|0:0,0:0:0:0:
110,291,42459,1,4,3:0:0:0:
232,258,42631,1,0,0:0:0:0:
30,187,42804,6,0,B|22:210|22:210|38:242|38:242|65:169|73:128|33:46,1,212.5,12|0,3:0|0:0,0:0:0:0:
284,27,43149,1,4,3:0:0:0:
166,130,43321,1,0,0:0:0:0:
454,97,43494,2,0,B|455:53|367:17|330:108|377:145|402:154|402:154|439:168|452:216|417:269,1,280.500008560181,12|0,1:0|0:0,0:0:0:0:
375,309,43839,2,0,P|325:306|283:281,1,99.1666676123937
322,353,43954,2,0,P|294:320|282:280,1,85.0000032424928
263,347,44068,2,0,P|266:311|281:280,1,70.8333333333333
167,310,44183,6,0,B|180:283|156:248|156:248|116:262|54:236|49:177|61:147|67:135|67:135|79:112|78:77|30:56,1,331.499984825135,4|0,3:1|0:0,0:0:0:0:
245,118,44787,1,0,0:0:0:0:
284,179,44873,2,0,B|244:205|204:179|204:179|164:152|124:179,1,152.999995330811,8|0,0:0|0:0,0:0:0:0:
368,86,45218,6,0,B|375:120|375:120|370:128|370:128|378:163,1,63.7500024318696,0|0,3:0|0:0,0:0:0:0:
364,237,45390,2,0,B|351:167|351:167|346:145|308:127|267:159|288:212,1,165.749992412568,0|0,3:0|0:0,0:0:0:0:
330,347,45735,2,0,P|362:354|383:351,1,42.5,0|0,3:0|0:0,0:0:0:0:
454,305,45908,1,0,3:0:0:0:
253,255,46080,1,0,0:0:0:0:
497,120,46252,6,0,B|510:135|494:153|458:152|457:119|470:81|483:68|483:68|504:44|505:21|490:-27|445:-16|426:-6|409:14|408:44|408:44|406:70|368:92|321:86,1,318.75,8|0,3:0|0:0,0:0:0:0:
282,92,46597,2,0,P|279:122|287:152,1,56.6666666666667
248,151,46712,2,0,P|252:177|266:201,1,49.5833338061969
237,204,46827,2,0,P|246:223|261:238,1,42.5000016212464
304,305,46942,2,0,L|325:299,2,15.9375006079674
339,306,47114,1,0,0:0:0:0:
67,320,47287,6,0,B|81:333|37:368|3:341|-1:313|-1:313|-2:277|18:239|100:217|133:271|139:321,1,255,0|0,3:0|0:0,0:0:0:0:
183,318,47632,2,0,B|223:332|223:332|303:305,1,127.500004863739,8|0,0:0|0:0,0:0:0:0:
388,177,47977,2,0,B|380:143|380:143|372:137|372:137|365:102,1,63.7500024318696,0|0,3:0|0:0,0:0:0:0:
375,13,48149,2,0,B|383:54|383:54|390:59|390:59|399:107|399:107|478:76|478:76|497:87|497:87|463:101,1,237.999992736817,0|0,3:0|0:0,0:0:0:0:
344,331,48494,5,0,2:0:0:0:
329,346,48580,2,0,L|324:320,1,25.5
280,223,48925,1,0,2:0:0:0:
287,204,49011,2,0,B|274:172|297:139|297:139|323:192|304:238|304:238|247:252|235:323,1,255,4|0,0:0|0:0,0:0:0:0:
106,320,49356,2,0,B|126:362|150:322|150:322|154:320|154:320|151:322|151:322|164:286|134:243|90:244|40:285|40:285|24:229|53:178|112:153,1,356.999989105225,0|0,3:0|0:0,0:0:0:0:
103,84,49701,6,0,L|121:75,1,21.25
108,75,49787,2,0,L|126:66,1,21.25
113,66,49873,2,0,P|139:60|164:61,1,42.5
300,91,50046,2,0,B|327:82|334:68|340:38|309:8|270:18|254:32|254:32|235:47|222:68|207:104|225:146|250:175,1,293.2500055933,0|0,3:0|0:0,0:0:0:0:
321,240,50390,2,0,B|406:255|406:255|456:237,1,127.500004863739,8|0,0:0|0:0,0:0:0:0:
489,70,50735,6,0,B|455:62|455:62|449:54|449:54|414:47,1,63.7500024318696,0|0,3:0|0:0,0:0:0:0:
254,56,50908,2,0,P|318:42|277:145,1,216.750004134178,0|0,3:2|0:0,0:0:0:0:
178,152,51252,2,0,L|148:196,1,36.1250006890297,0|0,3:0|0:0,0:0:0:0:
167,152,51339,2,0,L|137:196,1,36.1250006890297,0|0,3:0|0:0,0:0:0:0:
159,154,51425,2,0,B|122:172|119:228|138:266|138:266|163:315|132:363,1,216.750004134178,0|0,3:0|0:0,0:0:0:0:
250,345,51770,6,0,B|239:346|233:329|249:314|277:321|295:338|295:338|333:369|402:360|433:339|443:313|446:281|421:258|390:245,1,318.75,8|0,0:0|0:0,0:0:0:0:
436,139,52114,2,0,P|369:124|329:140,1,99.1666676123937
403,79,52229,2,0,P|365:98|341:132,1,85.0000032424928
356,64,52344,2,0,P|342:96|341:132,1,70.8333333333333
241,108,52459,1,0,0:0:0:0:
208,128,52546,2,0,P|177:131|133:119,2,42.5
106,268,52804,6,0,B|75:255|58:227|72:198|98:183|123:196|123:196|148:210|187:209|209:205|209:205|199:240|219:274,1,280.500008560181,0|0,3:0|0:0,0:0:0:0:
287,359,53149,2,0,B|301:273|301:273|284:222,1,127.500004863739,8|0,0:0|0:0,0:0:0:0:
367,45,53494,2,0,B|375:79|375:79|383:85|383:85|390:120,1,63.7500024318696,0|0,3:0|0:0,0:0:0:0:
409,223,53666,2,0,B|413:194|413:194|389:202|389:202|380:254|380:254|382:258|382:258|374:310|374:310|392:338,1,187.000005706787,0|0,3:0|0:0,0:0:0:0:
282,326,54011,6,0,P|252:334|225:330,1,50.9999984436036,0|0,3:0|0:0,0:0:0:0:
93,322,54183,2,0,B|125:304|125:304|220:322|220:322|250:268|203:184,1,229.499992996216,0|0,3:0|0:0,0:0:0:0:
127,60,54528,2,0,B|117:87|117:87|191:70|191:70|199:75|199:75|256:57|256:57|297:47|336:95|304:140,1,280.500008560181,12|0,3:0|0:0,0:0:0:0:
428,208,54873,2,0,P|362:211|456:90,1,344.25000131321,0|0,3:0|0:0,0:0:0:0:
506,230,55218,6,0,B|499:269|499:269|491:285|491:285|486:317|486:317|482:340|452:364|413:377|363:367|328:315|331:277|331:277|365:295|421:290,1,382.500014591218,4|0,3:1|0:0,0:0:0:0:
412,184,55821,1,0,0:0:0:0:
395,205,55908,2,0,B|380:239|357:191|318:184|271:210|258:260,1,152.999995330811,8|0,0:0|0:0,0:0:0:0:
66,216,56252,6,0,B|56:169|56:169|77:188,1,63.7500024318696,0|0,3:0|0:0,0:0:0:0:
180,239,56425,2,0,B|151:248|131:247|131:247|113:284|77:288|77:288|112:301,1,152.999995330811,0|0,3:0|0:0,0:0:0:0:
253,281,56770,2,0,P|261:262|264:241,1,42.5,0|0,3:0|0:0,0:0:0:0:
204,156,56942,1,0,3:0:0:0:
153,354,57114,1,0,0:0:0:0:
437,282,57287,6,0,B|460:305|460:305|402:315|402:315|395:323|395:323|350:331|350:331|351:277|351:277|353:236|391:174,1,280.500008560181,8|0,0:0|0:0,0:0:0:0:
419,85,57632,2,0,P|379:81|314:130,1,99.1666676123937
356,31,57747,2,0,P|331:65|327:107,1,85.0000032424928
287,49,57862,2,0,P|301:82|327:106,1,70.8333333333333
229,133,57977,2,0,L|205:138,2,21.25
175,132,58149,1,0,0:0:0:0:
12,233,58321,6,0,B|40:260|82:221|82:221|138:181|202:241|167:306|167:306|142:356|191:399,1,318.75,0|0,3:0|0:0,0:0:0:0:
255,344,58666,2,0,B|297:353|297:353|380:332,1,127.500004863739,8|0,0:0|0:0,0:0:0:0:
405,106,59011,2,0,B|415:59|415:59|394:78,1,63.7500024318696,0|0,3:0|0:0,0:0:0:0:
309,157,59183,2,0,B|326:176|331:192|331:192|332:147|332:147|323:134|321:111|324:97|324:97|237:139,1,187.000005706787,0|0,3:0|0:0,0:0:0:0:
101,180,59528,5,0,2:0:0:0:
92,192,59614,2,0,P|95:211|94:224,1,25.5
82,325,59959,1,0,0:0:0:0:
66,331,60046,2,0,B|39:336|8:318|8:318|36:298|62:289|62:289|104:303|145:279|145:279|189:277|218:296,1,280.500008560181,8|0,0:0|0:0,0:0:0:0:
429,312,60390,2,0,B|409:342|372:347|348:349|324:333|301:315|297:270|308:247|308:247|316:197|316:197|321:191|321:191|331:135|331:135|341:104|403:90,1,344.25000131321,0|0,3:0|0:0,0:0:0:0:
443,72,60735,6,0,L|464:75,1,21.25
449,67,60821,2,0,L|470:70,1,21.25
455,62,60908,2,0,P|478:66|499:73,1,42.5
464,197,61080,2,0,B|482:231|527:217|533:184|509:150|465:133|421:148|398:166|398:166|391:213|391:213|384:226|384:226|380:248,1,280.500008560181,0|0,3:0|0:0,0:0:0:0:
327,326,61425,2,0,B|346:240|346:240|327:197,1,127.500004863739,8|0,0:0|0:0,0:0:0:0:
189,98,61770,6,0,B|179:51|179:51|190:61,1,63.7500024318696,0|0,3:0|0:0,0:0:0:0:
243,200,61942,2,0,P|172:203|248:118,1,255,0|0,3:0|0:0,0:0:0:0:
342,124,62287,2,0,L|375:119,1,21.25
346,119,62373,2,0,L|379:114,1,21.25
350,114,62459,2,0,B|390:107|437:122|437:122|478:122|486:83|456:66|425:91|438:123|438:123|455:161|452:189|433:216,1,293.2500055933,0|0,3:0|0:0,0:0:0:0:
390,324,62804,6,0,B|410:315|402:297|402:297|386:276|334:299|300:319|300:319|272:333|238:337|205:322|186:299|179:271|188:228|220:212,1,344.25000131321,8|0,0:0|0:0,0:0:0:0:
117,173,63149,2,0,P|128:133|169:94,1,70.8333333333333
126,99,63264,2,0,P|156:71|211:56,1,56.6666666666667
156,48,63379,2,0,P|186:40|228:52,1,42.5000016212464
316,75,63494,1,0,0:0:0:0:
342,84,63580,2,0,P|368:88|385:84,2,42.5
372,181,63839,6,0,B|399:161|399:161|350:169|302:151|302:151|291:154|291:154|225:127|225:127|208:121|183:145|185:181,1,267.749991828919,0|0,3:0|0:0,0:0:0:0:
237,308,64183,2,0,B|205:326|205:326|116:307,1,127.500004863739,8|0,0:0|0:0,0:0:0:0:
82,134,64528,2,0,B|88:86|88:86|101:111,1,63.7500024318696,0|0,3:0|0:0,0:0:0:0:
125,205,64701,2,0,B|72:228|34:202|34:202|31:207|31:207|34:202|34:202|-7:172|3:106,1,187.000005706787,0|0,3:0|0:0,0:0:0:0:
252,80,65046,6,0,P|267:120|268:148,1,63.7500024318696,0|0,3:0|0:0,0:0:0:0:
274,211,65218,2,0,B|261:177|270:144|270:144|329:130|370:160|365:230|347:251,1,229.499992996216,0|0,3:0|0:0,0:0:0:0:
237,366,65563,2,0,B|211:300|211:300|212:289|212:289|188:224|188:224|175:197|187:155|187:155|200:84|127:46,1,331.499984825135,12|0,3:0|0:0,0:0:0:0:
37,57,65908,2,0,B|2:100|4:144|18:177|61:210|136:197|136:143|119:104|78:114,1,267.749991828919,0|0,3:0|0:0,0:0:0:0:
87,112,66252,6,0,B|102:174|102:174|100:182|100:182|114:233|114:233|125:269|161:281|188:281,1,191.250007295609,0|0,3:0|0:0,0:0:0:0:
235,192,66597,2,0,B|213:153|173:150|173:150|180:175|180:175|176:182|176:182|188:228,1,127.500004863739,0|0,3:0|0:0,0:0:0:0:
250,286,66856,1,0,0:0:0:0:
275,304,66942,2,0,B|302:311|302:311|330:296|330:296|351:316|351:316|392:285|436:309,1,127.500004863739,8|0,0:0|0:0,0:0:0:0:
366,112,67287,6,0,P|357:84|369:45,1,63.7500024318696,0|0,3:0|0:0,0:0:0:0:
475,164,67459,2,0,B|430:152|430:152|404:189|363:187|363:187|392:216|452:202,1,178.499994552612,0|0,3:0|0:0,0:0:0:0:
251,331,67804,1,0,0:0:0:0:
273,306,67890,1,0,0:0:0:0:
283,275,67977,2,0,B|287:242|274:212|274:212|237:223|237:223|198:211,1,127.500004863739,0|0,2:0|0:0,0:0:0:0:
104,141,68235,5,0,0:0:0:0:
90,121,68321,2,0,P|88:107|90:92,1,29.75,8|0,3:1|0:0,0:0:0:0:
156,50,69011,6,0,L|157:27,2,21.25
135,0,69183,1,0,0:0:0:0:
273,158,69356,6,0,B|296:175|331:175|354:169|354:169|375:181|402:167|412:145|399:103|364:112|340:127|335:147|353:169|353:169|374:201|379:245|354:280,1,344.25000131321,0|0,3:0|0:0,0:0:0:0:
312,336,69701,2,0,B|272:352|272:352|183:337,1,127.500004863739,8|0,0:0|0:0,0:0:0:0:
60,192,70046,2,0,B|99:188|99:188|104:192|104:192|144:188,1,63.7500024318696,0|0,3:0|0:0,0:0:0:0:
209,242,70218,2,0,B|146:248|146:248|172:197|172:197|172:190|172:190|211:115,1,187.000005706787,0|0,3:0|0:0,0:0:0:0:
374,228,70563,5,0,0:0:0:0:
383,251,70649,2,0,L|384:282,1,25.5
322,334,70994,1,0,0:0:0:0:
301,348,71080,2,0,B|268:357|199:342|161:267|196:201|250:158|307:223,1,280.500008560181,8|0,0:0|0:0,0:0:0:0:
383,251,71425,2,0,B|384:277|384:277|402:288|402:288|407:243|407:243|389:170|389:170|420:103|420:103|401:45|401:45|340:34,1,356.999989105225,0|0,3:0|0:0,0:0:0:0:
272,92,71770,6,0,L|248:96,1,21.25
268,99,71856,2,0,L|244:103,1,21.25
262,105,71942,2,0,P|237:112|200:102,1,42.5
59,97,72114,2,0,B|42:64|86:30|144:38|161:112|106:158|106:158|85:178|73:223|100:253,1,280.500008560181,0|0,3:0|0:0,0:0:0:0:
167,334,72459,2,0,B|183:294|183:294|150:175,1,127.500004863739,8|0,0:0|0:0,0:0:0:0:
281,84,72804,6,0,P|309:75|348:87,1,63.7500024318696,0|0,3:0|0:0,0:0:0:0:
406,175,72977,2,0,P|339:149|447:133,1,280.500008560181,0|0,3:0|0:0,0:0:0:0:
483,214,73321,2,0,L|477:242,1,21.25
476,219,73408,2,0,L|470:247,1,21.25
467,228,73494,2,0,B|445:278|474:338|474:338|437:331|437:331|429:335|429:335|396:328|396:328|385:330|385:330|359:328|325:312|320:270,1,242.249993531227,0|0,3:0|0:0,0:0:0:0:
248,263,73839,6,0,P|234:261|219:263,1,29.75,12|0,3:1|0:0,0:0:0:0:
131,249,74528,5,0,0:0:0:0:
116,254,74614,2,0,P|91:252|65:244,2,42.5
212,175,74873,2,0,B|252:148|263:81|231:8|135:19|113:79|124:132|172:117,1,280.500008560181,0|0,3:0|0:0,0:0:0:0:
295,202,75218,2,0,B|332:219|332:219|418:202,1,127.500004863739,8|0,0:0|0:0,0:0:0:0:
266,326,75563,2,0,P|238:335|199:323,1,63.7500024318696,0|0,3:0|0:0,0:0:0:0:
103,244,75735,2,0,B|100:213|132:197|132:197|126:271|126:271|129:277|129:277|123:345,1,187.000005706787,0|0,3:0|0:0,0:0:0:0:
92,77,76080,6,0,P|136:64|161:65,1,63.7500024318696,0|0,3:0|0:0,0:0:0:0:
231,113,76252,2,0,B|274:93|305:64|308:16|256:-10|216:32|236:76|274:93|311:98,1,229.499992996216,0|0,3:0|0:0,0:0:0:0:
467,193,76597,2,0,B|389:181|389:181|379:185|379:185|310:173|310:173|277:171|237:190|230:236|273:267,1,280.500008560181,12|0,3:0|0:0,0:0:0:0:
380,362,76942,2,0,B|404:378|457:364|472:315|424:269|360:268|318:314|318:314|268:360|199:324,1,344.25000131321,0|0,3:0|0:0,0:0:0:0:
108,257,77287,6,0,B|97:214|97:214|99:204|99:204|91:165|91:165|89:136|110:106|144:95|173:110,1,191.250007295609,0|0,3:0|0:0,0:0:0:0:
262,175,77632,2,0,B|273:196|273:196|299:181|292:126|248:111,1,127.500004863739,0|0,3:0|0:0,0:0:0:0:
192,224,77890,1,0,0:0:0:0:
197,250,77977,2,0,B|203:278|203:278|210:283|210:283|217:307|217:307|224:326|252:341|283:328,1,127.500004863739,8|0,0:0|0:0,0:0:0:0:
390,186,78321,6,0,B|387:152|387:152|398:110,1,63.7500024318696,0|0,3:0|0:0,0:0:0:0:
487,221,78494,2,0,B|469:243|466:270|466:270|437:248|437:248|396:272|360:265|336:237,1,187.000005706787,0|0,3:0|0:0,0:0:0:0:
197,49,78839,1,0,0:0:0:0:
200,78,78925,1,0,0:0:0:0:
199,105,79011,2,0,P|179:137|96:140,1,127.500004863739
65,270,79270,5,0,0:0:0:0:
89,256,79356,2,0,P|105:252|118:253,1,29.75,12|0,3:1|0:0,0:0:0:0:
201,287,80046,6,0,L|205:312,2,21.25
230,328,80218,1,0,0:0:0:0:
368,285,80390,2,0,B|408:301|408:301|396:224|396:224|400:215|400:215|391:158|391:158|382:123|347:98|304:115,1,280.500008560181,0|0,3:0|0:0,0:0:0:0:
268,192,80735,2,0,B|228:210|228:210|140:188,1,127.500004863739,8|0,0:0|0:0,0:0:0:0:
117,55,81080,2,0,B|153:55|156:14,1,63.7500024318696,0|0,3:0|0:0,0:0:0:0:
38,47,81252,2,0,B|32:83|51:106|51:106|44:108|44:108|51:106|51:106|67:126|95:135|95:135|69:159|69:195,1,187.000005706787,0|0,3:0|0:0,0:0:0:0:
171,334,81597,5,0,0:0:0:0:
175,314,81683,2,0,L|182:284,1,25.5
284,261,82028,1,0,0:0:0:0:
294,242,82114,2,0,B|312:204|378:230|360:284|360:284|333:360|442:407|455:322|455:322,1,280.500008560181,8|0,0:0|0:0,0:0:0:0:
469,241,82459,2,0,B|471:194|471:194|474:188|474:188|475:144|475:144|478:80|421:34|376:58|376:58|325:82|282:49,1,344.25000131321,0|0,3:0|0:0,0:0:0:0:
214,96,82804,6,0,L|175:101,1,21.25
211,104,82890,2,0,L|172:109,1,21.25
208,112,82977,2,0,P|177:119|152:110,1,42.5
52,95,83149,2,0,B|23:87|33:47|112:43|103:108|60:120|62:144|14:172|-6:205|43:314|126:291,1,280.500008560181,0|0,3:0|0:0,0:0:0:0:
239,210,83494,2,0,B|203:187|203:187|107:210,1,127.500004863739,8|0,0:0|0:0,0:0:0:0:
383,328,83839,6,0,P|371:298|346:280,1,63.7500024318696,0|0,3:0|0:0,0:0:0:0:
239,325,84011,2,0,P|287:327|232:213,1,255,0|0,3:0|0:0,0:0:0:0:
151,246,84356,2,0,L|149:274,1,21.25
141,250,84442,2,0,L|139:278,1,21.25
131,254,84528,2,0,B|126:287|126:287|122:293|122:293|119:315|119:315|111:340|68:342|49:309|49:309|56:254,1,191.250007295609,0|0,3:0|0:0,0:0:0:0:
21,181,84873,6,0,P|20:167|25:150,1,29.75,12|0,3:1|0:0,0:0:0:0:
93,88,85563,5,0,0:0:0:0:
105,69,85649,2,0,P|107:38|99:16,2,42.5
187,133,85908,2,0,B|234:158|273:133|273:133|314:132|312:94|265:85|273:133|273:133|266:167|287:205,1,255,0|0,3:0|0:0,0:0:0:0:
334,282,86252,2,0,B|373:306|373:306|454:284,1,127.500004863739,8|0,0:0|0:0,0:0:0:0:
169,309,86597,2,0,P|126:299|122:267,1,63.7500024318696,0|0,3:0|0:0,0:0:0:0:
217,250,86770,2,0,B|251:271|248:317|248:317|250:315|250:315|248:317|248:317|244:354|203:379,1,152.999995330811,0|0,3:0|0:0,0:0:0:0:
24,181,87114,6,0,B|29:141|29:141|31:136|31:136|35:87,1,76.4999976654053,0|0,3:0|0:0,0:0:0:0:
87,9,87287,2,0,B|71:89|71:89|146:53|212:111|196:193|140:224,1,280.500008560181,0|0,3:0|0:0,0:0:0:0:
88,293,87632,2,0,L|96:234,2,50.9999984436036,8|0|4,0:0|0:0|3:1,0:0:0:0:
88,293,88666,1,0,0:0:0:0:
111,156,89011,1,0,0:0:0:0:
185,91,91080,6,0,B|246:51|306:91|306:91|366:132|426:91,2,255
424,93,93839,1,0,0:0:0:0:
52,298,96597,6,0,B|109:337|169:296|169:296|229:256|290:296,2,255
291,297,99356,6,0,P|334:306|375:299,1,76.4999976654053,4|0,3:1|0:0,0:0:0:0:
419,249,99959,1,2,0:0:0:0:
406,214,100046,1,8,0:0:0:0:
406,214,100390,5,0,0:0:0:0:
265,85,100563,2,0,P|264:115|276:141,1,50.9999984436036,0|0,3:0|0:0,0:0:0:0:
325,186,100994,1,2,0:0:0:0:
316,221,101080,1,0,0:0:0:0:
316,221,101339,5,2,0:0:0:0:
328,293,101426,1,8,0:0:0:0:
229,339,101770,6,0,L|218:337,2,6.37499980545045
168,275,101942,2,0,L|157:277,2,6.37499980545045
97,324,102114,2,0,L|91:323,6,6.37499980545045
58,292,102459,1,0,0:0:0:0:
58,292,102718,5,2,0:0:0:0:
69,220,102804,1,8,0:0:0:0:
52,82,103149,6,0,L|70:78,1,12.7499996109009
159,95,103321,2,0,P|144:120|158:161,1,63.7499980545045,0|0,3:0|0:0,0:0:0:0:
235,255,103839,2,0,P|242:233|241:223,1,25.4999992218018,0|0,3:0|0:0,0:0:0:0:
188,150,104097,1,2,0:0:0:0:
150,152,104183,2,0,P|146:113|181:85,1,76.4999976654053,8|0,0:0|0:0,0:0:0:0:
252,72,104528,2,0,B|299:76|299:76|303:80|303:80|363:85,1,102,0|0,3:0|0:0,0:0:0:0:
312,160,104873,6,0,P|291:195|325:287,1,127.5,4|0,3:1|0:0,0:0:0:0:
369,344,105477,1,2,0:0:0:0:
324,353,105563,1,8,0:0:0:0:
324,353,105908,5,0,0:0:0:0:
390,167,106080,2,0,P|382:122|342:90,1,85,0|0,3:0|0:0,0:0:0:0:
272,70,106511,1,2,0:0:0:0:
282,117,106597,1,0,0:0:0:0:
282,117,106856,5,2,0:0:0:0:
264,195,106942,1,8,0:0:0:0:
386,354,107287,2,0,L|406:351,2,12.7499996109009
461,298,107459,2,0,L|441:295,2,14.874999546051
351,257,107632,2,0,L|371:254,6,17
401,221,107977,1,0,0:0:0:0:
401,221,108235,5,2,0:0:0:0:
415,144,108321,1,8,0:0:0:0:
281,72,108666,6,0,P|249:65|236:65,1,34
122,112,108839,2,0,P|175:111|215:213,1,170,0|0,3:0|0:0,0:0:0:0:
125,366,109356,2,0,P|106:326|123:278,1,76.4999976654053,0|0,3:0|0:0,0:0:0:0:
187,234,109614,1,2,0:0:0:0:
218,205,109701,2,0,P|213:143|147:107,1,140.25000428009,8|0,0:0|0:0,0:0:0:0:
111,295,110046,2,0,B|162:315|162:315|278:297,1,152.999995330811,0|0,3:0|0:0,0:0:0:0:
410,269,110390,6,0,B|428:275|420:312|375:318|344:263|377:196|392:221|472:237|480:128|399:58|329:97,1,331.499984825135,4|0,3:1|0:0,0:0:0:0:
256,136,110994,1,2,0:0:0:0:
267,184,111080,1,8,0:0:0:0:
267,184,111425,5,0,0:0:0:0:
173,354,111597,2,0,P|227:295|130:232,1,220.999989883423,0|0,3:0|0:0,0:0:0:0:
37,213,112028,1,2,0:0:0:0:
48,261,112114,1,0,0:0:0:0:
48,261,112373,5,2,0:0:0:0:
34,342,112459,1,8,0:0:0:0:
229,297,112804,6,0,L|261:302,2,25.4999992218018
321,236,112977,2,0,L|353:231,2,25.4999992218018
400,333,113149,2,0,L|432:338,6,25.4999992218018
455,316,113494,1,0,0:0:0:0:
455,316,113752,5,2,0:0:0:0:
470,241,113838,1,8,0:0:0:0:
318,102,114183,6,0,P|307:76|310:46,1,55.2499974708558
393,146,114356,2,0,B|373:187|316:206|261:182|241:141|241:141|185:141|153:189,1,276.249987354279,0|0,3:0|0:0,0:0:0:0:
179,384,114873,2,0,P|215:347|216:283,1,110.499994941712,0|0,3:0|0:0,0:0:0:0:
140,210,115132,1,2,0:0:0:0:
161,178,115218,2,0,B|194:141|241:141|241:141|262:181|314:189,1,152.999995330811,8|0,0:0|0:0,0:0:0:0:
441,151,115563,2,0,B|426:120|392:106|392:106|394:102|394:102|392:106|392:106|371:98|342:104,1,127.5,0|0,3:0|0:0,0:0:0:0:
286,198,115908,6,0,B|291:244|291:244|295:251|295:251|299:278|299:278|296:284|296:284|301:321|323:352|381:348|397:307,1,204,4|0,3:1|0:0,0:0:0:0:
444,276,116511,1,2,0:0:0:0:
452,243,116597,1,8,0:0:0:0:
452,243,116942,5,0,0:0:0:0:
216,174,117114,2,0,P|248:133|330:146,1,118.999996368408,0|0,3:0|0:0,0:0:0:0:
340,213,117546,1,2,0:0:0:0:
327,255,117632,1,0,0:0:0:0:
327,255,117890,5,2,0:0:0:0:
342,333,117976,1,8,0:0:0:0:
472,225,118321,6,0,L|476:200,2,14.874999546051
402,149,118494,2,0,L|398:126,2,12.7499996109009
457,86,118666,2,0,L|459:69,6,10.625
449,51,119011,1,0,0:0:0:0:
449,51,119270,5,2,0:0:0:0:
369,27,119356,1,8,0:0:0:0:
236,145,119701,6,0,P|216:146|185:137,1,29.7499990921021
34,109,119873,2,0,P|99:109|104:222,1,191.249994163513,0|0,3:0|0:0,0:0:0:0:
34,268,120390,5,0,3:0:0:0:
226,216,120563,1,0,0:0:0:0:
168,366,120735,1,8,0:0:0:0:
391,156,120908,5,8,0:0:0:0:
362,230,120994,1,8,0:0:0:0:
333,306,121080,1,8,0:0:0:0:
226,216,121252,1,0,0:0:0:0:
476,296,121425,6,0,L|452:300,3,17
396,340,122114,2,0,L|370:335,3,25.4999992218018
248,292,122804,6,0,L|281:286,1,34
396,244,123149,2,0,L|344:239,1,42.5
185,190,123494,2,0,P|216:182|248:178,1,59.4999981842042
388,127,123839,2,0,P|356:114|323:109,1,68
101,59,124183,6,0,B|127:25|127:25|114:136,1,127.5,0|0,3:0|0:0,0:0:0:0:
110,145,124528,1,8,0:0:0:0:
164,305,124701,1,2,0:0:0:0:
179,285,124787,1,0,0:0:0:0:
189,261,124873,1,2,0:0:0:0:
192,236,124959,1,0,0:0:0:0:
187,211,125045,1,2,0:0:0:0:
88,155,125218,5,8,0:0:0:0:
177,323,125391,1,2,0:0:0:0:
197,298,125476,1,0,0:0:0:0:
210,267,125563,1,2,0:0:0:0:
213,234,125648,1,0,0:0:0:0:
208,202,125735,1,2,0:0:0:0:
66,165,125908,5,8,0:0:0:0:
193,348,126080,1,2,0:0:0:0:
217,318,126166,1,0,0:0:0:0:
232,280,126252,1,2,0:0:0:0:
236,241,126338,1,0,0:0:0:0:
230,202,126424,1,2,0:0:0:0:
44,175,126597,5,8,0:0:0:0:
124,39,126770,1,2,0:0:0:0:
172,22,126856,1,2,0:0:0:0:
221,35,126942,2,0,P|260:57|292:106,1,85,0|0,3:0|0:0,0:0:0:0:
154,301,127287,5,8,0:2:0:0:
333,202,127459,1,2,0:2:0:0:
286,189,127546,1,0,0:2:0:0:
239,176,127632,1,2,0:2:0:0:
193,164,127718,1,0,0:2:0:0:
146,151,127804,1,2,0:2:0:0:
185,309,127977,5,8,0:2:0:0:
351,176,128149,1,2,0:2:0:0:
294,161,128236,1,0,0:2:0:0:
238,146,128322,1,2,0:2:0:0:
182,130,128408,1,0,0:2:0:0:
125,115,128494,1,2,0:2:0:0:
216,317,128666,5,8,0:2:0:0:
377,152,128839,1,2,0:2:0:0:
309,133,128926,1,0,0:2:0:0:
240,115,129012,1,2,0:2:0:0:
174,96,129098,1,0,0:2:0:0:
105,78,129184,1,2,0:2:0:0:
247,325,129356,5,8,0:2:0:0:
44,354,129528,2,0,L|54:258,1,72.2500013780594,2|0,0:2|0:0,0:0:0:0:
76,147,129701,5,0,0:0:0:0:
82,150,129787,1,0,0:0:0:0:
86,155,129873,1,0,0:0:0:0:
85,162,129959,1,0,0:0:0:0:
81,168,130046,1,0,0:0:0:0:
74,169,130132,1,0,0:0:0:0:
66,169,130218,1,0,0:0:0:0:
60,164,130304,1,0,0:0:0:0:
53,151,130390,5,0,0:0:0:0:
52,136,130477,1,0,0:0:0:0:
58,123,130563,1,0,0:0:0:0:
67,112,130649,1,0,0:0:0:0:
86,102,130735,1,0,0:0:0:0:
107,99,130821,1,0,0:0:0:0:
128,102,130908,1,0,0:0:0:0:
147,112,130994,1,0,0:0:0:0:
172,124,131080,5,0,0:0:0:0:
200,130,131166,1,0,0:0:0:0:
228,129,131252,1,0,0:0:0:0:
255,118,131339,1,0,0:0:0:0:
288,104,131425,1,0,0:0:0:0:
323,96,131511,1,0,0:0:0:0:
366,98,131597,1,0,0:0:0:0:
403,120,131683,1,0,0:0:0:0:
426,165,131770,5,0,0:0:0:0:
431,215,131856,1,0,0:0:0:0:
425,272,131942,1,0,0:0:0:0:
390,318,132028,1,0,0:0:0:0:
333,325,132114,1,0,0:0:0:0:
262,313,132201,1,0,0:0:0:0:
202,272,132287,1,0,0:0:0:0:
123,270,132373,1,0,0:0:0:0:
36,314,132459,6,0,B|56:358|56:358|71:253|71:253|68:242|68:242|77:177|77:177|83:129|146:117,1,280.500008560181,4|0,3:1|0:0,0:0:0:0:
235,79,132804,2,0,B|335:66|335:66|393:88,1,152.999995330811,8|0,0:0|0:0,0:0:0:0:
377,267,133063,5,2,0:2:0:0:
335,340,133149,2,0,B|316:359|316:359|291:326|303:284,1,106.25
221,226,133321,2,0,L|230:122,1,76.4999976654053,2|0,0:2|0:0,0:0:0:0:
176,26,133494,2,0,P|91:0|33:21,1,93.5000028533936,8|0,0:0|0:0,0:0:0:0:
61,157,133666,5,0,3:2:0:0:
81,168,133752,2,0,P|143:130|86:94,1,152.999995330811
3,242,134011,1,0,0:0:0:0:
72,274,134097,1,0,0:0:0:0:
148,264,134183,2,0,B|182:252|182:252|269:270,1,106.25,8|0,0:0|0:0,0:0:0:0:
334,351,134356,2,0,B|381:343|381:343|387:345|387:345|464:336,1,106.25
464,213,134528,6,0,P|458:168|403:106,1,106.25,0|0,3:0|0:0,0:0:0:0:
484,37,134701,2,0,P|448:64|421:143,1,106.25,0|0,3:0|0:0,0:0:0:0:
326,110,134873,6,0,P|372:124|421:118,1,99.1666676123937,8|0,0:0|0:0,0:0:0:0:
357,170,134988,2,0,P|394:150|421:117,1,85.0000032424928
411,186,135103,2,0,P|421:152|420:116,1,70.8333333333333
339,16,135218,6,0,L|299:13,1,31.8750012159348,0|0,3:0|0:0,0:0:0:0:
332,21,135304,2,0,L|292:18,1,31.8750012159348
325,26,135390,2,0,B|267:19|267:19|236:31,1,76.4999976654053
120,84,135563,6,0,B|86:89|132:26|161:77|155:124|116:120|74:94|32:202|102:271|152:275,1,280.500008560181,8|0,0:0|0:0,0:0:0:0:
221,338,135908,2,0,P|243:244|186:177,1,152.999995330811,0|0,3:0|0:0,0:0:0:0:
323,168,136166,5,2,0:2:0:0:
316,196,136252,2,0,L|425:180,1,76.4999976654053
460,302,136425,2,0,B|431:346|383:332|383:332|389:266|389:266|387:257|387:257|395:106,1,237.999992736817,2|0,3:2|0:0,0:0:0:0:
411,34,136683,1,0,0:0:0:0:
466,95,136770,2,0,P|429:112|339:75,1,93.5000028533936
247,45,136942,6,0,B|273:10|273:10|261:102|261:102|265:115|265:115|255:176|255:176|246:218|191:225,1,280.500008560181,8|0,0:0|0:0,0:0:0:0:
50,227,137287,2,0,B|53:189|53:189|50:189|50:189|53:189|53:189|56:151,1,80.7499978437424,0|0,3:0|0:0,0:0:0:0:
143,81,137459,2,0,B|146:118|146:118|143:118|143:118|146:118|146:118|149:156,1,80.7499978437424
207,347,137632,2,0,B|148:383|112:307|103:228|225:229|258:241|301:292,1,242.249993531227,8|0,0:0|0:0,0:0:0:0:
338,329,137977,1,0,3:0:0:0:
437,123,138149,6,0,L|408:120,1,21.25
432,119,138235,2,0,L|403:116,1,21.25
427,115,138321,2,0,B|361:103|361:103|355:97|355:97|307:86|275:110|275:110|199:157|140:91,1,293.2500055933,8|0,0:0|0:0,0:0:0:0:
70,41,138666,2,0,B|168:16|168:16|225:50,1,152.999995330811,0|0,3:0|0:0,0:0:0:0:
276,211,138925,5,2,0:2:0:0:
353,255,139011,2,0,P|363:207|344:163,1,76.4999976654053,8|0,0:0|0:0,0:0:0:0:
164,214,139183,2,0,P|139:295|248:256,1,229.499992996216,2|0,0:2|0:0,0:0:0:0:
276,211,139528,6,0,L|275:184,1,21.25
283,204,139614,2,0,L|282:177,1,21.25
290,197,139701,2,0,B|290:148|290:148|294:141|294:141|293:93,1,97.7500018644333,8|0,0:0|0:0,0:0:0:0:
400,23,139873,2,0,B|423:87|423:87|412:125,1,97.7500018644333
353,255,140046,6,0,P|311:286|237:282,1,106.25,0|0,3:0|0:0,0:0:0:0:
190,186,140218,2,0,P|240:171|308:200,1,106.25,0|0,3:0|0:0,0:0:0:0:
256,374,140390,6,0,P|203:370|149:320,1,99.1666676123937,8|0,0:0|0:0,0:0:0:0:
152,367,140505,2,0,P|114:331|105:257,1,85.0000032424928
69,318,140620,2,0,P|63:266|103:204,1,70.8333333333333
111,151,140735,5,0,0:0:0:0:
114,130,140821,1,0,0:0:0:0:
115,111,140908,2,0,P|108:77|93:52,1,42.5
176,20,141080,6,0,B|217:-14|296:-11|318:43|309:87|309:87|303:138|355:167|404:127,1,293.2500055933,8|0,0:0|0:0,0:0:0:0:
445,208,141425,2,0,B|475:263|447:319|447:319|381:281,1,152.999995330811,0|0,3:0|0:0,0:0:0:0:
214,235,141683,5,2,0:2:0:0:
189,263,141770,2,0,P|185:309|211:349,1,76.4999976654053,8|0,0:0|0:0,0:0:0:0:
328,195,141942,2,0,B|358:184|358:184|295:172|295:172|292:168|292:168|201:152|201:152|196:155|196:155|133:144,1,229.500000875473,2|0,3:2|0:0,0:0:0:0:
12,215,142201,5,0,0:0:0:0:
70,284,142287,2,0,P|97:244|74:145,1,93.5000028533936
18,47,142459,2,0,B|-13:52|-26:82|11:111|61:79|61:79|128:39|192:113|158:186,1,280.500008560181,8|0,0:0|0:0,0:0:0:0:
189,263,142804,6,0,B|238:276|238:276|269:265,1,76.4999976654053,0|0,3:0|0:0,0:0:0:0:
328,195,142977,2,0,B|377:182|377:182|408:193,1,76.4999976654053,0|0,3:0|0:0,0:0:0:0:
503,322,143149,2,0,B|497:368|436:366|405:343|397:283|437:257|453:253|502:280|518:177|483:98|406:121,1,293.2500055933,8|0,0:0|0:0,0:0:0:0:
398,66,143494,6,0,B|366:50|335:50|335:50|335:47|335:47|335:50|335:50|304:50|273:66|273:66|277:69|277:69|235:85|211:85|211:85|211:88|211:88|211:85|211:85|188:85|149:66,1,280.500008560181,4|0,3:0|0:0,0:0:0:0:
51,128,143839,2,0,B|38:228|38:228|60:286,1,152.999995330811,8|0,0:0|0:0,0:0:0:0:
185,336,144097,5,2,0:2:0:0:
221,314,144183,2,0,P|248:270|251:233,1,76.4999976654053
147,153,144356,2,0,P|143:201|158:248,1,76.4999976654053,2|0,0:2|0:0,0:0:0:0:
312,336,144528,2,0,B|350:329|350:329|358:331|358:331|437:315,1,76.4999976654053,8|0,0:0|0:0,0:0:0:0:
393,167,144701,5,0,3:0:0:0:
373,156,144787,2,0,P|311:194|368:230,1,152.999995330811
452,108,145046,1,0,0:0:0:0:
384,72,145132,1,0,0:0:0:0:
308,81,145218,2,0,B|277:94|277:94|211:80,1,93.5000028533936,8|0,0:0|0:0,0:0:0:0:
78,61,145390,2,0,B|106:34|106:34|101:77|101:77|99:80|99:80|87:157,1,123.250003761292
97,243,145563,6,0,P|143:264|215:254,1,106.25,0|0,3:0|0:0,0:0:0:0:
231,358,145735,2,0,P|226:307|182:249,1,106.25,0|0,3:0|0:0,0:0:0:0:
256,185,145908,6,0,P|217:215|195:259,1,99.1666676123937,8|0,0:0|0:0,0:0:0:0:
188,176,146023,2,0,P|183:218|195:259,1,85.0000032424928
143,212,146137,2,0,P|165:239|195:259,1,70.8333333333333
303,331,146252,6,0,L|337:337,1,21.25,0|0,3:0|0:0,0:0:0:0:
306,337,146339,2,0,L|340:343,1,21.25
310,344,146425,2,0,B|332:349|332:349|388:339,1,63.7500024318696
437,251,146597,2,0,B|454:217|432:177|432:177|405:133|480:98|474:177|432:177|432:177|389:181|337:157,1,280.500008560181,8|0,0:0|0:0,0:0:0:0:
198,133,146942,2,0,B|187:72|187:72|182:67|182:67|171:8|171:8|231:45,1,152.999995330811,0|0,3:0|0:0,0:0:0:0:
322,132,147201,5,2,0:2:0:0:
351,163,147287,2,0,P|360:213|347:255,1,63.7500024318696
213,274,147459,2,0,B|184:246|187:215|187:215|268:221|268:221|280:219|280:219|382:227,1,237.999992736817,2|0,3:2|0:0,0:0:0:0:
290,325,147718,1,0,0:0:0:0:
223,359,147804,2,0,P|176:353|142:319,1,76.4999976654053
114,198,147977,6,0,B|120:136|120:136|124:131|124:131|129:81|129:81|130:14|51:25|79:94|129:81|129:81|172:71|213:87,1,318.75,8|0,0:0|0:0,0:0:0:0:
298,129,148321,2,0,B|311:140|333:138|333:138|333:140|333:140|333:138|333:138|354:136|365:123,1,76.4999976654053,0|0,3:0|0:0,0:0:0:0:
388,27,148494,2,0,B|374:19|354:24|354:24|353:22|353:22|354:24|354:24|333:30|324:45,1,76.4999976654053
248,292,148666,2,0,B|263:316|326:312|346:242|261:203|175:208|238:322|148:347|29:323|23:235,1,356.999989105225,8|0,0:0|0:0,0:0:0:0:
0,203,149011,1,0,3:0:0:0:
151,114,149183,6,0,L|148:83,1,21.25
158,107,149270,2,0,L|155:76,1,21.25
165,100,149356,2,0,B|165:60|165:60|166:25|231:29|231:29|233:34|233:34|277:55|316:38|316:38|320:34|320:34|356:18|398:34,1,280.500008560181,8|0,0:0|0:0,0:0:0:0:
512,119,149701,2,0,B|412:142|412:142|333:108,1,152.999995330811,0|0,3:0|0:0,0:0:0:0:
258,117,149959,5,2,0:2:0:0:
237,140,150046,2,0,P|224:174|236:225,1,76.4999976654053,8|0,0:0|0:0,0:0:0:0:
422,380,150218,2,0,B|438:324|438:324|436:319|436:319|444:284|444:284|452:254|430:209|374:223|374:223|322:235|297:167,1,293.2500055933,2|0,3:2|0:0,0:0:0:0:
258,117,150563,6,0,L|259:84,1,21.25
264,112,150649,2,0,L|265:79,1,21.25
270,110,150735,2,0,B|273:74|273:74|277:65|277:65|281:20,1,76.4999976654053,8|0,0:0|0:0,0:0:0:0:
455,114,150908,2,0,B|396:134|396:134|354:123,1,93.5000028533936,0|0,2:0|2:0,2:0:0:0:
169,38,151080,6,0,P|138:80|142:154,1,106.25,0|0,3:0|0:0,0:0:0:0:
270,210,151252,2,0,P|284:159|255:91,1,106.25,0|0,3:0|0:0,0:0:0:0:
36,126,151425,6,0,P|39:178|88:232,1,99.1666676123937,8|0,0:0|0:0,0:0:0:0:
20,235,151540,2,0,P|48:278|118:300,1,85.0000032424928
57,325,151655,2,0,P|103:348|175:332,1,70.8333333333333
227,318,151770,5,0,0:0:0:0:
246,311,151856,1,0,0:0:0:0:
272,309,151942,2,0,P|297:310|336:327,1,42.5
425,291,152114,6,0,B|436:244|436:244|440:239|440:239|447:199|447:199|457:158|445:110|366:90|347:176,1,280.500008560181,8|0,0:0|0:0,0:0:0:0:
236,212,152459,2,0,B|172:233|172:233|140:207|150:163|150:163|165:125|157:71,1,187.000005706787,0|0,3:0|0:0,0:0:0:0:
208,14,152718,5,2,0:2:0:0:
263,71,152804,2,0,P|274:107|262:166,1,63.7500024318696
26,140,152977,2,0,B|33:109|51:81|51:81|75:138|75:138|64:187|66:256|140:299,1,237.999992736817,2|0,3:2|0:0,0:0:0:0:
177,323,153235,5,0,0:0:0:0:
249,352,153321,2,0,P|292:362|348:326,1,93.5000028533936
422,182,153494,2,0,B|398:136|398:136|364:192|364:192|354:196|354:196|316:241|316:241|316:247|316:247|284:284|284:284|247:278|221:234|246:184,1,344.25000131321,8|0,0:0|0:0,0:0:0:0:
101,352,153839,6,0,P|61:350|-7:291,1,93.5000028533936,0|0,3:0|0:0,0:0:0:0:
53,157,154011,6,0,L|92:152,1,21.25,0|0,3:0|0:0,0:0:0:0:
56,151,154097,2,0,L|94:146,1,21.25,0|0,3:0|0:0,0:0:0:0:
59,145,154183,2,0,L|204:130,1,127.500004863739,8|0,3:1|0:0,0:0:0:0:
307,171,154442,5,2,0:2:0:0:
236,206,154528,2,0,B|229:270|282:283|282:283|341:253|385:296|384:344,1,229.499992996216,4|0,3:1|0:0,0:0:0:0:
224,344,154873,2,0,B|244:306|278:283|278:283|211:262|225:152|307:135,1,229.499992996216,0|0,3:0|0:0,0:0:0:0:
347,55,155218,2,0,B|393:88|393:88|319:75|319:75|313:78|313:78|223:64,1,212.5,8|0,0:0|0:0,0:0:0:0:
93,175,155563,6,0,P|122:187|163:177,1,63.7500024318696,0|0,3:0|0:0,0:0:0:0:
76,105,155735,2,0,B|71:138|71:138|93:177|93:177|69:203|61:281|121:304|167:300,1,229.499992996216,0|0,3:0|0:0,0:0:0:0:
303,285,156080,1,0,0:0:0:0:
282,211,156166,1,0,0:0:0:0:
216,179,156252,2,0,B|182:167|152:181|152:181|118:195|94:176,1,127.500004863739,0|0,3:0|0:0,0:0:0:0:
148,54,156511,5,0,0:0:0:0:
216,24,156597,2,0,P|242:23|275:32,1,59.5,8|0,3:1|0:0,0:0:0:0:
359,64,157287,6,0,L|388:60,2,21.25
408,50,157459,1,0,0:0:0:0:
311,153,157632,6,0,B|280:170|245:161|245:161|189:152|199:93|262:111|245:161|245:161|231:196|225:248|262:279,1,305.999990661621,0|0,3:0|0:0,0:0:0:0:
347,368,157977,2,0,B|361:329|361:329|342:238,1,127.500004863739,8|0,0:0|0:0,0:0:0:0:
153,181,158321,2,0,P|116:168|81:170,1,63.7500024318696,0|0,3:0|0:0,0:0:0:0:
169,278,158494,2,0,B|199:250|189:196|152:180|152:180|178:162|211:162|211:162|245:166|279:148,1,237.999992736817,0|0,3:0|0:0,0:0:0:0:
456,116,158925,5,0,0:0:0:0:
468,190,159011,2,0,L|462:215,1,25.5
398,348,159356,6,0,B|392:286|392:286|396:280|396:280|388:221|388:221|384:180|335:152|274:171|276:256,1,280.500008560181,8|0,0:0|0:0,0:0:0:0:
323,331,159701,2,0,B|353:353|398:348|398:348|392:287|392:287|396:280|396:280|386:203|386:203|381:157|397:133|397:133|416:88|394:49,1,356.999989105225,0|0,3:0|0:0,0:0:0:0:
309,22,160046,6,0,L|272:31,1,21.25
304,27,160132,2,0,L|267:36,1,21.25
299,32,160218,2,0,B|248:45|248:45|208:34,1,76.4999976654053
81,111,160390,2,0,B|121:71|190:88|190:132|190:132|184:191|184:191|188:201|188:201|178:284,1,293.2500055933,0|0,3:0|0:0,0:0:0:0:
85,357,160735,2,0,B|74:272|74:272|100:235,1,127.500004863739,8|0,0:0|0:0,0:0:0:0:
398,242,161080,6,0,P|415:275|404:335,1,76.4999976654053,0|0,3:0|0:0,0:0:0:0:
265,257,161252,2,0,B|284:222|307:206|364:193|398:242|398:242|430:217|427:180|427:180|423:139|456:99,1,293.2500055933,0|0,3:0|0:0,0:0:0:0:
394,35,161597,2,0,L|357:24,1,21.25
387,38,161683,2,0,L|350:27,1,21.25
380,41,161770,2,0,B|340:27|340:27|325:64|289:82|246:82|216:64|216:64|244:115|294:110,1,280.500008560181,0|0,3:0|0:0,0:0:0:0:
380,175,162114,6,0,P|385:202|383:238,1,59.5,8|0,3:1|0:0,0:0:0:0:
294,334,162804,1,0,0:0:0:0:
265,338,162890,2,0,L|212:342,2,42.5
169,241,163149,6,0,B|203:205|255:233|255:233|197:176|228:102|267:84|296:83,1,280.500008560181,0|0,3:0|0:0,0:0:0:0:
377,241,163494,2,0,B|337:256|337:256|255:233,1,127.500004863739,8|0,0:0|0:0,0:0:0:0:
60,87,163839,2,0,P|54:50|77:4,1,76.4999976654053,0|0,3:0|0:0,0:0:0:0:
212,101,164011,2,0,B|133:90|133:90|122:94|122:94|61:87|61:87|80:108|113:116,1,203.999993774414,0|0,3:0|0:0,0:0:0:0:
189,333,164356,5,0,0:0:0:0:
229,276,164442,2,0,L|224:239,1,34
130,175,164873,2,0,B|98:167|64:200|64:200|125:212|176:177|176:177|244:137|324:187|314:262,1,344.25000131321,8|0,0:0|0:0,0:0:0:0:
220,273,165218,2,0,B|208:227|208:227|211:221|211:221|196:168|196:168|270:149|307:212|307:212|345:181|366:137,1,280.500008560181,0|0,3:0|0:0,0:0:0:0:
476,57,165563,6,0,B|446:27|396:37|396:37|366:111|438:188,1,229.499992996216,0|0,3:0|0:0,0:0:0:0:
319,99,165908,2,0,B|362:84|387:90|387:90|388:54|395:38|395:38|467:23|498:86,1,229.499992996216,0|0,3:0|0:0,0:0:0:0:
503,194,166252,2,0,B|503:248|503:248|498:254|498:254|496:302|496:302|491:328|465:353|429:343|410:319,1,212.5,8|0,0:0|0:0,0:0:0:0:
150,253,166597,6,0,P|108:246|75:254,1,76.4999976654053,0|0,3:0|0:0,0:0:0:0:
191,371,166770,2,0,B|210:343|213:284|151:253|151:253|121:181|182:141|234:145|263:243,1,305.999990661621,0|0,3:0|0:0,0:0:0:0:
326,246,167114,1,0,0:0:0:0:
400,265,167201,1,0,0:0:0:0:
469,234,167287,2,0,B|483:149|483:149|456:93,1,127.500004863739,0|0,3:0|0:0,0:0:0:0:
343,45,167546,5,0,0:0:0:0:
286,91,167632,2,0,P|279:119|282:151,1,59.5,8|0,3:1|0:0,0:0:0:0:
229,225,168321,6,0,L|225:257,2,21.25
204,268,168494,1,0,0:0:0:0:
140,90,168666,6,0,B|135:67|135:67|136:62|136:62|132:37|132:37|178:74|181:122|181:122|186:122|186:122|181:122|181:122|183:158|160:204|118:249,1,280.500008560181,0|0,3:0|0:0,0:0:0:0:
75,333,169011,2,0,B|39:308|39:308|105:321|105:321|110:319|110:319|180:332,1,170,8|0,0:0|0:0,0:0:0:0:
352,263,169356,2,0,P|358:215|342:179,1,72.2500013780594,0|0,3:0|0:0,0:0:0:0:
204,268,169528,2,0,B|245:288|260:328|260:328|331:325|354:254,1,203.999993774414,0|0,3:0|0:0,0:0:0:0:
205,48,169873,5,0,0:0:0:0:
277,34,169959,2,0,L|293:38,1,17
379,136,170390,6,0,B|410:190|395:238|361:280|308:289|308:289|349:319|408:277,1,280.500008560181,8|0,0:0|0:0,0:0:0:0:
456,157,170735,2,0,B|379:136|379:136|405:178|410:251|332:295|301:286|301:286|258:263|194:280,1,344.25000131321,0|0,3:0|0:0,0:0:0:0:
147,321,171080,6,0,L|108:313,1,21.25
140,325,171166,2,0,L|101:317,1,21.25
133,329,171252,2,0,P|95:319|69:289,1,63.7500024318696
137,211,171425,2,0,B|155:166|159:111|159:111|167:63|121:60|112:108|159:111|159:111|199:98|241:111,1,280.500008560181,0|0,3:0|0:0,0:0:0:0:
298,204,171770,2,0,B|380:221|380:221|425:203,1,127.500004863739,8|0,0:0|0:0,0:0:0:0:
403,43,172114,6,0,P|350:35|319:47,1,63.7500024318696,0|0,3:0|0:0,0:0:0:0:
467,115,172287,2,0,B|467:82|403:44|403:44|394:133|394:133|390:137|390:137|381:213|381:213|381:234|398:237,1,280.500008560181,0|0,3:0|0:0,0:0:0:0:
315,280,172632,2,0,L|328:317,1,21.25
308,291,172718,2,0,L|321:328,1,21.25
301,302,172804,2,0,B|313:345|313:345|237:307|178:347|178:347|104:332,1,229.499992996216,0|0,3:0|0:0,0:0:0:0:
38,289,173149,6,0,P|36:250|42:225,1,59.5,8|0,3:1|0:0,0:0:0:0:
104,144,173839,1,0,0:0:0:0:
100,115,173925,2,0,L|95:54,2,42.5
203,44,174183,6,0,B|249:67|300:32|300:32|280:77|286:154|351:192|406:161,1,280.500008560181,0|0,3:0|0:0,0:0:0:0:
423,32,174528,2,0,B|386:15|386:15|270:37,1,127.500004863739,8|0,0:0|0:0,0:0:0:0:
208,248,174873,2,0,P|206:291|249:331,1,76.4999976654053,0|0,3:0|0:0,0:0:0:0:
313,269,175046,2,0,B|257:259|257:259|254:254|254:254|207:246|207:246|208:170|307:149,1,220.999989883423,0|0,3:0|0:0,0:0:0:0:
485,157,175390,6,0,L|478:258,1,63.7500024318696,0|0,3:0|0:0,0:0:0:0:
401,343,175563,2,0,B|316:375|233:368|211:303|246:233|321:272,1,280.500008560181,0|0,3:0|0:0,0:0:0:0:
477,247,175908,5,0,0:0:0:0:
475,276,176252,1,0,0:0:0:0:
473,305,176597,6,0,L|471:347,15,29.7499990921021
385,349,179356,6,0,L|344:340,7,34
312,251,180735,2,0,L|271:260,7,34
174,333,182114,6,0,L|180:290,15,38.2499988327027
110,228,184873,6,0,L|101:176,1,42.5
202,117,185218,2,0,L|193:176,1,42.5
117,222,185563,2,0,L|108:170,1,42.5
209,111,185908,2,0,L|200:170,1,42.5
124,216,186252,2,0,L|115:164,1,46.7500014266968
216,105,186597,2,0,L|207:164,1,46.7500014266968
131,210,186942,2,0,L|122:158,1,46.7500014266968
223,99,187287,2,0,L|214:158,1,46.7500014266968
228,244,187632,6,0,L|240:315,15,50.9999984436036
325,350,190390,6,0,L|385:340,1,55.2499974708558
478,277,190735,2,0,L|418:267,1,55.2499974708558
279,234,191080,2,0,L|338:224,1,59.4999981842042
441,161,191425,2,0,L|382:151,1,59.4999981842042
233,118,191770,2,0,L|296:108,1,63.7500024318696
403,45,192114,2,0,L|341:35,1,63.7500024318696
223,15,192459,2,0,L|148:34,1,68
73,99,192804,2,0,L|-24:83,1,68
173,130,193149,6,0,L|181:226,7,68
271,254,194528,6,0,L|338:248,7,50.9999984436036
383,180,195908,6,0,L|379:135,7,34
311,98,197287,6,0,L|292:99,7,17
256,192,198666,12,0,204183,2:0:0:0:
