osu file format v14

[General]
AudioFilename: audio.mp3
AudioLeadIn: 0
PreviewTime: 49097
Countdown: 0
SampleSet: Soft
StackLeniency: 0.7
Mode: 0
LetterboxInBreaks: 0
WidescreenStoryboard: 1

[Editor]
DistanceSpacing: 1
BeatDivisor: 4
GridSize: 4
TimelineZoom: 1

[Metadata]
Title:Unforgettable (feat. Swae Lee)
TitleUnicode:Unforgettable (feat. Swae Lee)
Artist:French Montana
ArtistUnicode:French Montana
Creator:Bearizm
Version:Normal
Source:
Tags:Jungle Rules
BeatmapID:1420223
BeatmapSetID:671568

[Difficulty]
HPDrainRate:3.5
CircleSize:3.5
OverallDifficulty:5
ApproachRate:4.4
SliderMultiplier:2
SliderTickRate:1

[Events]
//Background and Video events
0,0,"bg.jpg",0,0
//Break Periods
//Storyboard Layer 0 (Background)
//Storyboard Layer 1 (Fail)
//Storyboard Layer 2 (Pass)
//Storyboard Layer 3 (Foreground)
//Storyboard Sound Samples

[TimingPoints]
118,612.244897959184,4,2,1,75,1,0
49097,-100,4,2,1,75,0,1
78485,-100,4,2,1,75,0,0
117669,-100,4,2,1,75,0,1
137260,-100,4,2,1,75,0,0

[Colours]
Combo1 : 0,164,242
Combo2 : 128,255,255
Combo3 : 0,255,255
Combo4 : 0,128,255

[HitObjects]
83,69,9913,6,0,L|67:221,1,150,0|8,3:0|0:0,0:0:0:0:
80,268,10526,2,0,P|128:284|176:276,1,100,0|8,3:0|0:0,0:0:0:0:
265,232,11138,2,0,B|313:215|313:215|409:249,1,150,0|8,3:0|0:0,0:0:0:0:
455,240,11750,2,0,P|470:189|462:143,1,100,0|8,3:0|0:0,0:0:0:0:
379,88,12362,6,0,L|279:97,1,100,0|0,3:0|0:0,0:0:0:0:
215,173,12975,2,0,L|115:164,1,100,0|8,3:0|0:0,0:0:0:0:
32,108,13587,2,0,B|14:155|14:155|28:255,1,150,0|8,3:0|0:0,0:0:0:0:
60,291,14199,2,0,P|106:273|158:282,1,100,0|8,3:0|0:0,0:0:0:0:
241,231,14811,6,0,P|287:249|339:240,1,100,0|0,3:0|0:0,0:0:0:0:
389,156,15424,2,0,P|363:51|280:52,1,200,0|0,3:0|3:0,0:0:0:0:
335,241,16648,2,0,P|345:291|343:344,1,100,0|8,3:0|0:0,0:0:0:0:
246,316,17260,6,0,B|197:309|197:309|146:324|146:324|97:315,1,150,0|8,3:0|0:0,0:0:0:0:
62,281,17873,2,0,P|54:232|75:188,1,100,0|8,3:0|0:0,0:0:0:0:
162,139,18485,2,0,P|108:144|196:74,1,300,2|2,3:2|0:0,0:0:0:0:
256,98,19709,6,0,B|305:91|305:91|350:113|350:113|402:108,1,150,0|8,3:0|0:0,0:0:0:0:
444,131,20322,2,0,P|460:181|452:230,1,100,0|8,3:0|0:0,0:0:0:0:
357,257,20934,2,0,P|287:255|245:320,1,150,0|8,3:0|0:0,0:0:0:0:
242,365,21546,2,0,P|195:345|138:353,1,100,0|8,3:0|0:0,0:0:0:0:
68,287,22158,6,0,L|59:188,1,100,0|0,3:0|0:0,0:0:0:0:
152,151,22771,2,0,L|161:250,1,100,0|8,3:0|0:0,0:0:0:0:
248,299,23383,2,0,B|297:291|297:291|346:304|346:304|397:297,1,150,0|8,3:0|0:0,0:0:0:0:
429,261,23995,2,0,L|481:268,2,50,2|2|10,3:2|0:0|0:0,0:0:0:0:
353,195,24607,6,0,P|343:147|361:99,1,100,0|0,3:0|0:0,0:0:0:0:
454,65,25220,2,0,L|251:47,2,200,0|0|0,3:0|3:0|3:0,0:0:0:0:
494,260,27056,6,0,P|474:319|385:331,1,150,0|8,3:0|0:0,0:0:0:0:
366,294,27669,2,0,B|318:283|318:283|265:297,1,100,0|8,3:0|0:0,0:0:0:0:
172,322,28281,2,0,P|113:332|188:241,1,300,2|10,3:2|0:0,0:0:0:0:
268,295,29505,1,0,3:0:0:0:
318,101,30118,6,0,B|385:94|385:94|445:119|445:119|512:115,2,200,2|2|2,3:2|3:2|3:2,0:0:0:0:
219,115,31648,1,8,0:0:0:0:
132,60,31954,2,0,P|77:52|36:166,1,200,2|0,3:2|3:0,0:0:0:0:
110,233,32873,1,8,0:0:0:0:
195,181,33179,2,0,B|245:174|245:174|292:191|292:191|347:186,1,150,2|8,3:2|0:0,0:0:0:0:
387,205,33791,2,0,P|405:251|398:302,1,100,2|8,3:2|0:0,0:0:0:0:
309,345,34403,6,0,L|160:327,1,150,0|8,3:0|0:0,0:0:0:0:
123,293,35015,2,0,P|71:282|24:306,1,100,2|8,3:2|0:0,0:0:0:0:
50,202,35628,2,0,L|97:7,1,200,2|2,3:2|3:2,0:0:0:0:
173,72,36546,1,8,0:0:0:0:
258,19,36852,6,0,P|308:15|376:133,2,200,2|2|2,3:2|3:2|3:2,0:0:0:0:
173,72,38383,1,0,0:0:0:0:
238,147,38689,2,0,B|250:197|250:197|236:245,1,100,0|8,3:0|0:0,0:0:0:0:
156,303,39301,6,0,L|358:290,2,200,0|0|0,3:0|3:0|3:0,0:0:0:0:
101,110,41138,2,0,P|148:91|203:104,1,100,2|10,3:2|0:0,0:0:0:0:
255,179,41750,6,0,B|307:170|307:170|352:182|352:182|407:170,1,150,2|8,3:2|0:0,0:0:0:0:
449,184,42362,2,0,P|473:231|467:277,1,100,0|8,3:0|0:0,0:0:0:0:
378,323,42975,2,0,P|385:349|386:380,2,50,2|2|2,3:2|0:0|0:0,0:0:0:0:
293,270,43587,1,0,3:0:0:0:
200,308,43893,1,8,0:0:0:0:
121,245,44199,6,0,L|137:95,1,150,0|8,3:0|0:0,0:0:0:0:
173,61,44811,2,0,P|224:51|270:68,1,100,2|10,3:2|0:0,0:0:0:0:
360,106,45424,2,0,P|411:116|457:99,1,100,2|2,3:2|0:0,0:0:0:0:
403,14,46036,1,2,3:2:0:0:
418,213,46648,6,0,L|426:312,1,100,2|2,3:2|0:0,0:0:0:0:
338,360,47260,2,0,L|329:260,1,100,2|10,3:2|0:2,0:0:0:0:
255,192,47873,2,0,P|205:182|159:198,1,100,2|2,3:2|0:0,0:0:0:0:
77,254,48485,1,2,3:2:0:0:
68,154,48791,1,10,0:0:0:0:
59,54,49097,6,0,B|108:47|108:47|155:65|155:65|207:61,1,150,0|8,3:0|0:0,0:0:0:0:
247,87,49709,2,0,P|265:135|254:184,1,100,0|8,3:0|0:0,0:0:0:0:
166,227,50322,2,0,P|244:213|309:318,1,200,0|2,3:0|3:2,0:0:0:0:
253,382,51240,1,10,0:2:0:0:
153,371,51546,6,0,L|49:361,1,100,2|2,3:2|0:0,0:0:0:0:
16,268,52158,2,0,B|33:202|33:202|18:136|18:136|36:72,2,200,2|0|2,3:2|3:0|3:2,0:0:0:0:
53,361,53689,1,10,0:0:0:0:
120,287,53995,2,0,P|174:280|218:300,1,100,2|2,3:2|0:0,0:0:0:0:
297,353,54607,2,0,P|344:377|329:280,2,200,2|2|0,3:2|3:2|3:0,0:0:0:0:
256,192,56444,12,2,58893,3:2:0:0:
308,136,60118,6,0,P|356:124|420:200,1,150,2|8,3:2|0:0,0:0:0:0:
416,240,60730,1,2,3:2:0:0:
332,292,61036,1,0,0:0:0:0:
232,276,61342,6,0,B|180:268|180:268|132:284|132:284|76:272,1,150,2|10,3:2|0:0,0:0:0:0:
64,228,61954,2,0,P|56:176|80:132,1,100,2|10,3:2|0:0,0:0:0:0:
164,84,62566,2,0,L|316:76,1,150,2|8,3:2|0:0,0:0:0:0:
348,112,63179,2,0,P|369:156|360:204,1,100,10|10,3:2|0:0,0:0:0:0:
272,252,63791,6,0,P|352:244|396:344,1,200,2|2,3:2|3:2,0:0:0:0:
304,380,64709,1,8,0:0:0:0:
204,364,65015,2,0,L|104:352,1,100,2|2,3:2|0:0,0:0:0:0:
80,256,65628,2,0,L|180:268,1,100,2|10,3:2|0:0,0:0:0:0:
260,208,66240,6,0,P|272:160|156:100,1,200,2|2,3:2|3:2,0:0:0:0:
80,152,67158,1,10,0:0:0:0:
132,240,67464,2,0,B|144:288|144:288|132:340,1,100,2|2,3:2|0:0,0:0:0:0:
32,336,68077,2,0,B|20:286|20:286|32:238,1,100,2|8,3:2|0:0,0:0:0:0:
80,152,68689,1,8,0:0:0:0:
256,192,68842,12,0,78485,3:0:0:0:
380,288,79709,6,0,L|176:272,1,200,0|2,3:0|3:2,0:0:0:0:
80,268,80628,1,8,0:0:0:0:
136,184,80934,6,0,B|164:140|164:140|140:40,1,150,0|8,3:0|0:0,0:0:0:0:
188,60,81546,2,0,P|240:72|284:56,1,100,0|10,3:0|0:0,0:0:0:0:
376,20,82158,2,0,P|372:80|372:124,1,100,0|2,3:0|0:0,0:0:0:0:
452,180,82771,2,0,P|456:240|456:284,1,100,2|8,3:2|0:0,0:0:0:0:
388,352,83383,6,0,P|316:364|272:296,1,150,0|8,3:0|0:0,0:0:0:0:
224,308,83995,2,0,P|236:260|228:208,1,100,2|8,3:2|0:0,0:0:0:0:
176,124,84607,2,0,P|124:116|64:208,1,150,0|8,3:0|0:0,0:0:0:0:
12,184,85220,2,0,P|24:236|20:296,1,100,0|10,3:0|0:0,0:0:0:0:
104,336,85832,5,0,3:0:0:0:
188,284,86138,1,2,0:0:0:0:
280,320,86444,2,0,B|349:309|349:309|408:330|408:330|483:320,1,200,2|0,3:2|3:0,0:0:0:0:
420,236,87362,2,0,P|412:204|412:180,2,50,2|10|2,0:0|0:0|3:2,0:0:0:0:
512,192,87975,1,8,0:0:0:0:
468,104,88281,6,0,B|420:88|420:88|319:110|319:110|272:96,1,200,0|0,3:0|3:0,0:0:0:0:
192,36,89199,1,10,0:0:0:0:
100,76,89505,2,0,P|82:124|93:176,1,100,2|2,3:2|0:0,0:0:0:0:
176,224,90118,2,0,L|275:213,1,100,2|8,3:2|0:0,0:0:0:0:
374,202,90730,6,0,P|434:280|403:377,2,200,0|0|0,3:0|3:0|3:0,0:0:0:0:
176,224,92566,2,0,P|125:218|72:216,1,100,2|10,3:2|0:0,0:0:0:0:
37,123,93179,2,0,P|78:29|166:38,1,200,0|2,3:0|3:2,0:0:0:0:
244,92,94097,1,8,0:0:0:0:
217,188,94403,2,0,B|204:248|204:248|225:310|225:310|208:384,1,200,0|2,3:0|3:2,0:0:0:0:
412,384,95628,6,0,B|428:313|428:313|407:251|407:251|420:190,1,200,0|0,3:0|3:0,0:0:0:0:
444,96,96546,1,8,0:0:0:0:
380,20,96852,2,0,P|328:8|284:20,1,100,0|0,3:0|0:0,0:0:0:0:
184,40,97464,2,0,P|135:52|87:40,1,100,0|8,3:0|0:0,0:0:0:0:
100,140,98077,6,0,L|120:288,2,150,0|0|0,3:0|3:0|3:0,0:0:0:0:
196,168,99301,2,0,L|216:316,2,150,8|8|4,0:0|0:2|0:0,0:0:0:0:
264,92,100526,6,0,B|316:84|316:84|364:96|364:96|424:88,2,150,0|0|0,3:0|3:0|3:0,0:0:0:0:
196,168,101750,2,0,B|144:160|144:160|96:172|96:172|36:164,2,150,8|8|4,0:0|0:0|0:0,0:0:0:0:
272,232,102975,6,0,P|261:306|256:384,2,150,0|0|0,3:0|3:0|3:0,0:0:0:0:
370,212,104199,2,0,P|364:129|354:62,2,150,8|8|4,0:0|0:0|0:0,0:0:0:0:
272,232,105424,6,0,P|221:219|141:297,2,150,0|0|0,3:0|3:0|3:0,0:0:0:0:
308,324,106648,2,0,P|254:373|182:364,2,150,8|0|12,0:0|3:0|0:0,0:0:0:0:
272,232,107873,6,0,B|252:185|252:185|272:89,1,150,0|8,3:0|0:0,0:0:0:0:
284,39,108485,2,0,P|236:49|186:35,1,100,0|8,3:0|0:0,0:0:0:0:
98,81,109097,2,0,P|88:171|86:231,1,150,2|8,3:2|0:0,0:0:0:0:
130,253,109709,2,0,P|137:303|136:352,1,100,2|8,3:2|0:0,0:0:0:0:
234,335,110322,6,0,B|283:328|283:328|332:344|332:344|385:338,1,150,0|8,3:0|0:0,0:0:0:0:
420,308,110934,2,0,P|428:260|406:215,1,100,2|10,3:2|0:0,0:0:0:0:
313,177,111546,2,0,P|374:173|321:92,1,200,2|2,3:2|3:2,0:0:0:0:
230,120,112464,1,10,0:0:0:0:
139,76,112771,6,0,P|86:62|18:140,1,150,2|8,3:2|0:0,0:0:0:0:
39,166,113383,2,0,P|53:213|45:264,1,100,2|8,3:2|0:0,0:0:0:0:
110,338,113995,2,0,L|262:326,1,150,0|8,3:0|0:0,0:0:0:0:
301,353,114607,2,0,L|401:345,1,100,2|10,3:2|0:0,0:0:0:0:
474,277,115220,6,0,P|481:203|368:188,1,200,0|0,3:0|3:0,0:0:0:0:
282,211,116138,1,8,0:0:0:0:
301,113,116444,2,0,L|317:6,1,100,0|0,3:0|0:0,0:0:0:0:
219,40,117056,2,0,L|204:138,1,100,0|8,3:0|0:0,0:0:0:0:
182,236,117669,6,0,B|133:230|133:230|85:243|85:243|35:237,1,150,0|8,3:0|0:0,0:0:0:0:
58,193,118281,2,0,P|74:144|59:97,1,100,0|8,3:0|0:0,0:0:0:0:
149,53,118893,2,0,B|248:20|248:95|349:56,1,200,0|2,3:0|3:2,0:0:0:0:
436,22,119811,1,10,0:0:0:0:
420,121,120118,6,0,L|406:228,1,100,2|2,3:2|0:0,0:0:0:0:
318,265,120730,2,0,B|387:257|387:257|448:281|448:281|516:275,2,200,2|0|2,3:2|3:0|3:2,0:0:0:0:
218,277,122260,1,10,0:0:0:0:
126,236,122566,2,0,P|115:187|130:140,1,100,2|2,3:2|0:0,0:0:0:0:
220,92,123179,2,0,P|244:44|147:59,2,200,2|2|2,3:2|3:2|3:2,0:0:0:0:
44,192,125015,6,0,L|244:184,1,200,2|2,3:2|3:2,0:0:0:0:
344,180,125934,1,10,0:0:0:0:
360,280,126240,2,0,L|260:272,1,100,2|10,3:2|0:0,0:0:0:0:
180,332,126852,2,0,L|80:340,1,100,2|8,3:2|0:0,0:0:0:0:
12,264,127464,1,8,0:0:0:0:
256,192,127618,12,2,137260,0:0:0:0:
