osu file format v14

[General]
AudioFilename: audio.mp3
AudioLeadIn: 0
PreviewTime: 49097
Countdown: 0
SampleSet: None
StackLeniency: 0.7
Mode: 0
LetterboxInBreaks: 0
WidescreenStoryboard: 1

[Editor]
DistanceSpacing: 1
BeatDivisor: 2
GridSize: 4
TimelineZoom: 1

[Metadata]
Title:Unforgettable (feat. Swae Lee)
TitleUnicode:Unforgettable (feat. Swae Lee)
Artist:French Montana
ArtistUnicode:French Montana
Creator:Bearizm
Version:Easy
Source:
Tags:Jungle Rules
BeatmapID:1420236
BeatmapSetID:671568

[Difficulty]
HPDrainRate:2
CircleSize:3
OverallDifficulty:3
ApproachRate:3
SliderMultiplier:1.2
SliderTickRate:1

[Events]
//Background and Video events
0,0,"bg.jpg",0,0
//Break Periods
//Storyboard Layer 0 (Background)
//Storyboard Layer 1 (Fail)
//Storyboard Layer 2 (Pass)
//Storyboard Layer 3 (Foreground)
//Storyboard Sound Samples

[TimingPoints]
118,612.244897959184,4,2,1,75,1,0
49097,-100,4,2,1,75,0,1
78485,-100,4,2,1,75,0,0
117669,-100,4,2,1,75,0,1
137260,-100,4,2,1,75,0,0

[Colours]
Combo1 : 0,164,242
Combo2 : 128,255,255
Combo3 : 0,255,255
Combo4 : 0,128,255

[HitObjects]
136,84,9913,6,0,L|376:64,1,240,0|0,3:0|3:0,0:0:0:0:
468,140,11750,1,0,3:0:0:0:
376,216,12362,6,0,L|136:196,1,240,0|0,3:0|3:0,0:0:0:0:
44,272,14199,1,0,3:0:0:0:
136,348,14811,6,0,L|376:328,1,240,0|0,3:0|3:0,0:0:0:0:
496,316,16648,1,0,3:0:0:0:
256,192,17260,12,0,19709,3:0:0:0:
256,188,21546,5,0,3:0:0:0:
164,112,22158,2,0,P|100:100|8:264,1,240,0|0,3:0|3:0,0:0:0:0:
56,324,23995,1,2,3:2:0:0:
174,302,24607,6,0,B|254:291|254:291|329:318|329:318|409:308,1,240,0|0,3:0|3:0,0:0:0:0:
342,208,26444,1,0,3:0:0:0:
256,192,27056,12,0,29505,3:0:0:0:
392,256,31342,5,2,3:2:0:0:
284,204,31954,2,0,B|168:156|168:260|44:208,2,240,2|2|0,3:2|3:2|3:0,0:0:0:0:
392,256,35015,5,2,3:2:0:0:
496,196,35628,2,0,P|512:136|488:80,1,120,2|2,3:2|3:2,0:0:0:0:
380,44,36852,2,0,B|260:68|260:68|144:48,2,240,2|2|0,3:2|3:2|3:0,0:0:0:0:
491,84,39913,5,0,3:0:0:0:
420,180,40526,2,0,B|400:236|400:236|418:293,1,120,0|2,3:0|3:2,0:0:0:0:
319,364,41750,2,0,P|209:354|194:244,1,240,2|2,3:2|3:2,0:0:0:0:
412,144,44199,6,0,B|331:127|331:127|256:160|256:160|181:144,1,240,0|2,3:0|3:2,0:0:0:0:
64,116,46036,1,2,3:2:0:0:
12,224,46648,2,0,P|44:340|164:328,2,240,2|2|0,3:2|3:2|3:0,0:0:0:0:
172,44,50322,6,0,B|292:32|292:32|340:76|328:148,1,240,0|2,3:0|3:2,0:0:0:0:
236,216,52158,2,0,B|116:204|116:204|68:248|80:320,1,240,2|2,3:2|3:2,0:0:0:0:
184,384,53995,6,0,L|304:368,1,120,2|2,3:2|3:2,0:0:0:0:
420,352,55220,1,2,3:2:0:0:
256,192,56444,12,2,58893,3:2:0:0:
357,256,60730,5,2,3:2:0:0:
405,148,61342,2,0,P|397:72|257:56,1,240,2|2,3:2|3:2,0:0:0:0:
166,132,63179,1,10,3:2:0:0:
131,246,63791,6,0,B|195:257|240:216|240:216|254:280|314:315,1,240,2|2,3:2|3:2,0:0:0:0:
428,341,65628,1,2,3:2:0:0:
502,247,66240,2,0,B|475:75|475:75|464:108|447:137,1,240,2|2,3:2|3:2,0:0:0:0:
340,187,68077,1,2,3:2:0:0:
225,150,68689,1,8,0:0:0:0:
256,192,68995,12,0,78485,3:0:0:0:
40,160,80322,5,2,3:2:0:0:
92,52,80934,2,0,B|134:56|172:46|172:46|242:84|242:84|284:73|322:78,1,240,0|0,3:0|3:0,0:0:0:0:
408,164,82771,1,2,3:2:0:0:
344,268,83383,6,0,P|288:288|232:272,2,120,0|2|0,3:0|3:2|3:0,0:0:0:0:
408,164,85220,1,0,3:0:0:0:
336,68,85832,2,0,P|280:64|216:100,1,120,0|0,3:0|3:0,0:0:0:0:
148,184,87056,2,0,P|128:240|136:308,1,120,0|0,3:0|3:0,0:0:0:0:
252,288,88281,6,0,B|332:282|332:282|402:325|402:325|482:320,1,240,0|2,3:0|3:2,0:0:0:0:
436,208,90118,1,2,3:2:0:0:
492,96,90730,2,0,B|376:48|376:156|260:100,1,240,0|0,3:0|3:0,0:0:0:0:
160,40,92566,1,2,3:2:0:0:
156,160,93179,6,0,L|148:280,1,120,0|2,3:0|3:2,0:0:0:0:
256,332,94403,2,0,L|264:212,1,120,0|2,3:0|3:2,0:0:0:0:
368,152,95628,2,0,P|424:172|488:148,2,120,0|0|0,3:0|3:0|3:0,0:0:0:0:
276,76,97464,1,0,3:0:0:0:
168,20,98077,6,0,P|92:20|48:140,1,180,0|0,3:0|3:0,0:0:0:0:
88,136,99301,2,0,B|108:192|108:192|92:252,1,120,8|2,0:0|0:0,0:0:0:0:
188,324,100526,2,0,L|368:312,1,180,0|0,3:0|3:0,0:0:0:0:
416,276,101750,2,0,P|424:216|396:164,1,120,8|2,0:0|0:0,0:0:0:0:
292,108,102975,6,0,B|232:100|232:100|176:120|176:120|116:112,1,180,0|0,3:0|3:0,0:0:0:0:
64,140,104199,2,0,P|40:200|52:256,1,120,8|8,0:0|0:0,0:0:0:0:
152,316,105424,2,0,B|248:280|240:360|360:312,1,180,0|0,3:0|3:0,0:0:0:0:
380,296,106648,2,0,B|390:236|390:236|365:182,1,120,8|8,0:0|0:0,0:0:0:0:
300,80,107873,6,0,L|60:100,1,240,0|2,3:0|3:2,0:0:0:0:
8,208,109709,1,2,3:2:0:0:
128,196,110322,6,0,L|368:176,1,240,0|2,3:0|3:2,0:0:0:0:
448,268,112158,1,2,3:2:0:0:
328,280,112771,6,0,L|88:300,1,240,2|0,3:2|3:0,0:0:0:0:
8,208,114607,1,2,3:2:0:0:
256,192,115220,12,0,117669,3:0:0:0:
64,164,119505,5,2,3:2:0:0:
156,88,120118,1,2,3:2:0:0:
268,136,120730,2,0,B|284:221|284:221|251:291|251:291|262:371,1,240,2|2,3:2|3:2,0:0:0:0:
368,312,122566,6,0,P|428:324|484:300,1,120,2|2,3:2|3:2,0:0:0:0:
461,183,123791,2,0,P|401:171|345:195,1,120,2|2,3:2|3:2,0:0:0:0:
256,268,125015,2,0,B|196:256|196:256|140:276|140:276|80:268,1,180,2|10,3:2|0:0,0:0:0:0:
44,220,126240,2,0,P|32:160|60:108,1,120,2|2,3:2|3:2,0:0:0:0:
132,16,127464,5,8,0:0:0:0:
256,192,127771,12,2,137260,0:0:0:0:
