osu file format v14

[General]
AudioFilename: ED3.mp3
AudioLeadIn: 0
PreviewTime: 60839
Countdown: 0
SampleSet: Soft
StackLeniency: 0.7
Mode: 0
LetterboxInBreaks: 0
WidescreenStoryboard: 0

[Editor]
DistanceSpacing: 1.7
BeatDivisor: 4
GridSize: 4
TimelineZoom: 1

[Metadata]
Title:Nameless Heart(TV edit.)
TitleUnicode:Nameless Heart(TV edit.)
Artist:Fremy Speeddraw (CV: Yuuki Aoi)
ArtistUnicode:フレミー・スピッドロウ(CV:悠木 碧)
Creator:Garden
Version:Hard
Source:六花の勇者
Tags:Pata-Mon rokka no yuusha braves of the six flowers ending tv size
BeatmapID:1033045
BeatmapSetID:403575

[Difficulty]
HPDrainRate:5
CircleSize:3.7
OverallDifficulty:5.5
ApproachRate:7
SliderMultiplier:2.2
SliderTickRate:1

[Events]
//Background and Video events
0,0,"0.jpg",0,0
Video,0,"ED3.flv"
//Break Periods
//Storyboard Layer 0 (Background)
//Storyboard Layer 1 (Fail)
//Storyboard Layer 2 (Pass)
//Storyboard Layer 3 (Foreground)
//Storyboard Sound Samples

[TimingPoints]
1521,681.818181818182,4,2,1,45,1,0
11066,-100,4,2,1,35,0,0
12430,-133.333333333333,4,2,1,20,0,0
15157,-133.333333333333,4,2,1,35,0,0
53339,-133.333333333333,4,2,1,45,0,0
60839,-100,4,2,1,40,0,0
61521,-83.3333333333333,4,2,1,60,0,1
72259,-83.3333333333333,4,2,1,60,0,0
72430,-83.3333333333333,4,2,1,60,0,1
77202,-100,4,2,1,55,0,1
77884,-133.333333333333,4,2,1,30,0,0
78225,-133.333333333333,4,2,1,40,0,0
81975,-133.333333333333,4,2,1,50,0,0
83339,-100,4,2,1,60,0,0
85896,-100,4,2,1,10,0,0
86066,-100,4,2,1,60,0,0
88793,-100,4,2,1,10,0,0

[Colours]
Combo1 : 142,142,255
Combo2 : 112,112,112
Combo3 : 202,202,202
Combo4 : 119,255,255

[HitObjects]
444,88,1521,6,0,P|427:169|414:255,1,165,2|0,0:0|0:0,0:0:0:0:
404,337,2202,1,2,0:0:0:0:
318,313,2373,2,0,P|264:306|214:328,1,110,2|0,0:0|0:0,0:0:0:0:
135,369,2884,6,0,P|73:370|21:278,1,165,2|0,0:0|0:0,0:0:0:0:
40,205,3566,1,2,0:0:0:0:
126,220,3736,2,0,P|173:214|241:204,1,110,2|0,0:0|0:0,0:0:0:0:
290,135,4248,38,0,P|256:216|286:293,1,165,2|0,0:0|0:0,0:0:0:0:
364,327,4930,1,2,0:0:0:0:
364,327,5271,2,0,P|401:318|425:314,1,55,0|0,0:0|0:0,0:0:0:0:
505,314,5611,6,0,P|495:266|486:202,1,110,2|0,0:0|0:0,0:0:0:0:
486,116,6123,1,2,0:0:0:0:
406,78,6293,2,0,L|332:83,1,55,2|0,0:0|0:0,0:0:0:0:
336,168,6634,2,0,L|411:162,1,55,2|0,0:0|0:0,0:0:0:0:
407,250,6975,38,0,B|303:257|303:257|270:244|244:206,1,165,2|0,0:0|0:0,0:0:0:0:
253,132,7657,1,2,0:0:0:0:
173,95,7827,2,0,P|119:105|73:148,1,110,2|0,0:0|0:0,0:0:0:0:
122,216,8339,6,0,P|161:293|108:380,1,165,2|0,0:0|0:0,0:0:0:0:
74,293,9021,1,2,0:0:0:0:
122,216,9191,2,0,P|185:219|254:224,1,110,2|0,0:0|0:0,0:0:0:0:
316,247,9702,38,0,P|401:254|461:197,1,165,2|0,0:0|0:0,0:0:0:0:
484,121,10384,1,2,0:0:0:0:
456,37,10555,2,0,P|407:54|340:84,1,110,2|0,0:0|0:0,0:0:0:0:
286,134,11066,6,0,B|194:97|200:154|125:129,2,165,2|2|2,0:0|0:0|0:0,0:0:0:0:
457,205,12430,38,0,P|444:284|434:368,1,165.000006294251,2|2,0:0|0:0,0:0:0:0:
175,316,13793,2,0,P|235:304|340:277,1,165.000006294251,2|2,0:0|0:0,0:0:0:0:
498,69,15157,6,0,P|457:69|411:97,1,82.5000031471254,2|0,0:0|0:0,0:0:0:0:
396,109,15668,2,0,L|297:98,1,82.5000031471254,0|0,0:0|0:0,0:0:0:0:
281,94,16180,1,0,0:0:0:0:
154,55,16521,2,0,P|106:62|64:81,1,82.5000031471254,2|2,0:0|0:0,0:0:0:0:
108,203,17202,2,0,P|155:194|195:174,1,82.5000031471254,2|0,0:0|0:0,0:0:0:0:
21,159,17884,38,0,B|-14:246|72:300|72:300|159:279|146:318|237:302,1,330.000012588501,2|0,0:0|0:0,0:0:0:0:
342,226,19589,1,0,0:0:0:0:
503,337,19930,2,0,P|461:339|422:330,1,82.5000031471254,2|0,0:0|0:0,0:0:0:0:
342,226,20611,6,0,P|338:190|338:112,1,82.5000031471254,2|0,0:0|0:0,0:0:0:0:
348,21,21293,1,2,0:0:0:0:
472,38,21634,2,0,L|466:84,1,41.2500015735627
463,110,21975,2,0,P|465:161|472:207,1,82.5000031471254
489,308,22657,2,0,P|445:297|389:289,1,82.5000031471254,0|0,0:0|0:0,0:0:0:0:
290,352,23339,38,0,P|243:371|189:368,1,82.5000031471254,2|0,0:0|0:0,0:0:0:0:
179,365,23850,1,0,0:0:0:0:
149,351,24021,2,0,P|168:310|176:264,1,82.5000031471254,2|0,0:0|0:0,0:0:0:0:
64,190,24702,2,0,P|98:196|132:196,1,41.2500015735627,2|0,0:0|0:0,0:0:0:0:
138,188,25043,2,0,P|147:163|151:144,1,41.2500015735627,2|0,0:0|0:0,0:0:0:0:
144,117,25384,1,2,0:0:0:0:
26,9,26066,6,0,P|15:91|17:115,1,82.5000031471254,2|2,0:0|0:0,0:0:0:0:
29,121,26577,2,0,P|76:116|121:115,1,82.5000031471254,0|0,0:0|0:0,0:0:0:0:
144,117,27089,1,2,0:0:0:0:
262,174,27430,2,0,P|338:178|410:111,1,165.000006294251,2|2,0:0|0:0,0:0:0:0:
297,45,28452,1,0,0:0:0:0:
262,174,28793,38,0,P|258:223|261:277,1,82.5000031471254,2|2,0:0|0:0,0:0:0:0:
347,354,29475,2,0,P|391:351|445:356,2,82.5000031471254,2|0|2,0:0|0:0|0:0,0:0:0:0:
216,374,30498,1,0,0:0:0:0:
90,338,30839,1,0,0:0:0:0:
74,309,31009,2,0,P|70:274|83:215,1,82.5000031471254
96,199,31521,6,0,P|141:206|184:210,1,82.5000031471254,2|0,0:0|0:0,0:0:0:0:
312,204,32202,2,0,P|355:195|411:189,1,82.5000031471254,2|0,0:0|0:0,0:0:0:0:
426,196,32714,1,0,0:0:0:0:
457,184,32884,2,0,P|462:144|463:102,1,82.5000031471254,2|0,0:0|0:0,0:0:0:0:
356,26,33566,2,0,P|315:32|261:47,1,82.5000031471254,2|0,0:0|0:0,0:0:0:0:
246,58,34077,1,0,0:0:0:0:
223,81,34248,38,0,P|178:78|118:64,1,82.5000031471254,2|0,0:0|0:0,0:0:0:0:
47,165,34930,2,0,P|39:206|46:260,1,82.5000031471254,2|0,0:0|0:0,0:0:0:0:
170,215,35611,2,0,P|179:163|169:113,1,82.5000031471254,2|0,0:0|0:0,0:0:0:0:
126,316,36293,1,0,0:0:0:0:
155,331,36464,2,0,P|201:329|246:304,1,82.5000031471254
258,291,36975,6,0,L|361:305,1,82.5000031471254,2|0,0:0|0:0,0:0:0:0:
458,361,37657,1,0,0:0:0:0:
448,329,37827,2,0,P|448:296|453:232,1,82.5000031471254,2|0,0:0|0:0,0:0:0:0:
474,222,38339,2,0,P|471:183|467:138,1,82.5000031471254,2|0,0:0|0:0,0:0:0:0:
427,13,39021,2,0,P|452:17|481:27,2,41.2500015735627,0|2|0,0:0|0:0|0:0,0:0:0:0:
328,103,39702,38,0,P|285:101|229:88,1,82.5000031471254,2|0,0:0|0:0,0:0:0:0:
134,22,40384,2,0,P|89:31|45:45,1,82.5000031471254,2|0,0:0|0:0,0:0:0:0:
30,65,40896,1,0,0:0:0:0:
17,95,41066,2,0,L|26:188,1,82.5000031471254,2|0,0:0|0:0,0:0:0:0:
45,203,41577,1,2,0:0:0:0:
66,228,41748,2,0,L|63:278,1,41.2500015735627,0|2,0:0|0:0,0:0:0:0:
48,298,42089,1,0,0:0:0:0:
159,368,42430,6,0,P|197:358|244:350,1,82.5000031471254,2|0,0:0|0:0,0:0:0:0:
327,252,43111,2,0,P|285:240|244:231,1,82.5000031471254,2|0,0:0|0:0,0:0:0:0:
214,231,43623,1,0,0:0:0:0:
182,239,43793,2,0,P|162:191|158:150,1,82.5000031471254,2|2,0:0|0:0,0:0:0:0:
164,28,44475,2,0,P|203:42|250:56,1,82.5000031471254,2|0,0:0|0:0,0:0:0:0:
374,53,45157,38,0,P|420:40|480:31,1,82.5000031471254,2|0,0:0|0:0,0:0:0:0:
487,35,45668,2,0,P|486:82|479:133,1,82.5000031471254,0|2,0:0|0:0,0:0:0:0:
474,149,46180,1,0,0:0:0:0:
380,241,46521,1,2,0:0:0:0:
489,316,46861,1,2,0:0:0:0:
380,241,47202,1,2,0:0:0:0:
350,256,47373,2,0,P|303:264|257:266,1,82.5000031471254,0|0,0:0|0:0,0:0:0:0:
237,256,47884,6,0,P|232:211|235:162,1,82.5000031471254,2|0,0:0|0:0,0:0:0:0:
295,56,48566,1,0,0:0:0:0:
266,40,48736,2,0,P|230:50|176:60,1,82.5000031471254,2|0,0:0|0:0,0:0:0:0:
154,47,49248,2,0,P|136:97|128:130,1,82.5000031471254,2|0,0:0|0:0,0:0:0:0:
140,156,49759,2,0,P|96:154|44:157,1,82.5000031471254,2|0,0:0|0:0,0:0:0:0:
25,164,50271,1,0,0:0:0:0:
37,300,50611,38,0,P|89:298|138:290,1,82.5000031471254,2|0,0:0|0:0,0:0:0:0:
149,309,51123,1,2,0:0:0:0:
178,325,51293,2,0,P|227:317|285:313,1,82.5000031471254
293,316,51805,1,0,0:0:0:0:
325,324,51975,2,0,P|330:279|332:237,1,82.5000031471254,2|0,0:0|0:0,0:0:0:0:
319,212,52486,2,0,P|316:186|317:164,1,41.2500015735627,0|2,0:0|0:0,0:0:0:0:
364,51,52998,2,0,P|390:43|414:40,1,41.2500015735627,0|0,0:0|0:0,0:0:0:0:
432,59,53339,6,0,B|359:90|363:31|264:67,1,165.000006294251,2|2,0:0|0:0,0:0:0:0:
153,205,54361,2,0,B|239:175|241:222|315:196,1,165.000006294251,2|2,0:0|0:0,0:0:0:0:
505,292,55384,2,0,P|478:289|439:291,1,41.2500015735627,2|0,0:0|0:0,0:0:0:0:
432,295,55725,1,0,0:0:0:0:
316,357,56066,38,0,B|307:294|307:294|322:254|322:254|313:186,1,165.000006294251,2|2,0:0|0:0,0:0:0:0:
151,43,57089,2,0,B|160:106|160:106|145:146|145:146|152:204,1,165.000006294251,2|2,0:0|0:0,0:0:0:0:
276,76,58111,1,2,0:0:0:0:
308,85,58282,2,0,P|350:83|411:62,1,82.5000031471254,2|0,0:0|0:0,0:0:0:0:
463,16,58793,5,2,0:0:0:0:
463,16,59134,6,0,P|477:41|486:73,1,41.2500015735627,2|0,0:0|0:0,0:0:0:0:
454,139,59475,6,0,P|457:160|457:180,1,41.2500015735627,2|0,0:0|0:0,0:0:0:0:
392,246,59816,38,0,P|388:277|379:306,1,41.2500015735627,2|0,0:0|0:0,0:0:0:0:
316,349,60157,6,0,B|239:314|234:380|139:339,1,165.000006294251,2|2,0:0|0:0,0:0:0:0:
93,274,61009,6,2,P|143:254|198:261,1,110,2|0,0:0|0:0,0:0:0:0:
155,345,61521,38,0,B|136:195,1,131.99999597168,4|0,1:0|0:0,0:0:0:0:
146,121,62032,1,0,0:0:0:0:
230,158,62202,2,0,P|305:157|360:104,1,131.99999597168,8|0,0:0|0:0,0:0:0:0:
354,30,62714,1,2,0:0:0:0:
262,35,62884,2,0,L|178:46,1,65.9999979858399,0|2,1:0|0:0,0:0:0:0:
146,121,63225,2,0,L|75:113,1,65.9999979858399,0|2,1:0|0:0,0:0:0:0:
13,49,63566,1,8,0:0:0:0:
103,210,63907,1,2,0:0:0:0:
19,369,64248,38,0,P|13:316|10:238,1,131.99999597168,4|0,0:0|0:0,0:0:0:0:
103,210,64759,1,0,0:0:0:0:
170,273,64930,2,0,P|230:298|295:286,1,131.99999597168,8|0,0:0|0:0,0:0:0:0:
367,229,65441,1,0,1:2:0:0:
311,155,65611,2,0,B|278:94|328:35|328:35|373:49|370:77|367:113,1,197.99999395752,2|2,1:2|1:2,0:0:0:0:
367,229,66293,1,8,0:0:0:0:
212,128,66634,1,2,0:0:0:0:
463,46,66975,6,0,P|471:112|475:198,1,131.99999597168,4|0,0:0|0:0,0:0:0:0:
452,267,67486,1,0,0:0:0:0:
367,229,67657,2,0,P|312:225|240:275,1,131.99999597168,8|0,0:0|0:0,0:0:0:0:
238,355,68168,1,2,0:0:0:0:
146,337,68339,2,0,P|110:344|77:356,2,65.9999979858399,0|2|0,1:0|0:0|1:0,0:0:0:0:
330,320,69021,1,8,0:0:0:0:
161,245,69361,1,2,0:0:0:0:
288,111,69702,38,0,P|278:195|276:259,1,131.99999597168,4|0,0:0|0:0,0:0:0:0:
330,320,70214,1,0,1:0:0:0:
412,360,70384,2,0,P|452:327|464:242,1,131.99999597168,8|8,0:0|0:3,0:0:0:0:
425,170,70896,1,4,0:3:0:0:
448,73,71066,6,0,B|483:71|483:71|517:80,1,65.9999979858399,2|4,1:2|0:0,0:0:0:0:
425,170,71407,2,0,B|390:175|390:175|336:164,1,65.9999979858399,2|4,1:2|0:0,0:0:0:0:
288,111,71748,1,2,1:2:0:0:
209,159,71918,2,0,P|199:235|196:303,1,131.99999597168,4|0,0:0|0:0,0:0:0:0:
146,369,72430,38,0,P|71:358|38:293,1,131.99999597168,4|0,1:0|0:0,0:0:0:0:
81,231,72941,1,0,0:0:0:0:
14,167,73111,2,0,P|21:117|39:37,1,131.99999597168,8|0,0:0|0:0,0:0:0:0:
125,2,73623,1,2,0:0:0:0:
197,58,73793,2,0,L|287:50,1,65.9999979858399,0|2,1:0|0:0,0:0:0:0:
339,104,74134,2,0,L|415:108,1,65.9999979858399,0|2,1:0|0:0,0:0:0:0:
482,57,74475,1,8,0:0:0:0:
357,193,74816,1,2,0:0:0:0:
441,357,75157,6,0,P|441:294|447:213,1,131.99999597168,4|0,0:0|0:0,0:0:0:0:
357,193,75668,1,0,0:0:0:0:
306,270,75839,2,0,P|241:296|167:274,1,131.99999597168,8|0,0:0|0:0,0:0:0:0:
114,220,76350,1,0,1:0:0:0:
181,156,76521,1,0,1:0:0:0:
181,156,76691,2,0,B|197:115|197:115|182:20,1,131.99999597168,8|8,0:0|0:3,0:0:0:0:
85,0,77202,6,0,L|101:114,1,110,2|0,0:0|0:0,0:0:0:0:
114,220,77884,6,0,P|69:221|25:244,1,82.5000031471254,4|0,0:0|0:0,0:0:0:0:
10,258,78396,2,0,P|15:290|20:307,1,41.2500015735627,2|0,0:0|0:0,0:0:0:0:
111,366,78907,2,0,P|135:363|168:355,1,41.2500015735627,0|0,0:0|0:0,0:0:0:0:
181,345,79248,2,0,P|230:346|276:351,1,82.5000031471254,2|0,0:0|0:0,0:0:0:0:
377,369,79930,2,0,P|385:334|391:273,1,82.5000031471254,2|0,0:0|0:0,0:0:0:0:
307,214,80611,38,0,B|404:128|441:218|481:208|514:155|514:129|494:86,1,247.500009441376,2|0,0:0|0:0,0:0:0:0:
448,22,81975,1,8,0:3:0:0:
448,22,82657,1,2,0:0:0:0:
420,39,82827,2,0,P|381:47|338:50,1,82.5000031471254,0|0,0:0|0:0,0:0:0:0:
254,14,83339,38,0,P|174:17|124:80,1,165,4|4,0:1|0:3,0:0:0:0:
174,157,84021,1,8,0:0:0:0:
150,245,84191,2,0,L|13:259,1,110,2|0,0:0|0:0,0:0:0:0:
132,336,84702,1,10,0:0:0:0:
132,336,84873,2,0,L|268:319,1,110,8|0,0:0|0:0,0:0:0:0:
319,366,85384,2,0,P|260:323|253:215,1,165,2|0,0:0|0:0,0:0:0:0:
272,149,86066,37,2,0:0:0:0:
256,192,86236,12,0,89475,0:0:0:0:
