osu file format v14

[General]
AudioFilename: audio.mp3
AudioLeadIn: 0
PreviewTime: 43422
Countdown: 0
SampleSet: Soft
StackLeniency: 0.7
Mode: 3
LetterboxInBreaks: 0
SpecialStyle: 0
WidescreenStoryboard: 0

[Editor]
Bookmarks: 74557
DistanceSpacing: 0.8
BeatDivisor: 8
GridSize: 4
TimelineZoom: 2.4

[Metadata]
Title:Chocolate Planet
TitleUnicode:Chocolate Planet
Artist:Freezer feat. Kiichigo
ArtistUnicode:Freezer feat. 妃苺
Creator:PiraTom
Version:MAXIMUM
Source:SOUND VOLTEX IV HEAVENLY HAVEN
Tags:sdvx kiichigo
BeatmapID:1203678
BeatmapSetID:567928

[Difficulty]
HPDrainRate:8
CircleSize:4
OverallDifficulty:8
ApproachRate:5
SliderMultiplier:1.4
SliderTickRate:1

[Events]
//Background and Video events
0,0,"bg.jpg",0,0
//Break Periods
//Storyboard Layer 0 (Background)
//Storyboard Layer 1 (Fail)
//Storyboard Layer 2 (Pass)
//Storyboard Layer 3 (Foreground)
//Storyboard Sound Samples

[TimingPoints]
612,324.324324324324,4,2,0,53,1,0

[HitObjects]
64,192,612,5,0,0:0:0:0:
192,192,693,1,0,0:0:0:0:
320,192,855,1,0,0:0:0:0:
192,192,936,1,0,0:0:0:0:
320,192,1098,1,0,0:0:0:0:
448,192,1179,1,0,0:0:0:0:
64,192,1260,1,0,0:0:0:0:
192,192,1260,1,0,0:0:0:0:
320,192,1341,1,0,0:0:0:0:
192,192,1422,1,0,0:0:0:0:
448,192,1422,1,0,0:0:0:0:
64,192,1584,1,0,0:0:0:0:
320,192,1584,1,0,0:0:0:0:
448,192,1584,1,0,0:0:0:0:
192,192,1584,128,0,1909:0:0:0:0:
64,192,1909,1,0,0:0:0:0:
448,192,1909,1,0,0:0:0:0:
320,192,2071,1,0,0:0:0:0:
64,192,2233,1,0,0:0:0:0:
192,192,2233,1,0,0:0:0:0:
448,192,2233,1,0,0:0:0:0:
320,192,2395,1,0,0:0:0:0:
64,192,2557,1,0,0:0:0:0:
192,192,2557,1,0,0:0:0:0:
448,192,2720,1,0,0:0:0:0:
64,192,2882,1,0,0:0:0:0:
320,192,2882,1,0,0:0:0:0:
448,192,2882,1,0,0:0:0:0:
192,192,3044,1,0,0:0:0:0:
64,192,3206,1,0,0:0:0:0:
320,192,3206,1,0,0:0:0:0:
448,192,3368,1,0,0:0:0:0:
64,192,3530,1,0,0:0:0:0:
320,192,3530,1,0,0:0:0:0:
192,192,3530,1,0,0:0:0:0:
64,192,3693,1,0,0:0:0:0:
320,192,3855,1,0,0:0:0:0:
448,192,3855,1,0,0:0:0:0:
192,192,4017,1,0,0:0:0:0:
64,192,4179,1,0,0:0:0:0:
192,192,4179,1,0,0:0:0:0:
448,192,4179,1,0,0:0:0:0:
320,192,4341,1,0,0:0:0:0:
64,192,4503,1,0,0:0:0:0:
448,192,4503,1,0,0:0:0:0:
192,192,4666,1,0,0:0:0:0:
64,192,4828,1,0,0:0:0:0:
320,192,4828,1,0,0:0:0:0:
448,192,4828,1,0,0:0:0:0:
320,192,4990,1,0,0:0:0:0:
192,192,5152,1,0,0:0:0:0:
448,192,5152,1,0,0:0:0:0:
64,192,5314,1,0,0:0:0:0:
192,192,5476,1,0,0:0:0:0:
320,192,5476,1,0,0:0:0:0:
448,192,5476,1,0,0:0:0:0:
64,192,5639,1,0,0:0:0:0:
320,192,5801,1,0,0:0:0:0:
448,192,5801,1,0,0:0:0:0:
192,192,5963,1,0,0:0:0:0:
64,192,6125,1,0,0:0:0:0:
192,192,6125,1,0,0:0:0:0:
448,192,6125,1,0,0:0:0:0:
320,192,6287,1,0,0:0:0:0:
192,192,6449,1,0,0:0:0:0:
448,192,6449,1,0,0:0:0:0:
64,192,6611,1,0,0:0:0:0:
192,192,6774,1,0,0:0:0:0:
448,192,6774,1,0,0:0:0:0:
64,192,6814,1,0,0:0:0:0:
320,192,6855,1,0,0:0:0:0:
192,192,6895,1,0,0:0:0:0:
448,192,6936,1,0,0:0:0:0:
320,192,6976,1,0,0:0:0:0:
64,192,7017,1,0,0:0:0:0:
192,192,7057,1,0,0:0:0:0:
320,192,7098,1,0,0:0:0:0:
448,192,7098,1,0,0:0:0:0:
192,192,7260,1,0,0:0:0:0:
64,192,7422,1,0,0:0:0:0:
320,192,7422,1,0,0:0:0:0:
448,192,7422,1,0,0:0:0:0:
192,192,7584,1,0,0:0:0:0:
64,192,7747,1,0,0:0:0:0:
448,192,7747,1,0,0:0:0:0:
320,192,7909,1,0,0:0:0:0:
64,192,8071,1,0,0:0:0:0:
192,192,8071,1,0,0:0:0:0:
320,192,8071,1,0,0:0:0:0:
448,192,8233,1,0,0:0:0:0:
64,192,8395,1,0,0:0:0:0:
320,192,8395,1,0,0:0:0:0:
192,192,8557,1,0,0:0:0:0:
64,192,8720,1,0,0:0:0:0:
320,192,8720,1,0,0:0:0:0:
448,192,8720,1,0,0:0:0:0:
320,192,8882,1,0,0:0:0:0:
192,192,9044,1,0,0:0:0:0:
448,192,9044,1,0,0:0:0:0:
64,192,9206,1,0,0:0:0:0:
64,192,9368,1,0,0:0:0:0:
192,192,9368,1,0,0:0:0:0:
320,192,9368,1,0,0:0:0:0:
448,192,9530,1,0,0:0:0:0:
192,192,9693,1,0,0:0:0:0:
320,192,9693,1,0,0:0:0:0:
64,192,9855,1,0,0:0:0:0:
192,192,10017,1,0,0:0:0:0:
320,192,10017,1,0,0:0:0:0:
448,192,10017,1,0,0:0:0:0:
320,192,10179,1,0,0:0:0:0:
64,192,10341,1,0,0:0:0:0:
192,192,10341,1,0,0:0:0:0:
448,192,10503,1,0,0:0:0:0:
64,192,10666,1,0,0:0:0:0:
320,192,10666,1,0,0:0:0:0:
448,192,10666,1,0,0:0:0:0:
192,192,10828,1,0,0:0:0:0:
64,192,10990,1,0,0:0:0:0:
448,192,10990,1,0,0:0:0:0:
64,192,11152,1,0,0:0:0:0:
448,192,11152,1,0,0:0:0:0:
64,192,11314,1,0,0:0:0:0:
192,192,11314,1,0,0:0:0:0:
448,192,11314,1,0,0:0:0:0:
320,192,11395,1,0,0:0:0:0:
192,192,11476,1,0,0:0:0:0:
320,192,11557,1,0,0:0:0:0:
192,192,11639,1,0,0:0:0:0:
64,192,11639,1,0,0:0:0:0:
320,192,11801,1,0,0:0:0:0:
448,192,11801,1,0,0:0:0:0:
192,192,11963,1,0,0:0:0:0:
320,192,11963,1,0,0:0:0:0:
64,192,11963,128,0,12287:0:0:0:0:
192,192,12287,1,0,0:0:0:0:
320,192,12287,1,0,0:0:0:0:
448,192,12287,1,0,0:0:0:0:
64,192,12449,1,0,0:0:0:0:
320,192,12611,128,0,12774:0:0:0:0:
192,192,12774,128,0,12936:0:0:0:0:
448,192,12774,1,0,0:0:0:0:
448,192,12936,128,0,13098:0:0:0:0:
320,192,12936,1,0,0:0:0:0:
64,192,12936,1,0,0:0:0:0:
64,192,13098,128,0,13422:0:0:0:0:
192,192,13098,1,0,0:0:0:0:
192,192,13422,128,0,13909:0:0:0:0:
448,192,13422,1,0,0:0:0:0:
320,192,13747,1,0,0:0:0:0:
448,192,13909,128,0,14071:0:0:0:0:
320,192,14071,128,0,14233:0:0:0:0:
192,192,14071,1,0,0:0:0:0:
64,192,14233,1,0,0:0:0:0:
192,192,14233,1,0,0:0:0:0:
448,192,14233,1,0,0:0:0:0:
64,192,14395,128,0,14720:0:0:0:0:
320,192,14395,1,0,0:0:0:0:
448,192,14557,1,0,0:0:0:0:
320,192,14598,1,0,0:0:0:0:
192,192,14639,1,0,0:0:0:0:
448,192,14679,1,0,0:0:0:0:
320,192,14720,1,0,0:0:0:0:
192,192,14760,1,0,0:0:0:0:
64,192,14801,1,0,0:0:0:0:
448,192,14841,1,0,0:0:0:0:
320,192,14882,128,0,15206:0:0:0:0:
192,192,14882,1,0,0:0:0:0:
448,192,15206,128,0,15368:0:0:0:0:
192,192,15368,128,0,15693:0:0:0:0:
320,192,15368,1,0,0:0:0:0:
64,192,15530,1,0,0:0:0:0:
320,192,15530,1,0,0:0:0:0:
448,192,15530,1,0,0:0:0:0:
320,192,15693,128,0,16017:0:0:0:0:
448,192,15693,1,0,0:0:0:0:
192,192,15855,1,0,0:0:0:0:
64,192,15936,1,0,0:0:0:0:
192,192,16017,1,0,0:0:0:0:
448,192,16017,1,0,0:0:0:0:
320,192,16098,1,0,0:0:0:0:
64,192,16179,128,0,16341:0:0:0:0:
448,192,16179,1,0,0:0:0:0:
192,192,16341,1,0,0:0:0:0:
448,192,16341,1,0,0:0:0:0:
448,192,16503,128,0,16666:0:0:0:0:
64,192,16503,1,0,0:0:0:0:
192,192,16544,1,0,0:0:0:0:
320,192,16584,1,0,0:0:0:0:
64,192,16625,1,0,0:0:0:0:
192,192,16666,128,0,16990:0:0:0:0:
320,192,16706,1,0,0:0:0:0:
448,192,16747,1,0,0:0:0:0:
64,192,16828,1,0,0:0:0:0:
448,192,16990,1,0,0:0:0:0:
320,192,16990,1,0,0:0:0:0:
192,192,17152,1,0,0:0:0:0:
448,192,17152,1,0,0:0:0:0:
64,192,17233,1,0,0:0:0:0:
320,192,17233,1,0,0:0:0:0:
192,192,17314,1,0,0:0:0:0:
448,192,17314,1,0,0:0:0:0:
64,192,17395,1,0,0:0:0:0:
320,192,17395,1,0,0:0:0:0:
192,192,17476,1,0,0:0:0:0:
448,192,17476,1,0,0:0:0:0:
64,192,17639,1,0,0:0:0:0:
320,192,17801,128,0,17882:0:0:0:0:
320,192,17963,128,0,18125:0:0:0:0:
64,192,17963,1,0,0:0:0:0:
64,192,18125,128,0,18287:0:0:0:0:
192,192,18125,1,0,0:0:0:0:
448,192,18125,1,0,0:0:0:0:
192,192,18287,128,0,18449:0:0:0:0:
320,192,18287,1,0,0:0:0:0:
448,192,18449,128,0,18611:0:0:0:0:
64,192,18449,1,0,0:0:0:0:
192,192,18530,1,0,0:0:0:0:
64,192,18611,128,0,18936:0:0:0:0:
320,192,18611,1,0,0:0:0:0:
448,192,18693,1,0,0:0:0:0:
192,192,18774,1,0,0:0:0:0:
320,192,18936,128,0,19098:0:0:0:0:
192,192,19098,128,0,19260:0:0:0:0:
448,192,19260,128,0,19584:0:0:0:0:
64,192,19260,1,0,0:0:0:0:
64,192,19422,1,0,0:0:0:0:
192,192,19422,1,0,0:0:0:0:
320,192,19422,1,0,0:0:0:0:
320,192,19584,128,0,19909:0:0:0:0:
192,192,19584,1,0,0:0:0:0:
64,192,19787,1,0,0:0:0:0:
192,192,19828,1,0,0:0:0:0:
448,192,19868,1,0,0:0:0:0:
64,192,19909,1,0,0:0:0:0:
192,192,19949,1,0,0:0:0:0:
320,192,19990,1,0,0:0:0:0:
448,192,20030,1,0,0:0:0:0:
192,192,20071,128,0,20395:0:0:0:0:
64,192,20071,1,0,0:0:0:0:
448,192,20395,128,0,20557:0:0:0:0:
64,192,20557,128,0,20882:0:0:0:0:
320,192,20557,1,0,0:0:0:0:
192,192,20720,1,0,0:0:0:0:
320,192,20720,1,0,0:0:0:0:
448,192,20720,1,0,0:0:0:0:
320,192,20882,128,0,21206:0:0:0:0:
192,192,20882,1,0,0:0:0:0:
64,192,21206,1,0,0:0:0:0:
192,192,21206,1,0,0:0:0:0:
448,192,21368,1,0,0:0:0:0:
320,192,21422,1,0,0:0:0:0:
64,192,21476,1,0,0:0:0:0:
192,192,21530,1,0,0:0:0:0:
448,192,21584,1,0,0:0:0:0:
320,192,21639,1,0,0:0:0:0:
64,192,21693,1,0,0:0:0:0:
192,192,21747,1,0,0:0:0:0:
448,192,21801,1,0,0:0:0:0:
320,192,21855,1,0,0:0:0:0:
64,192,21909,1,0,0:0:0:0:
192,192,21963,1,0,0:0:0:0:
320,192,22017,1,0,0:0:0:0:
448,192,22071,1,0,0:0:0:0:
192,192,22125,1,0,0:0:0:0:
64,192,22179,1,0,0:0:0:0:
320,192,22233,1,0,0:0:0:0:
448,192,22287,1,0,0:0:0:0:
192,192,22341,1,0,0:0:0:0:
64,192,22395,1,0,0:0:0:0:
320,192,22449,1,0,0:0:0:0:
448,192,22503,1,0,0:0:0:0:
192,192,22557,1,0,0:0:0:0:
64,192,22611,1,0,0:0:0:0:
192,192,22666,1,0,0:0:0:0:
320,192,22666,1,0,0:0:0:0:
448,192,22666,1,0,0:0:0:0:
320,192,22828,1,0,0:0:0:0:
64,192,22990,1,0,0:0:0:0:
192,192,22990,1,0,0:0:0:0:
448,192,22990,1,0,0:0:0:0:
64,192,23152,1,0,0:0:0:0:
320,192,23314,1,0,0:0:0:0:
448,192,23314,1,0,0:0:0:0:
192,192,23476,1,0,0:0:0:0:
64,192,23639,1,0,0:0:0:0:
192,192,23639,1,0,0:0:0:0:
320,192,23639,1,0,0:0:0:0:
448,192,23801,1,0,0:0:0:0:
192,192,23963,1,0,0:0:0:0:
320,192,23963,1,0,0:0:0:0:
320,192,24125,1,0,0:0:0:0:
64,192,24287,1,0,0:0:0:0:
192,192,24287,1,0,0:0:0:0:
448,192,24287,1,0,0:0:0:0:
64,192,24449,1,0,0:0:0:0:
192,192,24611,1,0,0:0:0:0:
448,192,24611,1,0,0:0:0:0:
320,192,24774,1,0,0:0:0:0:
64,192,24936,1,0,0:0:0:0:
320,192,24936,1,0,0:0:0:0:
448,192,24936,1,0,0:0:0:0:
192,192,25098,1,0,0:0:0:0:
64,192,25260,1,0,0:0:0:0:
320,192,25260,1,0,0:0:0:0:
448,192,25422,1,0,0:0:0:0:
64,192,25584,1,0,0:0:0:0:
192,192,25584,1,0,0:0:0:0:
320,192,25584,1,0,0:0:0:0:
192,192,25747,1,0,0:0:0:0:
64,192,25909,1,0,0:0:0:0:
448,192,25909,1,0,0:0:0:0:
320,192,26071,1,0,0:0:0:0:
64,192,26233,1,0,0:0:0:0:
192,192,26233,1,0,0:0:0:0:
448,192,26233,1,0,0:0:0:0:
320,192,26395,1,0,0:0:0:0:
192,192,26557,1,0,0:0:0:0:
448,192,26557,1,0,0:0:0:0:
64,192,26720,1,0,0:0:0:0:
192,192,26882,1,0,0:0:0:0:
320,192,26882,1,0,0:0:0:0:
448,192,26882,1,0,0:0:0:0:
320,192,27044,1,0,0:0:0:0:
64,192,27206,1,0,0:0:0:0:
192,192,27206,1,0,0:0:0:0:
320,192,27368,1,0,0:0:0:0:
64,192,27530,1,0,0:0:0:0:
448,192,27530,1,0,0:0:0:0:
320,192,27571,1,0,0:0:0:0:
192,192,27611,1,0,0:0:0:0:
448,192,27652,1,0,0:0:0:0:
64,192,27693,1,0,0:0:0:0:
192,192,27733,1,0,0:0:0:0:
320,192,27774,1,0,0:0:0:0:
448,192,27814,1,0,0:0:0:0:
64,192,27855,1,0,0:0:0:0:
192,192,27855,1,0,0:0:0:0:
320,192,28017,1,0,0:0:0:0:
192,192,28179,1,0,0:0:0:0:
320,192,28179,1,0,0:0:0:0:
448,192,28179,1,0,0:0:0:0:
64,192,28341,1,0,0:0:0:0:
192,192,28503,1,0,0:0:0:0:
448,192,28503,1,0,0:0:0:0:
320,192,28666,1,0,0:0:0:0:
64,192,28828,1,0,0:0:0:0:
192,192,28828,1,0,0:0:0:0:
448,192,28828,1,0,0:0:0:0:
64,192,28990,1,0,0:0:0:0:
320,192,29152,1,0,0:0:0:0:
448,192,29152,1,0,0:0:0:0:
192,192,29314,1,0,0:0:0:0:
64,192,29476,1,0,0:0:0:0:
320,192,29476,1,0,0:0:0:0:
448,192,29476,1,0,0:0:0:0:
448,192,29639,1,0,0:0:0:0:
320,192,29801,1,0,0:0:0:0:
192,192,29801,1,0,0:0:0:0:
192,192,29963,1,0,0:0:0:0:
64,192,30125,1,0,0:0:0:0:
320,192,30125,1,0,0:0:0:0:
448,192,30125,1,0,0:0:0:0:
320,192,30287,1,0,0:0:0:0:
64,192,30449,1,0,0:0:0:0:
192,192,30449,1,0,0:0:0:0:
448,192,30611,1,0,0:0:0:0:
192,192,30774,1,0,0:0:0:0:
320,192,30774,1,0,0:0:0:0:
448,192,30774,1,0,0:0:0:0:
320,192,30936,1,0,0:0:0:0:
64,192,31098,1,0,0:0:0:0:
448,192,31098,1,0,0:0:0:0:
192,192,31260,1,0,0:0:0:0:
64,192,31422,1,0,0:0:0:0:
320,192,31422,1,0,0:0:0:0:
448,192,31422,1,0,0:0:0:0:
64,192,31584,1,0,0:0:0:0:
192,192,31747,1,0,0:0:0:0:
448,192,31747,1,0,0:0:0:0:
320,192,31801,1,0,0:0:0:0:
64,192,31855,1,0,0:0:0:0:
192,192,31909,1,0,0:0:0:0:
448,192,31963,1,0,0:0:0:0:
320,192,32017,1,0,0:0:0:0:
64,192,32071,1,0,0:0:0:0:
192,192,32152,1,0,0:0:0:0:
320,192,32233,1,0,0:0:0:0:
448,192,32314,1,0,0:0:0:0:
64,192,32395,1,0,0:0:0:0:
192,192,32476,1,0,0:0:0:0:
320,192,32557,1,0,0:0:0:0:
448,192,32639,1,0,0:0:0:0:
64,192,32720,128,0,32801:0:0:0:0:
192,192,32720,128,0,32801:0:0:0:0:
192,192,33044,128,0,33368:0:0:0:0:
448,192,33044,128,0,33449:0:0:0:0:
64,192,33044,1,0,0:0:0:0:
320,192,33044,1,0,0:0:0:0:
64,192,33368,128,0,33530:0:0:0:0:
448,192,33530,128,0,33693:0:0:0:0:
192,192,33530,128,0,33611:0:0:0:0:
320,192,33530,128,0,33611:0:0:0:0:
64,192,33693,1,0,0:0:0:0:
192,192,33693,1,0,0:0:0:0:
320,192,33693,1,0,0:0:0:0:
448,192,33855,1,0,0:0:0:0:
64,192,34017,128,0,34341:0:0:0:0:
320,192,34017,1,0,0:0:0:0:
192,192,34341,128,0,34747:0:0:0:0:
320,192,34341,128,0,34666:0:0:0:0:
448,192,34341,1,0,0:0:0:0:
448,192,34666,128,0,34828:0:0:0:0:
192,192,34828,128,0,34909:0:0:0:0:
64,192,34828,128,0,34990:0:0:0:0:
320,192,34828,128,0,34909:0:0:0:0:
448,192,34990,1,0,0:0:0:0:
192,192,34990,1,0,0:0:0:0:
320,192,34990,1,0,0:0:0:0:
320,192,35152,1,0,0:0:0:0:
448,192,35314,128,0,35639:0:0:0:0:
64,192,35314,1,0,0:0:0:0:
64,192,35639,128,0,35963:0:0:0:0:
320,192,35639,128,0,36044:0:0:0:0:
192,192,35639,1,0,0:0:0:0:
192,192,35963,128,0,36125:0:0:0:0:
320,192,36125,128,0,36287:0:0:0:0:
64,192,36125,128,0,36206:0:0:0:0:
448,192,36125,128,0,36206:0:0:0:0:
64,192,36287,1,0,0:0:0:0:
192,192,36287,1,0,0:0:0:0:
448,192,36287,1,0,0:0:0:0:
192,192,36449,1,0,0:0:0:0:
320,192,36611,128,0,36774:0:0:0:0:
64,192,36611,1,0,0:0:0:0:
192,192,36774,128,0,36936:0:0:0:0:
64,192,36936,128,0,37341:0:0:0:0:
448,192,36936,128,0,37260:0:0:0:0:
320,192,36936,1,0,0:0:0:0:
320,192,37260,128,0,37422:0:0:0:0:
192,192,37422,128,0,37584:0:0:0:0:
64,192,37422,128,0,37503:0:0:0:0:
448,192,37422,128,0,37503:0:0:0:0:
320,192,37584,128,0,37666:0:0:0:0:
448,192,37584,128,0,37666:0:0:0:0:
64,192,37666,128,0,37747:0:0:0:0:
192,192,37666,128,0,37747:0:0:0:0:
320,192,37747,128,0,37909:0:0:0:0:
448,192,37747,1,0,0:0:0:0:
192,192,37909,128,0,38233:0:0:0:0:
64,192,37909,1,0,0:0:0:0:
64,192,38233,1,0,0:0:0:0:
448,192,38233,1,0,0:0:0:0:
320,192,38233,1,0,0:0:0:0:
320,192,38395,1,0,0:0:0:0:
448,192,38395,1,0,0:0:0:0:
192,192,38476,1,0,0:0:0:0:
64,192,38557,1,0,0:0:0:0:
448,192,38557,1,0,0:0:0:0:
320,192,38557,1,0,0:0:0:0:
320,192,38720,1,0,0:0:0:0:
448,192,38720,1,0,0:0:0:0:
192,192,38801,1,0,0:0:0:0:
64,192,38882,1,0,0:0:0:0:
320,192,38882,1,0,0:0:0:0:
448,192,38882,1,0,0:0:0:0:
448,192,39044,1,0,0:0:0:0:
64,192,39125,1,0,0:0:0:0:
192,192,39125,1,0,0:0:0:0:
320,192,39125,1,0,0:0:0:0:
448,192,39206,1,0,0:0:0:0:
192,192,39368,1,0,0:0:0:0:
320,192,39368,1,0,0:0:0:0:
448,192,39368,1,0,0:0:0:0:
64,192,39530,1,0,0:0:0:0:
192,192,39530,1,0,0:0:0:0:
448,192,39530,1,0,0:0:0:0:
192,192,39693,1,0,0:0:0:0:
64,192,39693,1,0,0:0:0:0:
320,192,39774,1,0,0:0:0:0:
64,192,39855,1,0,0:0:0:0:
192,192,39855,1,0,0:0:0:0:
448,192,39855,1,0,0:0:0:0:
192,192,40017,1,0,0:0:0:0:
64,192,40017,1,0,0:0:0:0:
320,192,40098,1,0,0:0:0:0:
64,192,40179,1,0,0:0:0:0:
192,192,40179,1,0,0:0:0:0:
448,192,40179,1,0,0:0:0:0:
64,192,40341,1,0,0:0:0:0:
192,192,40422,1,0,0:0:0:0:
320,192,40422,1,0,0:0:0:0:
448,192,40422,1,0,0:0:0:0:
64,192,40503,1,0,0:0:0:0:
192,192,40666,1,0,0:0:0:0:
64,192,40666,1,0,0:0:0:0:
320,192,40666,1,0,0:0:0:0:
320,192,40828,1,0,0:0:0:0:
448,192,40828,1,0,0:0:0:0:
64,192,40828,1,0,0:0:0:0:
192,192,40909,1,0,0:0:0:0:
320,192,40990,1,0,0:0:0:0:
448,192,40990,1,0,0:0:0:0:
192,192,41071,1,0,0:0:0:0:
448,192,41152,1,0,0:0:0:0:
64,192,41152,1,0,0:0:0:0:
320,192,41152,1,0,0:0:0:0:
192,192,41233,1,0,0:0:0:0:
320,192,41314,1,0,0:0:0:0:
448,192,41314,1,0,0:0:0:0:
64,192,41395,1,0,0:0:0:0:
448,192,41476,1,0,0:0:0:0:
320,192,41476,1,0,0:0:0:0:
64,192,41557,1,0,0:0:0:0:
192,192,41557,1,0,0:0:0:0:
320,192,41639,1,0,0:0:0:0:
448,192,41639,1,0,0:0:0:0:
64,192,41720,1,0,0:0:0:0:
192,192,41720,1,0,0:0:0:0:
320,192,41801,1,0,0:0:0:0:
448,192,41801,1,0,0:0:0:0:
64,192,41882,1,0,0:0:0:0:
192,192,41882,1,0,0:0:0:0:
320,192,41963,1,0,0:0:0:0:
448,192,41963,1,0,0:0:0:0:
64,192,42044,1,0,0:0:0:0:
192,192,42044,1,0,0:0:0:0:
448,192,42125,1,0,0:0:0:0:
320,192,42179,1,0,0:0:0:0:
192,192,42233,1,0,0:0:0:0:
64,192,42287,1,0,0:0:0:0:
320,192,42341,1,0,0:0:0:0:
192,192,42395,1,0,0:0:0:0:
448,192,42449,1,0,0:0:0:0:
320,192,42503,1,0,0:0:0:0:
64,192,42557,1,0,0:0:0:0:
192,192,42611,1,0,0:0:0:0:
320,192,42666,1,0,0:0:0:0:
448,192,42720,1,0,0:0:0:0:
192,192,42774,1,0,0:0:0:0:
64,192,42774,1,0,0:0:0:0:
320,192,42855,1,0,0:0:0:0:
448,192,42855,1,0,0:0:0:0:
64,192,42936,1,0,0:0:0:0:
192,192,42936,1,0,0:0:0:0:
320,192,43017,1,0,0:0:0:0:
448,192,43098,1,0,0:0:0:0:
64,192,43098,1,0,0:0:0:0:
192,192,43098,1,0,0:0:0:0:
64,192,43422,128,0,43666:0:0:0:0:
448,192,43422,1,0,0:0:0:0:
192,192,43422,128,0,43666:0:0:0:0:
320,192,43422,128,0,43666:0:0:0:0:
448,192,43584,128,0,44233:0:0:0:0:
320,192,43747,128,0,43990:0:0:0:0:
64,192,43747,1,0,0:0:0:0:
192,192,43747,128,0,43990:0:0:0:0:
64,192,43909,128,0,44314:0:0:0:0:
320,192,44071,128,0,44476:0:0:0:0:
192,192,44071,1,0,0:0:0:0:
192,192,44233,128,0,44639:0:0:0:0:
448,192,44395,128,0,44963:0:0:0:0:
64,192,44395,1,0,0:0:0:0:
320,192,44557,128,0,44882:0:0:0:0:
64,192,44720,128,0,44963:0:0:0:0:
192,192,44720,1,0,0:0:0:0:
192,192,44882,128,0,45044:0:0:0:0:
320,192,45044,128,0,45287:0:0:0:0:
448,192,45044,1,0,0:0:0:0:
64,192,45044,128,0,45611:0:0:0:0:
448,192,45206,128,0,45611:0:0:0:0:
192,192,45206,128,0,45287:0:0:0:0:
192,192,45368,128,0,45611:0:0:0:0:
320,192,45368,1,0,0:0:0:0:
320,192,45530,128,0,45693:0:0:0:0:
448,192,45693,128,0,46017:0:0:0:0:
192,192,45693,1,0,0:0:0:0:
64,192,45693,1,0,0:0:0:0:
320,192,46017,128,0,46179:0:0:0:0:
64,192,46017,1,0,0:0:0:0:
192,192,46179,128,0,46341:0:0:0:0:
448,192,46341,128,0,46503:0:0:0:0:
320,192,46341,1,0,0:0:0:0:
64,192,46341,1,0,0:0:0:0:
320,192,46503,128,0,46666:0:0:0:0:
64,192,46666,128,0,46828:0:0:0:0:
192,192,46666,1,0,0:0:0:0:
192,192,46828,128,0,46990:0:0:0:0:
320,192,46990,128,0,47314:0:0:0:0:
448,192,46990,1,0,0:0:0:0:
64,192,46990,1,0,0:0:0:0:
448,192,47314,128,0,47557:0:0:0:0:
64,192,47314,1,0,0:0:0:0:
320,192,47476,128,0,47963:0:0:0:0:
192,192,47639,128,0,47801:0:0:0:0:
64,192,47639,1,0,0:0:0:0:
448,192,47639,1,0,0:0:0:0:
64,192,47801,128,0,48287:0:0:0:0:
448,192,47963,128,0,48125:0:0:0:0:
192,192,47963,128,0,48125:0:0:0:0:
320,192,48125,128,0,48287:0:0:0:0:
192,192,48287,128,0,48449:0:0:0:0:
448,192,48287,1,0,0:0:0:0:
64,192,48449,128,0,48611:0:0:0:0:
448,192,48611,128,0,48855:0:0:0:0:
320,192,48611,128,0,48855:0:0:0:0:
192,192,48611,128,0,48855:0:0:0:0:
64,192,48774,128,0,49422:0:0:0:0:
192,192,48936,128,0,49179:0:0:0:0:
448,192,48936,1,0,0:0:0:0:
320,192,48936,128,0,49179:0:0:0:0:
448,192,49098,128,0,49503:0:0:0:0:
192,192,49260,128,0,49666:0:0:0:0:
320,192,49260,1,0,0:0:0:0:
320,192,49422,128,0,49828:0:0:0:0:
64,192,49584,128,0,50152:0:0:0:0:
448,192,49584,1,0,0:0:0:0:
192,192,49747,128,0,50071:0:0:0:0:
448,192,49909,128,0,50152:0:0:0:0:
320,192,49909,1,0,0:0:0:0:
320,192,50071,128,0,50233:0:0:0:0:
192,192,50233,128,0,50476:0:0:0:0:
64,192,50233,1,0,0:0:0:0:
448,192,50233,128,0,50801:0:0:0:0:
64,192,50395,128,0,50801:0:0:0:0:
320,192,50395,128,0,50476:0:0:0:0:
320,192,50557,128,0,50801:0:0:0:0:
192,192,50557,1,0,0:0:0:0:
192,192,50720,128,0,50882:0:0:0:0:
64,192,50882,128,0,51206:0:0:0:0:
320,192,50882,1,0,0:0:0:0:
448,192,50882,1,0,0:0:0:0:
320,192,51206,128,0,51368:0:0:0:0:
448,192,51206,1,0,0:0:0:0:
192,192,51368,1,0,0:0:0:0:
320,192,51530,1,0,0:0:0:0:
64,192,51530,1,0,0:0:0:0:
448,192,51530,1,0,0:0:0:0:
192,192,51693,128,0,51855:0:0:0:0:
448,192,51693,1,0,0:0:0:0:
320,192,51855,128,0,52017:0:0:0:0:
64,192,51855,1,0,0:0:0:0:
192,192,52017,1,0,0:0:0:0:
64,192,52179,1,0,0:0:0:0:
320,192,52179,1,0,0:0:0:0:
448,192,52179,1,0,0:0:0:0:
64,192,52341,128,0,52503:0:0:0:0:
192,192,52503,128,0,52666:0:0:0:0:
320,192,52503,128,0,52666:0:0:0:0:
448,192,52503,128,0,52666:0:0:0:0:
64,192,52828,128,0,52990:0:0:0:0:
192,192,52828,128,0,52990:0:0:0:0:
448,192,52828,128,0,52990:0:0:0:0:
64,192,53152,128,0,53314:0:0:0:0:
320,192,53152,128,0,53314:0:0:0:0:
448,192,53152,128,0,53314:0:0:0:0:
320,192,53476,128,0,53639:0:0:0:0:
64,192,53476,128,0,53639:0:0:0:0:
192,192,53476,128,0,53639:0:0:0:0:
320,192,53801,1,0,0:0:0:0:
448,192,53801,128,0,54044:0:0:0:0:
192,192,53801,128,0,54044:0:0:0:0:
64,192,53801,128,0,54044:0:0:0:0:
320,192,53963,128,0,54611:0:0:0:0:
448,192,54125,128,0,54368:0:0:0:0:
64,192,54125,128,0,54368:0:0:0:0:
192,192,54125,1,0,0:0:0:0:
192,192,54287,128,0,54693:0:0:0:0:
448,192,54449,128,0,54855:0:0:0:0:
64,192,54449,1,0,0:0:0:0:
64,192,54611,128,0,55017:0:0:0:0:
320,192,54774,128,0,55341:0:0:0:0:
192,192,54774,1,0,0:0:0:0:
448,192,54936,128,0,55260:0:0:0:0:
192,192,55098,128,0,55341:0:0:0:0:
64,192,55098,1,0,0:0:0:0:
64,192,55260,128,0,55422:0:0:0:0:
448,192,55422,128,0,55666:0:0:0:0:
320,192,55422,1,0,0:0:0:0:
192,192,55422,128,0,55990:0:0:0:0:
320,192,55584,128,0,55990:0:0:0:0:
64,192,55584,128,0,55666:0:0:0:0:
448,192,55747,1,0,0:0:0:0:
64,192,55747,128,0,55990:0:0:0:0:
448,192,55909,128,0,56071:0:0:0:0:
320,192,56071,128,0,56395:0:0:0:0:
64,192,56071,1,0,0:0:0:0:
192,192,56071,1,0,0:0:0:0:
192,192,56395,128,0,56557:0:0:0:0:
64,192,56395,1,0,0:0:0:0:
320,192,56557,128,0,56720:0:0:0:0:
64,192,56720,128,0,56882:0:0:0:0:
192,192,56720,1,0,0:0:0:0:
448,192,56720,1,0,0:0:0:0:
192,192,56882,128,0,57044:0:0:0:0:
448,192,57044,128,0,57206:0:0:0:0:
320,192,57044,1,0,0:0:0:0:
320,192,57206,128,0,57368:0:0:0:0:
192,192,57368,128,0,57693:0:0:0:0:
64,192,57368,1,0,0:0:0:0:
448,192,57368,1,0,0:0:0:0:
64,192,57693,128,0,57936:0:0:0:0:
448,192,57693,1,0,0:0:0:0:
192,192,57855,128,0,58341:0:0:0:0:
320,192,58017,128,0,58179:0:0:0:0:
448,192,58017,1,0,0:0:0:0:
64,192,58017,1,0,0:0:0:0:
448,192,58179,128,0,58666:0:0:0:0:
64,192,58341,128,0,58503:0:0:0:0:
320,192,58341,128,0,58503:0:0:0:0:
192,192,58503,128,0,58666:0:0:0:0:
320,192,58666,128,0,58828:0:0:0:0:
64,192,58666,1,0,0:0:0:0:
192,192,58828,128,0,58990:0:0:0:0:
64,192,58990,128,0,59233:0:0:0:0:
320,192,58990,128,0,59233:0:0:0:0:
448,192,58990,128,0,59233:0:0:0:0:
192,192,59152,128,0,59801:0:0:0:0:
64,192,59314,128,0,59557:0:0:0:0:
320,192,59314,1,0,0:0:0:0:
448,192,59314,128,0,59557:0:0:0:0:
320,192,59476,128,0,59882:0:0:0:0:
64,192,59639,128,0,60044:0:0:0:0:
448,192,59639,1,0,0:0:0:0:
448,192,59801,128,0,60206:0:0:0:0:
192,192,59963,128,0,60530:0:0:0:0:
320,192,59963,1,0,0:0:0:0:
64,192,60125,128,0,60449:0:0:0:0:
320,192,60287,128,0,60530:0:0:0:0:
448,192,60287,1,0,0:0:0:0:
448,192,60449,128,0,60611:0:0:0:0:
64,192,60611,128,0,60855:0:0:0:0:
192,192,60611,1,0,0:0:0:0:
320,192,60611,128,0,61179:0:0:0:0:
192,192,60774,128,0,61179:0:0:0:0:
448,192,60774,128,0,60855:0:0:0:0:
64,192,60936,1,0,0:0:0:0:
448,192,60936,128,0,61179:0:0:0:0:
64,192,61098,128,0,61260:0:0:0:0:
448,192,61260,1,0,0:0:0:0:
320,192,61260,1,0,0:0:0:0:
192,192,61260,128,0,61584:0:0:0:0:
64,192,61584,128,0,61747:0:0:0:0:
448,192,61747,1,0,0:0:0:0:
192,192,61909,1,0,0:0:0:0:
320,192,62071,128,0,62233:0:0:0:0:
64,192,62071,1,0,0:0:0:0:
192,192,62233,128,0,62395:0:0:0:0:
448,192,62233,1,0,0:0:0:0:
320,192,62395,1,0,0:0:0:0:
448,192,62395,1,0,0:0:0:0:
192,192,62557,1,0,0:0:0:0:
448,192,62720,128,0,62882:0:0:0:0:
64,192,62720,1,0,0:0:0:0:
64,192,62882,1,0,0:0:0:0:
320,192,62882,1,0,0:0:0:0:
192,192,62936,1,0,0:0:0:0:
448,192,62990,1,0,0:0:0:0:
320,192,63044,1,0,0:0:0:0:
64,192,63098,1,0,0:0:0:0:
192,192,63152,1,0,0:0:0:0:
448,192,63206,1,0,0:0:0:0:
320,192,63287,1,0,0:0:0:0:
192,192,63368,1,0,0:0:0:0:
64,192,63449,1,0,0:0:0:0:
448,192,63530,1,0,0:0:0:0:
320,192,63611,1,0,0:0:0:0:
192,192,63693,1,0,0:0:0:0:
64,192,63774,1,0,0:0:0:0:
320,192,63855,128,0,63936:0:0:0:0:
448,192,63855,128,0,63936:0:0:0:0:
64,192,64179,128,0,64503:0:0:0:0:
192,192,64179,1,0,0:0:0:0:
448,192,64341,1,0,0:0:0:0:
192,192,64503,128,0,64828:0:0:0:0:
320,192,64503,1,0,0:0:0:0:
448,192,64503,1,0,0:0:0:0:
64,192,64666,1,0,0:0:0:0:
320,192,64828,128,0,65152:0:0:0:0:
448,192,64828,1,0,0:0:0:0:
64,192,64990,1,0,0:0:0:0:
192,192,65152,128,0,65476:0:0:0:0:
448,192,65152,1,0,0:0:0:0:
64,192,65152,1,0,0:0:0:0:
320,192,65314,1,0,0:0:0:0:
448,192,65476,128,0,65801:0:0:0:0:
64,192,65476,1,0,0:0:0:0:
192,192,65639,1,0,0:0:0:0:
64,192,65801,128,0,66125:0:0:0:0:
320,192,65801,1,0,0:0:0:0:
192,192,65801,1,0,0:0:0:0:
320,192,65963,1,0,0:0:0:0:
320,192,66125,128,0,66449:0:0:0:0:
448,192,66125,1,0,0:0:0:0:
64,192,66287,1,0,0:0:0:0:
448,192,66449,128,0,66774:0:0:0:0:
64,192,66449,1,0,0:0:0:0:
192,192,66449,1,0,0:0:0:0:
192,192,66611,1,0,0:0:0:0:
64,192,66774,128,0,66990:0:0:0:0:
320,192,66774,1,0,0:0:0:0:
192,192,66882,128,0,66990:0:0:0:0:
320,192,66990,128,0,67098:0:0:0:0:
448,192,67098,128,0,67206:0:0:0:0:
64,192,67098,128,0,67314:0:0:0:0:
192,192,67098,128,0,67314:0:0:0:0:
320,192,67206,128,0,67314:0:0:0:0:
448,192,67314,128,0,67422:0:0:0:0:
320,192,67422,128,0,67639:0:0:0:0:
64,192,67422,1,0,0:0:0:0:
192,192,67530,128,0,67639:0:0:0:0:
64,192,67639,128,0,67747:0:0:0:0:
192,192,67747,128,0,67855:0:0:0:0:
320,192,67747,128,0,67963:0:0:0:0:
448,192,67747,128,0,67963:0:0:0:0:
64,192,67855,128,0,67963:0:0:0:0:
192,192,67963,128,0,68071:0:0:0:0:
448,192,68071,128,0,68557:0:0:0:0:
64,192,68071,1,0,0:0:0:0:
192,192,68233,1,0,0:0:0:0:
64,192,68395,1,0,0:0:0:0:
192,192,68395,1,0,0:0:0:0:
320,192,68395,1,0,0:0:0:0:
64,192,68557,128,0,68720:0:0:0:0:
448,192,68720,128,0,68882:0:0:0:0:
192,192,68720,1,0,0:0:0:0:
64,192,68882,1,0,0:0:0:0:
64,192,69044,1,0,0:0:0:0:
320,192,69044,1,0,0:0:0:0:
448,192,69084,1,0,0:0:0:0:
192,192,69125,1,0,0:0:0:0:
320,192,69166,1,0,0:0:0:0:
64,192,69206,1,0,0:0:0:0:
192,192,69247,1,0,0:0:0:0:
448,192,69287,1,0,0:0:0:0:
320,192,69328,1,0,0:0:0:0:
192,192,69368,1,0,0:0:0:0:
64,192,69368,128,0,69693:0:0:0:0:
448,192,69530,1,0,0:0:0:0:
192,192,69693,128,0,70017:0:0:0:0:
320,192,69693,1,0,0:0:0:0:
448,192,69693,1,0,0:0:0:0:
64,192,69855,1,0,0:0:0:0:
320,192,70017,128,0,70341:0:0:0:0:
448,192,70017,1,0,0:0:0:0:
192,192,70179,1,0,0:0:0:0:
448,192,70341,128,0,70666:0:0:0:0:
64,192,70341,1,0,0:0:0:0:
192,192,70341,1,0,0:0:0:0:
320,192,70503,1,0,0:0:0:0:
64,192,70666,128,0,70990:0:0:0:0:
192,192,70666,1,0,0:0:0:0:
448,192,70828,1,0,0:0:0:0:
320,192,70990,128,0,71314:0:0:0:0:
192,192,70990,1,0,0:0:0:0:
448,192,70990,1,0,0:0:0:0:
64,192,71152,1,0,0:0:0:0:
192,192,71314,128,0,71639:0:0:0:0:
448,192,71314,1,0,0:0:0:0:
320,192,71476,1,0,0:0:0:0:
448,192,71639,128,0,71963:0:0:0:0:
64,192,71639,1,0,0:0:0:0:
320,192,71639,1,0,0:0:0:0:
192,192,71801,1,0,0:0:0:0:
64,192,71963,128,0,72287:0:0:0:0:
192,192,72044,128,0,72125:0:0:0:0:
320,192,72125,128,0,72287:0:0:0:0:
192,192,72206,128,0,72287:0:0:0:0:
448,192,72287,128,0,72530:0:0:0:0:
320,192,72368,128,0,72611:0:0:0:0:
192,192,72449,128,0,72611:0:0:0:0:
64,192,72530,128,0,72611:0:0:0:0:
448,192,72611,128,0,72936:0:0:0:0:
320,192,72693,128,0,72774:0:0:0:0:
192,192,72774,128,0,72936:0:0:0:0:
320,192,72855,128,0,72936:0:0:0:0:
64,192,72936,128,0,73179:0:0:0:0:
192,192,73017,128,0,73179:0:0:0:0:
320,192,73098,128,0,73179:0:0:0:0:
448,192,73179,128,0,73260:0:0:0:0:
64,192,73260,1,0,0:0:0:0:
320,192,73260,1,0,0:0:0:0:
192,192,73260,128,0,73747:0:0:0:0:
64,192,73584,1,0,0:0:0:0:
320,192,73584,1,0,0:0:0:0:
448,192,73584,1,0,0:0:0:0:
320,192,73747,128,0,74233:0:0:0:0:
64,192,73909,1,0,0:0:0:0:
192,192,73909,1,0,0:0:0:0:
448,192,73909,1,0,0:0:0:0:
64,192,74233,1,0,0:0:0:0:
448,192,74233,1,0,0:0:0:0:
192,192,74233,128,0,74557:0:0:0:0:
448,192,74557,1,0,0:0:0:0:
320,192,74557,128,0,74882:0:0:0:0:
64,192,74557,128,0,74963:0:0:0:0:
448,192,74882,128,0,75044:0:0:0:0:
192,192,75044,128,0,75125:0:0:0:0:
320,192,75044,128,0,75125:0:0:0:0:
64,192,75044,128,0,75206:0:0:0:0:
192,192,75206,1,0,0:0:0:0:
320,192,75206,1,0,0:0:0:0:
448,192,75206,1,0,0:0:0:0:
64,192,75368,1,0,0:0:0:0:
192,192,75530,1,0,0:0:0:0:
448,192,75530,128,0,75855:0:0:0:0:
64,192,75855,1,0,0:0:0:0:
192,192,75855,128,0,76179:0:0:0:0:
320,192,75855,128,0,76260:0:0:0:0:
64,192,76179,128,0,76341:0:0:0:0:
192,192,76341,128,0,76422:0:0:0:0:
448,192,76341,128,0,76503:0:0:0:0:
320,192,76341,128,0,76422:0:0:0:0:
192,192,76503,1,0,0:0:0:0:
320,192,76503,1,0,0:0:0:0:
64,192,76503,1,0,0:0:0:0:
192,192,76666,1,0,0:0:0:0:
448,192,76828,1,0,0:0:0:0:
64,192,76828,128,0,77152:0:0:0:0:
320,192,77152,1,0,0:0:0:0:
192,192,77152,128,0,77557:0:0:0:0:
448,192,77152,128,0,77476:0:0:0:0:
320,192,77476,128,0,77639:0:0:0:0:
64,192,77639,128,0,77720:0:0:0:0:
448,192,77639,128,0,77720:0:0:0:0:
192,192,77639,128,0,77801:0:0:0:0:
64,192,77801,1,0,0:0:0:0:
320,192,77801,1,0,0:0:0:0:
448,192,77801,1,0,0:0:0:0:
320,192,77963,1,0,0:0:0:0:
448,192,78125,1,0,0:0:0:0:
192,192,78125,128,0,78287:0:0:0:0:
320,192,78287,128,0,78449:0:0:0:0:
192,192,78449,1,0,0:0:0:0:
64,192,78449,128,0,78774:0:0:0:0:
448,192,78449,128,0,78855:0:0:0:0:
192,192,78774,128,0,78936:0:0:0:0:
64,192,78936,128,0,79017:0:0:0:0:
448,192,78936,128,0,79017:0:0:0:0:
320,192,78936,128,0,79098:0:0:0:0:
64,192,79098,128,0,79179:0:0:0:0:
192,192,79098,128,0,79179:0:0:0:0:
320,192,79179,128,0,79260:0:0:0:0:
448,192,79179,128,0,79260:0:0:0:0:
64,192,79260,1,0,0:0:0:0:
192,192,79260,128,0,79422:0:0:0:0:
448,192,79422,1,0,0:0:0:0:
320,192,79422,128,0,79747:0:0:0:0:
192,192,79747,1,0,0:0:0:0:
64,192,79747,1,0,0:0:0:0:
448,192,79747,1,0,0:0:0:0:
64,192,79909,1,0,0:0:0:0:
192,192,79909,1,0,0:0:0:0:
320,192,79990,1,0,0:0:0:0:
192,192,80071,1,0,0:0:0:0:
64,192,80071,1,0,0:0:0:0:
448,192,80071,1,0,0:0:0:0:
64,192,80233,1,0,0:0:0:0:
192,192,80233,1,0,0:0:0:0:
320,192,80314,1,0,0:0:0:0:
64,192,80395,1,0,0:0:0:0:
192,192,80395,1,0,0:0:0:0:
448,192,80395,1,0,0:0:0:0:
64,192,80557,1,0,0:0:0:0:
192,192,80639,1,0,0:0:0:0:
320,192,80639,1,0,0:0:0:0:
448,192,80639,1,0,0:0:0:0:
64,192,80720,1,0,0:0:0:0:
64,192,80882,1,0,0:0:0:0:
192,192,80882,1,0,0:0:0:0:
320,192,80882,1,0,0:0:0:0:
64,192,81044,1,0,0:0:0:0:
320,192,81044,1,0,0:0:0:0:
448,192,81044,1,0,0:0:0:0:
448,192,81206,1,0,0:0:0:0:
320,192,81206,1,0,0:0:0:0:
192,192,81287,1,0,0:0:0:0:
64,192,81368,1,0,0:0:0:0:
320,192,81368,1,0,0:0:0:0:
448,192,81368,1,0,0:0:0:0:
448,192,81530,1,0,0:0:0:0:
320,192,81530,1,0,0:0:0:0:
192,192,81611,1,0,0:0:0:0:
64,192,81693,1,0,0:0:0:0:
320,192,81693,1,0,0:0:0:0:
448,192,81693,1,0,0:0:0:0:
448,192,81855,1,0,0:0:0:0:
64,192,81936,1,0,0:0:0:0:
192,192,81936,1,0,0:0:0:0:
320,192,81936,1,0,0:0:0:0:
448,192,82017,1,0,0:0:0:0:
192,192,82179,1,0,0:0:0:0:
448,192,82179,1,0,0:0:0:0:
320,192,82179,1,0,0:0:0:0:
448,192,82341,1,0,0:0:0:0:
64,192,82341,1,0,0:0:0:0:
192,192,82341,1,0,0:0:0:0:
320,192,82422,1,0,0:0:0:0:
64,192,82503,1,0,0:0:0:0:
192,192,82503,1,0,0:0:0:0:
320,192,82584,1,0,0:0:0:0:
192,192,82666,1,0,0:0:0:0:
448,192,82666,1,0,0:0:0:0:
64,192,82666,1,0,0:0:0:0:
320,192,82747,1,0,0:0:0:0:
64,192,82828,1,0,0:0:0:0:
192,192,82828,1,0,0:0:0:0:
448,192,82909,1,0,0:0:0:0:
192,192,82990,1,0,0:0:0:0:
64,192,82990,1,0,0:0:0:0:
320,192,83071,1,0,0:0:0:0:
448,192,83071,1,0,0:0:0:0:
64,192,83152,1,0,0:0:0:0:
192,192,83152,1,0,0:0:0:0:
320,192,83233,1,0,0:0:0:0:
448,192,83233,1,0,0:0:0:0:
64,192,83314,1,0,0:0:0:0:
192,192,83314,1,0,0:0:0:0:
320,192,83395,1,0,0:0:0:0:
448,192,83395,1,0,0:0:0:0:
64,192,83476,1,0,0:0:0:0:
192,192,83476,1,0,0:0:0:0:
320,192,83557,1,0,0:0:0:0:
448,192,83557,1,0,0:0:0:0:
64,192,83639,1,0,0:0:0:0:
192,192,83693,1,0,0:0:0:0:
320,192,83747,1,0,0:0:0:0:
448,192,83801,1,0,0:0:0:0:
192,192,83855,1,0,0:0:0:0:
320,192,83909,1,0,0:0:0:0:
64,192,83963,1,0,0:0:0:0:
192,192,84017,1,0,0:0:0:0:
448,192,84071,1,0,0:0:0:0:
320,192,84125,1,0,0:0:0:0:
192,192,84179,1,0,0:0:0:0:
64,192,84233,1,0,0:0:0:0:
448,192,84287,1,0,0:0:0:0:
320,192,84287,1,0,0:0:0:0:
64,192,84368,1,0,0:0:0:0:
192,192,84368,1,0,0:0:0:0:
320,192,84449,1,0,0:0:0:0:
448,192,84449,1,0,0:0:0:0:
64,192,84530,1,0,0:0:0:0:
320,192,84611,1,0,0:0:0:0:
192,192,84611,1,0,0:0:0:0:
448,192,84611,1,0,0:0:0:0:
64,192,84936,1,0,0:0:0:0:
448,192,84936,1,0,0:0:0:0:
192,192,84976,1,0,0:0:0:0:
320,192,85017,1,0,0:0:0:0:
448,192,85057,1,0,0:0:0:0:
64,192,85098,1,0,0:0:0:0:
192,192,85139,1,0,0:0:0:0:
320,192,85179,1,0,0:0:0:0:
448,192,85220,1,0,0:0:0:0:
64,192,85260,128,0,86720:0:0:0:0:
192,192,85260,128,0,85503:0:0:0:0:
192,192,85584,128,0,86152:0:0:0:0:
320,192,85584,128,0,85828:0:0:0:0:
320,192,85909,128,0,86639:0:0:0:0:
448,192,85909,128,0,86152:0:0:0:0:
448,192,86233,128,0,86476:0:0:0:0:
192,192,86233,128,0,86476:0:0:0:0:
192,192,86557,128,0,86801:0:0:0:0:
448,192,86557,128,0,86639:0:0:0:0:
320,192,86720,128,0,86801:0:0:0:0:
448,192,86720,128,0,87125:0:0:0:0:
64,192,86801,128,0,86963:0:0:0:0:
192,192,86882,128,0,86963:0:0:0:0:
320,192,86882,128,0,87125:0:0:0:0:
192,192,87044,128,0,87206:0:0:0:0:
64,192,87044,128,0,87206:0:0:0:0:
448,192,87206,1,0,0:0:0:0:
320,192,87247,1,0,0:0:0:0:
192,192,87287,1,0,0:0:0:0:
64,192,87328,1,0,0:0:0:0:
448,192,87368,1,0,0:0:0:0:
320,192,87409,1,0,0:0:0:0:
192,192,87449,1,0,0:0:0:0:
64,192,87490,1,0,0:0:0:0:
448,192,87530,1,0,0:0:0:0:
320,192,87571,1,0,0:0:0:0:
192,192,87611,1,0,0:0:0:0:
448,192,87652,1,0,0:0:0:0:
64,192,87693,1,0,0:0:0:0:
320,192,87733,1,0,0:0:0:0:
192,192,87774,1,0,0:0:0:0:
64,192,87814,1,0,0:0:0:0:
320,192,87855,128,0,88747:0:0:0:0:
448,192,87855,128,0,88747:0:0:0:0:
64,192,88179,128,0,88422:0:0:0:0:
192,192,88179,128,0,88422:0:0:0:0:
64,192,88503,128,0,88747:0:0:0:0:
192,192,88503,128,0,88747:0:0:0:0:
64,192,88828,128,0,88909:0:0:0:0:
192,192,88828,1,0,0:0:0:0:
320,192,88909,1,0,0:0:0:0:
192,192,88990,128,0,89071:0:0:0:0:
448,192,88990,1,0,0:0:0:0:
64,192,89071,128,0,89152:0:0:0:0:
320,192,89071,1,0,0:0:0:0:
192,192,89152,128,0,89233:0:0:0:0:
448,192,89152,1,0,0:0:0:0:
64,192,89233,1,0,0:0:0:0:
320,192,89314,128,0,89395:0:0:0:0:
192,192,89314,1,0,0:0:0:0:
64,192,89395,1,0,0:0:0:0:
320,192,89476,128,0,89639:0:0:0:0:
448,192,89476,128,0,89639:0:0:0:0:
192,192,89639,128,0,89720:0:0:0:0:
64,192,89639,128,0,89720:0:0:0:0:
320,192,89720,128,0,89963:0:0:0:0:
448,192,89720,128,0,89882:0:0:0:0:
64,192,89801,128,0,89882:0:0:0:0:
192,192,89801,128,0,89963:0:0:0:0:
64,192,89963,128,0,90044:0:0:0:0:
448,192,89963,128,0,90044:0:0:0:0:
192,192,90044,128,0,90125:0:0:0:0:
320,192,90044,128,0,90125:0:0:0:0:
64,192,90125,1,0,0:0:0:0:
448,192,90125,1,0,0:0:0:0:
320,192,90166,1,0,0:0:0:0:
192,192,90206,1,0,0:0:0:0:
64,192,90247,1,0,0:0:0:0:
448,192,90287,1,0,0:0:0:0:
320,192,90328,1,0,0:0:0:0:
192,192,90368,1,0,0:0:0:0:
64,192,90409,1,0,0:0:0:0:
448,192,90449,128,0,91909:0:0:0:0:
320,192,90449,128,0,90693:0:0:0:0:
320,192,90774,128,0,91341:0:0:0:0:
192,192,90774,128,0,91017:0:0:0:0:
192,192,91098,128,0,91828:0:0:0:0:
64,192,91098,128,0,91341:0:0:0:0:
64,192,91422,128,0,91666:0:0:0:0:
320,192,91422,128,0,91666:0:0:0:0:
320,192,91747,128,0,91990:0:0:0:0:
64,192,91747,128,0,91828:0:0:0:0:
192,192,91909,128,0,91990:0:0:0:0:
64,192,91909,128,0,92314:0:0:0:0:
448,192,91990,128,0,92152:0:0:0:0:
320,192,92071,128,0,92152:0:0:0:0:
192,192,92071,128,0,92314:0:0:0:0:
320,192,92233,128,0,92395:0:0:0:0:
448,192,92233,128,0,92395:0:0:0:0:
64,192,92395,1,0,0:0:0:0:
192,192,92436,1,0,0:0:0:0:
320,192,92476,1,0,0:0:0:0:
448,192,92517,1,0,0:0:0:0:
64,192,92557,1,0,0:0:0:0:
192,192,92598,1,0,0:0:0:0:
320,192,92639,1,0,0:0:0:0:
448,192,92679,1,0,0:0:0:0:
64,192,92720,1,0,0:0:0:0:
192,192,92760,1,0,0:0:0:0:
320,192,92801,1,0,0:0:0:0:
64,192,92841,1,0,0:0:0:0:
448,192,92882,1,0,0:0:0:0:
192,192,92922,1,0,0:0:0:0:
320,192,92963,1,0,0:0:0:0:
448,192,93003,1,0,0:0:0:0:
64,192,93044,128,0,93611:0:0:0:0:
192,192,93044,128,0,93287:0:0:0:0:
192,192,93368,128,0,93774:0:0:0:0:
448,192,93368,128,0,93936:0:0:0:0:
64,192,93693,128,0,93936:0:0:0:0:
320,192,93693,128,0,93774:0:0:0:0:
192,192,93855,128,0,93936:0:0:0:0:
320,192,93855,128,0,93936:0:0:0:0:
64,192,94017,1,0,0:0:0:0:
448,192,94017,1,0,0:0:0:0:
320,192,94017,1,0,0:0:0:0:
64,192,94179,1,0,0:0:0:0:
320,192,94179,1,0,0:0:0:0:
64,192,94341,1,0,0:0:0:0:
192,192,94341,1,0,0:0:0:0:
448,192,94341,1,0,0:0:0:0:
320,192,94422,1,0,0:0:0:0:
192,192,94503,1,0,0:0:0:0:
320,192,94584,1,0,0:0:0:0:
448,192,94584,1,0,0:0:0:0:
64,192,94666,1,0,0:0:0:0:
192,192,94666,1,0,0:0:0:0:
192,192,94828,1,0,0:0:0:0:
320,192,94828,1,0,0:0:0:0:
64,192,94990,1,0,0:0:0:0:
448,192,94990,1,0,0:0:0:0:
320,192,94990,1,0,0:0:0:0:
64,192,95314,128,0,95557:0:0:0:0:
192,192,95314,128,0,95557:0:0:0:0:
320,192,95314,128,0,95557:0:0:0:0:
448,192,95314,128,0,95395:0:0:0:0:
448,192,95476,128,0,96125:0:0:0:0:
320,192,95639,128,0,95882:0:0:0:0:
192,192,95639,128,0,95882:0:0:0:0:
64,192,95639,128,0,95720:0:0:0:0:
64,192,95801,128,0,96206:0:0:0:0:
320,192,95963,128,0,96368:0:0:0:0:
192,192,95963,128,0,96044:0:0:0:0:
192,192,96125,128,0,96530:0:0:0:0:
448,192,96287,128,0,96855:0:0:0:0:
64,192,96287,128,0,96368:0:0:0:0:
320,192,96449,128,0,96774:0:0:0:0:
64,192,96611,128,0,96855:0:0:0:0:
192,192,96611,128,0,96693:0:0:0:0:
192,192,96774,128,0,96936:0:0:0:0:
320,192,96936,128,0,97179:0:0:0:0:
64,192,96936,128,0,97503:0:0:0:0:
448,192,96936,128,0,97017:0:0:0:0:
448,192,97098,128,0,97503:0:0:0:0:
192,192,97098,128,0,97179:0:0:0:0:
192,192,97260,128,0,97503:0:0:0:0:
320,192,97260,128,0,97341:0:0:0:0:
320,192,97422,128,0,97584:0:0:0:0:
448,192,97584,128,0,97909:0:0:0:0:
192,192,97584,1,0,0:0:0:0:
64,192,97584,1,0,0:0:0:0:
320,192,97909,128,0,98071:0:0:0:0:
64,192,97909,1,0,0:0:0:0:
192,192,98071,128,0,98233:0:0:0:0:
448,192,98233,128,0,98395:0:0:0:0:
320,192,98233,1,0,0:0:0:0:
64,192,98233,1,0,0:0:0:0:
320,192,98395,128,0,98557:0:0:0:0:
64,192,98557,128,0,98720:0:0:0:0:
192,192,98557,1,0,0:0:0:0:
192,192,98720,128,0,98882:0:0:0:0:
320,192,98882,128,0,99206:0:0:0:0:
448,192,98882,1,0,0:0:0:0:
64,192,98882,1,0,0:0:0:0:
448,192,99206,128,0,99449:0:0:0:0:
64,192,99206,1,0,0:0:0:0:
320,192,99368,128,0,99855:0:0:0:0:
192,192,99530,128,0,99693:0:0:0:0:
64,192,99530,1,0,0:0:0:0:
448,192,99530,1,0,0:0:0:0:
64,192,99693,128,0,100179:0:0:0:0:
448,192,99855,128,0,100017:0:0:0:0:
192,192,99855,128,0,100017:0:0:0:0:
320,192,100017,128,0,100179:0:0:0:0:
192,192,100179,128,0,100341:0:0:0:0:
448,192,100179,1,0,0:0:0:0:
64,192,100341,128,0,100503:0:0:0:0:
448,192,100503,128,0,100747:0:0:0:0:
320,192,100503,128,0,100747:0:0:0:0:
192,192,100503,128,0,100747:0:0:0:0:
64,192,100666,128,0,101314:0:0:0:0:
192,192,100828,128,0,101071:0:0:0:0:
320,192,100828,128,0,101071:0:0:0:0:
448,192,100828,128,0,100909:0:0:0:0:
448,192,100990,128,0,101395:0:0:0:0:
192,192,101152,128,0,101557:0:0:0:0:
320,192,101152,128,0,101233:0:0:0:0:
320,192,101314,128,0,101720:0:0:0:0:
64,192,101476,128,0,102044:0:0:0:0:
448,192,101476,128,0,101639:0:0:0:0:
192,192,101639,128,0,101963:0:0:0:0:
448,192,101801,128,0,102044:0:0:0:0:
320,192,101801,128,0,101882:0:0:0:0:
320,192,101963,128,0,102125:0:0:0:0:
192,192,102125,128,0,102368:0:0:0:0:
448,192,102125,128,0,102693:0:0:0:0:
64,192,102125,128,0,102206:0:0:0:0:
64,192,102287,128,0,102693:0:0:0:0:
320,192,102287,128,0,102368:0:0:0:0:
320,192,102449,128,0,102693:0:0:0:0:
192,192,102449,128,0,102530:0:0:0:0:
192,192,102611,128,0,102774:0:0:0:0:
64,192,102774,128,0,103098:0:0:0:0:
320,192,102774,1,0,0:0:0:0:
448,192,102774,1,0,0:0:0:0:
320,192,103098,128,0,103260:0:0:0:0:
448,192,103098,1,0,0:0:0:0:
192,192,103260,1,0,0:0:0:0:
320,192,103422,1,0,0:0:0:0:
64,192,103422,1,0,0:0:0:0:
448,192,103422,1,0,0:0:0:0:
192,192,103584,128,0,103747:0:0:0:0:
448,192,103584,1,0,0:0:0:0:
320,192,103747,128,0,103909:0:0:0:0:
64,192,103747,1,0,0:0:0:0:
192,192,103909,1,0,0:0:0:0:
448,192,103909,128,0,104071:0:0:0:0:
320,192,104071,1,0,0:0:0:0:
192,192,104071,1,0,0:0:0:0:
64,192,104071,128,0,104395:0:0:0:0:
192,192,104395,128,0,104557:0:0:0:0:
320,192,104395,128,0,104557:0:0:0:0:
448,192,104395,128,0,104557:0:0:0:0:
64,192,104720,128,0,104882:0:0:0:0:
192,192,104720,128,0,104882:0:0:0:0:
448,192,104720,128,0,104882:0:0:0:0:
64,192,105044,128,0,105206:0:0:0:0:
320,192,105044,128,0,105206:0:0:0:0:
448,192,105044,128,0,105206:0:0:0:0:
320,192,105368,128,0,105530:0:0:0:0:
64,192,105368,128,0,105530:0:0:0:0:
192,192,105368,128,0,105530:0:0:0:0:
448,192,105693,128,0,105936:0:0:0:0:
192,192,105693,128,0,105936:0:0:0:0:
64,192,105693,128,0,105936:0:0:0:0:
320,192,105693,128,0,105774:0:0:0:0:
320,192,105855,128,0,106503:0:0:0:0:
448,192,106017,128,0,106260:0:0:0:0:
64,192,106017,128,0,106260:0:0:0:0:
192,192,106017,128,0,106098:0:0:0:0:
192,192,106179,128,0,106584:0:0:0:0:
448,192,106341,128,0,106747:0:0:0:0:
64,192,106341,128,0,106422:0:0:0:0:
64,192,106503,128,0,106909:0:0:0:0:
320,192,106666,128,0,107233:0:0:0:0:
192,192,106666,128,0,106828:0:0:0:0:
448,192,106828,128,0,107152:0:0:0:0:
192,192,106990,128,0,107233:0:0:0:0:
64,192,106990,128,0,107071:0:0:0:0:
64,192,107152,128,0,107314:0:0:0:0:
448,192,107314,128,0,107557:0:0:0:0:
192,192,107314,128,0,107882:0:0:0:0:
320,192,107314,128,0,107395:0:0:0:0:
320,192,107476,128,0,107882:0:0:0:0:
64,192,107476,128,0,107557:0:0:0:0:
64,192,107639,128,0,107882:0:0:0:0:
448,192,107639,128,0,107720:0:0:0:0:
448,192,107801,128,0,107963:0:0:0:0:
320,192,107963,128,0,108287:0:0:0:0:
64,192,107963,1,0,0:0:0:0:
192,192,107963,1,0,0:0:0:0:
192,192,108287,128,0,108449:0:0:0:0:
64,192,108287,1,0,0:0:0:0:
320,192,108449,128,0,108611:0:0:0:0:
64,192,108611,128,0,108774:0:0:0:0:
192,192,108611,1,0,0:0:0:0:
448,192,108611,1,0,0:0:0:0:
192,192,108774,128,0,108936:0:0:0:0:
448,192,108936,128,0,109098:0:0:0:0:
320,192,108936,1,0,0:0:0:0:
320,192,109098,128,0,109260:0:0:0:0:
192,192,109260,128,0,109584:0:0:0:0:
64,192,109260,1,0,0:0:0:0:
448,192,109260,1,0,0:0:0:0:
64,192,109584,128,0,109828:0:0:0:0:
448,192,109584,1,0,0:0:0:0:
192,192,109747,128,0,110233:0:0:0:0:
320,192,109909,128,0,110071:0:0:0:0:
448,192,109909,1,0,0:0:0:0:
64,192,109909,1,0,0:0:0:0:
448,192,110071,128,0,110557:0:0:0:0:
64,192,110233,128,0,110395:0:0:0:0:
320,192,110233,128,0,110395:0:0:0:0:
192,192,110395,128,0,110557:0:0:0:0:
320,192,110557,128,0,110720:0:0:0:0:
64,192,110557,1,0,0:0:0:0:
192,192,110720,128,0,110882:0:0:0:0:
64,192,110882,128,0,111125:0:0:0:0:
320,192,110882,128,0,111125:0:0:0:0:
448,192,110882,128,0,111125:0:0:0:0:
192,192,111044,128,0,111693:0:0:0:0:
64,192,111206,128,0,111449:0:0:0:0:
448,192,111206,128,0,111449:0:0:0:0:
320,192,111206,128,0,111287:0:0:0:0:
320,192,111368,128,0,111774:0:0:0:0:
64,192,111530,128,0,111936:0:0:0:0:
448,192,111530,128,0,111611:0:0:0:0:
448,192,111693,128,0,112098:0:0:0:0:
192,192,111855,128,0,112422:0:0:0:0:
320,192,111855,128,0,112098:0:0:0:0:
64,192,112017,128,0,112341:0:0:0:0:
320,192,112179,128,0,112422:0:0:0:0:
448,192,112179,128,0,112260:0:0:0:0:
448,192,112341,128,0,112503:0:0:0:0:
64,192,112503,128,0,112747:0:0:0:0:
320,192,112503,128,0,113071:0:0:0:0:
192,192,112503,128,0,112584:0:0:0:0:
192,192,112666,128,0,113071:0:0:0:0:
448,192,112666,128,0,112747:0:0:0:0:
448,192,112828,128,0,113071:0:0:0:0:
64,192,112828,128,0,112909:0:0:0:0:
64,192,112990,128,0,113152:0:0:0:0:
448,192,113152,1,0,0:0:0:0:
320,192,113152,1,0,0:0:0:0:
192,192,113152,128,0,113476:0:0:0:0:
64,192,113476,128,0,113639:0:0:0:0:
448,192,113639,1,0,0:0:0:0:
192,192,113801,1,0,0:0:0:0:
320,192,113963,128,0,114125:0:0:0:0:
64,192,113963,1,0,0:0:0:0:
192,192,114125,128,0,114287:0:0:0:0:
448,192,114125,1,0,0:0:0:0:
320,192,114287,1,0,0:0:0:0:
448,192,114287,1,0,0:0:0:0:
192,192,114449,1,0,0:0:0:0:
448,192,114611,128,0,114774:0:0:0:0:
64,192,114611,1,0,0:0:0:0:
64,192,114774,1,0,0:0:0:0:
320,192,114774,1,0,0:0:0:0:
192,192,114828,1,0,0:0:0:0:
448,192,114882,1,0,0:0:0:0:
320,192,114936,1,0,0:0:0:0:
64,192,114990,1,0,0:0:0:0:
192,192,115044,1,0,0:0:0:0:
448,192,115098,1,0,0:0:0:0:
320,192,115179,1,0,0:0:0:0:
192,192,115260,1,0,0:0:0:0:
64,192,115341,1,0,0:0:0:0:
448,192,115422,1,0,0:0:0:0:
320,192,115503,1,0,0:0:0:0:
192,192,115584,1,0,0:0:0:0:
64,192,115666,1,0,0:0:0:0:
448,192,115747,1,0,0:0:0:0:
192,192,115909,1,0,0:0:0:0:
64,192,116071,1,0,0:0:0:0:
320,192,116071,128,0,117368:0:0:0:0:
448,192,116071,128,0,118179:0:0:0:0:
