osu file format v14

[General]
AudioFilename: audio.mp3
AudioLeadIn: 0
PreviewTime: 34735
Countdown: 0
SampleSet: Normal
StackLeniency: 0.7
Mode: 3
LetterboxInBreaks: 0
SpecialStyle: 0
WidescreenStoryboard: 1

[Editor]
Bookmarks: 73135
DistanceSpacing: 1
BeatDivisor: 8
GridSize: 8
TimelineZoom: 2.6

[Metadata]
Title:Berry Go!!
TitleUnicode:Berry Go!!
Artist:Freezer feat. Kiichigo
ArtistUnicode:Freezer feat. 妃苺
Creator:PiraTom
Version:BERRY HARD
Source:
Tags:bofu2017 妃苺 mippai ln
BeatmapID:1432754
BeatmapSetID:677465

[Difficulty]
HPDrainRate:8
CircleSize:4
OverallDifficulty:6.8
ApproachRate:5
SliderMultiplier:1.4
SliderTickRate:1

[Events]
//Background and Video events
0,0,"bg1.jpg",0,0
//Break Periods
//Storyboard Layer 0 (Background)
//Storyboard Layer 1 (Fail)
//Storyboard Layer 2 (Pass)
//Storyboard Layer 3 (Foreground)
//Storyboard Layer 4 (Overlay)
//Storyboard Sound Samples

[TimingPoints]
793,342.857142857143,4,1,0,0,1,0

[HitObjects]
448,192,792,5,0,0:0:0:0:
320,192,878,1,0,0:0:0:0:
192,192,964,1,0,0:0:0:0:
64,192,1050,1,0,0:0:0:0:
192,192,1135,1,0,0:0:0:0:
320,192,1221,1,0,0:0:0:0:
448,192,1307,1,0,0:0:0:0:
320,192,1350,1,0,0:0:0:0:
192,192,1393,1,0,0:0:0:0:
64,192,1435,1,0,0:0:0:0:
448,192,1478,1,0,0:0:0:0:
192,192,1521,1,0,0:0:0:0:
320,192,1564,1,0,0:0:0:0:
448,192,1607,1,0,0:0:0:0:
64,192,1650,1,0,0:0:0:0:
192,192,1735,1,0,0:0:0:0:
320,192,1821,128,0,1907:0:0:0:0:
448,192,1821,128,0,1907:0:0:0:0:
192,192,1993,1,0,0:0:0:0:
192,192,2164,1,0,0:0:0:0:
64,192,2164,1,0,0:0:0:0:
320,192,2164,1,0,0:0:0:0:
320,192,2507,128,0,2678:0:0:0:0:
64,192,2507,1,0,0:0:0:0:
448,192,2507,128,0,2593:0:0:0:0:
192,192,2678,1,0,0:0:0:0:
192,192,2850,128,0,3021:0:0:0:0:
320,192,2850,1,0,0:0:0:0:
448,192,2850,1,0,0:0:0:0:
448,192,3021,128,0,3193:0:0:0:0:
64,192,3193,128,0,3278:0:0:0:0:
192,192,3193,1,0,0:0:0:0:
320,192,3364,128,0,3535:0:0:0:0:
64,192,3535,1,0,0:0:0:0:
448,192,3535,1,0,0:0:0:0:
192,192,3707,128,0,3878:0:0:0:0:
64,192,3878,128,0,4050:0:0:0:0:
448,192,3878,128,0,3964:0:0:0:0:
320,192,4050,128,0,4221:0:0:0:0:
192,192,4221,128,0,4564:0:0:0:0:
64,192,4221,1,0,0:0:0:0:
448,192,4221,1,0,0:0:0:0:
320,192,4393,1,0,0:0:0:0:
448,192,4564,128,0,4907:0:0:0:0:
64,192,4564,128,0,4650:0:0:0:0:
192,192,4735,1,0,0:0:0:0:
192,192,4907,1,0,0:0:0:0:
320,192,4907,1,0,0:0:0:0:
448,192,5078,1,0,0:0:0:0:
64,192,5250,128,0,5421:0:0:0:0:
192,192,5250,1,0,0:0:0:0:
448,192,5250,128,0,5335:0:0:0:0:
320,192,5421,1,0,0:0:0:0:
320,192,5593,128,0,5935:0:0:0:0:
448,192,5593,1,0,0:0:0:0:
192,192,5593,1,0,0:0:0:0:
64,192,5764,1,0,0:0:0:0:
64,192,5935,128,0,6021:0:0:0:0:
192,192,5935,1,0,0:0:0:0:
192,192,6107,128,0,6450:0:0:0:0:
448,192,6278,1,0,0:0:0:0:
320,192,6278,1,0,0:0:0:0:
320,192,6450,128,0,6621:0:0:0:0:
64,192,6621,128,0,6793:0:0:0:0:
448,192,6621,128,0,6707:0:0:0:0:
192,192,6621,1,0,0:0:0:0:
192,192,6793,128,0,6964:0:0:0:0:
448,192,6964,128,0,7307:0:0:0:0:
64,192,6964,1,0,0:0:0:0:
320,192,6964,1,0,0:0:0:0:
192,192,7135,1,0,0:0:0:0:
64,192,7307,128,0,7393:0:0:0:0:
320,192,7307,1,0,0:0:0:0:
192,192,7393,128,0,7478:0:0:0:0:
320,192,7478,128,0,7650:0:0:0:0:
64,192,7650,1,0,0:0:0:0:
192,192,7650,1,0,0:0:0:0:
448,192,7650,1,0,0:0:0:0:
448,192,7993,128,0,8164:0:0:0:0:
64,192,7993,128,0,8078:0:0:0:0:
320,192,7993,1,0,0:0:0:0:
192,192,8164,128,0,8335:0:0:0:0:
320,192,8335,128,0,8678:0:0:0:0:
64,192,8335,1,0,0:0:0:0:
448,192,8335,1,0,0:0:0:0:
192,192,8507,1,0,0:0:0:0:
448,192,8678,128,0,8764:0:0:0:0:
64,192,8678,1,0,0:0:0:0:
448,192,8850,128,0,9193:0:0:0:0:
192,192,8850,1,0,0:0:0:0:
64,192,9021,1,0,0:0:0:0:
192,192,9021,1,0,0:0:0:0:
192,192,9193,128,0,9364:0:0:0:0:
64,192,9364,128,0,9535:0:0:0:0:
320,192,9364,128,0,9450:0:0:0:0:
448,192,9364,1,0,0:0:0:0:
448,192,9535,128,0,9707:0:0:0:0:
192,192,9707,128,0,10050:0:0:0:0:
64,192,9707,1,0,0:0:0:0:
320,192,9707,1,0,0:0:0:0:
448,192,9878,1,0,0:0:0:0:
320,192,10050,128,0,10393:0:0:0:0:
448,192,10050,128,0,10135:0:0:0:0:
192,192,10221,1,0,0:0:0:0:
64,192,10393,128,0,10735:0:0:0:0:
192,192,10393,1,0,0:0:0:0:
448,192,10393,1,0,0:0:0:0:
320,192,10564,1,0,0:0:0:0:
192,192,10735,128,0,10821:0:0:0:0:
448,192,10735,1,0,0:0:0:0:
448,192,10907,128,0,11250:0:0:0:0:
64,192,10907,1,0,0:0:0:0:
192,192,11078,1,0,0:0:0:0:
320,192,11250,128,0,11593:0:0:0:0:
64,192,11421,128,0,11507:0:0:0:0:
192,192,11421,1,0,0:0:0:0:
448,192,11593,1,0,0:0:0:0:
64,192,11764,128,0,12021:0:0:0:0:
448,192,11764,1,0,0:0:0:0:
192,192,11850,128,0,11935:0:0:0:0:
320,192,11935,128,0,12107:0:0:0:0:
192,192,12021,128,0,12193:0:0:0:0:
64,192,12107,128,0,12193:0:0:0:0:
448,192,12107,128,0,12364:0:0:0:0:
320,192,12193,128,0,12278:0:0:0:0:
192,192,12278,128,0,12450:0:0:0:0:
320,192,12364,128,0,12450:0:0:0:0:
448,192,12450,128,0,12535:0:0:0:0:
64,192,12450,128,0,12621:0:0:0:0:
192,192,12535,128,0,12621:0:0:0:0:
448,192,12621,128,0,12878:0:0:0:0:
320,192,12707,128,0,12793:0:0:0:0:
192,192,12793,128,0,12964:0:0:0:0:
320,192,12878,128,0,13050:0:0:0:0:
64,192,12964,128,0,13050:0:0:0:0:
192,192,13050,128,0,13135:0:0:0:0:
320,192,13135,1,0,0:0:0:0:
64,192,13135,1,0,0:0:0:0:
448,192,13135,128,0,13221:0:0:0:0:
192,192,13307,128,0,13393:0:0:0:0:
320,192,13478,128,0,13564:0:0:0:0:
64,192,13478,1,0,0:0:0:0:
448,192,13478,1,0,0:0:0:0:
64,192,13650,128,0,13735:0:0:0:0:
192,192,13821,128,0,13907:0:0:0:0:
448,192,13993,128,0,14078:0:0:0:0:
320,192,13993,1,0,0:0:0:0:
320,192,14164,128,0,14250:0:0:0:0:
64,192,14164,1,0,0:0:0:0:
192,192,14164,1,0,0:0:0:0:
192,192,14335,128,0,14421:0:0:0:0:
448,192,14507,128,0,14593:0:0:0:0:
320,192,14507,1,0,0:0:0:0:
64,192,14678,128,0,14764:0:0:0:0:
192,192,14850,128,0,14935:0:0:0:0:
320,192,14850,1,0,0:0:0:0:
64,192,14850,1,0,0:0:0:0:
320,192,15021,128,0,15107:0:0:0:0:
64,192,15193,128,0,15278:0:0:0:0:
320,192,15364,128,0,15450:0:0:0:0:
448,192,15364,1,0,0:0:0:0:
192,192,15450,128,0,15535:0:0:0:0:
448,192,15535,128,0,15621:0:0:0:0:
64,192,15535,1,0,0:0:0:0:
320,192,15535,1,0,0:0:0:0:
320,192,15707,128,0,15793:0:0:0:0:
192,192,15707,1,0,0:0:0:0:
64,192,15878,128,0,15964:0:0:0:0:
448,192,15878,1,0,0:0:0:0:
192,192,16050,128,0,16135:0:0:0:0:
448,192,16221,128,0,16307:0:0:0:0:
64,192,16221,1,0,0:0:0:0:
192,192,16221,1,0,0:0:0:0:
320,192,16393,128,0,16478:0:0:0:0:
192,192,16564,128,0,16650:0:0:0:0:
448,192,16735,128,0,16821:0:0:0:0:
192,192,16735,1,0,0:0:0:0:
64,192,16907,128,0,16993:0:0:0:0:
448,192,16907,1,0,0:0:0:0:
320,192,16907,1,0,0:0:0:0:
320,192,17078,128,0,17164:0:0:0:0:
192,192,17078,1,0,0:0:0:0:
192,192,17250,128,0,17335:0:0:0:0:
448,192,17421,128,0,17507:0:0:0:0:
64,192,17421,1,0,0:0:0:0:
320,192,17593,128,0,17678:0:0:0:0:
192,192,17593,1,0,0:0:0:0:
448,192,17593,1,0,0:0:0:0:
64,192,17764,128,0,17850:0:0:0:0:
320,192,17764,1,0,0:0:0:0:
448,192,17935,128,0,18021:0:0:0:0:
192,192,17935,1,0,0:0:0:0:
192,192,18107,1,0,0:0:0:0:
64,192,18107,128,0,18164:0:0:0:0:
320,192,18164,1,0,0:0:0:0:
448,192,18164,1,0,0:0:0:0:
192,192,18221,1,0,0:0:0:0:
64,192,18221,1,0,0:0:0:0:
320,192,18278,1,0,0:0:0:0:
448,192,18278,1,0,0:0:0:0:
64,192,18364,1,0,0:0:0:0:
192,192,18364,128,0,18421:0:0:0:0:
320,192,18450,1,0,0:0:0:0:
448,192,18450,1,0,0:0:0:0:
64,192,18535,1,0,0:0:0:0:
192,192,18621,1,0,0:0:0:0:
448,192,18621,1,0,0:0:0:0:
320,192,18621,128,0,18707:0:0:0:0:
64,192,18793,128,0,18878:0:0:0:0:
448,192,18964,128,0,19050:0:0:0:0:
192,192,18964,1,0,0:0:0:0:
320,192,18964,1,0,0:0:0:0:
320,192,19135,128,0,19221:0:0:0:0:
192,192,19307,128,0,19393:0:0:0:0:
64,192,19307,1,0,0:0:0:0:
448,192,19478,128,0,19564:0:0:0:0:
64,192,19650,128,0,19735:0:0:0:0:
320,192,19650,1,0,0:0:0:0:
448,192,19650,1,0,0:0:0:0:
192,192,19821,128,0,19907:0:0:0:0:
320,192,19993,128,0,20078:0:0:0:0:
192,192,19993,1,0,0:0:0:0:
64,192,20164,128,0,20250:0:0:0:0:
448,192,20335,128,0,20421:0:0:0:0:
64,192,20335,1,0,0:0:0:0:
192,192,20335,1,0,0:0:0:0:
320,192,20507,128,0,20593:0:0:0:0:
192,192,20678,128,0,20764:0:0:0:0:
64,192,20678,1,0,0:0:0:0:
320,192,20850,128,0,20935:0:0:0:0:
192,192,20935,128,0,21021:0:0:0:0:
448,192,21021,128,0,21107:0:0:0:0:
64,192,21021,1,0,0:0:0:0:
320,192,21021,1,0,0:0:0:0:
320,192,21193,128,0,21278:0:0:0:0:
64,192,21364,1,0,0:0:0:0:
192,192,21364,1,0,0:0:0:0:
448,192,21364,1,0,0:0:0:0:
192,192,21535,1,0,0:0:0:0:
320,192,21535,1,0,0:0:0:0:
448,192,21535,1,0,0:0:0:0:
64,192,21707,1,0,0:0:0:0:
320,192,21707,1,0,0:0:0:0:
448,192,21707,1,0,0:0:0:0:
192,192,21878,1,0,0:0:0:0:
320,192,21878,1,0,0:0:0:0:
64,192,21878,1,0,0:0:0:0:
320,192,22050,1,0,0:0:0:0:
448,192,22050,1,0,0:0:0:0:
192,192,22135,1,0,0:0:0:0:
64,192,22135,1,0,0:0:0:0:
448,192,22221,1,0,0:0:0:0:
320,192,22221,1,0,0:0:0:0:
64,192,22307,1,0,0:0:0:0:
192,192,22307,1,0,0:0:0:0:
320,192,22393,1,0,0:0:0:0:
448,192,22393,1,0,0:0:0:0:
192,192,22478,1,0,0:0:0:0:
64,192,22478,1,0,0:0:0:0:
320,192,22564,1,0,0:0:0:0:
448,192,22564,1,0,0:0:0:0:
192,192,22650,1,0,0:0:0:0:
64,192,22650,1,0,0:0:0:0:
448,192,22735,1,0,0:0:0:0:
320,192,22793,1,0,0:0:0:0:
192,192,22850,1,0,0:0:0:0:
448,192,22907,1,0,0:0:0:0:
64,192,22993,1,0,0:0:0:0:
192,192,23078,1,0,0:0:0:0:
192,192,23250,1,0,0:0:0:0:
320,192,23335,1,0,0:0:0:0:
448,192,23421,1,0,0:0:0:0:
64,192,23478,1,0,0:0:0:0:
320,192,23535,1,0,0:0:0:0:
192,192,23593,1,0,0:0:0:0:
448,192,23650,1,0,0:0:0:0:
320,192,23678,1,0,0:0:0:0:
64,192,23764,128,0,23807:0:0:0:0:
192,192,23807,128,0,23850:0:0:0:0:
320,192,23850,128,0,23893:0:0:0:0:
448,192,23893,128,0,23935:0:0:0:0:
64,192,23935,128,0,23978:0:0:0:0:
192,192,23978,128,0,24021:0:0:0:0:
320,192,24021,128,0,24064:0:0:0:0:
448,192,24064,128,0,24107:0:0:0:0:
64,192,24107,128,0,24193:0:0:0:0:
192,192,24107,1,0,0:0:0:0:
448,192,24193,128,0,24278:0:0:0:0:
320,192,24278,128,0,24364:0:0:0:0:
192,192,24364,128,0,24450:0:0:0:0:
64,192,24450,128,0,24535:0:0:0:0:
320,192,24535,128,0,24621:0:0:0:0:
192,192,24621,128,0,24707:0:0:0:0:
64,192,24621,1,0,0:0:0:0:
448,192,24707,128,0,24793:0:0:0:0:
64,192,24793,128,0,24878:0:0:0:0:
320,192,24793,1,0,0:0:0:0:
192,192,24878,128,0,24964:0:0:0:0:
320,192,24964,128,0,25050:0:0:0:0:
448,192,25050,128,0,25135:0:0:0:0:
64,192,25135,128,0,25221:0:0:0:0:
192,192,25135,1,0,0:0:0:0:
320,192,25135,1,0,0:0:0:0:
320,192,25221,128,0,25307:0:0:0:0:
192,192,25307,128,0,25393:0:0:0:0:
64,192,25393,128,0,25478:0:0:0:0:
448,192,25478,128,0,25564:0:0:0:0:
320,192,25478,1,0,0:0:0:0:
64,192,25564,128,0,25650:0:0:0:0:
192,192,25650,128,0,25735:0:0:0:0:
320,192,25735,128,0,25821:0:0:0:0:
448,192,25821,128,0,25907:0:0:0:0:
192,192,25907,128,0,25993:0:0:0:0:
320,192,25993,128,0,26078:0:0:0:0:
448,192,25993,1,0,0:0:0:0:
64,192,26078,128,0,26164:0:0:0:0:
448,192,26164,128,0,26250:0:0:0:0:
192,192,26164,1,0,0:0:0:0:
320,192,26250,128,0,26335:0:0:0:0:
192,192,26335,128,0,26421:0:0:0:0:
64,192,26421,128,0,26507:0:0:0:0:
448,192,26507,128,0,26593:0:0:0:0:
320,192,26507,1,0,0:0:0:0:
192,192,26507,1,0,0:0:0:0:
192,192,26593,128,0,26678:0:0:0:0:
320,192,26678,128,0,26764:0:0:0:0:
448,192,26764,128,0,26850:0:0:0:0:
64,192,26850,128,0,26935:0:0:0:0:
192,192,26850,1,0,0:0:0:0:
448,192,26935,128,0,27021:0:0:0:0:
320,192,27021,128,0,27107:0:0:0:0:
192,192,27107,128,0,27193:0:0:0:0:
64,192,27193,128,0,27278:0:0:0:0:
320,192,27278,128,0,27364:0:0:0:0:
192,192,27364,128,0,27450:0:0:0:0:
64,192,27364,1,0,0:0:0:0:
448,192,27450,128,0,27535:0:0:0:0:
64,192,27535,128,0,27621:0:0:0:0:
320,192,27535,1,0,0:0:0:0:
192,192,27621,128,0,27707:0:0:0:0:
320,192,27707,128,0,27793:0:0:0:0:
448,192,27793,128,0,27878:0:0:0:0:
64,192,27878,128,0,27964:0:0:0:0:
192,192,27878,1,0,0:0:0:0:
320,192,27878,1,0,0:0:0:0:
320,192,27964,128,0,28050:0:0:0:0:
192,192,28050,128,0,28135:0:0:0:0:
64,192,28135,128,0,28221:0:0:0:0:
320,192,28221,1,0,0:0:0:0:
448,192,28221,128,0,28335:0:0:0:0:
320,192,28335,128,0,28450:0:0:0:0:
192,192,28335,1,0,0:0:0:0:
192,192,28450,128,0,28564:0:0:0:0:
448,192,28450,1,0,0:0:0:0:
64,192,28564,128,0,28678:0:0:0:0:
320,192,28564,1,0,0:0:0:0:
448,192,28678,1,0,0:0:0:0:
192,192,28678,1,0,0:0:0:0:
192,192,28793,1,0,0:0:0:0:
320,192,28793,1,0,0:0:0:0:
64,192,28907,128,0,29021:0:0:0:0:
448,192,28907,1,0,0:0:0:0:
192,192,29021,128,0,29135:0:0:0:0:
320,192,29021,1,0,0:0:0:0:
320,192,29135,128,0,29250:0:0:0:0:
64,192,29135,1,0,0:0:0:0:
448,192,29250,1,0,0:0:0:0:
192,192,29250,128,0,29293:0:0:0:0:
64,192,29293,128,0,29335:0:0:0:0:
320,192,29335,128,0,29378:0:0:0:0:
192,192,29378,128,0,29421:0:0:0:0:
448,192,29421,128,0,29464:0:0:0:0:
320,192,29464,128,0,29507:0:0:0:0:
192,192,29507,128,0,29550:0:0:0:0:
64,192,29550,128,0,29593:0:0:0:0:
320,192,29593,128,0,29850:0:0:0:0:
448,192,29593,128,0,29850:0:0:0:0:
192,192,29764,1,0,0:0:0:0:
64,192,29935,1,0,0:0:0:0:
320,192,29935,128,0,30193:0:0:0:0:
448,192,29935,128,0,30193:0:0:0:0:
192,192,30107,1,0,0:0:0:0:
64,192,30278,1,0,0:0:0:0:
320,192,30278,128,0,30450:0:0:0:0:
448,192,30278,128,0,30450:0:0:0:0:
192,192,30450,1,0,0:0:0:0:
320,192,30535,128,0,30707:0:0:0:0:
448,192,30535,128,0,30707:0:0:0:0:
64,192,30621,1,0,0:0:0:0:
192,192,30793,1,0,0:0:0:0:
320,192,30793,128,0,30878:0:0:0:0:
448,192,30793,128,0,30878:0:0:0:0:
448,192,30964,1,0,0:0:0:0:
64,192,30964,128,0,31221:0:0:0:0:
192,192,30964,128,0,31221:0:0:0:0:
320,192,31135,1,0,0:0:0:0:
448,192,31307,1,0,0:0:0:0:
64,192,31307,128,0,31564:0:0:0:0:
192,192,31307,128,0,31564:0:0:0:0:
320,192,31478,1,0,0:0:0:0:
448,192,31650,1,0,0:0:0:0:
64,192,31650,128,0,31821:0:0:0:0:
192,192,31650,128,0,31821:0:0:0:0:
320,192,31821,1,0,0:0:0:0:
192,192,31907,128,0,32078:0:0:0:0:
64,192,31907,128,0,32078:0:0:0:0:
448,192,31993,1,0,0:0:0:0:
320,192,32164,1,0,0:0:0:0:
64,192,32164,128,0,32250:0:0:0:0:
192,192,32164,128,0,32250:0:0:0:0:
448,192,32335,1,0,0:0:0:0:
320,192,32335,1,0,0:0:0:0:
64,192,32335,1,0,0:0:0:0:
192,192,32421,1,0,0:0:0:0:
448,192,32507,1,0,0:0:0:0:
64,192,32507,1,0,0:0:0:0:
320,192,32593,1,0,0:0:0:0:
64,192,32678,1,0,0:0:0:0:
192,192,32678,1,0,0:0:0:0:
448,192,32678,1,0,0:0:0:0:
320,192,32764,1,0,0:0:0:0:
64,192,32850,1,0,0:0:0:0:
448,192,32850,1,0,0:0:0:0:
192,192,32935,1,0,0:0:0:0:
320,192,33021,1,0,0:0:0:0:
448,192,33021,1,0,0:0:0:0:
64,192,33107,1,0,0:0:0:0:
192,192,33107,1,0,0:0:0:0:
320,192,33193,1,0,0:0:0:0:
448,192,33193,1,0,0:0:0:0:
64,192,33278,1,0,0:0:0:0:
192,192,33278,1,0,0:0:0:0:
448,192,33364,1,0,0:0:0:0:
320,192,33364,1,0,0:0:0:0:
64,192,33450,1,0,0:0:0:0:
192,192,33450,1,0,0:0:0:0:
320,192,33535,1,0,0:0:0:0:
448,192,33535,1,0,0:0:0:0:
64,192,33621,1,0,0:0:0:0:
192,192,33621,1,0,0:0:0:0:
320,192,33707,1,0,0:0:0:0:
448,192,33707,1,0,0:0:0:0:
192,192,34050,1,0,0:0:0:0:
192,192,34393,1,0,0:0:0:0:
64,192,34393,1,0,0:0:0:0:
320,192,34478,1,0,0:0:0:0:
448,192,34478,1,0,0:0:0:0:
192,192,34564,1,0,0:0:0:0:
448,192,34650,1,0,0:0:0:0:
64,192,34735,1,0,0:0:0:0:
320,192,34735,1,0,0:0:0:0:
192,192,34735,128,0,34907:0:0:0:0:
320,192,34907,128,0,35078:0:0:0:0:
64,192,35078,128,0,35250:0:0:0:0:
192,192,35078,128,0,35250:0:0:0:0:
448,192,35078,128,0,35421:0:0:0:0:
320,192,35250,1,0,0:0:0:0:
192,192,35421,128,0,35764:0:0:0:0:
64,192,35421,128,0,35593:0:0:0:0:
320,192,35421,128,0,35593:0:0:0:0:
448,192,35593,1,0,0:0:0:0:
320,192,35764,128,0,36107:0:0:0:0:
64,192,35764,128,0,35935:0:0:0:0:
448,192,35764,128,0,35935:0:0:0:0:
192,192,35935,1,0,0:0:0:0:
64,192,36107,128,0,36278:0:0:0:0:
448,192,36107,1,0,0:0:0:0:
448,192,36278,128,0,36450:0:0:0:0:
192,192,36278,1,0,0:0:0:0:
192,192,36450,128,0,36793:0:0:0:0:
320,192,36450,128,0,36621:0:0:0:0:
64,192,36450,128,0,36621:0:0:0:0:
448,192,36621,1,0,0:0:0:0:
320,192,36793,128,0,37135:0:0:0:0:
64,192,36793,128,0,36964:0:0:0:0:
448,192,36793,128,0,36964:0:0:0:0:
192,192,36964,1,0,0:0:0:0:
64,192,37135,128,0,37478:0:0:0:0:
192,192,37135,128,0,37307:0:0:0:0:
448,192,37135,128,0,37307:0:0:0:0:
320,192,37307,1,0,0:0:0:0:
448,192,37478,128,0,37650:0:0:0:0:
192,192,37478,1,0,0:0:0:0:
320,192,37650,128,0,37821:0:0:0:0:
64,192,37650,1,0,0:0:0:0:
64,192,37821,128,0,37907:0:0:0:0:
192,192,37821,128,0,37907:0:0:0:0:
448,192,37907,128,0,37993:0:0:0:0:
320,192,37993,128,0,38078:0:0:0:0:
192,192,38078,128,0,38164:0:0:0:0:
64,192,38164,128,0,38250:0:0:0:0:
448,192,38164,128,0,38250:0:0:0:0:
320,192,38250,128,0,38335:0:0:0:0:
192,192,38335,128,0,38421:0:0:0:0:
448,192,38335,128,0,38421:0:0:0:0:
64,192,38421,128,0,38507:0:0:0:0:
320,192,38507,128,0,38593:0:0:0:0:
448,192,38507,128,0,38593:0:0:0:0:
192,192,38593,128,0,38678:0:0:0:0:
448,192,38678,128,0,38764:0:0:0:0:
64,192,38764,128,0,38850:0:0:0:0:
192,192,38850,128,0,38935:0:0:0:0:
320,192,38850,128,0,38935:0:0:0:0:
448,192,38935,128,0,39021:0:0:0:0:
192,192,39021,128,0,39107:0:0:0:0:
64,192,39021,128,0,39107:0:0:0:0:
320,192,39107,128,0,39193:0:0:0:0:
64,192,39193,128,0,39278:0:0:0:0:
448,192,39193,128,0,39278:0:0:0:0:
192,192,39278,128,0,39364:0:0:0:0:
320,192,39364,128,0,39450:0:0:0:0:
64,192,39450,128,0,39535:0:0:0:0:
320,192,39535,128,0,39621:0:0:0:0:
448,192,39535,128,0,39621:0:0:0:0:
192,192,39621,128,0,39707:0:0:0:0:
64,192,39707,128,0,39793:0:0:0:0:
320,192,39793,128,0,39878:0:0:0:0:
64,192,39878,128,0,39964:0:0:0:0:
448,192,39878,128,0,39964:0:0:0:0:
320,192,39964,128,0,40050:0:0:0:0:
192,192,40050,128,0,40135:0:0:0:0:
448,192,40135,128,0,40221:0:0:0:0:
64,192,40221,128,0,40335:0:0:0:0:
192,192,40278,128,0,40393:0:0:0:0:
320,192,40335,128,0,40450:0:0:0:0:
448,192,40393,128,0,40507:0:0:0:0:
192,192,40450,1,0,0:0:0:0:
320,192,40507,1,0,0:0:0:0:
192,192,40564,128,0,40735:0:0:0:0:
448,192,40564,128,0,40907:0:0:0:0:
64,192,40564,128,0,40735:0:0:0:0:
320,192,40735,1,0,0:0:0:0:
64,192,40907,128,0,41250:0:0:0:0:
192,192,40907,128,0,41078:0:0:0:0:
320,192,40907,128,0,41078:0:0:0:0:
448,192,41078,1,0,0:0:0:0:
192,192,41250,128,0,41593:0:0:0:0:
320,192,41250,128,0,41421:0:0:0:0:
448,192,41250,128,0,41421:0:0:0:0:
64,192,41421,1,0,0:0:0:0:
320,192,41593,128,0,41764:0:0:0:0:
448,192,41593,1,0,0:0:0:0:
64,192,41764,128,0,41935:0:0:0:0:
192,192,41764,1,0,0:0:0:0:
320,192,41935,128,0,42278:0:0:0:0:
192,192,41935,128,0,42107:0:0:0:0:
448,192,41935,128,0,42107:0:0:0:0:
64,192,42107,1,0,0:0:0:0:
64,192,42278,128,0,42450:0:0:0:0:
192,192,42278,128,0,42621:0:0:0:0:
448,192,42278,128,0,42450:0:0:0:0:
320,192,42450,1,0,0:0:0:0:
448,192,42621,128,0,42964:0:0:0:0:
320,192,42621,128,0,42793:0:0:0:0:
64,192,42621,128,0,42793:0:0:0:0:
192,192,42793,1,0,0:0:0:0:
64,192,42964,128,0,43135:0:0:0:0:
320,192,42964,1,0,0:0:0:0:
192,192,43135,128,0,43307:0:0:0:0:
448,192,43135,1,0,0:0:0:0:
64,192,43307,128,0,43393:0:0:0:0:
320,192,43307,128,0,43393:0:0:0:0:
448,192,43307,128,0,43393:0:0:0:0:
192,192,43478,128,0,43564:0:0:0:0:
64,192,43478,128,0,43564:0:0:0:0:
320,192,43478,128,0,43564:0:0:0:0:
192,192,43650,128,0,43735:0:0:0:0:
320,192,43650,128,0,43735:0:0:0:0:
448,192,43650,128,0,43735:0:0:0:0:
64,192,43821,128,0,43907:0:0:0:0:
192,192,43821,128,0,43907:0:0:0:0:
448,192,43821,128,0,43907:0:0:0:0:
64,192,43993,128,0,44078:0:0:0:0:
320,192,43993,128,0,44078:0:0:0:0:
448,192,43993,128,0,44078:0:0:0:0:
64,192,44164,128,0,44250:0:0:0:0:
192,192,44164,128,0,44250:0:0:0:0:
320,192,44164,128,0,44250:0:0:0:0:
320,192,44335,128,0,44421:0:0:0:0:
448,192,44335,128,0,44421:0:0:0:0:
64,192,44335,128,0,44421:0:0:0:0:
320,192,44507,128,0,44593:0:0:0:0:
192,192,44507,128,0,44593:0:0:0:0:
448,192,44507,128,0,44593:0:0:0:0:
64,192,44678,128,0,45021:0:0:0:0:
192,192,44678,128,0,44764:0:0:0:0:
320,192,44678,128,0,44764:0:0:0:0:
192,192,44850,128,0,45364:0:0:0:0:
320,192,44850,128,0,44935:0:0:0:0:
448,192,44850,128,0,44935:0:0:0:0:
320,192,45021,128,0,45364:0:0:0:0:
448,192,45021,128,0,45364:0:0:0:0:
64,192,45364,128,0,45707:0:0:0:0:
320,192,45707,128,0,45878:0:0:0:0:
192,192,45707,1,0,0:0:0:0:
448,192,45707,1,0,0:0:0:0:
192,192,45878,128,0,46050:0:0:0:0:
448,192,46050,128,0,46221:0:0:0:0:
320,192,46050,128,0,46221:0:0:0:0:
64,192,46050,128,0,46393:0:0:0:0:
192,192,46221,1,0,0:0:0:0:
320,192,46393,128,0,46735:0:0:0:0:
448,192,46393,128,0,46564:0:0:0:0:
192,192,46393,128,0,46564:0:0:0:0:
64,192,46564,1,0,0:0:0:0:
192,192,46735,128,0,47078:0:0:0:0:
448,192,46735,128,0,46907:0:0:0:0:
64,192,46735,128,0,46907:0:0:0:0:
320,192,46907,1,0,0:0:0:0:
448,192,47078,128,0,47250:0:0:0:0:
64,192,47078,1,0,0:0:0:0:
64,192,47250,128,0,47421:0:0:0:0:
320,192,47250,1,0,0:0:0:0:
320,192,47421,128,0,47764:0:0:0:0:
192,192,47421,128,0,47593:0:0:0:0:
448,192,47421,128,0,47593:0:0:0:0:
64,192,47593,1,0,0:0:0:0:
192,192,47764,128,0,48107:0:0:0:0:
448,192,47764,128,0,47935:0:0:0:0:
64,192,47764,128,0,47935:0:0:0:0:
320,192,47935,1,0,0:0:0:0:
448,192,48107,128,0,48450:0:0:0:0:
320,192,48107,128,0,48278:0:0:0:0:
64,192,48107,128,0,48278:0:0:0:0:
192,192,48278,1,0,0:0:0:0:
64,192,48450,128,0,48621:0:0:0:0:
320,192,48450,1,0,0:0:0:0:
192,192,48621,128,0,48793:0:0:0:0:
448,192,48621,1,0,0:0:0:0:
448,192,48793,128,0,48878:0:0:0:0:
320,192,48793,128,0,48878:0:0:0:0:
64,192,48878,128,0,48964:0:0:0:0:
192,192,48964,128,0,49050:0:0:0:0:
320,192,49050,128,0,49135:0:0:0:0:
448,192,49135,128,0,49221:0:0:0:0:
64,192,49135,128,0,49221:0:0:0:0:
192,192,49221,128,0,49307:0:0:0:0:
320,192,49307,128,0,49393:0:0:0:0:
64,192,49307,128,0,49393:0:0:0:0:
448,192,49393,128,0,49478:0:0:0:0:
192,192,49478,128,0,49564:0:0:0:0:
64,192,49478,128,0,49564:0:0:0:0:
320,192,49564,128,0,49650:0:0:0:0:
192,192,49650,128,0,49735:0:0:0:0:
448,192,49735,128,0,49821:0:0:0:0:
320,192,49821,128,0,49907:0:0:0:0:
64,192,49821,128,0,49907:0:0:0:0:
192,192,49907,128,0,49993:0:0:0:0:
448,192,49993,128,0,50078:0:0:0:0:
320,192,50078,128,0,50164:0:0:0:0:
448,192,50164,128,0,50250:0:0:0:0:
64,192,50164,128,0,50250:0:0:0:0:
192,192,50250,128,0,50335:0:0:0:0:
320,192,50335,128,0,50421:0:0:0:0:
448,192,50421,128,0,50507:0:0:0:0:
192,192,50507,128,0,50593:0:0:0:0:
64,192,50507,128,0,50593:0:0:0:0:
320,192,50593,128,0,50678:0:0:0:0:
448,192,50678,128,0,50764:0:0:0:0:
192,192,50764,128,0,50850:0:0:0:0:
448,192,50850,128,0,50935:0:0:0:0:
64,192,50850,128,0,50935:0:0:0:0:
192,192,50935,128,0,51021:0:0:0:0:
320,192,51021,128,0,51107:0:0:0:0:
64,192,51107,128,0,51193:0:0:0:0:
448,192,51193,128,0,51307:0:0:0:0:
320,192,51250,128,0,51364:0:0:0:0:
192,192,51307,128,0,51421:0:0:0:0:
64,192,51364,128,0,51478:0:0:0:0:
320,192,51421,1,0,0:0:0:0:
192,192,51478,1,0,0:0:0:0:
448,192,51535,128,0,51793:0:0:0:0:
320,192,51535,1,0,0:0:0:0:
64,192,51535,1,0,0:0:0:0:
192,192,51707,1,0,0:0:0:0:
320,192,51707,1,0,0:0:0:0:
448,192,51878,128,0,52135:0:0:0:0:
64,192,51878,1,0,0:0:0:0:
320,192,51878,1,0,0:0:0:0:
192,192,51964,1,0,0:0:0:0:
64,192,52050,1,0,0:0:0:0:
192,192,52135,1,0,0:0:0:0:
448,192,52221,128,0,52478:0:0:0:0:
64,192,52221,1,0,0:0:0:0:
320,192,52221,1,0,0:0:0:0:
192,192,52393,1,0,0:0:0:0:
64,192,52393,1,0,0:0:0:0:
320,192,52564,128,0,52650:0:0:0:0:
64,192,52564,1,0,0:0:0:0:
192,192,52735,128,0,52821:0:0:0:0:
448,192,52735,1,0,0:0:0:0:
64,192,52907,128,0,53164:0:0:0:0:
192,192,52907,1,0,0:0:0:0:
448,192,52907,1,0,0:0:0:0:
192,192,53078,1,0,0:0:0:0:
320,192,53078,1,0,0:0:0:0:
64,192,53250,128,0,53507:0:0:0:0:
448,192,53250,1,0,0:0:0:0:
192,192,53250,1,0,0:0:0:0:
320,192,53335,1,0,0:0:0:0:
448,192,53421,1,0,0:0:0:0:
320,192,53507,1,0,0:0:0:0:
64,192,53593,128,0,53850:0:0:0:0:
192,192,53593,1,0,0:0:0:0:
448,192,53593,1,0,0:0:0:0:
320,192,53764,1,0,0:0:0:0:
448,192,53764,1,0,0:0:0:0:
192,192,53935,128,0,54021:0:0:0:0:
448,192,53935,1,0,0:0:0:0:
320,192,54107,128,0,54193:0:0:0:0:
64,192,54107,1,0,0:0:0:0:
64,192,54278,1,0,0:0:0:0:
192,192,54278,1,0,0:0:0:0:
448,192,54278,1,0,0:0:0:0:
320,192,54450,1,0,0:0:0:0:
448,192,54450,1,0,0:0:0:0:
64,192,54535,1,0,0:0:0:0:
192,192,54535,1,0,0:0:0:0:
64,192,54707,1,0,0:0:0:0:
320,192,54707,1,0,0:0:0:0:
192,192,54793,1,0,0:0:0:0:
448,192,54793,1,0,0:0:0:0:
320,192,54878,1,0,0:0:0:0:
64,192,54964,1,0,0:0:0:0:
192,192,54964,1,0,0:0:0:0:
448,192,54964,1,0,0:0:0:0:
320,192,55135,1,0,0:0:0:0:
448,192,55135,1,0,0:0:0:0:
64,192,55221,1,0,0:0:0:0:
192,192,55221,1,0,0:0:0:0:
320,192,55307,1,0,0:0:0:0:
448,192,55307,1,0,0:0:0:0:
320,192,55393,1,0,0:0:0:0:
192,192,55393,1,0,0:0:0:0:
192,192,55478,1,0,0:0:0:0:
64,192,55478,1,0,0:0:0:0:
320,192,55564,1,0,0:0:0:0:
448,192,55564,1,0,0:0:0:0:
64,192,55650,128,0,55907:0:0:0:0:
192,192,55735,128,0,55907:0:0:0:0:
320,192,55821,128,0,55907:0:0:0:0:
448,192,55907,128,0,56164:0:0:0:0:
320,192,55993,128,0,56164:0:0:0:0:
192,192,56078,128,0,56164:0:0:0:0:
64,192,56164,128,0,56593:0:0:0:0:
192,192,56250,128,0,56507:0:0:0:0:
320,192,56335,128,0,56421:0:0:0:0:
448,192,56421,128,0,56507:0:0:0:0:
320,192,56507,128,0,56593:0:0:0:0:
192,192,56593,128,0,56678:0:0:0:0:
320,192,56678,1,0,0:0:0:0:
448,192,56678,1,0,0:0:0:0:
64,192,56678,128,0,56764:0:0:0:0:
192,192,56764,128,0,56850:0:0:0:0:
320,192,56850,128,0,56935:0:0:0:0:
448,192,56935,128,0,57021:0:0:0:0:
64,192,57021,128,0,57193:0:0:0:0:
320,192,57021,1,0,0:0:0:0:
192,192,57021,1,0,0:0:0:0:
192,192,57193,128,0,57278:0:0:0:0:
192,192,57364,128,0,57450:0:0:0:0:
448,192,57364,1,0,0:0:0:0:
64,192,57364,1,0,0:0:0:0:
192,192,57535,128,0,57621:0:0:0:0:
192,192,57707,128,0,57878:0:0:0:0:
64,192,57707,1,0,0:0:0:0:
320,192,57878,128,0,58050:0:0:0:0:
64,192,58050,128,0,58221:0:0:0:0:
448,192,58050,1,0,0:0:0:0:
192,192,58050,1,0,0:0:0:0:
192,192,58221,128,0,58393:0:0:0:0:
64,192,58393,1,0,0:0:0:0:
320,192,58393,1,0,0:0:0:0:
448,192,58564,128,0,58735:0:0:0:0:
64,192,58735,1,0,0:0:0:0:
192,192,58735,1,0,0:0:0:0:
320,192,58907,128,0,59078:0:0:0:0:
64,192,59078,128,0,59250:0:0:0:0:
448,192,59078,1,0,0:0:0:0:
448,192,59250,128,0,59307:0:0:0:0:
192,192,59250,1,0,0:0:0:0:
320,192,59307,128,0,59364:0:0:0:0:
192,192,59364,128,0,59421:0:0:0:0:
320,192,59421,128,0,59593:0:0:0:0:
64,192,59421,1,0,0:0:0:0:
448,192,59421,1,0,0:0:0:0:
192,192,59593,128,0,59764:0:0:0:0:
448,192,59764,128,0,59935:0:0:0:0:
64,192,59764,1,0,0:0:0:0:
320,192,59935,128,0,60107:0:0:0:0:
64,192,60107,128,0,60278:0:0:0:0:
448,192,60107,1,0,0:0:0:0:
192,192,60278,128,0,60450:0:0:0:0:
64,192,60450,1,0,0:0:0:0:
320,192,60450,1,0,0:0:0:0:
320,192,60621,128,0,60793:0:0:0:0:
192,192,60793,1,0,0:0:0:0:
64,192,60793,1,0,0:0:0:0:
64,192,60964,128,0,61135:0:0:0:0:
192,192,61135,1,0,0:0:0:0:
320,192,61135,1,0,0:0:0:0:
448,192,61307,128,0,61478:0:0:0:0:
320,192,61478,128,0,61650:0:0:0:0:
192,192,61478,1,0,0:0:0:0:
64,192,61478,1,0,0:0:0:0:
64,192,61650,128,0,61821:0:0:0:0:
192,192,61821,128,0,61993:0:0:0:0:
320,192,61821,1,0,0:0:0:0:
448,192,61993,128,0,62164:0:0:0:0:
64,192,62164,1,0,0:0:0:0:
192,192,62164,1,0,0:0:0:0:
320,192,62164,128,0,62507:0:0:0:0:
64,192,62335,1,0,0:0:0:0:
192,192,62507,128,0,62593:0:0:0:0:
448,192,62507,1,0,0:0:0:0:
320,192,62593,128,0,62678:0:0:0:0:
64,192,62593,1,0,0:0:0:0:
192,192,62678,128,0,62850:0:0:0:0:
448,192,62678,128,0,62850:0:0:0:0:
64,192,62850,1,0,0:0:0:0:
320,192,62850,128,0,62935:0:0:0:0:
192,192,62935,128,0,63021:0:0:0:0:
448,192,62935,1,0,0:0:0:0:
320,192,63021,128,0,63193:0:0:0:0:
64,192,63021,128,0,63193:0:0:0:0:
192,192,63193,128,0,63278:0:0:0:0:
448,192,63193,1,0,0:0:0:0:
320,192,63278,128,0,63364:0:0:0:0:
64,192,63278,1,0,0:0:0:0:
192,192,63364,128,0,63535:0:0:0:0:
448,192,63364,128,0,63535:0:0:0:0:
64,192,63535,128,0,63707:0:0:0:0:
320,192,63535,1,0,0:0:0:0:
192,192,63707,128,0,63878:0:0:0:0:
448,192,63707,1,0,0:0:0:0:
320,192,63878,128,0,63964:0:0:0:0:
64,192,63878,1,0,0:0:0:0:
448,192,63878,1,0,0:0:0:0:
64,192,64050,128,0,64135:0:0:0:0:
192,192,64221,128,0,64393:0:0:0:0:
320,192,64221,1,0,0:0:0:0:
448,192,64221,1,0,0:0:0:0:
448,192,64393,128,0,64564:0:0:0:0:
64,192,64564,1,0,0:0:0:0:
192,192,64564,1,0,0:0:0:0:
320,192,64735,128,0,64907:0:0:0:0:
64,192,64907,128,0,65250:0:0:0:0:
192,192,64907,1,0,0:0:0:0:
448,192,64907,1,0,0:0:0:0:
320,192,65078,1,0,0:0:0:0:
192,192,65250,128,0,65421:0:0:0:0:
448,192,65250,1,0,0:0:0:0:
320,192,65421,128,0,65507:0:0:0:0:
320,192,65593,128,0,65764:0:0:0:0:
192,192,65593,1,0,0:0:0:0:
64,192,65593,1,0,0:0:0:0:
448,192,65764,128,0,65935:0:0:0:0:
192,192,65935,1,0,0:0:0:0:
320,192,65935,1,0,0:0:0:0:
192,192,66107,128,0,66278:0:0:0:0:
64,192,66278,1,0,0:0:0:0:
320,192,66278,1,0,0:0:0:0:
448,192,66278,1,0,0:0:0:0:
320,192,66450,128,0,66621:0:0:0:0:
64,192,66621,5,0,0:0:0:0:
448,192,66621,1,0,0:0:0:0:
320,192,66707,1,0,0:0:0:0:
192,192,66793,1,0,0:0:0:0:
64,192,66878,1,0,0:0:0:0:
448,192,66964,1,0,0:0:0:0:
320,192,67050,1,0,0:0:0:0:
64,192,67135,1,0,0:0:0:0:
192,192,67178,1,0,0:0:0:0:
320,192,67221,1,0,0:0:0:0:
448,192,67264,1,0,0:0:0:0:
64,192,67307,1,0,0:0:0:0:
192,192,67350,1,0,0:0:0:0:
320,192,67393,1,0,0:0:0:0:
448,192,67435,1,0,0:0:0:0:
64,192,67478,1,0,0:0:0:0:
320,192,67564,1,0,0:0:0:0:
64,192,67650,1,0,0:0:0:0:
192,192,67650,1,0,0:0:0:0:
448,192,67650,1,0,0:0:0:0:
320,192,67821,1,0,0:0:0:0:
448,192,67821,1,0,0:0:0:0:
64,192,67993,128,0,68078:0:0:0:0:
192,192,67993,1,0,0:0:0:0:
320,192,67993,1,0,0:0:0:0:
448,192,68078,128,0,68164:0:0:0:0:
320,192,68164,128,0,68250:0:0:0:0:
192,192,68250,128,0,68335:0:0:0:0:
64,192,68335,128,0,68421:0:0:0:0:
320,192,68421,128,0,68507:0:0:0:0:
64,192,68507,1,0,0:0:0:0:
192,192,68507,128,0,68593:0:0:0:0:
448,192,68593,128,0,68678:0:0:0:0:
320,192,68678,1,0,0:0:0:0:
64,192,68678,128,0,68764:0:0:0:0:
192,192,68764,128,0,68850:0:0:0:0:
320,192,68850,128,0,68935:0:0:0:0:
448,192,68935,128,0,69021:0:0:0:0:
320,192,69021,1,0,0:0:0:0:
192,192,69021,1,0,0:0:0:0:
64,192,69021,128,0,69107:0:0:0:0:
320,192,69107,128,0,69193:0:0:0:0:
192,192,69193,128,0,69278:0:0:0:0:
64,192,69278,128,0,69364:0:0:0:0:
320,192,69364,1,0,0:0:0:0:
448,192,69364,128,0,69450:0:0:0:0:
64,192,69450,128,0,69535:0:0:0:0:
192,192,69535,128,0,69621:0:0:0:0:
320,192,69621,128,0,69707:0:0:0:0:
448,192,69707,128,0,69793:0:0:0:0:
192,192,69793,128,0,69878:0:0:0:0:
448,192,69878,1,0,0:0:0:0:
320,192,69878,128,0,69964:0:0:0:0:
64,192,69964,128,0,70050:0:0:0:0:
192,192,70050,1,0,0:0:0:0:
448,192,70050,128,0,70135:0:0:0:0:
320,192,70135,128,0,70221:0:0:0:0:
192,192,70221,128,0,70307:0:0:0:0:
64,192,70307,128,0,70393:0:0:0:0:
192,192,70393,1,0,0:0:0:0:
320,192,70393,1,0,0:0:0:0:
448,192,70393,128,0,70478:0:0:0:0:
192,192,70478,128,0,70564:0:0:0:0:
320,192,70564,128,0,70650:0:0:0:0:
448,192,70650,128,0,70735:0:0:0:0:
192,192,70735,1,0,0:0:0:0:
64,192,70735,128,0,70821:0:0:0:0:
448,192,70821,128,0,70907:0:0:0:0:
320,192,70907,128,0,70993:0:0:0:0:
192,192,70993,128,0,71078:0:0:0:0:
64,192,71078,128,0,71164:0:0:0:0:
320,192,71164,128,0,71250:0:0:0:0:
64,192,71250,1,0,0:0:0:0:
192,192,71250,128,0,71335:0:0:0:0:
448,192,71335,128,0,71421:0:0:0:0:
320,192,71421,1,0,0:0:0:0:
64,192,71421,128,0,71507:0:0:0:0:
192,192,71507,128,0,71593:0:0:0:0:
320,192,71593,128,0,71678:0:0:0:0:
448,192,71678,128,0,71764:0:0:0:0:
320,192,71764,1,0,0:0:0:0:
192,192,71764,1,0,0:0:0:0:
64,192,71764,128,0,71850:0:0:0:0:
320,192,71850,128,0,71935:0:0:0:0:
192,192,71935,128,0,72021:0:0:0:0:
64,192,72021,128,0,72107:0:0:0:0:
448,192,72107,1,0,0:0:0:0:
320,192,72107,1,0,0:0:0:0:
192,192,72193,1,0,0:0:0:0:
320,192,72278,1,0,0:0:0:0:
64,192,72450,1,0,0:0:0:0:
448,192,72450,1,0,0:0:0:0:
192,192,72535,1,0,0:0:0:0:
320,192,72621,1,0,0:0:0:0:
64,192,72707,1,0,0:0:0:0:
192,192,72707,1,0,0:0:0:0:
448,192,72793,1,0,0:0:0:0:
64,192,72878,1,0,0:0:0:0:
320,192,72964,1,0,0:0:0:0:
192,192,73050,1,0,0:0:0:0:
320,192,73135,128,0,73178:0:0:0:0:
64,192,73135,1,0,0:0:0:0:
448,192,73178,128,0,73221:0:0:0:0:
192,192,73221,128,0,73264:0:0:0:0:
320,192,73264,128,0,73307:0:0:0:0:
64,192,73307,128,0,73350:0:0:0:0:
192,192,73350,128,0,73393:0:0:0:0:
320,192,73393,128,0,73435:0:0:0:0:
448,192,73435,128,0,73478:0:0:0:0:
192,192,73478,128,0,73735:0:0:0:0:
64,192,73478,128,0,73735:0:0:0:0:
320,192,73650,1,0,0:0:0:0:
448,192,73821,1,0,0:0:0:0:
192,192,73821,128,0,74078:0:0:0:0:
64,192,73821,128,0,74078:0:0:0:0:
320,192,73993,1,0,0:0:0:0:
448,192,74164,1,0,0:0:0:0:
192,192,74164,128,0,74335:0:0:0:0:
64,192,74164,128,0,74335:0:0:0:0:
320,192,74335,1,0,0:0:0:0:
192,192,74421,128,0,74593:0:0:0:0:
64,192,74421,128,0,74593:0:0:0:0:
448,192,74507,1,0,0:0:0:0:
320,192,74678,1,0,0:0:0:0:
192,192,74678,128,0,74764:0:0:0:0:
64,192,74678,128,0,74764:0:0:0:0:
64,192,74850,1,0,0:0:0:0:
448,192,74850,128,0,75107:0:0:0:0:
320,192,74850,128,0,75107:0:0:0:0:
192,192,75021,1,0,0:0:0:0:
64,192,75193,1,0,0:0:0:0:
448,192,75193,128,0,75450:0:0:0:0:
320,192,75193,128,0,75450:0:0:0:0:
192,192,75364,1,0,0:0:0:0:
64,192,75535,1,0,0:0:0:0:
448,192,75535,128,0,75707:0:0:0:0:
320,192,75535,128,0,75707:0:0:0:0:
192,192,75707,1,0,0:0:0:0:
320,192,75793,128,0,75964:0:0:0:0:
448,192,75793,128,0,75964:0:0:0:0:
64,192,75878,1,0,0:0:0:0:
192,192,76050,1,0,0:0:0:0:
448,192,76050,128,0,76135:0:0:0:0:
320,192,76050,128,0,76135:0:0:0:0:
64,192,76221,1,0,0:0:0:0:
192,192,76221,1,0,0:0:0:0:
448,192,76221,1,0,0:0:0:0:
320,192,76307,1,0,0:0:0:0:
64,192,76393,1,0,0:0:0:0:
448,192,76393,1,0,0:0:0:0:
192,192,76478,1,0,0:0:0:0:
448,192,76564,1,0,0:0:0:0:
320,192,76564,1,0,0:0:0:0:
64,192,76564,1,0,0:0:0:0:
192,192,76650,1,0,0:0:0:0:
448,192,76735,1,0,0:0:0:0:
64,192,76735,1,0,0:0:0:0:
320,192,76821,1,0,0:0:0:0:
192,192,76907,1,0,0:0:0:0:
64,192,76907,1,0,0:0:0:0:
448,192,76993,1,0,0:0:0:0:
320,192,76993,1,0,0:0:0:0:
192,192,77078,1,0,0:0:0:0:
64,192,77078,1,0,0:0:0:0:
448,192,77164,1,0,0:0:0:0:
320,192,77164,1,0,0:0:0:0:
64,192,77250,1,0,0:0:0:0:
192,192,77250,1,0,0:0:0:0:
448,192,77335,1,0,0:0:0:0:
320,192,77335,1,0,0:0:0:0:
192,192,77421,1,0,0:0:0:0:
64,192,77421,1,0,0:0:0:0:
448,192,77507,1,0,0:0:0:0:
320,192,77507,1,0,0:0:0:0:
64,192,77593,1,0,0:0:0:0:
192,192,77593,128,0,77678:0:0:0:0:
64,192,77764,1,0,0:0:0:0:
64,192,77935,5,0,0:0:0:0:
320,192,77935,128,0,78021:0:0:0:0:
192,192,78107,1,0,0:0:0:0:
320,192,78107,1,0,0:0:0:0:
448,192,78278,128,0,78364:0:0:0:0:
64,192,78278,1,0,0:0:0:0:
192,192,78450,1,0,0:0:0:0:
448,192,78450,1,0,0:0:0:0:
320,192,78535,1,0,0:0:0:0:
64,192,78621,1,0,0:0:0:0:
192,192,78621,1,0,0:0:0:0:
448,192,78621,1,0,0:0:0:0:
64,192,78964,5,0,0:0:0:0:
448,192,78964,1,0,0:0:0:0:
320,192,79007,1,0,0:0:0:0:
192,192,79050,1,0,0:0:0:0:
64,192,79093,1,0,0:0:0:0:
448,192,79135,1,0,0:0:0:0:
320,192,79178,1,0,0:0:0:0:
192,192,79221,1,0,0:0:0:0:
448,192,79264,1,0,0:0:0:0:
64,192,79307,1,0,0:0:0:0:
192,192,79364,1,0,0:0:0:0:
448,192,79421,1,0,0:0:0:0:
320,192,79478,1,0,0:0:0:0:
192,192,79535,1,0,0:0:0:0:
64,192,79593,1,0,0:0:0:0:
320,192,79650,128,0,79707:0:0:0:0:
448,192,79650,128,0,79707:0:0:0:0:
192,192,79821,128,0,79878:0:0:0:0:
64,192,79821,128,0,79878:0:0:0:0:
192,192,79993,128,0,80050:0:0:0:0:
320,192,79993,128,0,80050:0:0:0:0:
64,192,80164,128,0,80221:0:0:0:0:
448,192,80164,128,0,80221:0:0:0:0:
320,192,80335,128,0,80507:0:0:0:0:
448,192,80335,128,0,80421:0:0:0:0:
64,192,80421,128,0,80593:0:0:0:0:
192,192,80507,128,0,80593:0:0:0:0:
448,192,80507,128,0,80678:0:0:0:0:
320,192,80593,128,0,80678:0:0:0:0:
64,192,80678,128,0,80764:0:0:0:0:
192,192,80678,128,0,80850:0:0:0:0:
448,192,80764,128,0,80935:0:0:0:0:
64,192,80850,128,0,81021:0:0:0:0:
320,192,80850,128,0,80935:0:0:0:0:
192,192,80935,128,0,81021:0:0:0:0:
320,192,81021,128,0,81278:0:0:0:0:
448,192,81021,128,0,81107:0:0:0:0:
192,192,81193,128,0,81450:0:0:0:0:
448,192,81193,128,0,81621:0:0:0:0:
64,192,81364,128,0,81450:0:0:0:0:
320,192,81364,128,0,81621:0:0:0:0:
192,192,81535,128,0,81621:0:0:0:0:
64,192,81535,128,0,81621:0:0:0:0:
192,192,81707,1,0,0:0:0:0:
448,192,81707,1,0,0:0:0:0:
320,192,81750,1,0,0:0:0:0:
64,192,81793,1,0,0:0:0:0:
192,192,81835,1,0,0:0:0:0:
448,192,81878,1,0,0:0:0:0:
320,192,81921,1,0,0:0:0:0:
64,192,81964,1,0,0:0:0:0:
192,192,82007,1,0,0:0:0:0:
448,192,82050,1,0,0:0:0:0:
320,192,82107,1,0,0:0:0:0:
192,192,82164,1,0,0:0:0:0:
64,192,82221,1,0,0:0:0:0:
320,192,82278,1,0,0:0:0:0:
192,192,82335,1,0,0:0:0:0:
448,192,82393,128,0,82450:0:0:0:0:
64,192,82393,128,0,82450:0:0:0:0:
192,192,82564,128,0,82621:0:0:0:0:
448,192,82564,128,0,82621:0:0:0:0:
320,192,82735,128,0,82821:0:0:0:0:
64,192,82735,128,0,82821:0:0:0:0:
192,192,82821,128,0,82907:0:0:0:0:
64,192,82907,128,0,82993:0:0:0:0:
448,192,82907,128,0,82993:0:0:0:0:
192,192,82993,128,0,83078:0:0:0:0:
320,192,83078,1,0,0:0:0:0:
448,192,83078,128,0,83121:0:0:0:0:
192,192,83164,1,0,0:0:0:0:
64,192,83164,128,0,83207:0:0:0:0:
448,192,83250,128,0,83293:0:0:0:0:
320,192,83293,1,0,0:0:0:0:
192,192,83335,1,0,0:0:0:0:
64,192,83378,1,0,0:0:0:0:
448,192,83421,1,0,0:0:0:0:
320,192,83421,128,0,83464:0:0:0:0:
64,192,83507,1,0,0:0:0:0:
192,192,83507,128,0,83550:0:0:0:0:
448,192,83593,1,0,0:0:0:0:
320,192,83593,128,0,83635:0:0:0:0:
192,192,83678,1,0,0:0:0:0:
64,192,83764,1,0,0:0:0:0:
448,192,83764,128,0,83807:0:0:0:0:
192,192,83850,1,0,0:0:0:0:
320,192,83850,128,0,83893:0:0:0:0:
64,192,83935,1,0,0:0:0:0:
448,192,83935,128,0,83978:0:0:0:0:
320,192,84021,1,0,0:0:0:0:
64,192,84107,128,0,84150:0:0:0:0:
192,192,84150,1,0,0:0:0:0:
448,192,84193,1,0,0:0:0:0:
64,192,84278,128,0,84321:0:0:0:0:
192,192,84321,1,0,0:0:0:0:
320,192,84364,1,0,0:0:0:0:
448,192,84450,5,0,0:0:0:0:
64,192,84450,1,0,0:0:0:0:
192,192,84493,1,0,0:0:0:0:
320,192,84535,1,0,0:0:0:0:
448,192,84578,1,0,0:0:0:0:
64,192,84621,1,0,0:0:0:0:
192,192,84664,1,0,0:0:0:0:
320,192,84707,1,0,0:0:0:0:
64,192,84750,1,0,0:0:0:0:
448,192,84793,1,0,0:0:0:0:
320,192,84850,1,0,0:0:0:0:
64,192,84907,1,0,0:0:0:0:
192,192,84964,1,0,0:0:0:0:
320,192,85021,1,0,0:0:0:0:
448,192,85078,1,0,0:0:0:0:
64,192,85135,128,0,85193:0:0:0:0:
192,192,85135,128,0,85193:0:0:0:0:
320,192,85307,128,0,85364:0:0:0:0:
448,192,85307,128,0,85364:0:0:0:0:
448,192,85478,128,0,85535:0:0:0:0:
192,192,85478,128,0,85535:0:0:0:0:
320,192,85650,128,0,85707:0:0:0:0:
64,192,85650,128,0,85707:0:0:0:0:
192,192,85821,128,0,85993:0:0:0:0:
64,192,85821,128,0,85907:0:0:0:0:
448,192,85907,128,0,86078:0:0:0:0:
320,192,85993,128,0,86078:0:0:0:0:
64,192,85993,128,0,86164:0:0:0:0:
192,192,86078,128,0,86164:0:0:0:0:
448,192,86164,128,0,86250:0:0:0:0:
320,192,86164,128,0,86335:0:0:0:0:
64,192,86250,128,0,86421:0:0:0:0:
448,192,86335,128,0,86507:0:0:0:0:
192,192,86335,128,0,86421:0:0:0:0:
320,192,86421,128,0,86507:0:0:0:0:
192,192,86507,128,0,86764:0:0:0:0:
64,192,86507,128,0,86593:0:0:0:0:
320,192,86678,128,0,86935:0:0:0:0:
64,192,86678,128,0,87107:0:0:0:0:
448,192,86850,128,0,86935:0:0:0:0:
192,192,86850,128,0,87107:0:0:0:0:
320,192,87021,128,0,87107:0:0:0:0:
448,192,87021,128,0,87107:0:0:0:0:
320,192,87193,1,0,0:0:0:0:
64,192,87193,1,0,0:0:0:0:
192,192,87235,1,0,0:0:0:0:
448,192,87278,1,0,0:0:0:0:
320,192,87321,1,0,0:0:0:0:
64,192,87364,1,0,0:0:0:0:
192,192,87407,1,0,0:0:0:0:
448,192,87450,1,0,0:0:0:0:
320,192,87493,1,0,0:0:0:0:
64,192,87535,1,0,0:0:0:0:
192,192,87593,1,0,0:0:0:0:
320,192,87650,1,0,0:0:0:0:
448,192,87707,1,0,0:0:0:0:
192,192,87764,1,0,0:0:0:0:
320,192,87821,1,0,0:0:0:0:
448,192,87878,128,0,87935:0:0:0:0:
64,192,87878,128,0,87935:0:0:0:0:
320,192,88050,128,0,88107:0:0:0:0:
192,192,88050,128,0,88107:0:0:0:0:
64,192,88221,128,0,88307:0:0:0:0:
448,192,88221,128,0,88307:0:0:0:0:
320,192,88307,128,0,88393:0:0:0:0:
448,192,88393,128,0,88478:0:0:0:0:
192,192,88393,128,0,88478:0:0:0:0:
320,192,88478,128,0,88564:0:0:0:0:
192,192,88564,1,0,0:0:0:0:
64,192,88564,1,0,0:0:0:0:
64,192,88735,128,0,88793:0:0:0:0:
192,192,88793,128,0,88850:0:0:0:0:
64,192,88850,128,0,88907:0:0:0:0:
192,192,88907,128,0,88964:0:0:0:0:
320,192,89078,128,0,89121:0:0:0:0:
192,192,89164,128,0,89207:0:0:0:0:
448,192,89250,128,0,89307:0:0:0:0:
320,192,89307,128,0,89364:0:0:0:0:
448,192,89364,128,0,89421:0:0:0:0:
320,192,89421,128,0,89478:0:0:0:0:
192,192,89507,128,0,89564:0:0:0:0:
64,192,89593,1,0,0:0:0:0:
320,192,89593,1,0,0:0:0:0:
448,192,89593,1,0,0:0:0:0:
192,192,89764,1,0,0:0:0:0:
320,192,89764,1,0,0:0:0:0:
64,192,89935,128,0,90107:0:0:0:0:
192,192,89935,128,0,90107:0:0:0:0:
448,192,89935,128,0,90278:0:0:0:0:
320,192,90107,128,0,90193:0:0:0:0:
192,192,90278,128,0,90621:0:0:0:0:
64,192,90278,128,0,90450:0:0:0:0:
320,192,90278,128,0,90450:0:0:0:0:
448,192,90450,128,0,90535:0:0:0:0:
320,192,90621,128,0,90964:0:0:0:0:
64,192,90621,128,0,90793:0:0:0:0:
448,192,90621,128,0,90793:0:0:0:0:
192,192,90793,128,0,90878:0:0:0:0:
64,192,90964,128,0,91135:0:0:0:0:
448,192,90964,1,0,0:0:0:0:
448,192,91135,128,0,91307:0:0:0:0:
192,192,91135,1,0,0:0:0:0:
192,192,91307,128,0,91650:0:0:0:0:
320,192,91307,128,0,91478:0:0:0:0:
64,192,91307,128,0,91478:0:0:0:0:
448,192,91478,128,0,91564:0:0:0:0:
320,192,91650,128,0,91993:0:0:0:0:
64,192,91650,128,0,91821:0:0:0:0:
448,192,91650,128,0,91821:0:0:0:0:
192,192,91821,128,0,91907:0:0:0:0:
64,192,91993,128,0,92335:0:0:0:0:
192,192,91993,128,0,92164:0:0:0:0:
448,192,91993,128,0,92164:0:0:0:0:
320,192,92164,128,0,92250:0:0:0:0:
448,192,92335,128,0,92507:0:0:0:0:
192,192,92335,1,0,0:0:0:0:
320,192,92507,128,0,92678:0:0:0:0:
64,192,92507,1,0,0:0:0:0:
64,192,92678,128,0,92764:0:0:0:0:
192,192,92678,128,0,92764:0:0:0:0:
448,192,92764,128,0,92850:0:0:0:0:
320,192,92850,128,0,92935:0:0:0:0:
192,192,92935,128,0,93021:0:0:0:0:
64,192,93021,128,0,93107:0:0:0:0:
448,192,93021,128,0,93107:0:0:0:0:
320,192,93107,128,0,93193:0:0:0:0:
192,192,93193,128,0,93278:0:0:0:0:
448,192,93193,128,0,93278:0:0:0:0:
64,192,93278,128,0,93364:0:0:0:0:
320,192,93364,128,0,93450:0:0:0:0:
448,192,93364,128,0,93450:0:0:0:0:
192,192,93450,128,0,93535:0:0:0:0:
448,192,93535,128,0,93621:0:0:0:0:
64,192,93621,128,0,93707:0:0:0:0:
192,192,93707,128,0,93793:0:0:0:0:
320,192,93707,128,0,93793:0:0:0:0:
448,192,93793,128,0,93878:0:0:0:0:
192,192,93878,128,0,93964:0:0:0:0:
320,192,93964,128,0,94050:0:0:0:0:
64,192,94050,128,0,94135:0:0:0:0:
448,192,94050,128,0,94135:0:0:0:0:
192,192,94135,128,0,94221:0:0:0:0:
320,192,94221,128,0,94307:0:0:0:0:
64,192,94307,128,0,94393:0:0:0:0:
320,192,94393,128,0,94478:0:0:0:0:
448,192,94393,128,0,94478:0:0:0:0:
192,192,94478,128,0,94564:0:0:0:0:
64,192,94564,128,0,94650:0:0:0:0:
320,192,94650,128,0,94735:0:0:0:0:
64,192,94735,128,0,94821:0:0:0:0:
448,192,94735,128,0,94821:0:0:0:0:
320,192,94821,128,0,94907:0:0:0:0:
192,192,94907,128,0,94993:0:0:0:0:
448,192,94993,128,0,95078:0:0:0:0:
64,192,95078,128,0,95193:0:0:0:0:
192,192,95135,128,0,95250:0:0:0:0:
320,192,95193,128,0,95307:0:0:0:0:
448,192,95250,128,0,95364:0:0:0:0:
192,192,95307,1,0,0:0:0:0:
320,192,95364,1,0,0:0:0:0:
192,192,95421,128,0,95593:0:0:0:0:
448,192,95421,128,0,95764:0:0:0:0:
64,192,95421,128,0,95593:0:0:0:0:
320,192,95593,128,0,95678:0:0:0:0:
64,192,95764,128,0,96107:0:0:0:0:
192,192,95764,128,0,95935:0:0:0:0:
320,192,95764,128,0,95935:0:0:0:0:
448,192,95935,128,0,96021:0:0:0:0:
192,192,96107,128,0,96450:0:0:0:0:
320,192,96107,128,0,96278:0:0:0:0:
448,192,96107,128,0,96278:0:0:0:0:
64,192,96278,128,0,96364:0:0:0:0:
320,192,96450,128,0,96621:0:0:0:0:
448,192,96450,1,0,0:0:0:0:
64,192,96621,128,0,96793:0:0:0:0:
192,192,96621,1,0,0:0:0:0:
320,192,96793,128,0,97135:0:0:0:0:
192,192,96793,128,0,96964:0:0:0:0:
448,192,96793,128,0,96964:0:0:0:0:
64,192,96964,128,0,97050:0:0:0:0:
64,192,97135,128,0,97307:0:0:0:0:
192,192,97135,128,0,97478:0:0:0:0:
448,192,97135,128,0,97307:0:0:0:0:
320,192,97307,128,0,97393:0:0:0:0:
448,192,97478,128,0,97821:0:0:0:0:
320,192,97478,128,0,97650:0:0:0:0:
64,192,97478,128,0,97650:0:0:0:0:
192,192,97650,128,0,97735:0:0:0:0:
192,192,97821,128,0,97993:0:0:0:0:
64,192,97821,1,0,0:0:0:0:
320,192,97993,128,0,98164:0:0:0:0:
448,192,97993,1,0,0:0:0:0:
448,192,98164,128,0,98250:0:0:0:0:
192,192,98164,128,0,98250:0:0:0:0:
64,192,98164,128,0,98335:0:0:0:0:
320,192,98335,128,0,98421:0:0:0:0:
192,192,98335,128,0,98421:0:0:0:0:
448,192,98335,128,0,98507:0:0:0:0:
320,192,98507,128,0,98593:0:0:0:0:
64,192,98507,128,0,98593:0:0:0:0:
192,192,98507,128,0,98678:0:0:0:0:
448,192,98678,128,0,98764:0:0:0:0:
64,192,98678,128,0,98764:0:0:0:0:
320,192,98678,128,0,98850:0:0:0:0:
448,192,98850,128,0,98935:0:0:0:0:
192,192,98850,128,0,98935:0:0:0:0:
64,192,98850,128,0,99021:0:0:0:0:
448,192,99021,128,0,99107:0:0:0:0:
192,192,99021,128,0,99107:0:0:0:0:
320,192,99021,128,0,99193:0:0:0:0:
192,192,99193,128,0,99278:0:0:0:0:
64,192,99193,128,0,99278:0:0:0:0:
448,192,99193,128,0,99364:0:0:0:0:
192,192,99364,128,0,99450:0:0:0:0:
320,192,99364,128,0,99450:0:0:0:0:
64,192,99364,128,0,99535:0:0:0:0:
448,192,99535,128,0,99878:0:0:0:0:
320,192,99535,128,0,99621:0:0:0:0:
192,192,99535,128,0,99621:0:0:0:0:
320,192,99707,128,0,100221:0:0:0:0:
192,192,99707,128,0,99793:0:0:0:0:
64,192,99707,128,0,99793:0:0:0:0:
192,192,99878,128,0,100221:0:0:0:0:
64,192,99878,128,0,100221:0:0:0:0:
448,192,100221,128,0,100564:0:0:0:0:
192,192,100564,128,0,100735:0:0:0:0:
320,192,100564,1,0,0:0:0:0:
64,192,100564,1,0,0:0:0:0:
448,192,100735,128,0,100907:0:0:0:0:
320,192,100907,128,0,101164:0:0:0:0:
192,192,100907,128,0,101164:0:0:0:0:
64,192,100907,128,0,101164:0:0:0:0:
448,192,101078,128,0,101164:0:0:0:0:
320,192,101250,128,0,101507:0:0:0:0:
448,192,101250,128,0,101507:0:0:0:0:
192,192,101250,128,0,101507:0:0:0:0:
64,192,101421,128,0,101507:0:0:0:0:
192,192,101593,128,0,101850:0:0:0:0:
448,192,101593,128,0,101850:0:0:0:0:
64,192,101593,128,0,101850:0:0:0:0:
320,192,101764,128,0,101850:0:0:0:0:
448,192,101935,128,0,102107:0:0:0:0:
64,192,101935,1,0,0:0:0:0:
64,192,102107,128,0,102278:0:0:0:0:
320,192,102107,1,0,0:0:0:0:
320,192,102278,128,0,102535:0:0:0:0:
192,192,102278,128,0,102535:0:0:0:0:
448,192,102278,128,0,102535:0:0:0:0:
64,192,102450,128,0,102535:0:0:0:0:
192,192,102621,128,0,102878:0:0:0:0:
448,192,102621,128,0,102878:0:0:0:0:
64,192,102621,128,0,102878:0:0:0:0:
320,192,102793,128,0,102878:0:0:0:0:
448,192,102964,128,0,103221:0:0:0:0:
320,192,102964,128,0,103221:0:0:0:0:
64,192,102964,128,0,103221:0:0:0:0:
192,192,103135,128,0,103221:0:0:0:0:
64,192,103307,128,0,103478:0:0:0:0:
320,192,103307,1,0,0:0:0:0:
192,192,103478,128,0,103650:0:0:0:0:
448,192,103478,1,0,0:0:0:0:
448,192,103650,128,0,103735:0:0:0:0:
320,192,103650,128,0,103735:0:0:0:0:
64,192,103735,128,0,103821:0:0:0:0:
192,192,103821,128,0,103907:0:0:0:0:
320,192,103907,128,0,103993:0:0:0:0:
448,192,103993,128,0,104078:0:0:0:0:
64,192,103993,128,0,104078:0:0:0:0:
192,192,104078,128,0,104164:0:0:0:0:
320,192,104164,128,0,104250:0:0:0:0:
64,192,104164,128,0,104250:0:0:0:0:
448,192,104250,128,0,104335:0:0:0:0:
192,192,104335,128,0,104421:0:0:0:0:
64,192,104335,128,0,104421:0:0:0:0:
320,192,104421,128,0,104507:0:0:0:0:
192,192,104507,128,0,104593:0:0:0:0:
448,192,104593,128,0,104678:0:0:0:0:
320,192,104678,128,0,104764:0:0:0:0:
64,192,104678,128,0,104764:0:0:0:0:
192,192,104764,128,0,104850:0:0:0:0:
448,192,104850,128,0,104935:0:0:0:0:
320,192,104935,128,0,105021:0:0:0:0:
448,192,105021,128,0,105107:0:0:0:0:
64,192,105021,128,0,105107:0:0:0:0:
192,192,105107,128,0,105193:0:0:0:0:
320,192,105193,128,0,105278:0:0:0:0:
448,192,105278,128,0,105364:0:0:0:0:
192,192,105364,128,0,105450:0:0:0:0:
64,192,105364,128,0,105450:0:0:0:0:
320,192,105450,128,0,105535:0:0:0:0:
448,192,105535,128,0,105621:0:0:0:0:
192,192,105621,128,0,105707:0:0:0:0:
448,192,105707,128,0,105793:0:0:0:0:
64,192,105707,128,0,105793:0:0:0:0:
192,192,105793,128,0,105878:0:0:0:0:
320,192,105878,128,0,105964:0:0:0:0:
64,192,105964,128,0,106050:0:0:0:0:
448,192,106050,128,0,106164:0:0:0:0:
320,192,106107,128,0,106221:0:0:0:0:
192,192,106164,128,0,106278:0:0:0:0:
64,192,106221,128,0,106335:0:0:0:0:
320,192,106278,128,0,106335:0:0:0:0:
192,192,106335,128,0,106393:0:0:0:0:
448,192,106393,128,0,106650:0:0:0:0:
320,192,106393,1,0,0:0:0:0:
64,192,106393,128,0,106564:0:0:0:0:
320,192,106564,1,0,0:0:0:0:
192,192,106564,128,0,106735:0:0:0:0:
448,192,106735,128,0,106993:0:0:0:0:
64,192,106735,1,0,0:0:0:0:
320,192,106735,128,0,106993:0:0:0:0:
192,192,106821,1,0,0:0:0:0:
64,192,106907,1,0,0:0:0:0:
192,192,106993,1,0,0:0:0:0:
448,192,107078,128,0,107335:0:0:0:0:
64,192,107078,128,0,107164:0:0:0:0:
320,192,107078,128,0,107164:0:0:0:0:
64,192,107250,128,0,107335:0:0:0:0:
192,192,107250,128,0,107335:0:0:0:0:
320,192,107421,128,0,107507:0:0:0:0:
64,192,107421,1,0,0:0:0:0:
192,192,107593,128,0,107678:0:0:0:0:
448,192,107593,1,0,0:0:0:0:
64,192,107764,128,0,108021:0:0:0:0:
192,192,107764,1,0,0:0:0:0:
448,192,107764,128,0,107935:0:0:0:0:
192,192,107935,1,0,0:0:0:0:
320,192,107935,128,0,108107:0:0:0:0:
64,192,108107,128,0,108364:0:0:0:0:
448,192,108107,1,0,0:0:0:0:
192,192,108107,128,0,108364:0:0:0:0:
320,192,108193,1,0,0:0:0:0:
448,192,108278,1,0,0:0:0:0:
320,192,108364,1,0,0:0:0:0:
64,192,108450,128,0,108707:0:0:0:0:
192,192,108450,128,0,108535:0:0:0:0:
448,192,108450,128,0,108535:0:0:0:0:
320,192,108621,128,0,108707:0:0:0:0:
448,192,108621,128,0,108707:0:0:0:0:
192,192,108793,128,0,108878:0:0:0:0:
448,192,108793,1,0,0:0:0:0:
320,192,108964,128,0,109050:0:0:0:0:
64,192,108964,1,0,0:0:0:0:
64,192,109135,1,0,0:0:0:0:
192,192,109135,1,0,0:0:0:0:
448,192,109135,1,0,0:0:0:0:
320,192,109307,1,0,0:0:0:0:
64,192,109393,1,0,0:0:0:0:
448,192,109564,1,0,0:0:0:0:
192,192,109650,1,0,0:0:0:0:
320,192,109735,1,0,0:0:0:0:
64,192,109821,1,0,0:0:0:0:
192,192,109821,1,0,0:0:0:0:
448,192,109821,1,0,0:0:0:0:
320,192,109993,1,0,0:0:0:0:
192,192,110078,1,0,0:0:0:0:
448,192,110164,1,0,0:0:0:0:
320,192,110164,1,0,0:0:0:0:
64,192,110250,1,0,0:0:0:0:
192,192,110335,1,0,0:0:0:0:
320,192,110421,1,0,0:0:0:0:
64,192,110507,128,0,110764:0:0:0:0:
448,192,110507,1,0,0:0:0:0:
192,192,110593,128,0,110764:0:0:0:0:
320,192,110678,128,0,110764:0:0:0:0:
448,192,110764,128,0,111021:0:0:0:0:
320,192,110850,128,0,111021:0:0:0:0:
192,192,110935,128,0,111021:0:0:0:0:
64,192,111021,128,0,111450:0:0:0:0:
192,192,111107,128,0,111364:0:0:0:0:
320,192,111193,128,0,111278:0:0:0:0:
448,192,111278,128,0,111364:0:0:0:0:
320,192,111364,128,0,111450:0:0:0:0:
192,192,111450,128,0,111535:0:0:0:0:
448,192,111535,128,0,111878:0:0:0:0:
64,192,111535,1,0,0:0:0:0:
320,192,111535,1,0,0:0:0:0:
64,192,111878,128,0,113164:0:0:0:0:
192,192,111878,128,0,113250:0:0:0:0:
320,192,111878,128,0,113335:0:0:0:0:
448,192,112907,128,0,113421:0:0:0:0:
64,192,113250,1,0,0:0:0:0:
192,192,113335,1,0,0:0:0:0:
320,192,113421,1,0,0:0:0:0:
448,192,113507,1,0,0:0:0:0:
