osu file format v14

[General]
AudioFilename: audio.mp3
AudioLeadIn: 0
PreviewTime: 580
Countdown: 0
SampleSet: Soft
StackLeniency: 0.7
Mode: 0
LetterboxInBreaks: 0
EpilepsyWarning: 1
WidescreenStoryboard: 1

[Editor]
DistanceSpacing: 1.2
BeatDivisor: 4
GridSize: 4
TimelineZoom: 2.7

[Metadata]
Title:Narcissus At Oasis (Freezer Remix)
TitleUnicode:Narcissus At Oasis (Freezer Remix)
Artist:Freezer
ArtistUnicode:Freezer
Creator:EijiKuinbii
Version:avalanche's Mirage
Source:SOUND VOLTEX IV HEAVENLY HAVEN
Tags:Ryu☆ SDVX melodic dubstep neuro drumstep wooble bass downtempo glitch pitch halfstep Silver_Cr0w AJIekceu Remus Missing Link SoldatRacer buhaha PandaHero DefendeRDjulus Livstvichka yShadowXOP_ avalanche -Light- shmiklak marvollo m_a_r_v_o_l_l_o Don Omar EYA-
BeatmapID:1305761
BeatmapSetID:614615

[Difficulty]
HPDrainRate:4
CircleSize:3.5
OverallDifficulty:8.5
ApproachRate:9.6
SliderMultiplier:1.8
SliderTickRate:1

[Events]
//Background and Video events
0,0,"_BG.jpg",0,0
//Break Periods
//Storyboard Layer 0 (Background)
//Storyboard Layer 1 (Fail)
//Storyboard Layer 2 (Pass)
//Storyboard Layer 3 (Foreground)
//Storyboard Sound Samples

[TimingPoints]
580,387.096774193548,4,2,1,45,1,0
12967,-125,4,2,1,45,0,0
25354,-50,4,2,1,70,0,0
25741,-66.6666666666667,4,2,1,70,0,0
26709,-55.5555555555556,4,2,1,70,0,0
26902,-50,4,2,1,70,0,0
27289,-55.5555555555556,4,2,1,70,0,0
27676,-66.6666666666667,4,2,1,70,0,0
28450,-50,4,2,1,70,0,0
29999,-55.5555555555556,4,2,1,70,0,0
31160,-100,4,2,1,70,0,0
31547,-50,4,2,1,70,0,0
32128,-66.6666666666667,4,2,1,70,0,0
32321,-55.5555555555556,4,2,1,70,0,0
33483,-100,4,2,1,70,0,0
33870,-55.5555555555556,4,2,1,70,0,0
34450,-200,4,2,1,70,0,0
34644,-50,4,2,1,70,0,0
35418,-66.6666666666667,4,2,1,70,0,0
35612,-50,4,2,1,70,0,0
35805,-66.6666666666667,4,2,1,70,0,0
36192,-83.3333333333333,4,2,1,70,0,0
37741,-50,4,2,1,70,0,0
38128,-55.5555555555556,4,2,1,70,0,0
39676,-100,4,2,1,70,0,0
40063,-50,4,2,1,70,0,0
41225,-55.5555555555556,4,2,1,70,0,0
42386,-66.6666666666667,4,2,1,70,0,0
43547,-50,4,2,1,70,0,0
44321,-133.333333333333,4,2,1,70,0,0
44709,-66.6666666666667,4,2,1,70,0,0
44902,-133.333333333333,4,2,1,70,0,0
45483,-55.5555555555556,4,2,1,70,0,0
46644,-200,4,2,1,70,0,0
47031,-50,4,2,1,70,0,0
47418,-55.5555555555556,4,2,1,70,0,0
48579,-83.3333333333333,4,2,1,70,0,0
49160,-66.6666666666667,4,2,1,70,0,0
49354,-83.3333333333333,4,2,1,70,0,0
49741,-50,4,2,1,70,0,0
50128,-125,4,2,1,45,0,0
53225,-66.6666666666667,4,2,1,70,0,0
54773,-83.3333333333333,4,2,1,70,0,0
55547,-66.6666666666667,4,2,1,70,0,0
56321,-125,4,2,1,45,0,0
59418,-50,4,2,1,70,0,0
59805,-66.6666666666667,4,2,1,70,0,0
60967,-55.5555555555556,4,2,1,70,0,0
61741,-66.6666666666667,4,2,1,70,0,0
62128,-50,4,2,1,70,0,0
62515,-125,4,2,1,45,0,0
64838,-83.3333333333333,4,2,1,45,0,0
65225,-200,4,2,1,45,0,0
65612,-125,4,2,1,45,0,0
67934,-66.6666666666667,4,2,1,45,0,0
68709,-125,4,2,1,45,0,0
69967,-125,4,2,1,5,0,0
70063,-125,4,2,1,45,0,0
70160,-125,4,2,1,5,0,0
70257,-125,4,2,1,45,0,0
71418,-50,4,2,1,45,0,0
71805,-125,4,2,1,45,0,0
73354,333.333333333333,4,2,1,70,1,0
73937,-100,4,2,1,40,0,0
74687,-100,4,2,1,70,0,0
84603,-100,4,2,1,50,0,0
85353,-50,4,2,1,70,0,0
85687,-55.5555555555556,4,2,1,70,0,0
87853,-133.333333333333,4,2,1,70,0,0
88020,-50,4,2,1,70,0,0
89353,-66.6666666666667,4,2,1,70,0,0
90353,-100,4,2,1,70,0,0
90687,-50,4,2,1,70,0,0
91020,-55.5555555555556,4,2,1,70,0,0
91353,-66.6666666666667,4,2,1,70,0,0
92353,-133.333333333333,4,2,1,70,0,0
92520,-66.6666666666667,4,2,1,70,0,0
93187,-133.333333333333,4,2,1,70,0,0
93353,-50,4,2,1,70,0,0
94020,-55.5555555555556,4,2,1,70,0,0
94353,-66.6666666666667,4,2,1,70,0,0
94687,-83.3333333333333,4,2,1,70,0,0
96020,-200,4,2,1,70,0,0
96353,-66.6666666666667,4,2,1,70,0,0
98687,-50,4,2,1,70,0,0
99020,-55.5555555555556,4,2,1,70,0,0
100020,-66.6666666666667,4,2,1,70,0,0
101020,-55.5555555555556,4,2,1,70,0,0
101353,-50,4,2,1,70,0,0
101687,-55.5555555555556,4,2,1,70,0,0
102687,-66.6666666666667,4,2,1,70,0,0
103687,-100,4,2,1,70,0,0
104020,-50,4,2,1,70,0,0
105353,-83.3333333333333,4,2,1,70,0,0
106687,-100,4,2,1,70,0,0
107020,-100,4,2,1,50,0,0
108020,-100,4,2,1,70,0,0
108353,-100,4,2,1,50,0,0
109353,-100,4,2,1,70,0,0
109687,-100,4,2,1,50,0,0
110687,-100,4,2,1,70,0,0
116020,-100,4,2,1,45,0,0

[Colours]
Combo1 : 55,87,119
Combo2 : 172,253,237
Combo3 : 206,206,206
Combo4 : 226,177,245

[HitObjects]
72,116,580,6,0,L|60:64,3,45,2|0|0|0,0:0|0:0|0:0|0:0,0:0:0:0:
72,116,967,2,0,L|68:60,3,45,0|0|0|0,0:0|0:0|0:0|0:0,0:0:0:0:
128,172,1354,1,8,0:0:0:0:
124,216,1450,1,0,0:0:0:0:
120,261,1547,1,0,0:0:0:0:
117,306,1644,1,0,0:0:0:0:
112,352,1741,1,0,0:0:0:0:
32,232,1934,1,0,0:0:0:0:
236,296,2128,6,0,L|292:284,3,45,2|0|0|0,0:0|0:0|0:0|0:0,0:0:0:0:
248,316,2515,1,0,0:0:0:0:
312,184,2709,1,0,0:0:0:0:
316,196,2773,1,0,0:0:0:0:
320,208,2838,1,0,0:0:0:0:
324,220,2902,1,8,0:0:0:0:
316,360,3096,1,0,0:0:0:0:
432,188,3289,1,0,0:0:0:0:
476,336,3483,1,0,0:0:0:0:
484,320,3579,1,0,0:0:0:0:
492,304,3676,6,0,L|480:240,3,45,2|0|0|0,0:0|0:0|0:0|0:0,0:0:0:0:
392,328,4063,2,0,L|400:260,3,45,0|0|0|0,0:0|0:0|0:0|0:0,0:0:0:0:
328,224,4450,1,8,0:0:0:0:
232,288,4644,1,0,0:0:0:0:
112,240,4838,1,0,0:0:0:0:
88,124,5031,1,0,0:0:0:0:
268,56,5225,5,8,0:0:0:0:
244,208,5515,1,8,0:0:0:0:
216,368,5805,1,8,0:0:0:0:
176,156,5999,2,0,P|128:160|88:192,1,90,8|0,0:0|0:0,0:0:0:0:
60,88,6386,1,0,0:0:0:0:
28,116,6483,1,0,0:0:0:0:
12,156,6579,1,0,0:0:0:0:
8,200,6676,1,0,0:0:0:0:
16,244,6773,6,0,P|20:268|20:296,3,45,2|0|0|0,0:0|0:0|0:0|0:0,0:0:0:0:
100,276,7160,2,0,P|99:300|94:327,3,45,0|0|0|0,0:0|0:0|0:0|0:0,0:0:0:0:
16,244,7547,1,8,0:0:0:0:
224,184,7741,1,0,0:0:0:0:
120,104,7934,1,0,0:0:0:0:
188,352,8128,1,0,0:0:0:0:
392,260,8321,6,0,L|400:200,3,45,2|0|0|0,0:0|0:0|0:0|0:0,0:0:0:0:
308,220,8709,1,0,0:0:0:0:
456,144,8902,1,0,0:0:0:0:
452,132,8967,1,0,0:0:0:0:
448,120,9031,1,0,0:0:0:0:
444,108,9096,1,8,0:0:0:0:
368,52,9289,1,0,0:0:0:0:
160,116,9483,1,0,0:0:0:0:
208,40,9676,1,0,0:0:0:0:
284,240,9870,6,0,L|296:304,3,45,2|0|0|0,0:0|0:0|0:0|0:0,0:0:0:0:
208,272,10257,2,0,L|204:344,3,45,0|0|0|0,0:0|0:0|0:0|0:0,0:0:0:0:
160,196,10644,1,8,0:0:0:0:
372,232,10838,1,0,0:0:0:0:
108,272,11031,1,0,0:0:0:0:
316,160,11225,1,0,0:0:0:0:
36,48,11418,5,8,0:0:0:0:
220,228,11709,1,8,0:0:0:0:
460,116,11999,1,0,0:0:0:0:
372,36,12192,1,8,0:0:0:0:
428,340,12386,1,4,0:0:0:0:
432,328,12483,1,4,0:0:0:0:
436,316,12579,1,2,0:0:0:0:
388,244,12773,1,0,0:0:0:0:
236,320,12967,6,0,L|316:308,1,72,2|0,0:0|0:0,0:0:0:0:
388,244,13354,2,0,L|300:228,1,72,0|0,0:0|0:0,0:0:0:0:
236,320,13741,2,0,L|316:308,1,72,0|0,0:0|0:0,0:0:0:0:
388,244,14128,2,0,L|300:228,1,72,0|0,0:0|0:0,0:0:0:0:
76,188,14515,6,0,L|156:176,1,72,2|0,0:0|0:0,0:0:0:0:
80,280,14902,2,0,L|0:260,1,72,0|0,0:0|0:0,0:0:0:0:
76,188,15289,2,0,L|156:176,1,72,0|0,0:0|0:0,0:0:0:0:
80,280,15676,2,0,L|0:260,1,72,0|0,0:0|0:0,0:0:0:0:
296,32,16063,6,0,L|288:124,1,72,2|0,0:0|0:0,0:0:0:0:
296,32,16450,2,0,L|288:124,1,72,0|0,0:0|0:0,0:0:0:0:
296,32,16838,2,0,L|288:124,1,72,0|0,0:0|0:0,0:0:0:0:
296,32,17225,2,0,L|288:124,1,72,0|0,0:0|0:0,0:0:0:0:
300,120,17515,1,0,0:0:0:0:
456,180,17612,6,0,L|464:88,1,72,2|0,0:0|0:0,0:0:0:0:
456,180,17999,2,0,L|464:88,1,72,0|0,0:0|0:0,0:0:0:0:
456,180,18387,2,0,L|464:88,1,72,0|0,0:0|0:0,0:0:0:0:
456,180,18774,2,0,L|464:88,1,72,0|0,0:0|0:0,0:0:0:0:
472,192,19063,1,0,0:0:0:0:
408,268,19160,5,2,0:0:0:0:
428,356,19354,1,0,0:0:0:0:
240,216,19547,1,0,0:0:0:0:
212,336,19741,1,0,0:0:0:0:
416,240,19934,1,0,0:0:0:0:
464,360,20128,1,0,0:0:0:0:
248,188,20321,1,0,0:0:0:0:
188,336,20515,1,4,0:0:0:0:
220,332,20612,1,4,0:0:0:0:
256,328,20709,5,2,0:0:0:0:
196,108,20902,1,0,0:0:0:0:
396,276,21096,1,0,0:0:0:0:
432,80,21289,1,0,0:0:0:0:
248,332,21483,1,0,0:0:0:0:
176,92,21676,1,0,0:0:0:0:
408,288,21870,1,0,0:0:0:0:
444,64,22063,2,0,L|436:32,3,18,0|0|0|0,0:0|0:0|0:0|0:0,0:0:0:0:
424,84,22257,5,2,0:0:0:0:
368,76,22354,1,0,0:0:0:0:
312,68,22450,1,0,0:0:0:0:
256,60,22547,1,0,0:0:0:0:
288,152,22644,5,0,0:0:0:0:
232,144,22741,1,0,0:0:0:0:
176,136,22837,1,0,0:0:0:0:
120,128,22934,1,0,0:0:0:0:
208,240,23031,1,2,0:0:0:0:
264,236,23128,1,0,0:0:0:0:
320,232,23225,1,0,0:0:0:0:
376,228,23321,1,0,0:0:0:0:
388,240,23418,1,0,0:0:0:0:
400,252,23515,1,0,0:0:0:0:
412,264,23612,1,0,0:0:0:0:
400,312,23709,1,0,0:0:0:0:
256,192,23805,12,8,25257,0:0:0:0:
360,136,25354,6,0,B|340:88|340:88|352:36|404:12|404:12|436:44|424:96|424:96|412:56,1,270,8|0,0:0|0:0,0:0:0:0:
264,36,25741,2,0,B|224:24|224:24|188:36,1,67.5000025749208,2|0,0:0|0:0,0:0:0:0:
232,328,25934,2,0,B|256:296|256:296|264:248,1,67.5000025749208,2|0,0:0|0:0,0:0:0:0:
36,164,26128,1,8,0:0:0:0:
472,240,26321,2,0,L|392:248,1,67.5000025749208,0|0,0:0|0:0,0:0:0:0:
108,72,26515,2,0,L|192:80,1,67.5000025749208,0|0,0:0|0:0,0:0:0:0:
72,336,26709,2,0,B|60:352|32:356|32:356|44:336|88:324,1,80.9999975280763,4|0,0:0|0:0,0:0:0:0:
320,32,26902,6,0,B|328:64|328:64|316:96|316:96|336:140|336:140|308:188|308:188|328:232|328:232|304:284,1,270,8|0,0:0|0:0,0:0:0:0:
420,136,27289,2,0,B|437:125|437:125|452:128|452:128|464:148,1,53.9999983520508,4|0,0:0|0:0,0:0:0:0:
420,136,27386,2,0,B|437:125|437:125|452:128|452:128|464:148,1,53.9999983520508,4|0,0:0|0:0,0:0:0:0:
352,256,27483,1,0,0:0:0:0:
336,248,27547,1,0,0:0:0:0:
320,240,27612,1,0,0:0:0:0:
304,232,27676,6,0,B|264:224|264:224|204:236,1,67.5000025749208,8|0,0:0|0:0,0:0:0:0:
196,336,27870,2,0,B|240:332|240:332|276:304,1,67.5000025749208,8|0,0:0|0:0,0:0:0:0:
200,32,28063,2,0,L|224:120,1,67.5000025749208,8|0,0:0|0:0,0:0:0:0:
16,188,28257,2,0,L|96:208,1,67.5000025749208,2|0,0:0|0:0,0:0:0:0:
464,104,28450,6,0,B|516:120|516:120|452:140|452:140|376:120|376:120|296:140,1,270,8|0,0:0|0:0,0:0:0:0:
496,304,28838,2,0,B|504:272|504:272|496:212,1,90,2|0,0:0|0:0,0:0:0:0:
308,136,29031,2,0,B|300:168|300:168|308:228,1,90,2|0,0:0|0:0,0:0:0:0:
464,40,29225,1,8,0:0:0:0:
220,238,29418,2,0,B|256:226|256:226|284:230|284:230|344:214,1,90,2|0,0:0|0:0,0:0:0:0:
144,188,29612,2,0,P|128:236|148:296,1,90,2|0,0:0|0:0,0:0:0:0:
128,100,29805,2,0,P|82:122|54:179,1,90,4|0,0:0|0:0,0:0:0:0:
216,48,29999,6,0,B|215:15|202:-2|202:-2|204:34|224:49,1,80.9999975280763,8|0,0:0|0:0,0:0:0:0:
220,238,30192,2,0,B|219:266|206:284|206:284|208:247|211:256,1,80.9999975280763,8|0,0:0|0:0,0:0:0:0:
232,248,30386,2,0,B|280:228|272:264|320:240,1,80.9999975280763,8|0,0:0|0:0,0:0:0:0:
204,56,30579,2,0,B|165:75|173:39|125:59,1,80.9999975280763,8|0,0:0|0:0,0:0:0:0:
380,112,30773,5,8,0:0:0:0:
48,196,30967,1,8,0:0:0:0:
472,316,31160,2,0,L|476:256,1,45,2|0,0:0|0:0,0:0:0:0:
472,316,31354,2,0,L|476:256,1,45,2|0,0:0|0:0,0:0:0:0:
112,76,31547,6,0,B|136:188|136:188|128:236|128:236|160:392,1,270,8|0,0:0|0:0,0:0:0:0:
32,40,31934,1,4,0:0:0:0:
32,40,32031,1,4,0:0:0:0:
32,40,32128,2,0,B|28:80|28:80|23:53,1,67.5000025749208,4|0,0:0|0:0,0:0:0:0:
216,236,32321,2,0,L|320:244,1,80.9999975280763,8|0,0:0|0:0,0:0:0:0:
377,233,32515,2,0,L|286:243,1,80.9999975280763,2|0,0:0|0:0,0:0:0:0:
68,272,32709,2,0,P|96:320|140:340,1,80.9999975280763,8|0,0:0|0:0,0:0:0:0:
184,48,32902,2,0,P|152:80|140:136,1,80.9999975280763,2|0,0:0|0:0,0:0:0:0:
464,184,33096,6,0,L|456:136,1,40.4999987640381,4|0,0:0|0:0,0:0:0:0:
472,176,33192,2,0,L|464:128,1,40.4999987640381,4|0,0:0|0:0,0:0:0:0:
416,248,33289,2,0,B|460:264|460:264|516:256,1,80.9999975280763,4|0,0:0|0:0,0:0:0:0:
396,44,33483,2,0,L|404:104,1,45,8|0,0:0|0:0,0:0:0:0:
336,148,33676,1,0,0:0:0:0:
296,168,33741,1,0,0:0:0:0:
252,160,33805,1,0,0:0:0:0:
220,128,33870,6,0,L|208:40,1,80.9999975280763,8|0,0:0|0:0,0:0:0:0:
88,240,34063,2,0,L|100:328,1,80.9999975280763,8|0,0:0|0:0,0:0:0:0:
332,170,34257,2,0,L|240:158,1,80.9999975280763,8|0,0:0|0:0,0:0:0:0:
392,296,34450,2,0,L|428:292,1,33.75,2|0,0:0|0:0,0:0:0:0:
164,39,34644,6,0,P|137:128|144:36,1,270,8|0,0:0|0:0,0:0:0:0:
68,200,35031,1,4,0:0:0:0:
68,200,35128,1,4,0:0:0:0:
68,200,35225,2,0,P|56:248|76:300,1,90,4|0,0:0|0:0,0:0:0:0:
256,108,35418,2,0,B|216:96|216:96|164:100,1,67.5000025749208,8|0,0:0|0:0,0:0:0:0:
284,320,35612,2,0,B|308:340|308:340|348:336|348:336|364:312,1,90,8|0,0:0|0:0,0:0:0:0:
256,108,35805,2,0,B|216:96|216:96|164:100,1,67.5000025749208,8|0,0:0|0:0,0:0:0:0:
324,44,35999,2,0,B|332:16|332:16|320:-12|320:-12|308:16|308:16|316:44,1,101.250003862381,2|0,0:0|0:0,0:0:0:0:
368,280,36192,6,0,L|432:284,1,53.9999983520508,8|0,0:0|0:0,0:0:0:0:
368,280,36483,2,0,L|436:284,1,53.9999983520508,8|0,0:0|0:0,0:0:0:0:
152,196,36773,2,0,L|104:200,1,26.9999991760254,8|0,0:0|0:0,0:0:0:0:
68,256,36870,1,0,0:0:0:0:
84,296,36918,1,0,0:0:0:0:
100,336,36967,6,0,L|192:352,1,53.9999983520508,0|0,0:0|0:0,0:0:0:0:
401,125,37160,2,0,L|309:109,1,53.9999983520508,2|2,0:0|0:0,0:0:0:0:
348,116,37354,2,0,B|260:88|292:152|188:120,1,161.999995056153,2|0,0:0|0:0,0:0:0:0:
408,60,37741,6,0,B|436:40|452:8|452:8|428:120|472:208,1,270,8|0,0:0|0:0,0:0:0:0:
332,16,38128,2,0,B|304:12|276:28|276:28|308:40|340:28,1,80.9999975280763,2|0,0:0|0:0,0:0:0:0:
440,232,38321,2,0,B|468:236|496:220|496:220|464:208|432:220,1,80.9999975280763,2|0,0:0|0:0,0:0:0:0:
72,112,38515,1,4,0:0:0:0:
124,184,38612,1,4,0:0:0:0:
80,256,38709,1,4,0:0:0:0:
96,276,38805,1,4,0:0:0:0:
56,364,38902,1,4,0:0:0:0:
164,344,38999,1,4,0:0:0:0:
276,348,39096,1,4,0:0:0:0:
376,316,39192,1,4,0:0:0:0:
400,324,39289,6,0,L|408:224,1,80.9999975280763,2|0,0:0|0:0,0:0:0:0:
104,105,39483,2,0,L|124:185,1,80.9999975280763,2|0,0:0|0:0,0:0:0:0:
168,20,39676,2,0,P|140:20|116:40,1,45,8|0,0:0|0:0,0:0:0:0:
236,60,39870,2,0,L|272:64,2,30,2|0|2,0:0|0:0|0:0,0:0:0:0:
328,120,40063,6,0,P|380:124|428:100,1,90,8|0,0:0|0:0,0:0:0:0:
500,119,40257,2,0,P|457:104|413:109,1,90,2|0,0:0|0:0,0:0:0:0:
296,200,40450,2,0,B|280:236|280:236|300:328,1,90,8|0,0:0|0:0,0:0:0:0:
500,119,40644,2,0,B|510:69|510:69|494:33,1,90,2|0,0:0|0:0,0:0:0:0:
76,60,40838,6,0,B|28:96|8:160|8:160|32:240|120:288,1,270,8|0,0:0|0:0,0:0:0:0:
156,52,41225,2,0,L|68:60,1,80.9999975280763,2|0,0:0|0:0,0:0:0:0:
240,340,41418,2,0,L|336:352,1,80.9999975280763,2|0,0:0|0:0,0:0:0:0:
24,160,41612,1,4,0:0:0:0:
48,244,41709,1,4,0:0:0:0:
112,180,41805,1,4,0:0:0:0:
140,264,41902,1,4,0:0:0:0:
60,356,41999,5,4,0:0:0:0:
140,264,42096,1,4,0:0:0:0:
240,340,42192,1,4,0:0:0:0:
320,244,42289,1,4,0:0:0:0:
404,260,42386,6,0,B|372:272|372:272|340:264,1,67.5000025749208,8|0,0:0|0:0,0:0:0:0:
444,124,42579,2,0,L|456:228,1,67.5000025749208,2|0,0:0|0:0,0:0:0:0:
404,260,42773,2,0,B|372:272|372:272|340:264,1,67.5000025749208,2|0,0:0|0:0,0:0:0:0:
444,124,42966,2,0,L|456:228,1,67.5000025749208,8|0,0:0|0:0,0:0:0:0:
452,112,43160,2,0,L|444:196,1,67.5000025749208,2|0,0:0|0:0,0:0:0:0:
456,100,43354,2,0,L|436:184,1,67.5000025749208,2|0,0:0|0:0,0:0:0:0:
231,123,43547,6,0,B|299:113|335:49|335:49|379:109|459:99,1,270,8|0,0:0|0:0,0:0:0:0:
64,224,43934,6,0,B|56:252|56:252|60:312|100:360|100:360|140:320|144:264|144:264|120:224,1,270,8|0,0:0|0:0,0:0:0:0:
32,100,44321,2,0,L|40:152,1,33.7500012874604,2|0,0:0|0:0,0:0:0:0:
37,133,44515,2,0,L|30:99,1,33.7500012874604,2|0,0:0|0:0,0:0:0:0:
64,208,44709,2,0,P|104:216|144:200,1,67.5000025749208,2|0,0:0|0:0,0:0:0:0:
220,152,44902,2,0,P|196:152|172:160,1,33.7500012874604,2|0,0:0|0:0,0:0:0:0:
316,344,45096,2,0,L|360:348,1,33.7500012874604,2|0,0:0|0:0,0:0:0:0:
432,24,45289,2,0,L|388:28,1,33.7500012874604,2|0,0:0|0:0,0:0:0:0:
408,272,45483,6,0,B|444:304|448:352|448:352|408:264|468:192,1,242.999992584229,8|0,0:0|0:0,0:0:0:0:
408,272,45870,2,0,P|372:292|324:280,1,80.9999975280763,8|0,0:0|0:0,0:0:0:0:
48,192,46063,1,0,0:0:0:0:
52,232,46128,1,0,0:0:0:0:
56,276,46192,1,0,0:0:0:0:
59,319,46257,2,0,P|92:340|132:346,1,80.9999975280763,8|0,0:0|0:0,0:0:0:0:
236,20,46450,2,0,P|196:32|168:64,1,80.9999975280763,2|0,0:0|0:0,0:0:0:0:
240,364,46644,2,0,B|244:336|244:336|236:312|236:312|244:284|244:284,1,67.5,8|0,0:0|0:0,0:0:0:0:
364,160,47031,6,0,P|328:244|120:280,1,270,8|0,0:0|0:0,0:0:0:0:
416,28,47418,2,0,L|432:112,1,80.9999975280763,2|0,0:0|0:0,0:0:0:0:
64,56,47612,2,0,L|48:148,1,80.9999975280763,2|0,0:0|0:0,0:0:0:0:
324,344,47805,2,0,L|312:260,1,80.9999975280763,2|0,0:0|0:0,0:0:0:0:
24,268,47999,1,4,0:0:0:0:
40,296,48096,1,4,0:0:0:0:
56,328,48192,2,0,L|152:340,1,80.9999975280763,6|0,0:0|0:0,0:0:0:0:
440,84,48386,2,0,L|356:92,1,80.9999975280763,2|0,0:0|0:0,0:0:0:0:
448,280,48579,6,0,L|516:284,1,53.9999983520508,8|0,0:0|0:0,0:0:0:0:
364,244,48773,1,2,0:0:0:0:
364,244,48870,1,2,0:0:0:0:
364,244,48967,2,0,P|356:272|360:312,1,53.9999983520508,2|0,0:0|0:0,0:0:0:0:
469,142,49160,2,0,P|457:102|437:82,1,67.5000025749208,8|0,0:0|0:0,0:0:0:0:
200,208,49354,2,0,L|264:200,1,53.9999983520508,2|0,0:0|0:0,0:0:0:0:
208,120,49547,2,0,L|136:128,1,53.9999983520508,2|0,0:0|0:0,0:0:0:0:
48,328,49741,2,0,B|152:308|152:308|220:324|220:324|356:304,1,270,8|0,0:0|0:0,0:0:0:0:
80,160,50128,6,0,P|68:200|88:256,1,72,2|0,0:0|0:0,0:0:0:0:
8,100,50515,1,0,0:0:0:0:
164,72,50902,1,8,0:0:0:0:
308,40,51289,1,4,0:0:0:0:
416,244,51676,6,0,L|404:160,1,72,2|0,0:0|0:0,0:0:0:0:
488,296,52063,1,0,0:0:0:0:
248,264,52257,1,4,0:0:0:0:
264,260,52321,1,0,0:0:0:0:
284,256,52386,1,0,0:0:0:0:
300,252,52450,2,0,L|344:224,3,36,6|2|2|2,0:0|0:0|0:0|0:0,0:0:0:0:
256,68,52838,2,0,B|244:136|280:120|264:200,1,108,10|0,0:0|0:0,0:0:0:0:
164,108,53225,6,0,B|124:108|97:88|97:88|80:164|-5:201,1,202.500007724762,8|0,0:0|0:0,0:0:0:0:
252,236,53612,2,0,P|256:268|244:304,1,67.5000025749208,0|0,0:0|0:0,0:0:0:0:
256,68,53805,2,0,P|284:56|324:60,1,67.5000025749208,2|0,0:0|0:0,0:0:0:0:
356,352,53999,1,12,0:0:0:0:
356,352,54096,1,4,0:0:0:0:
356,352,54192,2,0,P|340:308|344:272,1,67.5000025749208,6|0,0:0|0:0,0:0:0:0:
432,180,54386,1,2,0:0:0:0:
168,356,54579,1,2,0:0:0:0:
8,80,54773,6,0,L|16:152,1,53.9999983520508,8|0,0:0|0:0,0:0:0:0:
64,212,54967,1,2,0:0:0:0:
64,212,55063,1,0,0:0:0:0:
64,212,55160,2,0,L|60:280,1,53.9999983520508,2|0,0:0|0:0,0:0:0:0:
72,28,55354,2,0,P|104:16|144:16,1,53.9999983520508,8|0,0:0|0:0,0:0:0:0:
368,336,55547,6,0,B|344:348|344:348|276:340,1,67.5000025749208,2|0,0:0|0:0,0:0:0:0:
303,343,55741,2,0,B|327:331|327:331|395:339,1,67.5000025749208,2|0,0:0|0:0,0:0:0:0:
444,176,55934,2,0,L|472:268,1,67.5000025749208,6|6,0:0|0:0,0:0:0:0:
304,100,56128,2,0,L|328:28,1,67.5000025749208,6|0,0:0|0:0,0:0:0:0:
196,220,56321,6,0,L|76:236,1,108,2|0,0:0|0:0,0:0:0:0:
252,288,56709,1,0,0:0:0:0:
136,84,57096,1,8,0:0:0:0:
88,352,57483,1,0,0:0:0:0:
360,148,57870,6,0,L|480:160,1,108,2|0,0:0|0:0,0:0:0:0:
312,76,58257,1,0,0:0:0:0:
232,172,58450,1,4,0:0:0:0:
228,192,58515,1,0,0:0:0:0:
224,212,58579,1,0,0:0:0:0:
220,232,58644,1,10,0:0:0:0:
164,40,58838,1,2,0:0:0:0:
160,324,59031,2,0,P|216:348|276:332,1,108,2|0,0:0|0:0,0:0:0:0:
24,84,59418,6,0,L|60:356,1,270,8|0,0:0|0:0,0:0:0:0:
32,72,59805,2,0,P|68:80|40:60,1,67.5000025749208,2|0,0:0|0:0,0:0:0:0:
195,320,59999,2,0,P|159:312|187:332,1,67.5000025749208,2|0,0:0|0:0,0:0:0:0:
300,52,60192,1,8,0:0:0:0:
472,344,60386,2,0,P|436:352|464:332,1,67.5000025749208,2|0,0:0|0:0,0:0:0:0:
432,120,60579,2,0,P|404:152|352:160,1,67.5000025749208,2|0,0:0|0:0,0:0:0:0:
308,208,60773,2,0,P|264:204|232:176,1,67.5000025749208,2|0,0:0|0:0,0:0:0:0:
439,39,60967,6,0,L|429:152,1,80.9999975280763,8|0,0:0|0:0,0:0:0:0:
36,52,61160,2,0,L|48:148,1,80.9999975280763,2|0,0:0|0:0,0:0:0:0:
439,39,61354,2,0,L|429:152,1,80.9999975280763,2|0,0:0|0:0,0:0:0:0:
36,52,61547,2,0,L|48:148,1,80.9999975280763,2|6,0:0|0:0,0:0:0:0:
76,224,61741,6,0,P|36:212|-12:220,1,67.5000025749208,10|0,0:0|0:0,0:0:0:0:
168,352,61934,1,8,0:0:0:0:
308,232,62128,2,0,P|232:156|192:276,1,270,6|0,0:0|0:0,0:0:0:0:
318,127,62515,6,0,P|302:183|314:251,1,108,2|0,0:0|0:0,0:0:0:0:
392,184,62902,1,0,0:0:0:0:
104,232,63289,1,8,0:0:0:0:
472,276,63676,1,4,0:0:0:0:
124,52,64063,6,0,L|144:188,1,108,2|0,0:0|0:0,0:0:0:0:
104,232,64450,1,0,0:0:0:0:
220,80,64644,1,6,0:0:0:0:
244,88,64709,1,0,0:0:0:0:
268,96,64773,1,0,0:0:0:0:
292,104,64838,2,0,L|372:92,1,53.9999983520508,8|0,0:0|0:0,0:0:0:0:
56,104,65031,2,0,L|-8:112,1,53.9999983520508,2|0,0:0|0:0,0:0:0:0:
168,320,65225,6,0,L|164:288,1,22.5,2|0,0:0|0:0,0:0:0:0:
168,320,65418,2,0,L|164:288,1,22.5,2|0,0:0|0:0,0:0:0:0:
65,308,65612,6,0,P|121:328|181:312,1,108,8|0,0:0|0:0,0:0:0:0:
232,256,65999,1,0,0:0:0:0:
312,284,66192,1,0,0:0:0:0:
380,228,66386,2,0,L|368:176,1,36,8|0,0:0|0:0,0:0:0:0:
360,364,66579,1,2,0:0:0:0:
382,85,66773,2,0,L|369:221,1,108,4|0,0:0|0:0,0:0:0:0:
44,168,67160,6,0,L|56:224,1,36,2|0,0:0|0:0,0:0:0:0:
44,168,67450,2,0,L|56:224,1,36,0|8,0:0|0:0,0:0:0:0:
44,168,67741,1,6,0:0:0:0:
104,300,67934,2,0,P|40:280|84:352,1,202.500007724762,10|0,0:0|0:0,0:0:0:0:
92,64,68321,1,4,0:0:0:0:
92,64,68418,1,4,0:0:0:0:
92,64,68515,2,0,P|128:76|184:64,1,67.5000025749208,6|0,0:0|0:0,0:0:0:0:
412,28,68709,6,0,P|392:80|408:148,1,108,8|0,0:0|0:0,0:0:0:0:
472,180,69096,1,0,0:0:0:0:
264,96,69483,1,8,0:0:0:0:
188,292,69870,1,4,0:0:0:0:
200,312,70063,1,4,0:0:0:0:
120,160,70257,6,0,P|72:184|48:236,1,108,2|0,0:0|0:0,0:0:0:0:
140,244,70644,1,0,0:0:0:0:
109,52,70838,1,6,0:0:0:0:
113,76,70902,1,0,0:0:0:0:
117,100,70967,1,0,0:0:0:0:
121,124,71031,2,0,L|118:180,1,36,10|0,0:0|0:0,0:0:0:0:
428,76,71225,2,0,L|440:120,1,36,2|0,0:0|0:0,0:0:0:0:
188,21,71418,6,0,P|148:49|88:45,1,90,2|0,0:0|0:0,0:0:0:0:
292,176,71612,2,0,L|320:300,1,90,2|0,0:0|0:0,0:0:0:0:
108,51,71805,6,0,L|96:183,1,108,8|0,0:0|0:0,0:0:0:0:
28,16,72192,1,0,0:0:0:0:
224,296,72579,1,8,0:0:0:0:
232,320,72773,1,6,0:0:0:0:
460,104,72967,1,4,0:0:0:0:
92,240,73354,5,6,0:0:0:0:
256,192,73437,12,0,74604,0:0:0:0:
260,312,74687,6,0,L|360:296,1,90,8|0,0:0|0:0,0:0:0:0:
260,312,75020,2,0,L|360:296,1,90,8|0,0:0|0:0,0:0:0:0:
260,312,75354,2,0,L|360:296,1,90,8|0,0:0|0:0,0:0:0:0:
260,312,75687,2,0,L|360:296,1,90,8|0,0:0|0:0,0:0:0:0:
368,272,75937,1,0,0:0:0:0:
352,104,76020,6,0,L|340:212,1,90,8|0,0:0|0:0,0:0:0:0:
352,104,76354,2,0,L|340:212,1,90,8|0,0:0|0:0,0:0:0:0:
352,104,76687,2,0,L|340:212,1,90,8|0,0:0|0:0,0:0:0:0:
352,104,77020,2,0,L|340:212,1,90,8|0,0:0|0:0,0:0:0:0:
68,188,77354,6,0,L|88:288,1,90,8|0,0:0|0:0,0:0:0:0:
68,188,77687,2,0,L|88:288,1,90,8|0,0:0|0:0,0:0:0:0:
68,188,78020,2,0,L|88:288,1,90,8|0,0:0|0:0,0:0:0:0:
68,188,78354,2,0,L|88:288,1,90,8|0,0:0|0:0,0:0:0:0:
76,300,78604,1,0,0:0:0:0:
164,232,78687,6,0,L|268:240,1,90,8|0,0:0|0:0,0:0:0:0:
164,232,79020,2,0,L|268:240,1,90,8|0,0:0|0:0,0:0:0:0:
164,232,79354,2,0,L|268:240,1,90,8|0,0:0|0:0,0:0:0:0:
164,232,79687,2,0,L|268:240,1,90,8|0,0:0|0:0,0:0:0:0:
188,72,80020,5,8,0:0:0:0:
260,360,80187,1,0,0:0:0:0:
280,40,80354,1,8,0:0:0:0:
180,316,80520,1,0,0:0:0:0:
352,136,80687,1,8,0:0:0:0:
108,208,80853,1,0,0:0:0:0:
416,292,81020,1,8,0:0:0:0:
100,52,81187,1,0,0:0:0:0:
104,68,81270,1,0,0:0:0:0:
108,84,81353,5,8,0:0:0:0:
68,336,81520,1,0,0:0:0:0:
216,28,81687,1,8,0:0:0:0:
240,352,81853,1,0,0:0:0:0:
320,92,82020,1,8,0:0:0:0:
392,336,82187,1,0,0:0:0:0:
456,40,82353,1,8,0:0:0:0:
344,268,82520,2,0,L|336:228,2,30,0|0|0,0:0|0:0|0:0,0:0:0:0:
256,192,82687,12,2,83937,0:0:0:0:
256,192,84020,12,8,85187,0:0:0:0:
48,104,85353,6,0,B|128:104|180:148|180:148|244:104|356:128,1,270,8|0,0:0|0:0,0:0:0:0:
480,248,85687,2,0,P|488:288|476:328,1,80.9999975280763,2|0,0:0|0:0,0:0:0:0:
302,120,85853,2,0,P|294:80|306:40,1,80.9999975280763,2|0,0:0|0:0,0:0:0:0:
356,360,86020,1,8,0:0:0:0:
302,120,86187,2,0,B|262:120|262:120|222:132,1,80.9999975280763,2|0,0:0|0:0,0:0:0:0:
178,272,86353,2,0,P|229:204|197:96,1,161.999995056153,2|8,0:0|0:0,0:0:0:0:
144,88,86603,1,0,0:0:0:0:
48,284,86687,6,0,L|304:260,1,242.999992584229,8|0,0:0|0:0,0:0:0:0:
488,344,87020,1,6,0:0:0:0:
488,344,87103,1,6,0:0:0:0:
488,344,87187,2,0,L|432:336,2,53.9999983520508,6|0|0,0:0|0:0|0:0,0:0:0:0:
248,44,87353,6,0,L|352:28,1,80.9999975280763,8|0,0:0|0:0,0:0:0:0:
248,360,87520,2,0,L|164:352,1,80.9999975280763,2|0,0:0|0:0,0:0:0:0:
152,172,87687,2,0,L|268:164,1,80.9999975280763,2|0,0:0|0:0,0:0:0:0:
320,232,87853,2,0,L|260:224,1,33.7500012874604,8|0,0:0|0:0,0:0:0:0:
152,172,88020,6,0,B|140:144|140:144|108:244|156:216|112:332|112:332|100:260,1,270,8|0,0:0|0:0,0:0:0:0:
84,64,88353,2,0,P|68:32|12:8,1,90,2|0,0:0|0:0,0:0:0:0:
104,285,88520,2,0,P|120:317|176:341,1,90,2|0,0:0|0:0,0:0:0:0:
36,352,88687,1,8,0:0:0:0:
448,304,88853,2,0,L|460:204,1,90,2|0,0:0|0:0,0:0:0:0:
335,163,89020,2,0,B|383:171|433:143|433:143|431:196|482:236,1,180,2|8,0:0|0:0,0:0:0:0:
276,340,89353,6,0,L|268:260,1,67.5000025749208,2|0,0:0|0:0,0:0:0:0:
152,68,89520,2,0,L|168:172,1,67.5000025749208,2|0,0:0|0:0,0:0:0:0:
276,340,89687,2,0,L|268:260,1,67.5000025749208,2|0,0:0|0:0,0:0:0:0:
152,68,89854,2,0,L|168:172,1,67.5000025749208,2|0,0:0|0:0,0:0:0:0:
276,340,90020,2,0,L|268:260,1,67.5000025749208,2|0,0:0|0:0,0:0:0:0:
152,68,90187,2,0,L|168:172,1,67.5000025749208,2|0,0:0|0:0,0:0:0:0:
416,96,90353,6,0,L|364:88,1,45,8|0,0:0|0:0,0:0:0:0:
64,336,90520,2,0,L|116:344,1,45,8|0,0:0|0:0,0:0:0:0:
272,77,90687,6,0,B|217:242|329:182|265:374,1,270,8|0,0:0|0:0,0:0:0:0:
84,136,91020,1,6,0:0:0:0:
88,152,91103,1,6,0:0:0:0:
92,168,91187,2,0,L|176:160,1,80.9999975280763,6|0,0:0|0:0,0:0:0:0:
400,124,91353,6,0,P|396:168|424:212,1,67.5000025749208,10|0,0:0|0:0,0:0:0:0:
404,189,91520,2,0,P|408:145|380:101,1,67.5000025749208,2|0,0:0|0:0,0:0:0:0:
40,320,91687,2,0,P|44:276|16:232,1,67.5000025749208,2|0,0:0|0:0,0:0:0:0:
36,255,91854,2,0,P|32:299|60:343,1,67.5000025749208,2|0,0:0|0:0,0:0:0:0:
188,164,92020,5,10,0:0:0:0:
172,160,92103,1,2,0:0:0:0:
156,156,92187,2,0,L|68:168,1,67.5000025749208,2|0,0:0|0:0,0:0:0:0:
252,344,92353,2,0,L|296:348,1,33.7500012874604,8|0,0:0|0:0,0:0:0:0:
352,300,92520,1,0,0:0:0:0:
368,296,92576,1,0,0:0:0:0:
384,292,92631,1,0,0:0:0:0:
400,288,92687,6,0,P|408:248|392:188,1,67.5000025749208,8|0,0:0|0:0,0:0:0:0:
80,272,92853,2,0,P|112:296|156:300,1,67.5000025749208,2|0,0:0|0:0,0:0:0:0:
296,24,93020,2,0,P|256:36|232:72,1,67.5000025749208,2|0,0:0|0:0,0:0:0:0:
304,136,93187,2,0,L|300:88,1,33.7500012874604,8|0,0:0|0:0,0:0:0:0:
24,188,93353,6,0,B|202:158|202:158|102:186,1,270,8|0,0:0|0:0,0:0:0:0:
388,32,93687,1,6,0:0:0:0:
404,36,93770,1,6,0:0:0:0:
420,40,93853,2,0,L|436:144,1,90,6|0,0:0|0:0,0:0:0:0:
496,304,94020,6,0,B|476:332|444:336|444:336|452:320|472:316,1,80.9999975280763,10|0,0:0|0:0,0:0:0:0:
368,268,94187,2,0,B|341:289|309:285|309:285|321:272|341:273,1,80.9999975280763,2|0,0:0|0:0,0:0:0:0:
416,120,94353,2,0,B|424:104|440:92|440:92|456:132|416:188|416:188|420:148|436:124,1,202.500007724762,2|0,0:0|0:0,0:0:0:0:
76,124,94687,6,0,L|152:112,1,53.9999983520508,8|0,0:0|0:0,0:0:0:0:
240,308,94937,2,0,L|184:300,1,53.9999983520508,2|0,0:0|0:0,0:0:0:0:
76,124,95187,2,0,L|152:112,1,53.9999983520508,2|0,0:0|0:0,0:0:0:0:
64,320,95353,1,8,0:0:0:0:
120,20,95520,1,2,0:0:0:0:
348,152,95687,2,0,P|276:184|176:156,1,161.999995056153,10|0,0:0|0:0,0:0:0:0:
348,152,96020,6,0,L|360:228,1,67.5,0|0,0:0|0:0,0:0:0:0:
156,344,96353,6,0,L|172:220,1,67.5000025749208,10|0,0:0|0:0,0:0:0:0:
152,260,96520,2,0,L|108:244,2,45.0000017166138,2|0|0,0:0|0:0|0:0,0:0:0:0:
248,328,96687,5,10,0:0:0:0:
311,306,96770,1,6,0:0:0:0:
359,260,96853,1,6,0:0:0:0:
383,197,96936,1,6,0:0:0:0:
378,130,97020,1,6,0:0:0:0:
344,72,97103,1,6,0:0:0:0:
290,34,97186,1,6,0:0:0:0:
224,22,97270,1,6,0:0:0:0:
159,27,97353,6,0,P|203:31|239:11,1,67.5000025749208,2|0,0:0|0:0,0:0:0:0:
164,277,97520,2,0,P|124:277|92:289,1,67.5000025749208,2|0,0:0|0:0,0:0:0:0:
348,360,97687,1,10,0:0:0:0:
460,204,97853,1,2,0:0:0:0:
464,184,97909,1,0,0:0:0:0:
468,168,97965,1,0,0:0:0:0:
472,152,98020,6,0,L|460:64,1,67.5000025749208,10|0,0:0|0:0,0:0:0:0:
256,240,98187,2,0,L|268:332,1,67.5000025749208,2|0,0:0|0:0,0:0:0:0:
384,32,98353,2,0,L|300:40,1,67.5000025749208,2|0,0:0|0:0,0:0:0:0:
348,360,98520,2,0,L|432:352,1,67.5000025749208,2|0,0:0|0:0,0:0:0:0:
104,52,98687,6,0,B|68:144|68:144|76:216|76:216|36:328,1,270,8|0,0:0|0:0,0:0:0:0:
220,156,99020,2,0,B|268:152|268:152|316:164,1,80.9999975280763,2|0,0:0|0:0,0:0:0:0:
80,304,99187,2,0,L|72:204,1,80.9999975280763,2|0,0:0|0:0,0:0:0:0:
444,28,99353,5,10,0:0:0:0:
438,108,99436,1,2,0:0:0:0:
432,189,99519,1,2,0:0:0:0:
426,270,99602,1,2,0:0:0:0:
420,351,99687,2,0,P|460:364|504:348,3,80.9999975280763,2|2|2|2,0:0|0:0|0:0|0:0,0:0:0:0:
336,144,100020,6,0,B|324:100|324:100|316:144,1,67.5000025749208,8|0,0:0|0:0,0:0:0:0:
48,216,100187,2,0,B|60:172|60:172|68:216,1,67.5000025749208,2|0,0:0|0:0,0:0:0:0:
216,304,100353,2,0,B|228:348|228:348|236:304,1,67.5000025749208,2|0,0:0|0:0,0:0:0:0:
504,232,100520,2,0,B|492:276|492:276|484:232,1,67.5000025749208,8|0,0:0|0:0,0:0:0:0:
192,36,100687,2,0,L|180:132,1,67.5000025749208,2|0,0:0|0:0,0:0:0:0:
356,360,100853,2,0,L|340:264,1,67.5000025749208,2|0,0:0|0:0,0:0:0:0:
350,135,101020,2,0,P|254:179|222:327,1,242.999992584229,2|0,0:0|0:0,0:0:0:0:
215,303,101353,6,0,B|220:208|164:136|164:136|164:196|220:208,1,270,10|0,0:0|0:0,0:0:0:0:
108,68,101687,2,0,P|84:96|76:148,1,80.9999975280763,2|0,0:0|0:0,0:0:0:0:
244,276,101853,2,0,P|236:236|210:205,1,80.9999975280763,2|0,0:0|0:0,0:0:0:0:
32,288,102020,2,0,L|148:272,1,80.9999975280763,2|0,0:0|0:0,0:0:0:0:
492,196,102187,2,0,L|392:188,1,80.9999975280763,2|0,0:0|0:0,0:0:0:0:
32,288,102353,2,0,L|148:272,1,80.9999975280763,2|0,0:0|0:0,0:0:0:0:
492,196,102520,2,0,L|392:188,1,80.9999975280763,2|0,0:0|0:0,0:0:0:0:
317,323,102687,6,0,P|409:279|401:175,1,202.500007724762,8|0,0:0|0:0,0:0:0:0:
364,96,103020,2,0,P|400:108|436:100,1,67.5000025749208,2|0,0:0|0:0,0:0:0:0:
280,28,103187,1,2,0:0:0:0:
276,52,103242,1,0,0:0:0:0:
272,76,103298,1,0,0:0:0:0:
268,100,103353,2,0,L|292:184,1,67.5000025749208,8|0,0:0|0:0,0:0:0:0:
192,56,103520,2,0,L|172:132,1,67.5000025749208,2|0,0:0|0:0,0:0:0:0:
176,164,103687,6,0,P|126:146|174:125,1,135,8|0,0:0|0:0,0:0:0:0:
176,164,104020,6,0,P|264:208|152:216,1,270,8|0,0:0|0:0,0:0:0:0:
158,237,104353,2,0,P|180:288|172:336,1,90,2|0,0:0|0:0,0:0:0:0:
32,256,104520,2,0,P|10:205|18:157,1,90,2|0,0:0|0:0,0:0:0:0:
296,352,104687,1,8,0:0:0:0:
200,88,104853,1,4,0:0:0:0:
208,60,104937,1,4,0:0:0:0:
216,28,105020,2,0,L|312:24,1,90,2|0,0:0|0:0,0:0:0:0:
208,328,105187,2,0,L|108:336,1,90,2|0,0:0|0:0,0:0:0:0:
276,256,105353,6,0,L|340:260,1,53.9999983520508,8|0,0:0|0:0,0:0:0:0:
176,168,105520,1,4,0:0:0:0:
212,328,105687,1,2,0:0:0:0:
227,80,105853,2,0,L|211:8,1,53.9999983520508,8|0,0:0|0:0,0:0:0:0:
48,152,106020,5,8,0:0:0:0:
296,360,106187,1,8,0:0:0:0:
456,56,106353,2,0,L|480:224,1,161.999995056153,8|0,0:0|0:0,0:0:0:0:
52,360,106687,6,0,L|60:264,1,90,2|0,0:0|0:0,0:0:0:0:
164,160,107020,2,0,L|156:256,1,90,8|8,0:0|0:0,0:0:0:0:
52,360,107353,2,0,L|60:264,1,90,8|8,0:0|0:0,0:0:0:0:
164,160,107686,2,0,L|156:256,1,90,8|8,0:0|0:0,0:0:0:0:
108,40,108020,6,0,P|160:24|228:32,1,90,2|0,0:0|0:0,0:0:0:0:
250,172,108353,2,0,P|204:175|154:152,1,90,8|8,0:0|0:0,0:0:0:0:
108,40,108687,2,0,P|160:24|228:32,1,90,8|8,0:0|0:0,0:0:0:0:
250,172,109020,2,0,P|204:175|154:152,1,90,8|8,0:0|0:0,0:0:0:0:
448,60,109353,6,0,L|468:156,1,90,2|0,0:0|0:0,0:0:0:0:
376,352,109687,2,0,L|356:256,1,90,8|8,0:0|0:0,0:0:0:0:
448,60,110020,2,0,L|468:156,1,90,8|8,0:0|0:0,0:0:0:0:
376,352,110354,2,0,L|356:256,1,90,8|8,0:0|0:0,0:0:0:0:
496,312,110687,6,0,L|440:304,1,45,2|0,0:0|0:0,0:0:0:0:
313,257,110853,2,0,L|369:265,1,45,2|0,0:0|0:0,0:0:0:0:
496,312,111020,2,0,L|440:304,1,45,2|0,0:0|0:0,0:0:0:0:
313,257,111186,2,0,L|369:265,1,45,2|0,0:0|0:0,0:0:0:0:
204,336,111353,2,0,L|192:276,1,45,2|0,0:0|0:0,0:0:0:0:
72,288,111520,2,0,L|88:236,1,45,2|0,0:0|0:0,0:0:0:0:
60,300,111687,2,0,L|24:304,7,22.5,0|0|0|0|0|0|6|0,0:0|0:0|0:0|0:0|0:0|0:0|0:0|0:0,0:0:0:0:
60,60,112020,5,8,0:0:0:0:
204,336,112187,1,2,0:0:0:0:
160,156,112353,1,2,0:0:0:0:
60,300,112520,1,2,0:0:0:0:
60,60,112687,1,8,0:0:0:0:
204,336,112854,1,2,0:0:0:0:
160,156,113020,1,2,0:0:0:0:
60,300,113187,1,2,0:0:0:0:
412,336,113353,5,8,0:0:0:0:
344,48,113520,1,2,0:0:0:0:
264,216,113687,1,2,0:0:0:0:
496,112,113853,1,2,0:0:0:0:
496,112,113937,1,0,0:0:0:0:
496,112,114020,1,10,0:0:0:0:
436,340,114187,1,2,0:0:0:0:
248,192,114354,1,2,0:0:0:0:
496,112,114520,1,2,0:0:0:0:
56,340,114687,5,10,0:0:0:0:
63,295,114770,1,0,0:0:0:0:
70,251,114853,1,2,0:0:0:0:
77,206,114936,1,0,0:0:0:0:
85,162,115020,1,2,0:0:0:0:
92,117,115103,1,0,0:0:0:0:
99,73,115186,1,2,0:0:0:0:
107,29,115270,1,0,0:0:0:0:
224,52,115353,2,0,L|172:60,7,45,2|0|2|0|2|0|2|0,0:0|0:0|0:0|0:0|0:0|0:0|0:0|0:0,0:0:0:0:
292,96,116020,5,10,0:0:0:0:
256,192,116103,12,0,117353,0:0:0:0:
