osu file format v14

[General]
AudioFilename: audio.mp3
AudioLeadIn: 0
PreviewTime: 580
Countdown: 0
SampleSet: Soft
StackLeniency: 0.7
Mode: 3
LetterboxInBreaks: 0
SpecialStyle: 0
WidescreenStoryboard: 1

[Editor]
Bookmarks: 4063,10644,56321,64063,65612,85353
DistanceSpacing: 1.7
BeatDivisor: 4
GridSize: 16
TimelineZoom: 3.6

[Metadata]
Title:Narcissus At Oasis (Freezer Remix)
TitleUnicode:Narcissus At Oasis (Freezer Remix)
Artist:Freezer
ArtistUnicode:Freezer
Creator:EijiKuinbii
Version:SoldatRacer's NM
Source:SOUND VOLTEX IV HEAVENLY HAVEN
Tags:Ryu☆ SDVX melodic dubstep neuro drumstep wooble bass downtempo glitch pitch halfstep Silver_Cr0w AJIekceu Remus Missing Link SoldatRacer buhaha PandaHero DefendeRDjulus Livstvichka yShadowXOP_ avalanche -Light- shmiklak marvollo m_a_r_v_o_l_l_o Don Omar EYA-
BeatmapID:1366618
BeatmapSetID:614615

[Difficulty]
HPDrainRate:6.5
CircleSize:4
OverallDifficulty:6.5
ApproachRate:4
SliderMultiplier:1
SliderTickRate:1

[Events]
//Background and Video events
0,0,"_BG.jpg",0,0
//Break Periods
//Storyboard Layer 0 (Background)
//Storyboard Layer 1 (Fail)
//Storyboard Layer 2 (Pass)
//Storyboard Layer 3 (Foreground)
//Storyboard Sound Samples

[TimingPoints]
580,387.096774193548,4,2,1,45,1,0
73354,333.333333333333,4,2,1,70,1,0
73354,-111.111111111111,4,2,1,70,0,0

[Colours]
Combo1 : 55,87,119
Combo2 : 172,253,237
Combo3 : 206,206,206
Combo4 : 226,177,245

[HitObjects]
64,192,580,5,0,0:0:0:0:
192,192,580,1,0,0:0:0:0:
448,192,967,1,0,0:0:0:0:
192,192,1354,1,8,0:0:0:0:
320,192,1354,1,8,0:0:0:0:
64,192,1741,1,0,0:0:0:0:
320,192,2128,1,8,0:0:0:0:
448,192,2128,1,0,0:0:0:0:
64,192,2515,1,0,0:0:0:0:
320,192,2709,128,10,2902:0:0:0:0:
192,192,2902,1,8,0:0:0:0:
448,192,2902,1,8,0:0:0:0:
64,192,3289,1,0,0:0:0:0:
320,192,3676,1,0,0:0:0:0:
448,192,3676,1,0,0:0:0:0:
192,192,4063,1,0,0:0:0:0:
320,192,4257,1,0,0:0:0:0:
448,192,4257,1,0,0:0:0:0:
64,192,4450,1,8,0:0:0:0:
192,192,4450,1,8,0:0:0:0:
448,192,4838,1,0,0:0:0:0:
192,192,5225,1,8,0:0:0:0:
320,192,5225,1,0,0:0:0:0:
64,192,5515,1,0,0:0:0:0:
448,192,5515,1,8,0:0:0:0:
192,192,5805,1,0,0:0:0:0:
320,192,5805,1,8,0:0:0:0:
320,192,5999,1,0,0:0:0:0:
448,192,5999,1,0,0:0:0:0:
64,192,6192,1,0,0:0:0:0:
192,192,6192,1,8,0:0:0:0:
448,192,6386,1,0,0:0:0:0:
192,192,6773,1,8,0:0:0:0:
320,192,6773,1,0,0:0:0:0:
64,192,7160,1,0,0:0:0:0:
320,192,7547,1,8,0:0:0:0:
448,192,7547,1,8,0:0:0:0:
192,192,7934,1,0,0:0:0:0:
320,192,8321,1,8,0:0:0:0:
448,192,8321,1,0,0:0:0:0:
192,192,8709,1,0,0:0:0:0:
64,192,8902,128,10,9096:0:0:0:0:
448,192,9096,1,8,0:0:0:0:
320,192,9096,1,8,0:0:0:0:
192,192,9483,1,0,0:0:0:0:
320,192,9870,1,8,0:0:0:0:
64,192,9870,1,0,0:0:0:0:
448,192,10257,1,0,0:0:0:0:
320,192,10450,1,8,0:0:0:0:
64,192,10450,1,0,0:0:0:0:
192,192,10644,1,8,0:0:0:0:
448,192,10644,1,8,0:0:0:0:
320,192,11031,1,0,0:0:0:0:
64,192,11418,1,8,0:0:0:0:
192,192,11418,1,8,0:0:0:0:
320,192,11709,1,8,0:0:0:0:
448,192,11709,1,8,0:0:0:0:
192,192,11999,1,8,0:0:0:0:
320,192,11999,1,8,0:0:0:0:
320,192,12192,1,8,0:0:0:0:
448,192,12192,1,8,0:0:0:0:
64,192,12386,128,0,12967:0:0:0:0:
192,192,12967,1,8,0:0:0:0:
448,192,12967,1,8,0:0:0:0:
192,192,13354,1,8,0:0:0:0:
64,192,13354,1,8,0:0:0:0:
192,192,13741,1,8,0:0:0:0:
320,192,13741,1,8,0:0:0:0:
320,192,14128,1,8,0:0:0:0:
448,192,14128,1,8,0:0:0:0:
64,192,14515,1,8,0:0:0:0:
320,192,14515,1,8,0:0:0:0:
320,192,14902,1,8,0:0:0:0:
448,192,14902,1,8,0:0:0:0:
192,192,15289,1,8,0:0:0:0:
320,192,15289,1,8,0:0:0:0:
64,192,15676,1,8,0:0:0:0:
192,192,15676,1,8,0:0:0:0:
192,192,16063,1,8,0:0:0:0:
448,192,16063,1,8,0:0:0:0:
448,192,16450,1,8,0:0:0:0:
64,192,16450,1,8,0:0:0:0:
320,192,16838,1,8,0:0:0:0:
448,192,16838,1,8,0:0:0:0:
64,192,17225,1,8,0:0:0:0:
320,192,17225,1,8,0:0:0:0:
320,192,17612,1,8,0:0:0:0:
448,192,17612,1,8,0:0:0:0:
192,192,17999,1,8,0:0:0:0:
320,192,17999,1,8,0:0:0:0:
64,192,18386,1,8,0:0:0:0:
448,192,18386,1,8,0:0:0:0:
192,192,18773,1,8,0:0:0:0:
448,192,18773,1,8,0:0:0:0:
64,192,19160,1,8,0:0:0:0:
320,192,19160,1,8,0:0:0:0:
192,192,19354,1,8,0:0:0:0:
448,192,19547,1,8,0:0:0:0:
320,192,19741,1,8,0:0:0:0:
64,192,19934,1,8,0:0:0:0:
192,192,20128,1,8,0:0:0:0:
448,192,20321,1,8,0:0:0:0:
320,192,20515,1,8,0:0:0:0:
192,192,20612,1,8,0:0:0:0:
64,192,20709,1,8,0:0:0:0:
448,192,20902,1,8,0:0:0:0:
320,192,21096,1,8,0:0:0:0:
64,192,21289,1,8,0:0:0:0:
192,192,21483,1,8,0:0:0:0:
320,192,21676,1,8,0:0:0:0:
448,192,21870,1,8,0:0:0:0:
192,192,22063,128,10,22257:0:0:0:0:
320,192,22257,128,10,23805:0:0:0:0:
448,192,23805,1,8,0:0:0:0:
64,192,23805,1,8,0:0:0:0:
192,192,24483,128,0,25354:0:0:0:0:
320,192,24773,1,0,0:0:0:0:
448,192,24967,1,0,0:0:0:0:
64,192,25160,1,0,0:0:0:0:
448,192,25354,1,8,0:0:0:0:
64,192,25354,128,2,25741:0:0:0:0:
192,192,25741,128,2,25934:0:0:0:0:
320,192,25934,128,2,26128:0:0:0:0:
448,192,26128,1,0,0:0:0:0:
64,192,26128,1,8,0:0:0:0:
192,192,26321,128,2,26515:0:0:0:0:
448,192,26515,128,2,26709:0:0:0:0:
64,192,26902,1,8,0:0:0:0:
192,192,26902,128,2,27289:0:0:0:0:
448,192,27289,128,2,27386:0:0:0:0:
320,192,27386,128,2,27483:0:0:0:0:
64,192,27483,128,2,27676:0:0:0:0:
192,192,27676,1,0,0:0:0:0:
448,192,27676,128,10,27870:0:0:0:0:
320,192,27870,128,10,28063:0:0:0:0:
192,192,28063,128,10,28257:0:0:0:0:
64,192,28450,1,8,0:0:0:0:
320,192,28450,128,2,28838:0:0:0:0:
192,192,28838,128,2,29031:0:0:0:0:
448,192,29031,128,2,29225:0:0:0:0:
64,192,29225,1,8,0:0:0:0:
192,192,29225,1,8,0:0:0:0:
320,192,29418,128,2,29612:0:0:0:0:
448,192,29418,1,8,0:0:0:0:
192,192,29612,128,2,29805:0:0:0:0:
64,192,29999,128,10,30192:0:0:0:0:
448,192,29999,1,8,0:0:0:0:
320,192,30192,128,10,30386:0:0:0:0:
192,192,30386,128,10,30579:0:0:0:0:
448,192,30579,128,10,30773:0:0:0:0:
320,192,30773,128,10,30967:0:0:0:0:
64,192,30773,1,0,0:0:0:0:
192,192,30967,128,10,31160:0:0:0:0:
320,192,31160,128,10,31354:0:0:0:0:
448,192,31160,1,0,0:0:0:0:
64,192,31354,128,10,31547:0:0:0:0:
448,192,31547,128,2,31934:0:0:0:0:
320,192,31547,1,8,0:0:0:0:
320,192,31934,128,2,32031:0:0:0:0:
192,192,32031,128,2,32128:0:0:0:0:
64,192,32128,128,2,32321:0:0:0:0:
320,192,32321,128,2,32515:0:0:0:0:
192,192,32321,1,0,0:0:0:0:
448,192,32515,128,2,32709:0:0:0:0:
192,192,32709,128,2,32902:0:0:0:0:
320,192,32902,128,2,33096:0:0:0:0:
448,192,33096,128,2,33192:0:0:0:0:
64,192,33192,128,2,33289:0:0:0:0:
192,192,33289,128,2,33483:0:0:0:0:
320,192,33483,128,2,33676:0:0:0:0:
448,192,33676,128,2,33773:0:0:0:0:
192,192,33773,128,6,33870:0:0:0:0:
320,192,33870,128,10,34063:0:0:0:0:
448,192,34063,128,10,34257:0:0:0:0:
192,192,34257,128,10,34450:0:0:0:0:
64,192,34644,1,8,0:0:0:0:
320,192,34644,128,2,35031:0:0:0:0:
64,192,35031,128,2,35128:0:0:0:0:
192,192,35128,128,2,35225:0:0:0:0:
448,192,35225,128,2,35418:0:0:0:0:
320,192,35418,1,0,0:0:0:0:
64,192,35418,128,2,35612:0:0:0:0:
192,192,35612,128,2,35805:0:0:0:0:
320,192,35805,128,2,35999:0:0:0:0:
64,192,35999,128,2,36192:0:0:0:0:
448,192,36192,1,8,0:0:0:0:
192,192,36192,1,8,0:0:0:0:
64,192,36483,1,8,0:0:0:0:
192,192,36483,1,8,0:0:0:0:
448,192,36773,1,8,0:0:0:0:
192,192,36967,1,8,0:0:0:0:
64,192,36967,1,8,0:0:0:0:
320,192,37160,1,8,0:0:0:0:
448,192,37354,1,8,0:0:0:0:
320,192,37547,1,8,0:0:0:0:
64,192,37741,1,8,0:0:0:0:
192,192,37741,128,2,38128:0:0:0:0:
320,192,38128,128,2,38321:0:0:0:0:
448,192,38321,128,2,38515:0:0:0:0:
320,192,38515,128,10,38612:0:0:0:0:
192,192,38612,128,0,38709:0:0:0:0:
64,192,38709,128,10,38805:0:0:0:0:
448,192,38805,128,10,38902:0:0:0:0:
320,192,38902,128,10,38999:0:0:0:0:
192,192,38999,128,10,39096:0:0:0:0:
448,192,39096,128,10,39192:0:0:0:0:
64,192,39192,128,10,39289:0:0:0:0:
192,192,39289,1,0,0:0:0:0:
320,192,39289,128,2,39483:0:0:0:0:
192,192,39483,128,2,39676:0:0:0:0:
448,192,39676,128,2,39870:0:0:0:0:
64,192,39870,128,2,40063:0:0:0:0:
192,192,40063,128,2,40257:0:0:0:0:
320,192,40063,1,0,0:0:0:0:
448,192,40257,128,2,40450:0:0:0:0:
320,192,40450,128,2,40644:0:0:0:0:
64,192,40644,128,2,40838:0:0:0:0:
192,192,40838,128,6,41225:0:0:0:0:
448,192,40838,1,0,0:0:0:0:
448,192,41225,128,2,41418:0:0:0:0:
192,192,41418,128,2,41612:0:0:0:0:
320,192,41612,128,10,41709:0:0:0:0:
448,192,41709,128,10,41805:0:0:0:0:
64,192,41805,128,10,41902:0:0:0:0:
192,192,41902,128,10,41999:0:0:0:0:
448,192,41999,128,10,42096:0:0:0:0:
320,192,42096,128,10,42192:0:0:0:0:
192,192,42192,128,10,42289:0:0:0:0:
64,192,42289,128,10,42386:0:0:0:0:
448,192,42386,128,2,42579:0:0:0:0:
320,192,42386,1,0,0:0:0:0:
192,192,42579,128,2,42773:0:0:0:0:
64,192,42676,1,0,0:0:0:0:
320,192,42773,128,2,42967:0:0:0:0:
64,192,42967,128,2,43160:0:0:0:0:
192,192,42967,1,0,0:0:0:0:
448,192,43160,1,0,0:0:0:0:
320,192,43160,128,2,43354:0:0:0:0:
192,192,43354,128,2,43547:0:0:0:0:
320,192,43547,128,6,43934:0:0:0:0:
64,192,43547,1,0,0:0:0:0:
448,192,43934,1,0,0:0:0:0:
64,192,43934,128,6,44321:0:0:0:0:
192,192,44321,128,2,44515:0:0:0:0:
448,192,44515,128,2,44709:0:0:0:0:
320,192,44709,128,2,44902:0:0:0:0:
64,192,44709,1,0,0:0:0:0:
192,192,44902,128,2,45096:0:0:0:0:
448,192,45096,128,2,45289:0:0:0:0:
64,192,45289,128,2,45483:0:0:0:0:
320,192,45483,128,6,45870:0:0:0:0:
448,192,45483,1,0,0:0:0:0:
192,192,45870,128,2,46063:0:0:0:0:
448,192,46063,128,2,46257:0:0:0:0:
320,192,46257,128,2,46450:0:0:0:0:
64,192,46257,1,0,0:0:0:0:
192,192,46450,128,2,46644:0:0:0:0:
64,192,46644,128,2,46838:0:0:0:0:
320,192,47031,1,0,0:0:0:0:
448,192,47031,128,6,47418:0:0:0:0:
64,192,47418,128,0,47612:0:0:0:0:
320,192,47612,128,2,47805:0:0:0:0:
192,192,47805,128,2,47999:0:0:0:0:
448,192,47805,1,0,0:0:0:0:
448,192,47999,128,2,48096:0:0:0:0:
64,192,48096,128,2,48192:0:0:0:0:
320,192,48192,128,2,48386:0:0:0:0:
448,192,48386,128,2,48579:0:0:0:0:
64,192,48579,1,0,0:0:0:0:
192,192,48579,128,6,48773:0:0:0:0:
320,192,48773,128,6,48967:0:0:0:0:
448,192,48773,1,0,0:0:0:0:
64,192,48967,128,6,49160:0:0:0:0:
192,192,48967,1,0,0:0:0:0:
448,192,49160,128,6,49354:0:0:0:0:
320,192,49160,1,0,0:0:0:0:
320,192,49354,128,6,49547:0:0:0:0:
64,192,49354,1,0,0:0:0:0:
192,192,49547,128,6,49741:0:0:0:0:
448,192,49547,1,0,0:0:0:0:
448,192,49741,128,6,50128:0:0:0:0:
64,192,49741,1,0,0:0:0:0:
320,192,50128,1,0,0:0:0:0:
192,192,50128,128,6,50902:0:0:0:0:
448,192,50515,1,0,0:0:0:0:
320,192,50902,1,8,0:0:0:0:
64,192,50902,1,8,0:0:0:0:
448,192,51289,1,0,0:0:0:0:
192,192,51676,128,6,52450:0:0:0:0:
320,192,52063,1,0,0:0:0:0:
448,192,52257,128,14,52450:0:0:0:0:
64,192,52450,1,8,0:0:0:0:
320,192,52450,1,8,0:0:0:0:
192,192,52644,1,0,0:0:0:0:
320,192,52838,1,0,0:0:0:0:
448,192,53031,1,0,0:0:0:0:
64,192,53225,128,6,53612:0:0:0:0:
192,192,53225,1,0,0:0:0:0:
192,192,53612,128,2,53805:0:0:0:0:
448,192,53805,128,2,53999:0:0:0:0:
320,192,53805,1,0,0:0:0:0:
320,192,53999,128,2,54096:0:0:0:0:
192,192,54096,128,2,54192:0:0:0:0:
448,192,54192,128,2,54386:0:0:0:0:
320,192,54386,128,2,54579:0:0:0:0:
64,192,54579,128,2,54773:0:0:0:0:
192,192,54773,128,2,54967:0:0:0:0:
448,192,54773,1,0,0:0:0:0:
320,192,54967,128,2,55160:0:0:0:0:
448,192,55063,1,0,0:0:0:0:
64,192,55160,128,2,55354:0:0:0:0:
448,192,55354,128,2,55547:0:0:0:0:
320,192,55354,1,0,0:0:0:0:
192,192,55547,128,2,55741:0:0:0:0:
320,192,55547,1,0,0:0:0:0:
320,192,55741,128,2,55934:0:0:0:0:
448,192,55934,128,2,56128:0:0:0:0:
64,192,55934,1,0,0:0:0:0:
192,192,56128,128,2,56321:0:0:0:0:
320,192,56128,1,0,0:0:0:0:
64,192,56321,128,6,57096:0:0:0:0:
448,192,56321,1,0,0:0:0:0:
448,192,56709,1,0,0:0:0:0:
192,192,57096,1,8,0:0:0:0:
320,192,57096,1,8,0:0:0:0:
448,192,57483,1,0,0:0:0:0:
320,192,57870,128,0,58644:0:0:0:0:
192,192,58257,1,0,0:0:0:0:
448,192,58450,128,14,58644:0:0:0:0:
64,192,58644,1,8,0:0:0:0:
192,192,58644,1,8,0:0:0:0:
320,192,58838,1,0,0:0:0:0:
448,192,59031,1,0,0:0:0:0:
64,192,59225,1,0,0:0:0:0:
320,192,59418,1,0,0:0:0:0:
192,192,59418,128,6,59805:0:0:0:0:
448,192,59805,128,2,59999:0:0:0:0:
64,192,59999,128,2,60192:0:0:0:0:
192,192,60192,1,0,0:0:0:0:
320,192,60192,1,0,0:0:0:0:
192,192,60386,128,2,60579:0:0:0:0:
320,192,60579,128,2,60773:0:0:0:0:
448,192,60773,128,2,60967:0:0:0:0:
64,192,60967,128,2,61160:0:0:0:0:
192,192,60967,1,0,0:0:0:0:
192,192,61160,128,2,61354:0:0:0:0:
448,192,61257,1,0,0:0:0:0:
320,192,61354,128,2,61547:0:0:0:0:
448,192,61547,128,2,61741:0:0:0:0:
192,192,61547,1,0,0:0:0:0:
320,192,61741,1,8,0:0:0:0:
64,192,61741,1,8,0:0:0:0:
192,192,61934,1,8,0:0:0:0:
448,192,61934,1,8,0:0:0:0:
320,192,62128,128,6,62515:0:0:0:0:
448,192,62515,1,0,0:0:0:0:
64,192,62515,128,6,63289:0:0:0:0:
320,192,62902,1,0,0:0:0:0:
192,192,63289,1,8,0:0:0:0:
448,192,63289,1,8,0:0:0:0:
320,192,63676,1,0,0:0:0:0:
192,192,64063,128,6,64838:0:0:0:0:
64,192,64450,1,0,0:0:0:0:
320,192,64644,128,14,64838:0:0:0:0:
448,192,64838,1,8,0:0:0:0:
64,192,64838,128,2,65031:0:0:0:0:
192,192,65031,128,2,65225:0:0:0:0:
320,192,65225,128,2,65418:0:0:0:0:
448,192,65418,128,2,65612:0:0:0:0:
192,192,65612,128,6,66386:0:0:0:0:
320,192,65999,1,0,0:0:0:0:
448,192,66192,1,0,0:0:0:0:
64,192,66386,1,8,0:0:0:0:
320,192,66386,1,8,0:0:0:0:
448,192,66579,1,0,0:0:0:0:
64,192,66773,1,0,0:0:0:0:
320,192,67160,128,6,67934:0:0:0:0:
192,192,67160,1,8,0:0:0:0:
64,192,67450,1,0,0:0:0:0:
192,192,67450,1,0,0:0:0:0:
192,192,67741,1,0,0:0:0:0:
448,192,67741,1,0,0:0:0:0:
64,192,67934,1,0,0:0:0:0:
192,192,67934,128,12,68128:0:0:0:0:
448,192,68321,128,12,68418:0:0:0:0:
320,192,68418,128,12,68515:0:0:0:0:
64,192,68515,128,2,68709:0:0:0:0:
192,192,68709,128,6,69483:0:0:0:0:
448,192,68709,1,0,0:0:0:0:
320,192,69096,1,0,0:0:0:0:
64,192,69483,1,8,0:0:0:0:
448,192,69483,1,8,0:0:0:0:
320,192,69870,1,0,0:0:0:0:
64,192,70257,128,6,71031:0:0:0:0:
448,192,70257,1,8,0:0:0:0:
320,192,70644,1,0,0:0:0:0:
192,192,70838,128,14,71031:0:0:0:0:
448,192,71031,128,2,71225:0:0:0:0:
320,192,71225,128,2,71418:0:0:0:0:
192,192,71418,128,2,71612:0:0:0:0:
64,192,71612,128,2,71805:0:0:0:0:
320,192,71805,128,6,72579:0:0:0:0:
192,192,72192,1,0,0:0:0:0:
448,192,72579,1,8,0:0:0:0:
64,192,72579,1,8,0:0:0:0:
192,192,72773,1,0,0:0:0:0:
320,192,73354,1,8,0:0:0:0:
448,192,73354,1,4,0:0:0:0:
192,192,73937,128,12,74687:0:0:0:0:
320,192,74687,1,8,0:0:0:0:
448,192,74687,1,8,0:0:0:0:
64,192,75020,1,8,0:0:0:0:
192,192,75020,1,8,0:0:0:0:
320,192,75354,1,8,0:0:0:0:
192,192,75354,1,8,0:0:0:0:
64,192,75687,1,8,0:0:0:0:
448,192,75687,1,8,0:0:0:0:
192,192,76020,1,8,0:0:0:0:
448,192,76020,1,8,0:0:0:0:
64,192,76354,1,8,0:0:0:0:
320,192,76354,1,8,0:0:0:0:
64,192,76687,1,8,0:0:0:0:
192,192,76687,1,8,0:0:0:0:
192,192,77020,1,8,0:0:0:0:
320,192,77020,1,8,0:0:0:0:
320,192,77354,1,8,0:0:0:0:
448,192,77354,1,8,0:0:0:0:
64,192,77687,1,8,0:0:0:0:
320,192,77687,1,8,0:0:0:0:
192,192,78020,1,8,0:0:0:0:
448,192,78020,1,8,0:0:0:0:
320,192,78354,1,8,0:0:0:0:
448,192,78354,1,8,0:0:0:0:
64,192,78687,1,8,0:0:0:0:
192,192,78687,1,8,0:0:0:0:
320,192,79020,1,8,0:0:0:0:
192,192,79020,1,8,0:0:0:0:
320,192,79354,1,8,0:0:0:0:
448,192,79354,1,8,0:0:0:0:
64,192,79687,1,8,0:0:0:0:
448,192,79687,1,8,0:0:0:0:
192,192,80020,1,8,0:0:0:0:
320,192,80020,1,8,0:0:0:0:
448,192,80187,1,8,0:0:0:0:
320,192,80354,1,8,0:0:0:0:
192,192,80520,1,8,0:0:0:0:
64,192,80687,1,8,0:0:0:0:
320,192,80853,1,8,0:0:0:0:
192,192,81020,1,8,0:0:0:0:
448,192,81187,1,8,0:0:0:0:
320,192,81270,1,8,0:0:0:0:
192,192,81353,1,8,0:0:0:0:
64,192,81520,1,8,0:0:0:0:
320,192,81687,1,8,0:0:0:0:
192,192,81853,1,8,0:0:0:0:
448,192,82020,1,8,0:0:0:0:
192,192,82187,1,8,0:0:0:0:
448,192,82353,1,8,0:0:0:0:
192,192,82520,128,10,82687:0:0:0:0:
64,192,82520,128,10,82687:0:0:0:0:
448,192,82687,128,6,84020:0:0:0:0:
192,192,84020,1,12,0:0:0:0:
320,192,84020,1,0,0:0:0:0:
192,192,84603,128,2,85353:0:0:0:0:
64,192,85353,1,8,0:0:0:0:
448,192,85353,1,8,0:0:0:0:
320,192,85687,128,2,85853:0:0:0:0:
64,192,85853,128,2,86020:0:0:0:0:
192,192,86020,1,0,0:0:0:0:
448,192,86187,128,2,86353:0:0:0:0:
64,192,86353,128,2,86520:0:0:0:0:
192,192,86520,128,2,86687:0:0:0:0:
64,192,86687,1,0,0:0:0:0:
320,192,86687,128,2,87020:0:0:0:0:
64,192,87020,128,6,87103:0:0:0:0:
192,192,87103,128,6,87187:0:0:0:0:
448,192,87187,128,6,87270:0:0:0:0:
320,192,87270,128,6,87353:0:0:0:0:
192,192,87353,128,2,87520:0:0:0:0:
64,192,87353,1,0,0:0:0:0:
320,192,87520,128,2,87687:0:0:0:0:
448,192,87687,128,2,87853:0:0:0:0:
192,192,87853,128,4,88020:0:0:0:0:
320,192,88020,1,0,0:0:0:0:
64,192,88020,128,10,88353:0:0:0:0:
192,192,88353,128,2,88520:0:0:0:0:
448,192,88520,128,2,88687:0:0:0:0:
64,192,88687,128,2,88853:0:0:0:0:
320,192,88687,1,0,0:0:0:0:
320,192,88853,128,2,89020:0:0:0:0:
192,192,89020,128,2,89187:0:0:0:0:
448,192,89187,128,2,89353:0:0:0:0:
320,192,89353,128,10,89520:0:0:0:0:
192,192,89520,128,10,89687:0:0:0:0:
64,192,89687,128,10,89853:0:0:0:0:
192,192,89853,128,10,90020:0:0:0:0:
320,192,90020,128,10,90187:0:0:0:0:
448,192,90187,128,10,90353:0:0:0:0:
320,192,90353,128,10,90520:0:0:0:0:
192,192,90520,128,10,90687:0:0:0:0:
448,192,90687,128,6,91020:0:0:0:0:
320,192,90687,1,0,0:0:0:0:
64,192,91020,128,2,91103:0:0:0:0:
320,192,91103,128,2,91187:0:0:0:0:
192,192,91187,128,2,91353:0:0:0:0:
448,192,91353,128,2,91520:0:0:0:0:
320,192,91353,1,0,0:0:0:0:
64,192,91520,128,2,91687:0:0:0:0:
320,192,91687,128,2,91853:0:0:0:0:
192,192,91853,128,2,92020:0:0:0:0:
448,192,92020,128,2,92103:0:0:0:0:
320,192,92103,128,2,92187:0:0:0:0:
192,192,92187,128,2,92270:0:0:0:0:
448,192,92353,128,2,92520:0:0:0:0:
320,192,92520,128,2,92687:0:0:0:0:
64,192,92687,128,12,92853:0:0:0:0:
192,192,92687,1,0,0:0:0:0:
448,192,92853,128,12,93020:0:0:0:0:
320,192,93020,128,12,93187:0:0:0:0:
192,192,93353,1,0,0:0:0:0:
64,192,93353,128,10,93687:0:0:0:0:
320,192,93687,128,2,93770:0:0:0:0:
192,192,93770,128,2,93853:0:0:0:0:
448,192,93853,128,2,93937:0:0:0:0:
320,192,94020,128,2,94187:0:0:0:0:
64,192,94020,1,0,0:0:0:0:
64,192,94187,128,2,94353:0:0:0:0:
192,192,94353,128,2,94520:0:0:0:0:
320,192,94520,128,2,94687:0:0:0:0:
448,192,94687,1,8,0:0:0:0:
192,192,94937,1,8,0:0:0:0:
320,192,95187,1,8,0:0:0:0:
64,192,95353,1,8,0:0:0:0:
192,192,95520,1,8,0:0:0:0:
320,192,95687,1,8,0:0:0:0:
448,192,95853,1,8,0:0:0:0:
64,192,96020,128,4,96353:0:0:0:0:
192,192,96353,128,2,96520:0:0:0:0:
448,192,96520,128,2,96687:0:0:0:0:
320,192,96687,128,10,96770:0:0:0:0:
192,192,96770,128,10,96853:0:0:0:0:
448,192,96853,128,10,96937:0:0:0:0:
64,192,96937,128,10,97020:0:0:0:0:
320,192,97020,128,10,97103:0:0:0:0:
192,192,97103,128,10,97187:0:0:0:0:
448,192,97187,128,10,97270:0:0:0:0:
320,192,97270,128,10,97353:0:0:0:0:
64,192,97353,128,6,97520:0:0:0:0:
320,192,97520,128,6,97687:0:0:0:0:
448,192,97687,128,12,97853:0:0:0:0:
192,192,97853,128,12,98020:0:0:0:0:
64,192,98020,1,0,0:0:0:0:
320,192,98020,128,12,98187:0:0:0:0:
64,192,98187,128,12,98353:0:0:0:0:
448,192,98353,128,12,98520:0:0:0:0:
192,192,98520,128,12,98687:0:0:0:0:
448,192,98687,128,12,99020:0:0:0:0:
320,192,98687,1,0,0:0:0:0:
320,192,99020,128,0,99187:0:0:0:0:
192,192,99187,128,2,99353:0:0:0:0:
64,192,99353,128,10,99437:0:0:0:0:
320,192,99437,128,10,99520:0:0:0:0:
192,192,99520,128,10,99603:0:0:0:0:
448,192,99603,128,10,99687:0:0:0:0:
320,192,99687,128,10,99770:0:0:0:0:
192,192,99770,128,10,99853:0:0:0:0:
64,192,99853,128,10,99937:0:0:0:0:
320,192,99937,128,10,100020:0:0:0:0:
448,192,100020,128,12,100187:0:0:0:0:
192,192,100187,128,6,100353:0:0:0:0:
320,192,100353,128,6,100520:0:0:0:0:
64,192,100520,128,6,100687:0:0:0:0:
448,192,100520,1,0,0:0:0:0:
448,192,100687,128,6,100853:0:0:0:0:
192,192,100687,1,0,0:0:0:0:
192,192,100853,128,6,101020:0:0:0:0:
320,192,101020,128,12,101353:0:0:0:0:
64,192,101353,1,8,0:0:0:0:
448,192,101353,1,8,0:0:0:0:
192,192,101687,128,2,101853:0:0:0:0:
320,192,101853,128,2,102020:0:0:0:0:
64,192,102020,128,2,102187:0:0:0:0:
192,192,102020,1,0,0:0:0:0:
448,192,102187,128,2,102353:0:0:0:0:
192,192,102353,128,2,102520:0:0:0:0:
320,192,102520,128,2,102687:0:0:0:0:
64,192,102687,128,6,103020:0:0:0:0:
448,192,102687,1,0,0:0:0:0:
320,192,103020,128,2,103187:0:0:0:0:
64,192,103187,128,2,103353:0:0:0:0:
448,192,103353,128,2,103520:0:0:0:0:
320,192,103353,1,0,0:0:0:0:
320,192,103520,128,2,103687:0:0:0:0:
192,192,103687,128,2,103853:0:0:0:0:
448,192,104020,128,6,104353:0:0:0:0:
64,192,104020,1,0,0:0:0:0:
192,192,104353,128,2,104520:0:0:0:0:
320,192,104520,128,2,104687:0:0:0:0:
64,192,104687,128,2,104853:0:0:0:0:
448,192,104687,1,0,0:0:0:0:
192,192,104853,128,2,104937:0:0:0:0:
320,192,104937,128,2,105020:0:0:0:0:
448,192,105020,128,2,105187:0:0:0:0:
64,192,105187,1,0,0:0:0:0:
320,192,105353,128,14,105603:0:0:0:0:
192,192,105353,1,0,0:0:0:0:
64,192,105520,1,0,0:0:0:0:
448,192,105603,128,14,105853:0:0:0:0:
192,192,105687,1,0,0:0:0:0:
320,192,105853,128,14,106103:0:0:0:0:
64,192,105853,1,0,0:0:0:0:
448,192,106020,1,0,0:0:0:0:
64,192,106103,128,14,106687:0:0:0:0:
192,192,106187,1,0,0:0:0:0:
320,192,106353,1,8,0:0:0:0:
448,192,106520,1,8,0:0:0:0:
320,192,106687,128,2,107020:0:0:0:0:
448,192,107020,1,8,0:0:0:0:
192,192,107020,1,8,0:0:0:0:
64,192,107353,1,0,0:0:0:0:
192,192,107687,1,8,0:0:0:0:
448,192,107687,1,8,0:0:0:0:
320,192,108020,1,0,0:0:0:0:
192,192,108353,1,8,0:0:0:0:
448,192,108353,1,8,0:0:0:0:
64,192,108687,1,0,0:0:0:0:
192,192,109020,1,8,0:0:0:0:
320,192,109020,1,8,0:0:0:0:
448,192,109353,1,0,0:0:0:0:
64,192,109687,1,8,0:0:0:0:
192,192,109687,1,8,0:0:0:0:
320,192,110020,1,0,0:0:0:0:
192,192,110353,1,8,0:0:0:0:
64,192,110353,1,8,0:0:0:0:
448,192,110687,128,2,110853:0:0:0:0:
320,192,110853,128,2,111020:0:0:0:0:
192,192,111020,128,2,111187:0:0:0:0:
448,192,111020,1,0,0:0:0:0:
64,192,111187,128,2,111353:0:0:0:0:
192,192,111353,128,2,111520:0:0:0:0:
320,192,111353,1,0,0:0:0:0:
320,192,111520,128,2,111687:0:0:0:0:
448,192,111687,128,6,112020:0:0:0:0:
192,192,111687,128,2,112020:0:0:0:0:
64,192,112020,1,8,0:0:0:0:
320,192,112020,1,8,0:0:0:0:
192,192,112187,1,8,0:0:0:0:
320,192,112353,1,8,0:0:0:0:
448,192,112520,1,8,0:0:0:0:
64,192,112687,1,8,0:0:0:0:
192,192,112853,1,8,0:0:0:0:
320,192,113020,1,8,0:0:0:0:
448,192,113187,1,8,0:0:0:0:
192,192,113353,1,8,0:0:0:0:
320,192,113520,1,8,0:0:0:0:
64,192,113687,1,8,0:0:0:0:
448,192,113853,1,8,0:0:0:0:
320,192,114020,1,8,0:0:0:0:
192,192,114187,1,8,0:0:0:0:
64,192,114353,1,8,0:0:0:0:
448,192,114520,1,8,0:0:0:0:
192,192,114687,128,10,116020:0:0:0:0:
320,192,114687,1,8,0:0:0:0:
448,192,115020,1,8,0:0:0:0:
64,192,115353,1,8,0:0:0:0:
320,192,115687,1,8,0:0:0:0:
448,192,116020,1,8,0:0:0:0:
320,192,116270,1,8,0:0:0:0:
448,192,116520,1,8,0:0:0:0:
320,192,116687,1,8,0:0:0:0:
192,192,116853,1,8,0:0:0:0:
448,192,117020,1,8,0:0:0:0:
64,192,117187,1,8,0:0:0:0:
192,192,117353,1,8,0:0:0:0:
320,192,117353,1,4,0:0:0:0:
448,192,117353,1,8,0:0:0:0:
