osu file format v14

[General]
AudioFilename: audio.mp3
AudioLeadIn: 0
PreviewTime: 580
Countdown: 0
SampleSet: Soft
StackLeniency: 0.7
Mode: 3
LetterboxInBreaks: 0
SpecialStyle: 0
WidescreenStoryboard: 1

[Editor]
Bookmarks: 4063,10644,56321,64063,65612,85353
DistanceSpacing: 1.7
BeatDivisor: 4
GridSize: 16
TimelineZoom: 3.6

[Metadata]
Title:Narcissus At Oasis (Freezer Remix)
TitleUnicode:Narcissus At Oasis (Freezer Remix)
Artist:Freezer
ArtistUnicode:Freezer
Creator:EijiKuinbii
Version:SoldatRacer's EZ
Source:SOUND VOLTEX IV HEAVENLY HAVEN
Tags:Ryu☆ SDVX melodic dubstep neuro drumstep wooble bass downtempo glitch pitch halfstep Silver_Cr0w AJIekceu Remus Missing Link SoldatRacer buhaha PandaHero DefendeRDjulus Livstvichka yShadowXOP_ avalanche -Light- shmiklak marvollo m_a_r_v_o_l_l_o Don Omar EYA-
BeatmapID:1366340
BeatmapSetID:614615

[Difficulty]
HPDrainRate:6
CircleSize:4
OverallDifficulty:6
ApproachRate:4
SliderMultiplier:1
SliderTickRate:1

[Events]
//Background and Video events
0,0,"_BG.jpg",0,0
//Break Periods
//Storyboard Layer 0 (Background)
//Storyboard Layer 1 (Fail)
//Storyboard Layer 2 (Pass)
//Storyboard Layer 3 (Foreground)
//Storyboard Sound Samples

[TimingPoints]
580,387.096774193548,4,2,1,45,1,0
73354,333.333333333333,4,2,1,70,1,0
73354,-111.111111111111,4,2,1,70,0,0

[Colours]
Combo1 : 55,87,119
Combo2 : 172,253,237
Combo3 : 206,206,206
Combo4 : 226,177,245

[HitObjects]
64,192,580,5,0,0:0:0:0:
448,192,1354,1,8,0:0:0:0:
192,192,2128,1,0,0:0:0:0:
448,192,2709,128,10,2902:0:0:0:0:
320,192,2902,1,8,0:0:0:0:
64,192,3676,1,0,0:0:0:0:
448,192,4257,1,0,0:0:0:0:
192,192,4450,1,8,0:0:0:0:
320,192,5225,1,0,0:0:0:0:
192,192,5515,1,8,0:0:0:0:
448,192,5805,1,0,0:0:0:0:
64,192,5999,1,8,0:0:0:0:
320,192,6192,1,0,0:0:0:0:
192,192,6773,1,0,0:0:0:0:
448,192,7547,1,8,0:0:0:0:
64,192,8321,1,0,0:0:0:0:
192,192,8902,128,10,9096:0:0:0:0:
320,192,9096,1,8,0:0:0:0:
448,192,9870,1,0,0:0:0:0:
64,192,10450,1,0,0:0:0:0:
320,192,10644,1,8,0:0:0:0:
192,192,11418,1,0,0:0:0:0:
448,192,11709,1,8,0:0:0:0:
320,192,11999,1,0,0:0:0:0:
64,192,12192,1,8,0:0:0:0:
192,192,12386,128,10,12967:0:0:0:0:
64,192,12967,1,8,0:0:0:0:
448,192,12967,1,4,0:0:0:0:
320,192,13354,1,8,0:0:0:0:
192,192,13741,1,8,0:0:0:0:
448,192,14128,1,8,0:0:0:0:
64,192,14515,1,8,0:0:0:0:
320,192,14902,1,8,0:0:0:0:
192,192,15289,1,8,0:0:0:0:
64,192,15676,1,8,0:0:0:0:
320,192,16063,1,8,0:0:0:0:
192,192,16450,1,8,0:0:0:0:
448,192,16838,1,8,0:0:0:0:
192,192,17225,1,8,0:0:0:0:
320,192,17612,1,8,0:0:0:0:
64,192,17999,1,8,0:0:0:0:
192,192,18386,1,8,0:0:0:0:
448,192,18773,1,8,0:0:0:0:
320,192,19160,128,10,20709:0:0:0:0:
192,192,20515,128,10,20709:0:0:0:0:
448,192,20709,128,10,22257:0:0:0:0:
320,192,22063,128,10,22257:0:0:0:0:
64,192,22257,128,10,23805:0:0:0:0:
192,192,22257,128,10,23805:0:0:0:0:
320,192,23805,1,12,0:0:0:0:
448,192,23805,1,12,0:0:0:0:
320,192,24483,128,2,25354:0:0:0:0:
64,192,25354,1,0,0:0:0:0:
320,192,26128,1,8,0:0:0:0:
192,192,26902,1,0,0:0:0:0:
320,192,27483,128,10,27676:0:0:0:0:
448,192,27676,1,8,0:0:0:0:
64,192,28450,1,0,0:0:0:0:
448,192,29031,1,0,0:0:0:0:
320,192,29225,1,8,0:0:0:0:
192,192,29418,1,0,0:0:0:0:
448,192,29999,1,2,0:0:0:0:
320,192,30192,1,2,0:0:0:0:
64,192,30386,1,2,0:0:0:0:
192,192,30579,1,2,0:0:0:0:
320,192,30773,1,2,0:0:0:0:
448,192,30967,1,2,0:0:0:0:
192,192,31160,1,2,0:0:0:0:
64,192,31354,1,2,0:0:0:0:
320,192,31547,1,0,0:0:0:0:
448,192,32321,1,8,0:0:0:0:
192,192,33096,1,0,0:0:0:0:
320,192,33676,128,2,33870:0:0:0:0:
448,192,33870,1,8,0:0:0:0:
64,192,34644,1,0,0:0:0:0:
320,192,35418,1,8,0:0:0:0:
192,192,35612,1,0,0:0:0:0:
448,192,36192,1,0,0:0:0:0:
320,192,36483,1,0,0:0:0:0:
192,192,36773,1,0,0:0:0:0:
64,192,36967,128,2,37741:0:0:0:0:
448,192,37741,1,0,0:0:0:0:
192,192,38515,1,8,0:0:0:0:
320,192,39289,1,0,0:0:0:0:
192,192,39870,128,2,40063:0:0:0:0:
64,192,40063,1,8,0:0:0:0:
448,192,40838,1,0,0:0:0:0:
320,192,41418,1,0,0:0:0:0:
192,192,41612,1,8,0:0:0:0:
64,192,41805,1,0,0:0:0:0:
448,192,42386,1,2,0:0:0:0:
192,192,42579,1,2,0:0:0:0:
320,192,42773,1,2,0:0:0:0:
64,192,42967,1,2,0:0:0:0:
192,192,43160,1,2,0:0:0:0:
320,192,43354,1,2,0:0:0:0:
448,192,43547,128,6,43934:0:0:0:0:
320,192,43934,1,0,0:0:0:0:
192,192,44709,1,8,0:0:0:0:
320,192,45483,1,0,0:0:0:0:
64,192,46063,128,4,46257:0:0:0:0:
448,192,46257,1,8,0:0:0:0:
192,192,47031,1,0,0:0:0:0:
448,192,47805,1,8,0:0:0:0:
64,192,47999,1,0,0:0:0:0:
64,192,48579,1,8,0:0:0:0:
192,192,48773,1,0,0:0:0:0:
320,192,48967,1,0,0:0:0:0:
448,192,49160,1,8,0:0:0:0:
320,192,49354,1,0,0:0:0:0:
192,192,49547,1,0,0:0:0:0:
320,192,49741,128,10,50128:0:0:0:0:
64,192,50128,128,10,50902:0:0:0:0:
448,192,50902,1,8,0:0:0:0:
192,192,51676,128,10,52450:0:0:0:0:
320,192,52257,128,10,52450:0:0:0:0:
448,192,52450,1,8,0:0:0:0:
64,192,53225,128,2,53612:0:0:0:0:
192,192,53612,128,2,53805:0:0:0:0:
320,192,53805,128,2,53999:0:0:0:0:
448,192,53999,128,2,54192:0:0:0:0:
320,192,54192,128,2,54386:0:0:0:0:
192,192,54386,128,2,54579:0:0:0:0:
64,192,54579,128,2,54773:0:0:0:0:
320,192,54773,1,8,0:0:0:0:
448,192,54967,1,2,0:0:0:0:
192,192,55160,1,2,0:0:0:0:
64,192,55354,1,2,0:0:0:0:
320,192,55547,1,2,0:0:0:0:
64,192,55741,1,2,0:0:0:0:
448,192,55934,1,2,0:0:0:0:
320,192,56128,1,2,0:0:0:0:
192,192,56321,128,6,57096:0:0:0:0:
448,192,57096,1,0,0:0:0:0:
320,192,57870,128,10,58644:0:0:0:0:
192,192,58450,128,10,58644:0:0:0:0:
64,192,58644,1,8,0:0:0:0:
448,192,59418,128,2,59805:0:0:0:0:
320,192,59805,128,2,59999:0:0:0:0:
192,192,59999,128,2,60192:0:0:0:0:
64,192,60192,128,2,60386:0:0:0:0:
448,192,60386,128,2,60579:0:0:0:0:
320,192,60579,128,2,60773:0:0:0:0:
192,192,60773,128,2,60967:0:0:0:0:
64,192,60967,1,8,0:0:0:0:
320,192,61160,1,2,0:0:0:0:
192,192,61354,1,2,0:0:0:0:
64,192,61547,1,2,0:0:0:0:
448,192,61741,1,2,0:0:0:0:
320,192,61934,128,2,62515:0:0:0:0:
192,192,62515,128,10,63289:0:0:0:0:
64,192,63289,1,8,0:0:0:0:
320,192,64063,128,10,64838:0:0:0:0:
64,192,64644,128,10,64838:0:0:0:0:
448,192,64838,1,8,0:0:0:0:
320,192,65031,1,2,0:0:0:0:
192,192,65225,1,2,0:0:0:0:
64,192,65418,1,2,0:0:0:0:
448,192,65612,128,10,66386:0:0:0:0:
320,192,66192,1,0,0:0:0:0:
64,192,66386,1,8,0:0:0:0:
192,192,66579,1,0,0:0:0:0:
64,192,67160,128,2,67450:0:0:0:0:
192,192,67450,128,2,67741:0:0:0:0:
448,192,67741,128,2,67934:0:0:0:0:
320,192,67934,128,6,68321:0:0:0:0:
64,192,68321,128,6,68709:0:0:0:0:
192,192,68709,128,14,69483:0:0:0:0:
320,192,69483,1,0,0:0:0:0:
64,192,69870,1,8,0:0:0:0:
448,192,70257,128,10,71031:0:0:0:0:
320,192,70838,128,10,71031:0:0:0:0:
192,192,71031,128,2,71225:0:0:0:0:
320,192,71225,128,2,71418:0:0:0:0:
64,192,71418,128,2,71612:0:0:0:0:
448,192,71612,128,2,71805:0:0:0:0:
192,192,71805,128,10,72579:0:0:0:0:
64,192,72579,1,8,0:0:0:0:
320,192,72773,1,0,0:0:0:0:
320,192,73354,1,12,0:0:0:0:
64,192,73354,1,12,0:0:0:0:
192,192,73937,128,2,74687:0:0:0:0:
448,192,74687,1,8,0:0:0:0:
320,192,75020,1,8,0:0:0:0:
192,192,75354,1,8,0:0:0:0:
64,192,75687,1,8,0:0:0:0:
320,192,76020,1,8,0:0:0:0:
192,192,76354,1,8,0:0:0:0:
448,192,76687,1,8,0:0:0:0:
64,192,77020,1,8,0:0:0:0:
192,192,77354,1,8,0:0:0:0:
320,192,77687,1,8,0:0:0:0:
448,192,78020,1,8,0:0:0:0:
192,192,78354,1,8,0:0:0:0:
320,192,78687,1,8,0:0:0:0:
64,192,79020,1,8,0:0:0:0:
448,192,79354,1,8,0:0:0:0:
320,192,79687,1,8,0:0:0:0:
64,192,80020,128,10,81353:0:0:0:0:
192,192,81187,128,10,81353:0:0:0:0:
320,192,81353,128,10,82687:0:0:0:0:
192,192,82520,128,10,82687:0:0:0:0:
448,192,82687,128,10,84020:0:0:0:0:
64,192,82687,128,10,84020:0:0:0:0:
320,192,84020,1,12,0:0:0:0:
192,192,84020,1,12,0:0:0:0:
192,192,84687,128,2,85353:0:0:0:0:
64,192,85353,1,0,0:0:0:0:
448,192,85353,1,0,0:0:0:0:
320,192,86020,1,8,0:0:0:0:
64,192,86687,1,0,0:0:0:0:
320,192,87187,128,10,87353:0:0:0:0:
448,192,87353,1,8,0:0:0:0:
192,192,88020,1,0,0:0:0:0:
448,192,88520,1,0,0:0:0:0:
320,192,88687,1,8,0:0:0:0:
192,192,88853,1,0,0:0:0:0:
448,192,89353,128,2,89520:0:0:0:0:
320,192,89520,128,2,89687:0:0:0:0:
192,192,89687,128,2,89853:0:0:0:0:
64,192,89853,128,2,90020:0:0:0:0:
192,192,90020,128,2,90187:0:0:0:0:
320,192,90187,128,2,90353:0:0:0:0:
448,192,90353,1,8,0:0:0:0:
192,192,90520,1,2,0:0:0:0:
64,192,90687,1,0,0:0:0:0:
192,192,91353,1,8,0:0:0:0:
448,192,92020,1,0,0:0:0:0:
192,192,92520,128,10,92687:0:0:0:0:
320,192,92687,1,8,0:0:0:0:
64,192,93353,1,0,0:0:0:0:
448,192,94020,1,8,0:0:0:0:
192,192,94187,1,0,0:0:0:0:
320,192,94687,128,2,94937:0:0:0:0:
192,192,94937,128,2,95187:0:0:0:0:
320,192,95187,128,2,95353:0:0:0:0:
64,192,95353,128,10,96020:0:0:0:0:
192,192,95520,1,0,0:0:0:0:
448,192,95687,1,0,0:0:0:0:
320,192,95853,1,0,0:0:0:0:
192,192,96020,128,2,96353:0:0:0:0:
320,192,96520,128,10,96687:0:0:0:0:
448,192,96687,1,8,0:0:0:0:
64,192,97353,1,0,0:0:0:0:
320,192,97853,128,10,98020:0:0:0:0:
192,192,98020,1,8,0:0:0:0:
448,192,98687,1,0,0:0:0:0:
320,192,99187,1,0,0:0:0:0:
192,192,99353,1,8,0:0:0:0:
448,192,99520,1,0,0:0:0:0:
64,192,100020,128,2,100187:0:0:0:0:
192,192,100187,128,2,100353:0:0:0:0:
320,192,100353,128,2,100520:0:0:0:0:
448,192,100520,128,2,100687:0:0:0:0:
320,192,100687,128,2,100853:0:0:0:0:
192,192,100853,128,2,101020:0:0:0:0:
64,192,101020,128,2,101353:0:0:0:0:
320,192,101353,1,0,0:0:0:0:
448,192,102020,1,8,0:0:0:0:
192,192,102687,1,0,0:0:0:0:
64,192,103187,128,10,103353:0:0:0:0:
320,192,103353,1,8,0:0:0:0:
64,192,104020,1,0,0:0:0:0:
448,192,104687,1,8,0:0:0:0:
64,192,104853,1,0,0:0:0:0:
448,192,105353,1,8,0:0:0:0:
320,192,105520,1,0,0:0:0:0:
192,192,105687,1,0,0:0:0:0:
64,192,105853,1,8,0:0:0:0:
448,192,106020,1,0,0:0:0:0:
320,192,106187,1,0,0:0:0:0:
192,192,106353,128,8,106687:0:0:0:0:
64,192,106687,1,0,0:0:0:0:
320,192,107020,1,8,0:0:0:0:
448,192,107353,1,0,0:0:0:0:
192,192,107687,1,8,0:0:0:0:
320,192,108020,1,0,0:0:0:0:
64,192,108353,1,8,0:0:0:0:
192,192,108687,1,0,0:0:0:0:
320,192,109020,1,8,0:0:0:0:
448,192,109353,1,0,0:0:0:0:
320,192,109687,1,8,0:0:0:0:
192,192,110020,1,0,0:0:0:0:
64,192,110353,1,8,0:0:0:0:
192,192,110687,128,2,110853:0:0:0:0:
320,192,110853,128,2,111020:0:0:0:0:
64,192,111020,128,2,111187:0:0:0:0:
448,192,111187,128,2,111353:0:0:0:0:
320,192,111353,128,2,111520:0:0:0:0:
64,192,111520,128,2,111687:0:0:0:0:
192,192,111687,128,6,112020:0:0:0:0:
448,192,112020,128,10,114687:0:0:0:0:
320,192,112353,1,0,0:0:0:0:
64,192,112687,1,8,0:0:0:0:
320,192,113020,1,0,0:0:0:0:
192,192,113353,1,8,0:0:0:0:
320,192,113687,1,0,0:0:0:0:
64,192,114020,1,8,0:0:0:0:
192,192,114353,1,0,0:0:0:0:
64,192,114687,128,10,116020:0:0:0:0:
320,192,115020,1,8,0:0:0:0:
448,192,115687,1,8,0:0:0:0:
192,192,116020,1,4,0:0:0:0:
320,192,116687,1,8,0:0:0:0:
448,192,116853,1,8,0:0:0:0:
192,192,117020,1,8,0:0:0:0:
320,192,117187,1,8,0:0:0:0:
64,192,117353,1,12,0:0:0:0:
448,192,117353,1,12,0:0:0:0:
