osu file format v14

[General]
AudioFilename: audio.mp3
AudioLeadIn: 0
PreviewTime: 580
Countdown: 0
SampleSet: Soft
StackLeniency: 0.4
Mode: 0
LetterboxInBreaks: 0
EpilepsyWarning: 1
WidescreenStoryboard: 1

[Editor]
Bookmarks: 12967
DistanceSpacing: 1.2
BeatDivisor: 8
GridSize: 16
TimelineZoom: 3.4

[Metadata]
Title:Narcissus At Oasis (Freezer Remix)
TitleUnicode:Narcissus At Oasis (Freezer Remix)
Artist:Freezer
ArtistUnicode:Freezer
Creator:EijiKuinbii
Version:Silver_Cr0w's Extra
Source:SOUND VOLTEX IV HEAVENLY HAVEN
Tags:Ryu☆ SDVX melodic dubstep neuro drumstep wooble bass downtempo glitch pitch halfstep Silver_Cr0w AJIekceu Remus Missing Link SoldatRacer buhaha PandaHero DefendeRDjulus Livstvichka yShadowXOP_ avalanche -Light- shmiklak marvollo m_a_r_v_o_l_l_o Don Omar EYA-
BeatmapID:1371390
BeatmapSetID:614615

[Difficulty]
HPDrainRate:5.3
CircleSize:3.1
OverallDifficulty:8.3
ApproachRate:9.6
SliderMultiplier:2.3
SliderTickRate:1

[Events]
//Background and Video events
0,0,"_BG.jpg",0,0
//Break Periods
//Storyboard Layer 0 (Background)
//Storyboard Layer 1 (Fail)
//Storyboard Layer 2 (Pass)
//Storyboard Layer 3 (Foreground)
//Storyboard Sound Samples

[TimingPoints]
580,387.096774193548,4,2,1,45,1,0
580,-142.857142857143,4,2,1,45,0,0
5225,-66.6666666666667,4,2,1,45,0,0
5273,-66.6666666666667,4,2,1,5,0,0
5515,-66.6666666666667,4,2,1,45,0,0
5563,-66.6666666666667,4,2,1,5,0,0
5805,-66.6666666666667,4,2,1,45,0,0
5854,-66.6666666666667,4,2,1,5,0,0
5902,-66.6666666666667,4,2,1,45,0,0
6773,-142.857142857143,4,2,1,45,0,0
11418,-66.6666666666667,4,2,1,45,0,0
11467,-66.6666666666667,4,2,1,5,0,0
11709,-66.6666666666667,4,2,1,45,0,0
11757,-66.6666666666667,4,2,1,5,0,0
11999,-66.6666666666667,4,2,1,45,0,0
12047,-66.6666666666667,4,2,1,5,0,0
12096,-66.6666666666667,4,2,1,45,0,0
12967,-125,4,2,1,45,0,0
25354,-55.5555555555556,4,2,1,70,0,1
25741,-83.3333333333333,4,2,1,70,0,1
26902,-52.6315789473684,4,2,1,70,0,1
27289,-62.5,4,2,1,70,0,1
27676,-66.6666666666667,4,2,1,70,0,1
28450,-55.5555555555556,4,2,1,70,0,1
28838,-83.3333333333333,4,2,1,70,0,1
29999,-50,4,2,1,70,0,1
30386,-46.5116279069767,4,2,1,70,0,1
30773,-43.4782608695652,4,2,1,70,0,1
31160,-40,4,2,1,70,0,1
31354,-33.3333333333333,4,2,1,70,0,1
31547,-52.6315789473684,4,2,1,70,0,1
32128,-125,4,2,1,70,0,1
32321,-71.4285714285714,4,2,1,70,0,1
33870,-62.5,4,2,1,70,0,1
34644,-52.6315789473684,4,2,1,70,0,1
35225,-125,4,2,1,70,0,1
35418,-55.5555555555556,4,2,1,70,0,1
35999,-200,4,2,1,70,0,1
36192,-66.6666666666667,4,2,1,70,0,1
36241,-66.6666666666667,4,2,1,5,0,1
36483,-66.6666666666667,4,2,1,70,0,1
36531,-66.6666666666667,4,2,1,5,0,1
36773,-66.6666666666667,4,2,1,70,0,1
36821,-66.6666666666667,4,2,1,5,0,1
36870,-66.6666666666667,4,2,1,70,0,1
37741,-52.6315789473684,4,2,1,70,0,1
38128,-66.6666666666667,4,2,1,70,0,1
39676,-62.5,4,2,1,70,0,1
40063,-60.6060606060606,4,2,1,70,0,1
40450,-58.8235294117647,4,2,1,70,0,1
40838,-52.6315789473684,4,2,1,70,0,1
41225,-66.6666666666667,4,2,1,70,0,1
42386,-58.8235294117647,4,2,1,70,0,1
42773,-60.6060606060606,4,2,1,70,0,1
43160,-62.5,4,2,1,70,0,1
43547,-200,4,2,1,70,0,1
43934,-52.6315789473684,4,2,1,70,0,1
44321,-58.8235294117647,4,2,1,70,0,1
45483,-50,4,2,1,70,0,1
45870,-55.5555555555556,4,2,1,70,0,1
46257,-62.5,4,2,1,70,0,1
46644,-83.3333333333333,4,2,1,70,0,1
47031,-55.5555555555556,4,2,1,70,0,1
47418,-66.6666666666667,4,2,1,70,0,1
47999,-58.8235294117647,4,2,1,70,0,1
48047,-58.8235294117647,4,2,1,5,0,1
48096,-58.8235294117647,4,2,1,70,0,1
48144,-58.8235294117647,4,2,1,5,0,1
48192,-58.8235294117647,4,2,1,70,0,1
48241,-58.8235294117647,4,2,1,5,0,1
48289,-58.8235294117647,4,2,1,70,0,1
49741,-54.054054054054,4,2,1,70,0,1
50128,-500,4,2,1,45,0,0
52450,-100,4,2,1,45,0,0
52838,-76.9230769230769,4,2,1,45,0,0
53225,-55.5555555555556,4,2,1,70,0,1
54773,-52.6315789473684,4,2,1,70,0,1
54967,-62.5,4,2,1,70,0,1
55160,-55.5555555555556,4,2,1,70,0,1
55741,-58.8235294117647,4,2,1,70,0,1
56321,-500,4,2,1,45,0,0
59418,-52.6315789473684,4,2,1,70,0,1
59805,-66.6666666666667,4,2,1,70,0,1
60967,-55.5555555555556,4,2,1,70,0,1
61354,-52.6315789473684,4,2,1,70,0,1
62515,-500,4,2,1,45,0,0
64838,-50,4,2,1,45,0,0
65225,-111.111111111111,4,2,1,45,0,0
65612,-333.333333333333,4,2,1,45,0,0
67160,-285.714285714286,4,2,1,45,0,0
67934,-58.8235294117647,4,2,1,45,0,0
68515,-52.6315789473684,4,2,1,45,0,0
68709,-500,4,2,1,45,0,0
71031,-58.8235294117647,4,2,1,45,0,0
71418,-142.857142857143,4,2,1,45,0,0
71612,-55.5555555555556,4,2,1,45,0,0
71805,-500,4,2,1,45,0,0
73354,333.333333333333,4,2,1,45,1,0
74687,-142.857142857143,4,2,1,45,0,0
85353,-55.5555555555556,4,2,1,70,0,1
85687,-83.3333333333333,4,2,1,70,0,1
86687,-54.054054054054,4,2,1,70,0,1
87020,-62.5,4,2,1,70,0,1
87353,-66.6666666666667,4,2,1,70,0,1
88020,-55.5555555555556,4,2,1,70,0,1
88353,-83.3333333333333,4,2,1,70,0,1
89353,-35.7142857142857,4,2,1,70,0,1
90353,-33.3333333333333,4,2,1,70,0,1
90520,-30.3030303030303,4,2,1,70,0,1
90687,-50,4,2,1,70,0,1
91187,-125,4,2,1,70,0,1
91353,-71.4285714285714,4,2,1,70,0,1
92687,-62.5,4,2,1,70,0,1
93353,-52.6315789473684,4,2,1,70,0,1
93853,-83.3333333333333,4,2,1,70,0,1
94020,-55.5555555555556,4,2,1,70,0,1
94520,-200,4,2,1,70,0,1
94687,-66.6666666666667,4,2,1,70,0,1
96020,-50,4,2,1,70,0,0
96353,-62.5,4,2,1,70,0,0
96687,-62.5,4,2,1,70,0,1
97687,-58.8235294117647,4,2,1,70,0,1
98020,-57.1428571428571,4,2,1,70,0,1
98353,-55.5555555555556,4,2,1,70,0,1
98687,-50,4,2,1,70,0,1
99020,-62.5,4,2,1,70,0,1
100020,-55.5555555555556,4,2,1,70,0,1
100353,-57.1428571428571,4,2,1,70,0,1
100687,-58.8235294117647,4,2,1,70,0,1
101020,-200,4,2,1,70,0,1
101353,-52.6315789473684,4,2,1,70,0,1
101687,-58.8235294117647,4,2,1,70,0,1
102687,-50,4,2,1,70,0,1
103020,-55.5555555555556,4,2,1,70,0,1
103353,-62.5,4,2,1,70,0,1
103687,-83.3333333333333,4,2,1,70,0,1
104020,-55.5555555555556,4,2,1,70,0,1
104353,-66.6666666666667,4,2,1,70,0,1
104895,-66.6666666666667,4,2,1,5,0,1
104937,-66.6666666666667,4,2,1,70,0,1
104978,-66.6666666666667,4,2,1,5,0,1
105020,-66.6666666666667,4,2,1,70,0,1
105062,-66.6666666666667,4,2,1,5,0,1
105103,-66.6666666666667,4,2,1,70,0,1
106353,-50,4,2,1,70,0,1
106687,-200,4,2,1,70,0,0
107020,-62.5,4,2,1,70,0,0
108020,-55.5555555555556,4,2,1,70,0,0
108520,-200,4,2,1,70,0,0
108687,-58.8235294117647,4,2,1,70,0,0
109353,-55.5555555555556,4,2,1,70,0,0
109687,-62.5,4,2,1,70,0,0
110687,-52.6315789473684,4,2,1,70,0,0
111020,-51.2820512820513,4,2,1,70,0,0
111353,-50,4,2,1,70,0,0
113353,-62.5,4,2,1,70,0,0
114020,-55.5555555555556,4,2,1,70,0,0
116020,-400,4,2,1,70,0,0

[Colours]
Combo1 : 55,87,119
Combo2 : 172,253,237
Combo3 : 206,206,206
Combo4 : 226,177,245

[HitObjects]
52,92,580,6,0,L|29:208,2,80.499997543335,2|0|0,0:0|0:0|0:0,0:0:0:0:
166,123,1160,1,0,0:0:0:0:
169,21,1354,2,0,L|151:113,1,80.499997543335,8|0,0:0|0:0,0:0:0:0:
227,213,1741,2,0,P|285:196|355:230,1,120.749996315003,0|0,0:0|0:0,0:0:0:0:
362,232,2128,6,0,L|369:133,2,80.499997543335,2|0|0,0:0|0:0|0:0,0:0:0:0:
246,304,2709,1,0,0:0:0:0:
268,320,2773,2,0,L|266:346,2,26.833332514445,0|0|8,0:0|0:0|0:0,0:0:0:0:
175,237,3096,1,0,0:0:0:0:
101,336,3289,1,0,0:0:0:0:
52,223,3483,1,0,0:0:0:0:
199,223,3676,6,0,L|223:145,2,80.499997543335,2|0|0,0:0|0:0|0:0,0:0:0:0:
204,123,4257,1,0,0:0:0:0:
49,105,4450,2,0,L|104:164,1,80.499997543335,8|0,0:0|0:0,0:0:0:0:
226,34,4838,2,0,L|146:52,1,80.499997543335,0|0,0:0|0:0,0:0:0:0:
323,107,5225,6,0,L|338:164,1,43.1250016450883,8|0,0:0|0:0,0:0:0:0:
333,148,5515,6,0,L|348:205,1,43.1250016450883,8|0,0:0|0:0,0:0:0:0:
343,189,5805,6,0,L|358:246,1,43.1250016450883,8|0,0:0|0:0,0:0:0:0:
312,65,5999,1,8,0:0:0:0:
363,271,6192,1,0,0:0:0:0:
240,191,6386,1,0,0:0:0:0:
222,186,6482,1,0,0:0:0:0:
204,186,6579,1,0,0:0:0:0:
186,189,6676,1,0,0:0:0:0:
169,196,6773,6,0,L|142:95,2,80.499997543335,2|0|0,0:0|0:0|0:0,0:0:0:0:
82,264,7354,1,0,0:0:0:0:
76,373,7547,2,0,L|97:296,1,80.499997543335,8|0,0:0|0:0,0:0:0:0:
261,281,7934,2,0,B|322:260|322:301|378:281,1,120.749996315003,0|0,0:0|0:0,0:0:0:0:
398,261,8321,6,0,L|415:355,2,80.499997543335,2|0|0,0:0|0:0|0:0,0:0:0:0:
431,100,8902,1,0,0:0:0:0:
455,119,8967,2,0,L|464:169,2,26.833332514445,0|0|8,0:0|0:0|0:0,0:0:0:0:
322,143,9289,1,0,0:0:0:0:
222,53,9483,1,0,0:0:0:0:
355,29,9676,1,0,0:0:0:0:
200,46,9870,6,0,L|180:128,2,80.499997543335,2|0|0,0:0|0:0|0:0,0:0:0:0:
195,145,10450,1,0,0:0:0:0:
29,84,10644,2,0,L|125:60,1,80.499997543335,8|0,0:0|0:0,0:0:0:0:
272,102,11031,2,0,L|333:155,1,80.499997543335,0|0,0:0|0:0,0:0:0:0:
199,278,11418,6,0,L|246:288,1,43.1250016450883,8|0,0:0|0:0,0:0:0:0:
241,286,11709,6,0,L|288:296,1,43.1250016450883,8|0,0:0|0:0,0:0:0:0:
283,294,11999,6,0,L|330:304,1,43.1250016450883,0|0,0:0|0:0,0:0:0:0:
156,269,12192,1,8,0:0:0:0:
301,203,12386,1,4,0:0:0:0:
258,194,12483,1,4,0:0:0:0:
217,186,12579,1,2,0:0:0:0:
276,102,12773,1,0,0:0:0:0:
177,11,12967,6,0,L|146:119,1,92,2|0,0:0|0:0,0:0:0:0:
103,37,13354,2,0,L|110:149,1,92,0|0,0:0|0:0,0:0:0:0:
42,86,13741,2,0,L|87:188,1,92,0|0,0:0|0:0,0:0:0:0:
1,152,14128,2,0,L|79:232,1,92,0|0,0:0|0:0,0:0:0:0:
151,99,14515,2,0,L|229:179,1,92,2|0,0:0|0:0,0:0:0:0:
227,86,14902,2,0,L|272:188,1,92,0|0,0:0|0:0,0:0:0:0:
305,100,15289,2,0,L|312:212,1,92,0|0,0:0|0:0,0:0:0:0:
372,139,15676,2,0,L|341:247,1,92,0|0,0:0|0:0,0:0:0:0:
215,164,16063,5,2,0:0:0:0:
233,298,16450,1,0,0:0:0:0:
96,318,16838,1,0,0:0:0:0:
78,182,17225,1,0,0:0:0:0:
233,298,17612,1,2,0:0:0:0:
343,215,17999,1,0,0:0:0:0:
244,118,18386,1,0,0:0:0:0:
354,35,18773,1,0,0:0:0:0:
214,123,19160,5,2,0:0:0:0:
159,379,19354,1,0,0:0:0:0:
297,179,19547,5,0,0:0:0:0:
76,322,19741,1,0,0:0:0:0:
314,278,19934,5,0,0:0:0:0:
57,223,20128,1,0,0:0:0:0:
258,361,20321,5,0,0:0:0:0:
114,140,20515,1,4,0:0:0:0:
114,140,20612,1,4,0:0:0:0:
114,140,20709,5,2,0:0:0:0:
159,379,20902,1,0,0:0:0:0:
256,118,21096,5,0,0:0:0:0:
258,361,21289,1,0,0:0:0:0:
369,130,21483,5,0,0:0:0:0:
371,373,21676,1,0,0:0:0:0:
463,96,21870,5,0,0:0:0:0:
480,337,22063,2,0,L|484:375,2,23,0|0|0,0:0|0:0|0:0,0:0:0:0:
463,305,22257,5,2,0:0:0:0:
408,254,22353,1,0,0:0:0:0:
337,237,22450,1,0,0:0:0:0:
267,255,22547,1,0,0:0:0:0:
216,316,22644,1,0,0:0:0:0:
143,359,22741,1,0,0:0:0:0:
81,307,22837,1,0,0:0:0:0:
109,230,22934,1,0,0:0:0:0:
191,226,23031,5,2,0:0:0:0:
267,255,23128,1,0,0:0:0:0:
348,255,23224,1,0,0:0:0:0:
409,201,23321,1,0,0:0:0:0:
412,119,23418,1,0,0:0:0:0:
355,59,23515,1,0,0:0:0:0:
275,54,23612,1,0,0:0:0:0:
214,109,23708,1,0,0:0:0:0:
211,191,23805,1,8,0:0:0:0:
211,191,24483,5,0,0:0:0:0:
286,259,24579,1,2,0:0:0:0:
374,208,24676,1,2,0:0:0:0:
415,191,24772,1,0,0:0:0:0:
457,208,24869,1,0,0:0:0:0:
476,249,24966,1,2,0:0:0:0:
462,291,25063,1,2,0:0:0:0:
423,313,25159,1,2,0:0:0:0:
379,302,25256,1,0,0:0:0:0:
286,259,25354,6,0,B|218:261|170:221|170:221|110:258|110:258|58:225|0:242,1,310.499990524292,8|0,0:0|0:0,0:0:0:0:
35,87,25741,6,0,P|63:107|97:153,1,68.9999978942872,2|0,0:0|0:0,0:0:0:0:
49,75,25934,2,0,P|70:101|91:154,1,68.9999978942872,2|0,0:0|0:0,0:0:0:0:
110,258,26128,1,8,0:0:0:0:
252,127,26321,6,0,P|219:139|175:174,1,68.9999978942872,0|0,0:0|0:0,0:0:0:0:
242,112,26515,2,0,P|214:132|180:178,1,68.9999978942872,0|0,0:0|0:0,0:0:0:0:
163,37,26709,1,4,0:0:0:0:
280,239,26902,6,0,B|319:172|403:138|473:176|473:176|481:212|457:253|400:257,1,327.749991248131,8|0,0:0|0:0,0:0:0:0:
381,360,27289,6,0,L|319:354,3,61.3333333333333,4|0|0|0,0:0|0:0|0:0|0:0,0:0:0:0:
273,337,27547,1,0,0:0:0:0:
242,339,27612,1,0,0:0:0:0:
211,342,27676,6,0,L|175:266,1,86.2500032901765,8|0,0:0|0:0,0:0:0:0:
0,200,27870,2,0,L|85:206,1,86.2500032901765,8|0,0:0|0:0,0:0:0:0:
229,88,28063,2,0,L|180:158,1,86.2500032901765,8|0,0:0|0:0,0:0:0:0:
180,159,28257,1,2,0:0:0:0:
428,214,28450,6,0,B|383:116|475:111|493:30|424:-9|360:4|330:51|349:97|397:112,1,310.499990524292,8|0,0:0|0:0,0:0:0:0:
408,312,28838,6,0,L|331:265,1,68.9999978942872,2|0,0:0|0:0,0:0:0:0:
396,326,29031,2,0,L|333:260,1,68.9999978942872,2|0,0:0|0:0,0:0:0:0:
256,202,29225,1,8,0:0:0:0:
104,312,29418,6,0,L|181:265,1,68.9999978942872,2|0,0:0|0:0,0:0:0:0:
116,326,29612,2,0,L|178:260,1,68.9999978942872,2|0,0:0|0:0,0:0:0:0:
256,317,29805,1,4,0:0:0:0:
181,45,29999,6,0,P|171:82|137:42,1,115,8|0,0:0|0:0,0:0:0:0:
331,45,30192,2,0,P|341:82|375:42,1,115,8|0,0:0|0:0,0:0:0:0:
173,163,30386,6,0,P|110:157|69:117,1,123.625001886368,8|0,0:0|0:0,0:0:0:0:
339,163,30579,2,0,P|402:157|443:117,1,123.625001886368,8|0,0:0|0:0,0:0:0:0:
134,254,30773,6,0,P|61:231|9:184,1,132.250002522469,8|0,0:0|0:0,0:0:0:0:
378,254,30967,2,0,P|451:231|503:184,1,132.250002522469,8|0,0:0|0:0,0:0:0:0:
195,42,31160,6,0,B|258:5|258:5|318:42,1,143.75,2|0,0:0|0:0,0:0:0:0:
236,229,31354,2,0,P|256:166|276:229,1,172.500006580353,2|0,0:0|0:0,0:0:0:0:
40,111,31547,6,0,B|83:17|83:17|99:243,1,327.749991248131,8|0,0:0|0:0,0:0:0:0:
214,137,31934,5,4,0:0:0:0:
236,229,32031,1,4,0:0:0:0:
258,321,32128,2,0,L|267:366,1,46,4|0,0:0|0:0,0:0:0:0:
94,217,32321,6,0,P|50:212|9:221,1,80.499997543335,8|0,0:0|0:0,0:0:0:0:
356,149,32515,2,0,P|397:132|439:130,1,80.499997543335,2|0,0:0|0:0,0:0:0:0:
115,307,32709,2,0,P|74:324|43:352,1,80.499997543335,8|0,0:0|0:0,0:0:0:0:
356,248,32902,2,0,P|399:254|437:273,1,80.499997543335,2|0,0:0|0:0,0:0:0:0:
227,77,33096,5,4,0:0:0:0:
222,140,33192,1,4,0:0:0:0:
217,203,33289,2,0,L|202:7,1,160.99999508667,4|8,0:0|0:0,0:0:0:0:
463,147,33741,1,0,0:0:0:0:
465,164,33805,1,0,0:0:0:0:
467,181,33870,6,0,P|487:224|512:262,1,92,8|0,0:0|0:0,0:0:0:0:
346,103,34063,2,0,P|373:64|393:23,1,92,8|0,0:0|0:0,0:0:0:0:
338,246,34257,2,0,P|290:241|245:244,1,92,8|0,0:0|0:0,0:0:0:0:
93,340,34450,1,2,0:0:0:0:
93,340,34644,6,0,B|152:288|179:220|148:163|148:163|105:155|67:186|59:234,1,327.749991248131,8|0,0:0|0:0,0:0:0:0:
212,358,35031,1,4,0:0:0:0:
310,329,35127,1,4,0:0:0:0:
409,356,35224,6,0,P|426:299|471:255,1,109.24999708271,4|0,0:0|0:0,0:0:0:0:
459,64,35418,6,0,L|409:165,1,103.499996841431,8|0,0:0|0:0,0:0:0:0:
310,329,35612,2,0,L|247:235,1,103.499996841431,8|0,0:0|0:0,0:0:0:0:
155,67,35805,2,0,L|267:59,1,103.499996841431,8|0,0:0|0:0,0:0:0:0:
317,140,35999,6,0,L|317:168,1,28.75,2|0,0:0|0:0,0:0:0:0:
161,179,36192,6,0,L|109:207,1,43.1250016450883,8|0,0:0|0:0,0:0:0:0:
124,199,36483,6,0,L|72:227,1,43.1250016450883,8|0,0:0|0:0,0:0:0:0:
86,219,36772,6,0,L|34:247,1,43.1250016450883,8|0,0:0|0:0,0:0:0:0:
199,158,36967,1,0,0:0:0:0:
46,143,37161,1,2,0:0:0:0:
84,123,37257,1,2,0:0:0:0:
121,103,37354,1,2,0:0:0:0:
44,47,37547,1,0,0:0:0:0:
266,66,37741,6,0,B|319:96|393:86|450:33|450:33|423:103|456:174,1,327.749991248131,8|0,0:0|0:0,0:0:0:0:
355,259,38128,6,0,P|370:297|426:338,1,86.2500032901765,2|0,0:0|0:0,0:0:0:0:
338,299,38321,2,0,P|370:324|439:332,1,86.2500032901765,2|0,0:0|0:0,0:0:0:0:
355,164,38515,1,4,0:0:0:0:
274,115,38611,1,4,0:0:0:0:
180,124,38708,1,4,0:0:0:0:
110,187,38805,1,4,0:0:0:0:
131,209,38902,5,4,0:0:0:0:
190,155,38999,1,4,0:0:0:0:
270,147,39096,1,4,0:0:0:0:
339,189,39192,1,4,0:0:0:0:
242,273,39289,6,0,P|226:311|170:352,1,86.2500032901765,2|0,0:0|0:0,0:0:0:0:
259,313,39482,2,0,P|226:338|157:346,1,86.2500032901765,2|0,0:0|0:0,0:0:0:0:
80,36,39676,6,0,L|71:136,1,92,8|0,0:0|0:0,0:0:0:0:
54,337,39870,2,0,L|62:245,1,92,2|0,0:0|0:0,0:0:0:0:
238,29,40063,6,0,L|247:132,1,94.8750009047985,8|0,0:0|0:0,0:0:0:0:
265,341,40257,2,0,L|256:243,1,94.8750009047985,2|0,0:0|0:0,0:0:0:0:
447,22,40450,6,0,L|437:130,1,97.7500018644333,8|0,0:0|0:0,0:0:0:0:
419,349,40644,2,0,L|428:246,1,97.7500018644333,2|0,0:0|0:0,0:0:0:0:
140,147,40838,6,0,B|193:134|214:104|214:104|246:124|246:124|281:78|325:64|357:87|373:122|355:159|318:162,1,327.749991248131,8|0,0:0|0:0,0:0:0:0:
170,253,41225,6,0,L|255:246,1,86.2500032901765,2|0,0:0|0:0,0:0:0:0:
283,274,41418,2,0,L|198:281,1,86.2500032901765,2|0,0:0|0:0,0:0:0:0:
44,334,41612,1,4,0:0:0:0:
40,247,41708,1,4,0:0:0:0:
36,161,41805,1,4,0:0:0:0:
32,75,41902,1,4,0:0:0:0:
1,59,41999,5,4,0:0:0:0:
5,145,42096,1,4,0:0:0:0:
9,231,42193,1,4,0:0:0:0:
13,318,42289,1,4,0:0:0:0:
127,374,42386,6,0,P|134:327|157:271,1,97.7500018644333,8|0,0:0|0:0,0:0:0:0:
142,89,42579,2,0,P|149:136|172:192,1,97.7500018644333,2|0,0:0|0:0,0:0:0:0:
246,367,42773,6,0,P|253:320|276:264,1,94.8750009047985,2|0,0:0|0:0,0:0:0:0:
257,93,42967,2,0,P|264:140|287:196,1,94.8750009047985,8|0,0:0|0:0,0:0:0:0:
364,362,43160,6,0,P|371:315|394:259,1,92,2|0,0:0|0:0,0:0:0:0:
380,99,43354,2,0,P|387:146|410:202,1,92,2|0,0:0|0:0,0:0:0:0:
509,286,43547,6,0,L|512:229,1,57.5,8|0,0:0|0:0,0:0:0:0:
479,65,43934,6,0,B|421:60|380:99|380:99|358:64|323:48|323:48|281:93|233:102|183:71,1,327.749991248131,8|0,0:0|0:0,0:0:0:0:
98,83,44321,6,0,L|155:170,1,97.7500018644333,2|0,0:0|0:0,0:0:0:0:
261,324,44515,2,0,L|208:243,1,97.7500018644333,2|0,0:0|0:0,0:0:0:0:
196,78,44709,6,0,L|152:166,1,97.7500018644333,2|0,0:0|0:0,0:0:0:0:
66,340,44903,2,0,L|110:252,1,97.7500018644333,2|0,0:0|0:0,0:0:0:0:
305,237,45096,6,0,L|200:242,1,97.7500018644333,2|0,0:0|0:0,0:0:0:0:
13,258,45290,2,0,L|111:253,1,97.7500018644333,2|0,0:0|0:0,0:0:0:0:
353,319,45483,6,0,B|411:258|422:175|350:117|350:117|306:140|288:180|297:221,1,345,8|0,0:0|0:0,0:0:0:0:
452,319,45870,6,0,P|480:226|452:110,1,206.999993682861,8|0,0:0|0:0,0:0:0:0:
443,91,46128,1,0,0:0:0:0:
435,84,46192,1,0,0:0:0:0:
427,77,46257,6,0,P|382:41|336:30,1,92,8|0,0:0|0:0,0:0:0:0:
85,77,46450,2,0,P|129:41|176:30,1,92,2|0,0:0|0:0,0:0:0:0:
256,140,46644,6,0,L|256:286,1,137.999995788574,8|0,0:0|0:0,0:0:0:0:
372,240,47031,6,0,B|290:204|256:140|256:140|222:204|140:240,1,310.499990524292,8|0,0:0|0:0,0:0:0:0:
110,164,47418,6,0,P|152:141|192:95,1,86.2500032901765,2|0,0:0|0:0,0:0:0:0:
402,164,47612,2,0,P|360:141|320:95,1,86.2500032901765,2|0,0:0|0:0,0:0:0:0:
256,2,47805,1,2,0:0:0:0:
201,206,47999,6,0,P|186:231|153:247,1,48.8750009322167,4|0,0:0|0:0,0:0:0:0:
256,208,48096,2,0,L|256:256,1,48.8750009322167,4|0,0:0|0:0,0:0:0:0:
311,206,48192,2,0,P|326:231|359:247,1,48.8750009322167,6|0,0:0|0:0,0:0:0:0:
256,85,48386,1,2,0:0:0:0:
322,334,48579,5,8,0:0:0:0:
348,101,48773,1,2,0:0:0:0:
446,230,48967,1,2,0:0:0:0:
190,334,49160,5,8,0:0:0:0:
164,101,49354,1,2,0:0:0:0:
66,230,49548,1,2,0:0:0:0:
284,262,49741,6,0,P|256:148|227:262,1,319.124998782635,8|0,0:0|0:0,0:0:0:0:
315,354,50128,6,0,P|337:323|378:294,1,80.5,2|0,0:0|0:0,0:0:0:0:
399,279,50902,1,8,0:0:0:0:
441,195,51676,6,0,P|413:198|366:187,1,69,2|4,0:0|0:0,0:0:0:0:
338,154,52321,1,0,0:0:0:0:
332,144,52386,1,0,0:0:0:0:
326,134,52450,6,0,L|336:57,3,57.5,6|2|2|2,0:0|0:0|0:0|0:0,0:0:0:0:
258,216,52838,6,0,P|183:159|196:249,1,224.24998973465,10|0,0:0|0:0,0:0:0:0:
243,335,53225,6,0,B|293:290|347:324|347:324|391:270|391:270|440:317|510:287,1,310.499990524292,8|0,0:0|0:0,0:0:0:0:
488,115,53612,2,0,P|458:157|459:208,1,103.499996841431,0|0,0:0|0:0,0:0:0:0:
437,113,53805,2,0,P|432:163|458:207,1,103.499996841431,2|0,0:0|0:0,0:0:0:0:
509,335,53999,1,12,0:0:0:0:
465,312,54096,1,4,0:0:0:0:
417,301,54192,2,0,P|366:296|322:322,1,103.499996841431,6|0,0:0|0:0,0:0:0:0:
356,254,54386,2,0,P|309:275|284:319,1,103.499996841431,2|0,0:0|0:0,0:0:0:0:
279,243,54579,2,0,P|249:284|249:335,1,103.499996841431,2|0,0:0|0:0,0:0:0:0:
430,197,54773,6,0,L|403:83,1,109.24999708271,8|0,0:0|0:0,0:0:0:0:
248,147,54967,6,0,P|290:165|354:157,1,92,2|0,0:0|0:0,0:0:0:0:
198,47,55160,6,0,P|161:76|137:146,1,103.499996841431,2|0,0:0|0:0,0:0:0:0:
116,300,55354,2,0,P|79:271|55:201,1,103.499996841431,8|0,0:0|0:0,0:0:0:0:
0,56,55547,1,2,0:0:0:0:
167,220,55741,6,0,L|268:233,1,97.7500018644333,2|0,0:0|0:0,0:0:0:0:
395,56,55934,2,0,L|333:136,1,97.7500018644333,6|6,0:0|0:0,0:0:0:0:
423,335,56128,2,0,L|383:241,1,97.7500018644333,6|0,0:0|0:0,0:0:0:0:
272,326,56321,6,0,P|230:323|186:338,1,80.5,2|0,0:0|0:0,0:0:0:0:
164,351,57096,1,8,0:0:0:0:
86,267,57870,2,0,P|88:229|75:190,1,69,2|4,0:0|0:0,0:0:0:0:
57,160,58515,1,0,0:0:0:0:
58,148,58579,1,0,0:0:0:0:
59,136,58644,1,10,0:0:0:0:
192,204,58838,1,2,0:0:0:0:
281,126,59031,1,2,0:0:0:0:
360,163,59225,1,0,0:0:0:0:
172,5,59418,6,0,B|157:91|192:204|192:204|165:161|121:143|61:163,1,327.749991248131,8|0,0:0|0:0,0:0:0:0:
107,255,59805,6,0,P|137:288|184:304,1,86.2500032901765,2|0,0:0|0:0,0:0:0:0:
311,158,59999,2,0,P|267:167|230:200,1,86.2500032901765,2|0,0:0|0:0,0:0:0:0:
293,383,60192,1,8,0:0:0:0:
320,384,60386,6,0,P|333:341|323:292,1,86.2500032901765,2|0,0:0|0:0,0:0:0:0:
297,132,60579,2,0,P|256:141|222:167,1,86.2500032901765,2|0,0:0|0:0,0:0:0:0:
92,277,60773,2,0,P|120:308|160:325,1,86.2500032901765,2|0,0:0|0:0,0:0:0:0:
421,257,60967,6,0,L|431:363,1,103.499996841431,8|0,0:0|0:0,0:0:0:0:
419,127,61160,2,0,L|429:21,1,103.499996841431,2|0,0:0|0:0,0:0:0:0:
388,257,61354,6,0,L|398:366,1,109.24999708271,2|0,0:0|0:0,0:0:0:0:
386,127,61547,2,0,L|396:17,1,109.24999708271,2|6,0:0|0:0,0:0:0:0:
495,191,61741,1,10,0:0:0:0:
279,63,61934,1,8,0:0:0:0:
388,257,62128,1,6,0:0:0:0:
364,244,62224,1,6,0:0:0:0:
337,237,62321,1,6,0:0:0:0:
310,236,62418,1,0,0:0:0:0:
243,312,62515,6,0,P|202:317|155:303,1,80.5,2|0,0:0|0:0,0:0:0:0:
137,288,63289,1,8,0:0:0:0:
291,236,64063,6,0,P|326:240|367:228,1,69,2|6,0:0|0:0,0:0:0:0:
387,201,64709,1,0,0:0:0:0:
384,191,64773,1,0,0:0:0:0:
381,181,64838,6,0,B|351:132|351:132|343:75,1,115,8|0,0:0|0:0,0:0:0:0:
131,181,65031,2,0,B|161:132|161:132|169:75,1,115,2|0,0:0|0:0,0:0:0:0:
263,203,65225,6,0,L|263:151,1,51.7499984207154,2|0,0:0|0:0,0:0:0:0:
249,140,65418,2,0,L|249:191,1,51.7499984207154,2|0,0:0|0:0,0:0:0:0:
336,310,65612,6,0,P|375:290|429:287,1,86.249997367859,8|0,0:0|0:0,0:0:0:0:
438,292,66192,1,0,0:0:0:0:
349,202,66386,1,8,0:0:0:0:
444,196,66579,1,2,0:0:0:0:
385,65,67160,6,0,P|381:31|388:3,2,60.3749981575013,2|0|6,0:0|0:0|0:0,0:0:0:0:
480,39,67934,6,0,P|421:157|294:103,1,293.2500055933,10|0,0:0|0:0,0:0:0:0:
213,31,68321,1,4,0:0:0:0:
203,143,68418,1,4,0:0:0:0:
193,255,68515,6,0,B|200:310|200:310|176:377,1,109.24999708271,6|0,0:0|0:0,0:0:0:0:
83,195,68709,6,0,P|90:155|80:108,1,80.5,8|0,0:0|0:0,0:0:0:0:
68,86,69483,1,8,0:0:0:0:
11,265,70257,6,0,P|4:300|13:342,1,69,2|6,0:0|0:0,0:0:0:0:
47,348,70902,1,0,0:0:0:0:
56,347,70967,1,0,0:0:0:0:
65,346,71031,6,0,B|103:315|103:315|171:299,1,97.7500018644333,10|0,0:0|0:0,0:0:0:0:
78,133,71225,2,0,B|110:170|110:170|174:197,1,97.7500018644333,2|0,0:0|0:0,0:0:0:0:
296,251,71418,6,0,L|231:246,1,40.2499987716675,2|0,0:0|0:0,0:0:0:0:
224,253,71612,6,0,L|327:260,1,103.499996841431,2|0,0:0|0:0,0:0:0:0:
488,268,71805,6,0,P|471:231|467:187,1,80.5,8|0,0:0|0:0,0:0:0:0:
472,158,72579,1,8,0:0:0:0:
406,308,72773,1,6,0:0:0:0:
337,27,73354,1,6,0:0:0:0:
337,27,73937,5,2,0:0:0:0:
335,52,74020,1,2,0:0:0:0:
195,55,74187,1,8,0:0:0:0:
205,77,74270,1,8,0:0:0:0:
215,99,74354,1,0,0:0:0:0:
86,150,74520,1,4,0:0:0:0:
189,242,74687,6,0,P|217:205|264:174,1,80.499997543335,8|0,0:0|0:0,0:0:0:0:
237,232,75020,2,0,P|273:203|327:185,1,80.499997543335,8|0,0:0|0:0,0:0:0:0:
512,249,75354,2,0,P|484:212|437:181,1,80.499997543335,8|0,0:0|0:0,0:0:0:0:
465,239,75687,2,0,P|428:210|374:192,1,80.499997543335,8|0,0:0|0:0,0:0:0:0:
311,279,76020,2,0,L|298:372,1,80.499997543335,8|0,0:0|0:0,0:0:0:0:
287,289,76354,2,0,L|274:382,1,80.499997543335,8|0,0:0|0:0,0:0:0:0:
391,286,76687,2,0,L|404:379,1,80.499997543335,8|0,0:0|0:0,0:0:0:0:
415,296,77021,2,0,L|428:389,1,80.499997543335,8|0,0:0|0:0,0:0:0:0:
336,215,77354,5,8,0:0:0:0:
222,154,77687,1,8,0:0:0:0:
128,244,78020,1,8,0:0:0:0:
14,183,78354,1,8,0:0:0:0:
108,93,78687,1,8,0:0:0:0:
222,154,79021,1,8,0:0:0:0:
347,124,79354,1,8,0:0:0:0:
396,5,79687,1,8,0:0:0:0:
396,5,80020,5,8,0:0:0:0:
418,251,80187,1,0,0:0:0:0:
297,25,80354,5,8,0:0:0:0:
275,271,80521,1,0,0:0:0:0:
138,17,80687,5,8,0:0:0:0:
160,263,80854,1,0,0:0:0:0:
24,34,81020,5,8,0:0:0:0:
8,280,81187,1,0,0:0:0:0:
8,280,81270,1,0,0:0:0:0:
8,280,81353,5,8,0:0:0:0:
223,133,81520,1,0,0:0:0:0:
223,133,81687,1,8,0:0:0:0:
134,377,81853,1,0,0:0:0:0:
63,128,82019,1,8,0:0:0:0:
63,128,82186,1,0,0:0:0:0:
268,288,82353,1,8,0:0:0:0:
131,230,82520,2,0,L|152:262,2,20.1249993858338,0|0|0,0:0|0:0|0:0,0:0:0:0:
133,189,82687,5,2,0:0:0:0:
185,174,82770,1,0,0:0:0:0:
240,180,82853,1,2,0:0:0:0:
291,201,82936,1,0,0:0:0:0:
345,205,83020,1,2,0:0:0:0:
403,187,83103,1,0,0:0:0:0:
439,138,83187,1,2,0:0:0:0:
428,79,83270,1,0,0:0:0:0:
361,90,83353,5,2,0:0:0:0:
309,135,83437,1,0,0:0:0:0:
291,201,83520,1,2,0:0:0:0:
297,269,83603,1,0,0:0:0:0:
333,328,83687,1,2,0:0:0:0:
270,299,83770,1,0,0:0:0:0:
203,292,83853,1,2,0:0:0:0:
136,305,83936,1,0,0:0:0:0:
82,348,84020,1,8,0:0:0:0:
82,348,84603,5,2,0:0:0:0:
75,245,84687,1,2,0:0:0:0:
12,165,84770,1,0,0:0:0:0:
41,158,84853,1,8,0:0:0:0:
70,151,84936,1,8,0:0:0:0:
100,144,85019,1,0,0:0:0:0:
129,138,85103,1,0,0:0:0:0:
159,131,85186,1,8,0:0:0:0:
188,124,85269,1,0,0:0:0:0:
288,66,85353,6,0,B|362:95|393:171|340:250|340:250|282:234|277:189,1,310.499990524292,8|0,0:0|0:0,0:0:0:0:
174,57,85687,6,0,P|176:96|196:135,1,68.9999978942872,2|0,0:0|0:0,0:0:0:0:
143,73,85853,2,0,P|164:105|201:129,1,68.9999978942872,2|0,0:0|0:0,0:0:0:0:
278,196,86020,1,8,0:0:0:0:
116,266,86187,6,0,P|140:235|179:214,1,68.9999978942872,2|0,0:0|0:0,0:0:0:0:
99,235,86353,2,0,P|135:220|179:222,1,68.9999978942872,2|0,0:0|0:0,0:0:0:0:
93,146,86520,1,8,0:0:0:0:
200,348,86687,6,0,B|261:323|303:361|303:361|338:307|338:307|369:348|434:356|479:324,1,319.124998782635,8|0,0:0|0:0,0:0:0:0:
425,152,87020,6,0,L|417:244,2,92,6|6|6,0:0|0:0|0:0,0:0:0:0:
389,129,87242,1,0,0:0:0:0:
386,106,87298,1,0,0:0:0:0:
384,83,87353,6,0,L|298:123,1,86.2500032901765,8|0,0:0|0:0,0:0:0:0:
195,262,87520,2,0,L|203:167,1,86.2500032901765,2|0,0:0|0:0,0:0:0:0:
134,8,87687,2,0,L|211:62,1,86.2500032901765,2|0,0:0|0:0,0:0:0:0:
204,57,87853,1,8,0:0:0:0:
13,210,88020,6,0,B|56:114|56:114|83:328,1,310.499990524292,8|0,0:0|0:0,0:0:0:0:
239,384,88353,6,0,P|259:345|292:311,1,68.9999978942872,2|0,0:0|0:0,0:0:0:0:
215,358,88520,2,0,P|251:334|297:321,1,68.9999978942872,2|0,0:0|0:0,0:0:0:0:
402,319,88687,1,8,0:0:0:0:
506,176,88853,6,0,P|463:185|422:209,1,68.9999978942872,2|0,0:0|0:0,0:0:0:0:
487,146,89020,2,0,P|455:175|431:216,1,68.9999978942872,2|0,0:0|0:0,0:0:0:0:
402,319,89187,1,8,0:0:0:0:
223,76,89353,6,0,B|200:34|162:24|162:24|133:52|140:97,1,160.99999508667,2|0,0:0|0:0,0:0:0:0:
274,325,89520,2,0,B|316:345|352:330|352:330|360:291|327:258,1,160.99999508667,2|0,0:0|0:0,0:0:0:0:
86,153,89687,2,0,B|39:161|18:194|18:194|35:230|81:237,1,160.99999508667,2|0,0:0|0:0,0:0:0:0:
337,182,89853,2,0,B|369:147|367:108|367:108|332:89|290:110,1,160.99999508667,2|0,0:0|0:0,0:0:0:0:
122,306,90020,2,0,B|115:352|140:382|140:382|180:377|201:336,1,160.99999508667,2|0,0:0|0:0,0:0:0:0:
223,76,90187,2,0,B|200:34|162:24|162:24|133:52|140:97,1,160.99999508667,2|0,0:0|0:0,0:0:0:0:
447,266,90353,6,0,B|494:191|494:191|447:122,1,172.500006580353,8|0,0:0|0:0,0:0:0:0:
197,249,90520,2,0,P|252:210|170:189,1,189.750001809597,8|0,0:0|0:0,0:0:0:0:
368,344,90687,6,0,B|368:103|368:103|327:206,1,345,8|0,0:0|0:0,0:0:0:0:
289,296,91020,1,6,0:0:0:0:
197,249,91103,1,6,0:0:0:0:
105,202,91187,2,0,L|63:181,1,46,6|0,0:0|0:0,0:0:0:0:
193,46,91353,6,0,P|211:89|224:154,1,80.499997543335,10|0,0:0|0:0,0:0:0:0:
170,324,91520,2,0,P|188:281|201:216,1,80.499997543335,2|0,0:0|0:0,0:0:0:0:
203,19,91687,2,0,P|224:60|243:123,1,80.499997543335,2|0,0:0|0:0,0:0:0:0:
180,351,91853,2,0,P|201:309|220:246,1,80.499997543335,2|0,0:0|0:0,0:0:0:0:
340,124,92020,5,10,0:0:0:0:
350,187,92103,1,2,0:0:0:0:
360,250,92187,2,0,L|389:66,1,160.99999508667,2|8,0:0|0:0,0:0:0:0:
140,62,92576,1,0,0:0:0:0:
138,75,92631,1,0,0:0:0:0:
136,88,92687,6,0,P|133:133|116:192,1,92,8|0,0:0|0:0,0:0:0:0:
0,344,92853,2,0,P|40:324|100:309,1,92,2|0,0:0|0:0,0:0:0:0:
289,333,93020,2,0,P|251:307|208:263,1,92,2|0,0:0|0:0,0:0:0:0:
270,77,93187,1,8,0:0:0:0:
270,77,93353,6,0,B|314:81|347:62|373:28|373:28|324:90|328:167|398:216,1,327.749991248131,8|0,0:0|0:0,0:0:0:0:
456,113,93687,1,6,0:0:0:0:
508,190,93770,1,6,0:0:0:0:
488,280,93853,6,0,P|462:309|408:326,1,68.9999978942872,6|0,0:0|0:0,0:0:0:0:
296,177,94020,6,0,P|243:198|208:233,1,103.499996841431,10|0,0:0|0:0,0:0:0:0:
36,253,94187,2,0,P|89:274|124:309,1,103.499996841431,2|0,0:0|0:0,0:0:0:0:
152,97,94353,2,0,P|130:144|128:196,1,103.499996841431,2|0,0:0|0:0,0:0:0:0:
217,328,94520,6,0,L|235:350,1,28.75,8|0,0:0|0:0,0:0:0:0:
340,188,94687,6,0,L|395:168,1,43.1250016450883,8|0,0:0|0:0,0:0:0:0:
380,173,94937,6,0,L|435:153,1,43.1250016450883,2|0,0:0|0:0,0:0:0:0:
420,158,95187,6,0,L|475:138,1,43.1250016450883,2|0,0:0|0:0,0:0:0:0:
299,202,95353,1,8,0:0:0:0:
389,74,95520,1,2,0:0:0:0:
349,89,95603,1,2,0:0:0:0:
309,104,95687,1,10,0:0:0:0:
318,5,95853,1,0,0:0:0:0:
79,95,96020,6,0,P|144:44|102:167,1,345,0|0,0:0|0:0,0:0:0:0:
27,161,96353,2,0,P|32:208|11:275,1,92,10|0,0:0|0:0,0:0:0:0:
130,287,96520,2,0,P|137:333|174:392,1,92,2|0,0:0|0:0,0:0:0:0:
367,297,96687,5,10,0:0:0:0:
409,228,96770,1,6,0:0:0:0:
401,148,96854,1,6,0:0:0:0:
347,89,96937,1,6,0:0:0:0:
369,68,97020,5,6,0:0:0:0:
432,138,97104,1,6,0:0:0:0:
441,232,97187,1,6,0:0:0:0:
392,313,97270,1,6,0:0:0:0:
290,200,97353,6,0,P|242:198|177:223,1,92,2|0,0:0|0:0,0:0:0:0:
130,287,97520,2,0,P|85:299|40:297,1,92,2|0,0:0|0:0,0:0:0:0:
57,35,97687,6,0,L|171:39,1,97.7500018644333,10|0,0:0|0:0,0:0:0:0:
451,52,97853,2,0,L|337:48,1,97.7500018644333,2|0,0:0|0:0,0:0:0:0:
43,177,98020,6,0,L|162:172,1,100.625000959635,10|0,0:0|0:0,0:0:0:0:
456,159,98186,2,0,L|336:163,1,100.625000959635,2|0,0:0|0:0,0:0:0:0:
26,283,98353,6,0,L|151:287,1,103.499996841431,2|0,0:0|0:0,0:0:0:0:
459,301,98519,2,0,L|333:296,1,103.499996841431,2|0,0:0|0:0,0:0:0:0:
256,15,98687,6,0,B|272:81|217:161|143:173|143:173|225:186|246:275,1,345,8|0,0:0|0:0,0:0:0:0:
355,296,99020,6,0,L|328:383,1,92,2|0,0:0|0:0,0:0:0:0:
458,300,99187,2,0,L|485:213,1,92,2|0,0:0|0:0,0:0:0:0:
452,37,99353,5,10,0:0:0:0:
365,41,99437,1,2,0:0:0:0:
279,45,99520,1,2,0:0:0:0:
193,49,99603,1,2,0:0:0:0:
177,80,99687,5,2,0:0:0:0:
263,76,99770,1,2,0:0:0:0:
349,72,99853,1,2,0:0:0:0:
436,68,99937,1,2,0:0:0:0:
439,168,100020,6,0,P|381:182|324:182,1,103.499996841431,8|0,0:0|0:0,0:0:0:0:
73,168,100187,2,0,P|131:182|188:182,1,103.499996841431,2|0,0:0|0:0,0:0:0:0:
421,260,100353,6,0,P|368:272|317:272,1,100.625000959635,2|0,0:0|0:0,0:0:0:0:
90,260,100520,2,0,P|142:272|193:272,1,100.625000959635,8|0,0:0|0:0,0:0:0:0:
406,363,100687,6,0,P|359:374|310:374,1,97.7500018644333,2|0,0:0|0:0,0:0:0:0:
105,363,100854,2,0,P|151:374|200:374,1,97.7500018644333,2|0,0:0|0:0,0:0:0:0:
256,161,101020,6,0,L|256:237,1,57.5,2|0,0:0|0:0,0:0:0:0:
11,118,101353,6,0,B|81:38|81:38|91:290,1,327.749991248131,10|0,0:0|0:0,0:0:0:0:
181,279,101687,6,0,P|222:255|270:195,1,97.7500018644333,2|0,0:0|0:0,0:0:0:0:
411,67,101853,2,0,P|369:90|321:150,1,97.7500018644333,2|0,0:0|0:0,0:0:0:0:
386,337,102020,6,0,P|386:288|372:241,1,97.7500018644333,2|0,0:0|0:0,0:0:0:0:
322,31,102186,2,0,P|321:79|335:126,1,97.7500018644333,2|0,0:0|0:0,0:0:0:0:
461,278,102353,6,0,P|419:253|371:241,1,97.7500018644333,2|0,0:0|0:0,0:0:0:0:
166,182,102519,2,0,P|207:206|255:218,1,97.7500018644333,2|0,0:0|0:0,0:0:0:0:
503,101,102687,6,0,B|429:50|362:75|362:75|322:31|322:31|259:78|179:44,1,345,8|0,0:0|0:0,0:0:0:0:
9,70,103020,6,0,P|102:56|37:118,1,206.999993682861,2|2,0:0|0:0,0:0:0:0:
47,171,103242,1,0,0:0:0:0:
49,186,103298,1,0,0:0:0:0:
51,201,103353,6,0,P|57:247|101:304,1,92,8|0,0:0|0:0,0:0:0:0:
182,368,103520,2,0,P|188:322|232:265,1,92,2|0,0:0|0:0,0:0:0:0:
402,220,103687,6,0,P|365:296|322:222,1,206.999993682861,8|0,0:0|0:0,0:0:0:0:
342,135,104020,6,0,B|314:45|256:9|256:9|198:45|174:135,1,310.499990524292,8|0,0:0|0:0,0:0:0:0:
173,135,104353,6,0,P|122:125|60:123,1,86.2500032901765,2|0,0:0|0:0,0:0:0:0:
342,135,104520,2,0,P|392:125|454:123,1,86.2500032901765,2|0,0:0|0:0,0:0:0:0:
256,10,104687,1,8,0:0:0:0:
310,268,104853,6,0,P|301:288|288:306,1,43.1250016450883,4|0,0:0|0:0,0:0:0:0:
224,306,104937,2,0,P|211:288|202:268,1,43.1250016450883,4|0,0:0|0:0,0:0:0:0:
234,213,105020,2,0,P|256:211|277:213,1,43.1250016450883,2|0,0:0|0:0,0:0:0:0:
256,102,105187,1,2,0:0:0:0:
386,353,105353,5,8,0:0:0:0:
408,192,105520,1,4,0:0:0:0:
430,31,105687,1,2,0:0:0:0:
126,353,105853,5,8,0:0:0:0:
104,192,106020,1,8,0:0:0:0:
82,31,106187,1,8,0:0:0:0:
256,247,106353,6,0,B|301:149|301:149|256:82|256:82|210:149|210:149|243:219,1,345,8|0,0:0|0:0,0:0:0:0:
372,220,106687,6,0,L|383:309,1,86.25,2|0,0:0|0:0,0:0:0:0:
450,175,107020,6,0,P|418:142|370:128,1,92,8|0,0:0|0:0,0:0:0:0:
210,324,107187,2,0,P|254:313|291:279,1,92,8|0,0:0|0:0,0:0:0:0:
200,41,107353,1,8,0:0:0:0:
175,36,107520,6,0,P|162:80|174:128,1,92,8|0,0:0|0:0,0:0:0:0:
466,154,107687,2,0,P|434:121|391:107,1,92,8|0,0:0|0:0,0:0:0:0:
217,348,107853,2,0,P|262:336|296:306,1,92,8|0,0:0|0:0,0:0:0:0:
391,107,108020,6,0,B|376:39|314:30|314:30|270:150|356:219,1,310.499990524292,2|0,0:0|0:0,0:0:0:0:
417,255,108353,1,8,0:0:0:0:
417,269,108437,1,0,0:0:0:0:
417,283,108520,6,0,L|417:331,1,28.75,8|0,0:0|0:0,0:0:0:0:
192,355,108687,6,0,P|173:309|175:248,1,97.7500018644333,8|0,0:0|0:0,0:0:0:0:
218,31,108853,2,0,P|191:73|182:133,1,97.7500018644333,8|0,0:0|0:0,0:0:0:0:
181,371,109020,6,0,P|162:325|164:264,1,97.7500018644333,8|0,0:0|0:0,0:0:0:0:
209,13,109187,2,0,P|182:55|173:115,1,97.7500018644333,8|0,0:0|0:0,0:0:0:0:
344,208,109353,6,0,B|275:174|212:213|212:213|167:180|167:180|111:223|30:189,1,310.499990524292,2|0,0:0|0:0,0:0:0:0:
81,105,109687,6,0,L|186:100,1,92,8|0,0:0|0:0,0:0:0:0:
445,85,109853,2,0,L|354:90,1,92,8|0,0:0|0:0,0:0:0:0:
263,94,110020,1,8,0:0:0:0:
260,73,110187,6,0,L|268:169,1,92,8|0,0:0|0:0,0:0:0:0:
121,340,110353,2,0,L|200:285,1,92,8|0,0:0|0:0,0:0:0:0:
421,326,110520,2,0,L|333:284,1,92,8|0,0:0|0:0,0:0:0:0:
120,35,110687,6,0,L|120:147,1,109.24999708271,2|0,0:0|0:0,0:0:0:0:
121,340,110853,2,0,L|120:227,1,109.24999708271,2|0,0:0|0:0,0:0:0:0:
276,23,111020,6,0,L|275:143,1,112.125000427723,2|0,0:0|0:0,0:0:0:0:
276,348,111186,2,0,L|277:228,1,112.125000427723,2|0,0:0|0:0,0:0:0:0:
437,10,111353,6,0,L|433:138,1,115,2|0,0:0|0:0,0:0:0:0:
424,356,111519,2,0,L|428:228,1,115,2|0,0:0|0:0,0:0:0:0:
275,135,111687,2,0,L|227:86,2,57.5,0|0|0,0:0|0:0|0:0,0:0:0:0:
355,186,111853,1,0,0:0:0:0:
355,186,111937,1,6,0:0:0:0:
355,186,112020,5,8,0:0:0:0:
224,204,112187,1,2,0:0:0:0:
405,63,112353,1,2,0:0:0:0:
437,290,112520,1,2,0:0:0:0:
355,186,112687,5,8,0:0:0:0:
216,193,112854,1,2,0:0:0:0:
418,62,113020,1,2,0:0:0:0:
431,302,113187,1,2,0:0:0:0:
355,186,113354,5,8,0:0:0:0:
209,181,113520,2,0,P|199:136|219:72,1,92,2|0,0:0|0:0,0:0:0:0:
433,62,113687,2,0,P|477:75|522:124,1,92,2|0,0:0|0:0,0:0:0:0:
424,314,113853,2,0,P|390:345|324:360,1,92,2|0,0:0|0:0,0:0:0:0:
355,186,114021,5,10,0:0:0:0:
203,167,114187,2,0,B|223:120|223:120|273:80,1,103.499996841431,2|0,0:0|0:0,0:0:0:0:
448,63,114353,2,0,B|479:103|479:103|489:167,1,103.499996841431,2|0,0:0|0:0,0:0:0:0:
415,326,114520,2,0,B|363:332|363:332|304:309,1,103.499996841431,2|0,0:0|0:0,0:0:0:0:
355,186,114687,5,10,0:0:0:0:
291,182,114770,1,0,0:0:0:0:
233,208,114853,1,2,0:0:0:0:
194,258,114936,1,0,0:0:0:0:
183,321,115020,1,2,0:0:0:0:
130,286,115103,1,0,0:0:0:0:
98,231,115186,1,2,0:0:0:0:
94,168,115269,1,0,0:0:0:0:
118,109,115353,5,2,0:0:0:0:
170,84,115436,1,0,0:0:0:0:
225,73,115519,1,2,0:0:0:0:
280,84,115602,1,0,0:0:0:0:
331,111,115686,1,2,0:0:0:0:
383,132,115769,1,0,0:0:0:0:
440,133,115852,1,2,0:0:0:0:
494,116,115936,1,0,0:0:0:0:
441,43,116020,6,0,L|455:1,2,43.125,10|0|2,0:0|0:0|0:0,0:0:0:0:
457,282,116687,1,10,0:0:0:0:
383,132,116853,1,2,0:0:0:0:
302,235,117020,1,8,0:0:0:0:
223,169,117187,1,0,0:0:0:0:
170,206,117353,1,4,0:0:0:0:
