osu file format v14

[General]
AudioFilename: audio.mp3
AudioLeadIn: 0
PreviewTime: 580
Countdown: 0
SampleSet: Soft
StackLeniency: 0.7
Mode: 0
LetterboxInBreaks: 0
EpilepsyWarning: 1
WidescreenStoryboard: 1

[Editor]
DistanceSpacing: 1.1
BeatDivisor: 4
GridSize: 4
TimelineZoom: 4.699999

[Metadata]
Title:Narcissus At Oasis (Freezer Remix)
TitleUnicode:Narcissus At Oasis (Freezer Remix)
Artist:Freezer
ArtistUnicode:Freezer
Creator:EijiKuinbii
Version:ShadowX's Heaven
Source:SOUND VOLTEX IV HEAVENLY HAVEN
Tags:Ryu☆ SDVX melodic dubstep neuro drumstep wooble bass downtempo glitch pitch halfstep Silver_Cr0w AJIekceu Remus Missing Link SoldatRacer buhaha PandaHero DefendeRDjulus Livstvichka yShadowXOP_ avalanche -Light- shmiklak marvollo m_a_r_v_o_l_l_o Don Omar EYA-
BeatmapID:1341641
BeatmapSetID:614615

[Difficulty]
HPDrainRate:3.6
CircleSize:3.8
OverallDifficulty:7.6
ApproachRate:9.6
SliderMultiplier:1.75
SliderTickRate:1

[Events]
//Background and Video events
0,0,"_BG.jpg",0,0
//Break Periods
//Storyboard Layer 0 (Background)
//Storyboard Layer 1 (Fail)
//Storyboard Layer 2 (Pass)
//Storyboard Layer 3 (Foreground)
//Storyboard Sound Samples

[TimingPoints]
580,387.096774193548,4,2,1,45,1,0
580,-133.333333333333,4,2,1,45,0,0
3676,-117.647058823529,4,2,1,45,0,0
3870,-133.333333333333,4,2,1,45,0,0
6773,-117.647058823529,4,2,1,45,0,0
7160,-133.333333333333,4,2,1,45,0,0
9870,-117.647058823529,4,2,1,45,0,0
10063,-133.333333333333,4,2,1,45,0,0
11805,-100,4,2,1,45,0,0
12579,-90.9090909090909,4,2,1,45,0,0
12967,-133.333333333333,4,2,1,45,0,0
19160,-100,4,2,1,45,0,0
22257,-83.3333333333333,4,2,1,45,0,0
25354,-40,4,2,1,70,0,1
25741,-66.6666666666667,4,2,1,70,0,1
26128,-50,4,2,1,70,0,1
26321,-66.6666666666667,4,2,1,70,0,1
26709,-500,4,2,1,70,0,1
26902,-35.7142857142857,4,2,1,70,0,1
27483,-100,4,2,1,70,0,1
27676,-66.6666666666667,4,2,1,70,0,1
28257,-333.333333333333,4,2,1,70,0,1
28450,-35.7142857142857,4,2,1,70,0,1
28838,-66.6666666666667,4,2,1,70,0,1
29225,-40,4,2,1,70,0,1
29418,-66.6666666666667,4,2,1,70,0,1
29805,-40,4,2,1,70,0,1
29999,-66.6666666666667,4,2,1,70,0,1
31547,-40,4,2,1,70,0,1
31934,-76.9230769230769,4,2,1,70,0,1
32321,-66.6666666666667,4,2,1,70,0,1
33289,-133.333333333333,4,2,1,70,0,1
33483,-50,4,2,1,70,0,1
33870,-45.4545454545455,4,2,1,70,0,1
34063,-66.6666666666667,4,2,1,70,0,1
34257,-45.4545454545455,4,2,1,70,0,1
34450,-285.714285714286,4,2,1,70,0,1
34644,-40,4,2,1,70,0,1
35031,-66.6666666666667,4,2,1,70,0,1
35418,-71.4285714285714,4,2,1,70,0,1
35999,-200,4,2,1,70,0,1
36192,-33.3333333333333,4,2,1,70,0,1
36773,-66.6666666666667,4,2,1,70,0,1
37354,-55.5555555555556,4,2,1,70,0,1
37741,-47.6190476190476,4,2,1,70,0,1
38128,-66.6666666666667,4,2,1,70,0,1
39676,-66.6666666666667,4,2,1,70,0,1
39870,-62.5,4,2,1,70,0,1
40063,-57.1428571428571,4,2,1,70,0,1
40450,-51.2820512820513,4,2,1,70,0,1
40838,-43.4782608695652,4,2,1,70,0,1
41225,-66.6666666666667,4,2,1,70,0,1
42386,-51.2820512820513,4,2,1,70,0,1
42579,-58.8235294117647,4,2,1,70,0,1
42773,-60.6060606060606,4,2,1,70,0,1
42967,-66.6666666666667,4,2,1,70,0,1
43547,-200,4,2,1,70,0,1
43934,-43.4782608695652,4,2,1,70,0,1
44321,-50,4,2,1,70,0,1
45483,-37.037037037037,4,2,1,70,0,1
45870,-66.6666666666667,4,2,1,70,0,1
46257,-50,4,2,1,70,0,1
46450,-66.6666666666667,4,2,1,70,0,1
46644,-43.4782608695652,4,2,1,70,0,1
47418,-52.6315789473684,4,2,1,70,0,1
48579,-66.6666666666667,4,2,1,70,0,1
49354,-62.5,4,2,1,70,0,1
49741,-50,4,2,1,70,0,1
50128,-100,4,2,1,45,0,0
50902,-133.333333333333,4,2,1,45,0,0
51676,-100,4,2,1,45,0,0
52257,-133.333333333333,4,2,1,45,0,0
52450,-66.6666666666667,4,2,1,45,0,0
53225,-37.037037037037,4,2,1,70,0,1
53612,-66.6666666666667,4,2,1,70,0,1
54773,-40,4,2,1,70,0,1
55547,-50,4,2,1,70,0,1
56321,-100,4,2,1,45,0,0
57096,-133.333333333333,4,2,1,45,0,0
57870,-100,4,2,1,45,0,0
58450,-133.333333333333,4,2,1,45,0,0
58644,-66.6666666666667,4,2,1,45,0,0
59031,-55.5555555555556,4,2,1,45,0,0
59418,-43.4782608695652,4,2,1,70,0,1
59805,-50,4,2,1,70,0,1
60192,-66.6666666666667,4,2,1,70,0,1
60386,-55.5555555555556,4,2,1,70,0,1
60967,-50,4,2,1,70,0,1
61741,-55.5555555555556,4,2,1,70,0,1
61934,-52.6315789473684,4,2,1,70,0,1
62128,-50,4,2,1,70,0,1
62515,-100,4,2,1,45,0,0
63289,-133.333333333333,4,2,1,45,0,0
64063,-100,4,2,1,45,0,0
64692,-133.333333333333,4,2,1,45,0,0
64838,-55.5555555555556,4,2,1,45,0,0
65225,-50,4,2,1,45,0,0
65612,-100,4,2,1,45,0,0
66386,-133.333333333333,4,2,1,45,0,0
67160,-100,4,2,1,45,0,0
67934,-50,4,2,1,45,0,0
68321,-66.6666666666667,4,2,1,45,0,0
68709,-111.111111111111,4,2,1,45,0,0
69483,-133.333333333333,4,2,1,45,0,0
69870,-200,4,2,1,45,0,0
69967,-200,4,2,1,5,0,0
70063,-200,4,2,1,45,0,0
70160,-200,4,2,1,5,0,0
70257,-100,4,2,1,45,0,0
70838,-133.333333333333,4,2,1,45,0,0
71031,-55.5555555555556,4,2,1,45,0,0
71418,-50,4,2,1,45,0,0
71805,-100,4,2,1,45,0,0
72579,-133.333333333333,4,2,1,45,0,0
73354,333.333333333333,4,2,1,70,1,0
73937,-100,4,2,1,40,0,0
74687,-100,4,2,1,70,0,0
77354,-83.3333333333333,4,2,1,70,0,0
82520,-200,4,2,1,70,0,0
82687,-83.3333333333333,4,2,1,70,0,0
84603,-100,4,2,1,50,0,0
85353,-40,4,2,1,70,0,1
85687,-66.6666666666667,4,2,1,70,0,1
86020,-33.3333333333333,4,2,1,70,0,1
86187,-66.6666666666667,4,2,1,70,0,1
86520,-333.333333333333,4,2,1,70,0,1
86687,-43.4782608695652,4,2,1,70,0,1
87020,-100,4,2,1,70,0,1
87353,-62.5,4,2,1,70,0,1
87853,-250,4,2,1,70,0,1
88020,-40,4,2,1,70,0,1
88353,-66.6666666666667,4,2,1,70,0,1
88687,-40,4,2,1,70,0,1
88853,-66.6666666666667,4,2,1,70,0,1
89187,-66.6666666666667,4,2,1,70,0,1
89353,-50,4,2,1,70,0,1
90353,-47.6190476190476,4,2,1,70,0,1
90687,-40,4,2,1,70,0,1
91020,-66.6666666666667,4,2,1,70,0,1
92353,-66.6666666666667,4,2,1,70,0,1
92520,-100,4,2,1,70,0,1
92687,-45.4545454545455,4,2,1,70,0,1
93187,-250,4,2,1,70,0,1
93353,-35.7142857142857,4,2,1,70,0,1
93687,-66.6666666666667,4,2,1,70,0,1
93853,-100,4,2,1,70,0,1
94020,-66.6666666666667,4,2,1,70,0,1
94520,-200,4,2,1,70,0,1
94687,-33.3333333333333,4,2,1,70,0,1
94937,-66.6666666666667,4,2,1,70,0,1
95187,-58.8235294117647,4,2,1,70,0,1
96020,-100,4,2,1,70,0,0
96353,-62.5,4,2,1,70,0,0
96687,-100,4,2,1,70,0,1
97353,-66.6666666666667,4,2,1,70,0,1
97687,-66.6666666666667,4,2,1,70,0,1
97853,-55.5555555555556,4,2,1,70,0,1
98020,-47.6190476190476,4,2,1,70,0,1
98187,-41.6666666666667,4,2,1,70,0,1
98353,-37.037037037037,4,2,1,70,0,1
98520,-33.3333333333333,4,2,1,70,0,1
98687,-34.4827586206897,4,2,1,70,0,1
99020,-50,4,2,1,70,0,1
100020,-33.3333333333333,4,2,1,70,0,1
100187,-37.037037037037,4,2,1,70,0,1
100353,-41.6666666666667,4,2,1,70,0,1
100520,-47.6190476190476,4,2,1,70,0,1
100687,-55.5555555555556,4,2,1,70,0,1
100853,-66.6666666666667,4,2,1,70,0,1
101020,-200,4,2,1,70,0,1
101353,-37.037037037037,4,2,1,70,0,1
101687,-50,4,2,1,70,0,1
102687,-40,4,2,1,70,0,1
103020,-66.6666666666667,4,2,1,70,0,1
103353,-40,4,2,1,70,0,1
103520,-50,4,2,1,70,0,1
103687,-37.037037037037,4,2,1,70,0,1
104353,-40,4,2,1,70,0,1
104687,-55.5555555555556,4,2,1,70,0,1
105020,-50,4,2,1,70,0,1
105353,-50,4,2,1,70,0,1
105687,-100,4,2,1,70,0,1
105853,-83.3333333333333,4,2,1,70,0,1
106020,-71.4285714285714,4,2,1,70,0,1
106187,-62.5,4,2,1,70,0,1
106353,-38.4615384615385,4,2,1,70,0,1
106687,-66.6666666666667,4,2,1,70,0,0
107020,-71.4285714285714,4,2,1,50,0,0
108020,-66.6666666666667,4,2,1,70,0,0
108353,-55.5555555555556,4,2,1,50,0,0
109353,-66.6666666666667,4,2,1,70,0,0
109687,-55.5555555555556,4,2,1,50,0,0
110687,-28.5714285714286,4,2,1,70,0,0
110853,-66.6666666666667,4,2,1,70,0,0
111020,-28.5714285714286,4,2,1,70,0,0
111187,-66.6666666666667,4,2,1,70,0,0
111353,-28.5714285714286,4,2,1,70,0,0
111520,-66.6666666666667,4,2,1,70,0,0
111687,-100,4,2,1,70,0,0
112020,-40,4,2,1,70,0,0
112353,-66.6666666666667,4,2,1,70,0,0
112687,-40,4,2,1,70,0,0
113020,-66.6666666666667,4,2,1,70,0,0
113353,-66.6666666666667,4,2,1,70,0,0
113687,-66.6666666666667,4,2,1,70,0,0
114020,-50,4,2,1,70,0,0
114687,-66.6666666666667,4,2,1,70,0,0
116020,-66.6666666666667,4,2,1,45,0,0
116853,-76.9230769230769,4,2,1,45,0,0
117020,-66.6666666666667,4,2,1,45,0,0

[Colours]
Combo1 : 55,87,119
Combo2 : 172,253,237
Combo3 : 206,206,206
Combo4 : 226,177,245

[HitObjects]
44,144,580,6,0,L|56:212,1,65.6250025033952,2|0,0:0|0:0,0:0:0:0:
168,264,967,1,0,0:0:0:0:
188,256,1160,1,0,0:0:0:0:
232,168,1354,1,8,0:0:0:0:
252,160,1547,1,0,0:0:0:0:
188,256,1741,2,0,L|176:324,1,65.6250025033952,0|0,0:0|0:0,0:0:0:0:
328,200,2128,6,0,P|336:152|324:116,1,65.6250025033952,2|0,0:0|0:0,0:0:0:0:
252,56,2515,1,0,0:0:0:0:
400,60,2709,2,0,L|408:96,2,21.8750008344651,0|0|0,0:0|0:0|0:0,0:0:0:0:
400,60,2902,2,0,L|408:140,1,65.6250025033952,8|0,0:0|0:0,0:0:0:0:
424,232,3289,1,0,0:0:0:0:
436,252,3483,1,0,0:0:0:0:
340,304,3676,6,0,L|256:296,1,74.3750014185906,2|0,0:0|0:0,0:0:0:0:
172,280,4063,1,0,0:0:0:0:
148,276,4257,1,0,0:0:0:0:
124,272,4450,2,0,L|116:352,1,65.6250025033952,8|0,0:0|0:0,0:0:0:0:
32,172,4838,2,0,L|40:252,1,65.6250025033952,0|0,0:0|0:0,0:0:0:0:
128,80,5225,6,0,P|176:80|212:92,1,65.6250025033952,8|0,0:0|0:0,0:0:0:0:
276,148,5515,1,8,0:0:0:0:
304,152,5805,1,8,0:0:0:0:
332,160,5999,2,0,L|344:236,1,65.6250025033952,8|0,0:0|0:0,0:0:0:0:
460,168,6386,1,0,0:0:0:0:
453,136,6482,1,0,0:0:0:0:
434,109,6579,1,0,0:0:0:0:
407,91,6676,1,0,0:0:0:0:
380,80,6773,6,0,P|332:68|292:80,1,74.3750014185906,2|0,0:0|0:0,0:0:0:0:
204,108,7160,1,0,0:0:0:0:
176,100,7354,1,0,0:0:0:0:
144,96,7547,2,0,P|140:132|148:172,1,65.6250025033952,8|0,0:0|0:0,0:0:0:0:
232,220,7934,2,0,P|236:256|228:296,1,65.6250025033952,0|0,0:0|0:0,0:0:0:0:
332,348,8321,6,0,P|365:334|396:307,1,65.6250025033952,2|0,0:0|0:0,0:0:0:0:
464,200,8709,1,0,0:0:0:0:
328,116,8902,2,0,L|360:104,2,21.8750008344651,0|0|0,0:0|0:0|0:0,0:0:0:0:
328,116,9096,2,0,L|392:100,1,65.6250025033952,8|0,0:0|0:0,0:0:0:0:
272,208,9483,2,0,L|208:192,1,65.6250025033952,0|0,0:0|0:0,0:0:0:0:
56,172,9870,6,0,L|64:248,1,74.3750014185906,2|0,0:0|0:0,0:0:0:0:
156,300,10257,1,0,0:0:0:0:
168,320,10451,1,0,0:0:0:0:
256,336,10644,1,8,0:0:0:0:
268,356,10838,1,0,0:0:0:0:
168,320,11031,2,0,L|176:248,1,65.6250025033952,0|0,0:0|0:0,0:0:0:0:
344,192,11418,5,8,0:0:0:0:
284,72,11612,1,0,0:0:0:0:
284,72,11709,1,8,0:0:0:0:
284,72,11805,6,0,B|260:40|260:40|308:24|388:48,1,131.25,0|0,0:0|0:0,0:0:0:0:
436,88,12192,2,0,P|444:132|440:184,1,87.5,8|4,0:0|0:0,0:0:0:0:
408,268,12483,1,4,0:0:0:0:
408,268,12579,2,0,P|356:244|368:320,1,144.375004405975,2|0,0:0|0:0,0:0:0:0:
232,304,12967,6,0,L|236:336,3,32.8125012516976,2|0|0|0,0:0|0:0|0:0|0:0,0:0:0:0:
236,168,13354,2,0,L|240:136,3,32.8125012516976,0|0|0|0,0:0|0:0|0:0|0:0,0:0:0:0:
144,232,13741,6,0,L|148:264,3,32.8125012516976,0|0|0|0,0:0|0:0|0:0|0:0,0:0:0:0:
148,96,14128,2,0,L|152:64,3,32.8125012516976,0|0|0|0,0:0|0:0|0:0|0:0,0:0:0:0:
68,200,14515,6,0,L|36:204,3,32.8125012516976,2|0|0|0,0:0|0:0|0:0|0:0,0:0:0:0:
204,204,14902,2,0,L|236:208,3,32.8125012516976,0|0|0|0,0:0|0:0|0:0|0:0,0:0:0:0:
144,304,15289,6,0,L|112:308,3,32.8125012516976,0|0|0|0,0:0|0:0|0:0|0:0,0:0:0:0:
280,308,15676,2,0,L|312:312,3,32.8125012516976,0|0|0|0,0:0|0:0|0:0|0:0,0:0:0:0:
424,276,16063,6,0,L|420:244,3,32.8125012516976,2|0|0|0,0:0|0:0|0:0|0:0,0:0:0:0:
312,212,16450,2,0,L|316:180,3,32.8125012516976,0|0|0|0,0:0|0:0|0:0|0:0,0:0:0:0:
440,136,16838,6,0,L|436:104,3,32.8125012516976,0|0|0|0,0:0|0:0|0:0|0:0,0:0:0:0:
328,72,17225,2,0,L|332:40,3,32.8125012516976,0|0|0|0,0:0|0:0|0:0|0:0,0:0:0:0:
180,100,17612,6,0,L|184:132,3,32.8125012516976,2|0|0|0,0:0|0:0|0:0|0:0,0:0:0:0:
96,172,17999,2,0,L|92:204,3,32.8125012516976,0|0|0|0,0:0|0:0|0:0|0:0,0:0:0:0:
184,240,18386,6,0,L|188:272,3,32.8125012516976,0|0|0|0,0:0|0:0|0:0|0:0,0:0:0:0:
100,312,18773,2,0,L|96:344,3,32.8125012516976,0|0|0|0,0:0|0:0|0:0|0:0,0:0:0:0:
284,340,19160,6,0,P|320:344|344:340,1,43.75,2|0,0:0|0:0,0:0:0:0:
428,268,19354,2,0,P|392:264|368:268,1,43.75,0|0,0:0|0:0,0:0:0:0:
256,260,19547,6,0,P|292:264|316:260,1,43.75,0|0,0:0|0:0,0:0:0:0:
400,188,19741,2,0,P|364:184|340:188,1,43.75,0|0,0:0|0:0,0:0:0:0:
224,180,19934,6,0,P|260:184|284:180,1,43.75,0|0,0:0|0:0,0:0:0:0:
368,108,20128,2,0,P|332:104|308:108,1,43.75,0|0,0:0|0:0,0:0:0:0:
188,96,20321,6,0,P|224:100|248:96,1,43.75,0|0,0:0|0:0,0:0:0:0:
328,32,20515,2,0,P|292:28|272:28,2,29.1666666666667,4|0|0,0:0|0:0|0:0,0:0:0:0:
104,24,20709,6,0,L|108:72,1,43.75,2|0,0:0|0:0,0:0:0:0:
36,108,20902,2,0,L|32:156,1,43.75,0|0,0:0|0:0,0:0:0:0:
112,144,21096,6,0,L|116:192,1,43.75,0|0,0:0|0:0,0:0:0:0:
44,228,21289,2,0,L|40:276,1,43.75,0|0,0:0|0:0,0:0:0:0:
156,268,21483,6,0,L|199:271,1,43.75,0|0,0:0|0:0,0:0:0:0:
240,343,21676,2,0,L|283:339,1,43.75,0|0,0:0|0:0,0:0:0:0:
288,252,21870,6,0,L|331:255,1,43.75,0|0,0:0|0:0,0:0:0:0:
404,344,22063,2,0,L|444:336,3,21.875,0|0|0|0,0:0|0:0|0:0|0:0,0:0:0:0:
376,192,22257,5,2,0:0:0:0:
338,172,22353,1,0,0:0:0:0:
297,168,22450,1,0,0:0:0:0:
257,179,22547,1,0,0:0:0:0:
144,212,22644,5,0,0:0:0:0:
123,169,22740,1,0,0:0:0:0:
121,123,22837,1,0,0:0:0:0:
139,79,22934,1,0,0:0:0:0:
232,40,23031,5,2,0:0:0:0:
288,36,23127,1,0,0:0:0:0:
344,56,23224,1,0,0:0:0:0:
380,100,23321,1,0,0:0:0:0:
404,203,23418,5,0,0:0:0:0:
381,268,23515,5,0,0:0:0:0:
328,320,23612,5,0,0:0:0:0:
252,341,23709,5,0,0:0:0:0:
176,308,23805,5,8,0:0:0:0:
176,308,24192,6,0,B|148:352|148:352|148:288|132:224,1,157.499995193482,0|0,0:0|0:0,0:0:0:0:
56,216,24579,2,0,L|64:276,1,52.4999983978272,2|2,0:0|0:0,0:0:0:0:
216,188,24773,2,0,L|212:248,1,52.4999983978272,0|0,0:0|0:0,0:0:0:0:
148,140,24967,5,2,0:0:0:0:
144,128,25063,1,2,0:0:0:0:
244,108,25160,1,2,0:0:0:0:
240,120,25257,1,0,0:0:0:0:
240,196,25354,6,0,B|288:96|288:96|312:340,1,328.125,8|0,0:0|0:0,0:0:0:0:
404,340,25741,2,0,L|396:256,1,65.6250025033952,2|0,0:0|0:0,0:0:0:0:
216,284,25934,2,0,L|224:368,1,65.6250025033952,2|0,0:0|0:0,0:0:0:0:
480,212,26128,6,0,L|488:312,1,87.5,8|0,0:0|0:0,0:0:0:0:
424,108,26321,6,0,P|392:100|328:120,1,65.6250025033952,0|0,0:0|0:0,0:0:0:0:
304,191,26515,2,0,P|272:199|208:179,1,65.6250025033952,0|0,0:0|0:0,0:0:0:0:
52,100,26709,6,0,L|48:112,1,13.125,4|0,0:0|0:0,0:0:0:0:
52,100,26902,6,0,B|-8:204|72:316|72:316|136:260|224:284,1,367.49998878479,8|0,0:0|0:0,0:0:0:0:
308,305,27289,1,4,0:0:0:0:
336,313,27386,1,4,0:0:0:0:
368,321,27483,2,0,L|416:333,2,29.1666666666667,0|0|0,0:0|0:0|0:0,0:0:0:0:
232,344,27676,6,0,P|176:356|132:348,1,65.6250025033952,8|0,0:0|0:0,0:0:0:0:
268,228,27870,2,0,P|325:224|367:239,1,65.6250025033952,8|0,0:0|0:0,0:0:0:0:
140,156,28063,2,0,L|152:232,1,65.6250025033952,8|0,0:0|0:0,0:0:0:0:
316,129,28257,6,0,L|320:105,1,19.6874993991852,2|0,0:0|0:0,0:0:0:0:
316,129,28450,6,0,B|188:69|52:117|52:117|152:161,1,367.49998878479,8|0,0:0|0:0,0:0:0:0:
400,172,28838,2,0,P|408:132|400:100,1,65.6250025033952,2|0,0:0|0:0,0:0:0:0:
272,232,29031,2,0,P|267:264|275:295,1,65.6250025033952,2|0,0:0|0:0,0:0:0:0:
404,284,29225,5,8,0:0:0:0:
275,295,29418,2,0,P|235:303|203:295,1,65.6250025033952,2|0,0:0|0:0,0:0:0:0:
108,236,29612,2,0,P|68:228|36:236,1,65.6250025033952,2|0,0:0|0:0,0:0:0:0:
196,148,29805,1,4,0:0:0:0:
108,236,29999,6,0,L|101:170,1,65.6250025033952,8|0,0:0|0:0,0:0:0:0:
96,88,30192,2,0,L|89:22,1,65.6250025033952,8|0,0:0|0:0,0:0:0:0:
189,82,30386,6,0,L|196:148,1,65.6250025033952,8|0,0:0|0:0,0:0:0:0:
201,230,30579,2,0,L|208:296,1,65.6250025033952,8|0,0:0|0:0,0:0:0:0:
308,340,30774,6,0,L|301:274,1,65.6250025033952,8|0,0:0|0:0,0:0:0:0:
296,192,30967,2,0,L|289:126,1,65.6250025033952,8|0,0:0|0:0,0:0:0:0:
381,78,31160,6,0,P|421:70|465:90,1,65.6250025033952,2|0,0:0|0:0,0:0:0:0:
189,82,31354,2,0,P|149:74|105:94,1,65.6250025033952,2|0,0:0|0:0,0:0:0:0:
296,192,31547,6,0,B|384:248|456:256|456:256|392:264|300:312,1,328.125,8|0,0:0|0:0,0:0:0:0:
144,320,31934,1,4,0:0:0:0:
140,312,32031,1,4,0:0:0:0:
76,352,32128,2,0,P|64:308|72:268,1,56.8749973964692,4|0,0:0|0:0,0:0:0:0:
152,212,32321,6,0,L|236:216,1,65.6250025033952,8|0,0:0|0:0,0:0:0:0:
384,120,32515,2,0,L|300:124,1,65.6250025033952,2|0,0:0|0:0,0:0:0:0:
184,112,32709,6,0,L|180:28,1,65.6250025033952,8|0,0:0|0:0,0:0:0:0:
344,236,32902,2,0,L|340:320,1,65.6250025033952,2|0,0:0|0:0,0:0:0:0:
444,304,33096,5,4,0:0:0:0:
448,312,33192,1,4,0:0:0:0:
456,232,33289,2,0,L|452:176,1,32.8125012516976,4|0,0:0|0:0,0:0:0:0:
376,56,33483,6,0,L|368:148,1,87.5,8|0,0:0|0:0,0:0:0:0:
256,200,33676,1,0,0:0:0:0:
256,200,33741,2,0,L|252:284,1,58.3333333333333,0|0,0:0|0:0,0:0:0:0:
100,348,33870,6,0,L|108:240,1,96.250002937317,8|0,0:0|0:0,0:0:0:0:
100,36,34063,2,0,L|108:132,1,65.6250025033952,8|0,0:0|0:0,0:0:0:0:
116,336,34257,6,0,L|124:228,1,96.250002937317,8|0,0:0|0:0,0:0:0:0:
116,24,34450,2,0,L|120:52,1,22.9687492990494,2|0,0:0|0:0,0:0:0:0:
116,24,34644,6,0,B|128:148|212:180|212:180|288:120|296:-8,1,328.125,8|0,0:0|0:0,0:0:0:0:
408,88,35031,1,4,0:0:0:0:
412,80,35128,1,4,0:0:0:0:
416,160,35225,2,0,L|424:228,1,65.6250025033952,4|0,0:0|0:0,0:0:0:0:
344,336,35418,6,0,L|416:340,1,61.2499981307984,8|0,0:0|0:0,0:0:0:0:
116,288,35612,2,0,L|44:292,1,61.2499981307984,8|0,0:0|0:0,0:0:0:0:
228,336,35805,6,0,L|231:274,1,61.2499981307984,8|0,0:0|0:0,0:0:0:0:
344,188,35999,2,0,L|344:148,1,32.8125,2|0,0:0|0:0,0:0:0:0:
344,156,36192,6,0,B|392:104|392:104|384:304,1,262.500010013581,8|0,0:0|0:0,0:0:0:0:
231,274,36483,2,0,B|183:326|183:326|191:126,1,262.500010013581,8|0,0:0|0:0,0:0:0:0:
100,44,36773,6,0,L|96:124,1,65.6250025033952,8|0,0:0|0:0,0:0:0:0:
36,176,36967,2,0,L|40:256,1,65.6250025033952,0|0,0:0|0:0,0:0:0:0:
76,316,37160,1,2,0:0:0:0:
84,304,37257,1,2,0:0:0:0:
132,364,37354,2,0,B|204:348|204:348|284:372|284:372|392:356,1,236.249992790222,2|0,0:0|0:0,0:0:0:0:
416,256,37741,6,0,B|456:300|456:300|456:132|456:132|388:196,1,275.624991588593,8|0,0:0|0:0,0:0:0:0:
312,104,38128,2,0,L|320:188,1,65.6250025033952,2|0,0:0|0:0,0:0:0:0:
220,252,38321,2,0,L|228:168,1,65.6250025033952,2|0,0:0|0:0,0:0:0:0:
120,100,38515,5,4,0:0:0:0:
118,152,38611,1,4,0:0:0:0:
117,204,38708,1,4,0:0:0:0:
116,257,38805,1,4,0:0:0:0:
36,320,38902,5,4,0:0:0:0:
36,257,38998,1,4,0:0:0:0:
36,195,39095,1,4,0:0:0:0:
36,132,39192,1,4,0:0:0:0:
36,72,39289,6,0,L|40:148,1,65.6250025033952,2|0,0:0|0:0,0:0:0:0:
232,172,39483,2,0,L|236:96,1,65.6250025033952,2|0,0:0|0:0,0:0:0:0:
384,316,39676,6,0,L|292:312,1,65.6250025033952,8|0,0:0|0:0,0:0:0:0:
104,280,39870,1,2,0:0:0:0:
104,280,39934,2,0,L|172:276,1,46.6666666666667,0|2,0:0|0:0,0:0:0:0:
397,332,40063,6,0,L|295:328,1,76.5625007301569,8|0,0:0|0:0,0:0:0:0:
88,292,40257,2,0,L|190:288,1,76.5625007301569,2|0,0:0|0:0,0:0:0:0:
411,346,40450,6,0,L|298:341,1,85.3125003254414,8|0,0:0|0:0,0:0:0:0:
71,302,40644,2,0,L|183:297,1,85.3125003254414,2|0,0:0|0:0,0:0:0:0:
424,356,40838,6,0,B|452:264|408:156|408:156|368:272,1,301.875005757809,8|0,0:0|0:0,0:0:0:0:
300,152,41225,2,0,P|284:200|284:252,1,65.6250025033952,2|0,0:0|0:0,0:0:0:0:
192,272,41418,2,0,P|176:224|176:172,1,65.6250025033952,2|0,0:0|0:0,0:0:0:0:
131,112,41612,5,4,0:0:0:0:
184,113,41709,1,4,0:0:0:0:
236,114,41806,1,4,0:0:0:0:
288,116,41902,1,4,0:0:0:0:
256,32,41999,5,4,0:0:0:0:
193,32,42096,1,4,0:0:0:0:
131,32,42193,1,4,0:0:0:0:
68,32,42289,1,4,0:0:0:0:
32,136,42386,6,0,L|40:228,1,85.3125003254414,8|0,0:0|0:0,0:0:0:0:
168,360,42579,2,0,L|176:276,1,74.3750014185906,2|0,0:0|0:0,0:0:0:0:
45,139,42773,6,0,L|53:225,1,72.1875006884337,2|0,0:0|0:0,0:0:0:0:
176,349,42967,2,0,L|184:272,1,65.6250025033952,8|0,0:0|0:0,0:0:0:0:
56,141,43160,6,0,L|63:223,1,65.6250025033952,2|0,0:0|0:0,0:0:0:0:
184,340,43354,2,0,L|191:267,1,65.6250025033952,2|0,0:0|0:0,0:0:0:0:
276,148,43547,6,0,L|280:232,1,76.5625,8|0,0:0|0:0,0:0:0:0:
333,301,43934,6,0,B|393:193|320:87|320:87|276:147,1,301.875005757809,8|0,0:0|0:0,0:0:0:0:
408,60,44321,2,0,P|432:112|440:160,1,87.5,2|0,0:0|0:0,0:0:0:0:
408,344,44515,2,0,P|432:292|440:244,1,87.5,2|0,0:0|0:0,0:0:0:0:
415,53,44709,2,0,P|440:108|449:158,1,87.5,2|0,0:0|0:0,0:0:0:0:
415,351,44903,2,0,P|440:297|449:246,1,87.5,2|0,0:0|0:0,0:0:0:0:
423,46,45096,2,0,P|449:103|458:156,1,87.5,2|0,0:0|0:0,0:0:0:0:
423,359,45289,2,0,P|449:302|458:249,1,87.5,2|0,0:0|0:0,0:0:0:0:
260,48,45483,6,0,B|380:12|424:44|424:44|448:148|344:240,1,354.375001351833,8|0,0:0|0:0,0:0:0:0:
359,346,45870,2,0,P|399:358|447:354,1,65.6250025033952,8|0,0:0|0:0,0:0:0:0:
284,280,46063,2,0,P|256:276|232:284,2,43.7500016689301,0|0|0,0:0|0:0|0:0,0:0:0:0:
188,344,46257,6,0,L|76:340,1,87.5,8|0,0:0|0:0,0:0:0:0:
172,336,46450,2,0,L|60:332,1,65.6250025033952,2|0,0:0|0:0,0:0:0:0:
72,200,46644,6,0,P|156:124|128:240,1,301.875005757809,8|0,0:0|0:0,0:0:0:0:
260,260,47031,2,0,P|272:124|136:32,1,301.875005757809,8|0,0:0|0:0,0:0:0:0:
296,12,47418,6,0,P|332:48|352:84,1,83.1249977803231,2|0,0:0|0:0,0:0:0:0:
376,160,47612,2,0,P|371:210|356:249,1,83.1249977803231,2|0,0:0|0:0,0:0:0:0:
320,312,47805,6,0,P|278:341|239:354,1,83.1249977803231,2|0,0:0|0:0,0:0:0:0:
128,336,47999,1,4,0:0:0:0:
124,324,48096,1,4,0:0:0:0:
52,300,48192,2,0,L|56:212,1,83.1249977803231,6|0,0:0|0:0,0:0:0:0:
136,84,48386,2,0,L|140:172,1,83.1249977803231,2|0,0:0|0:0,0:0:0:0:
264,60,48579,6,0,P|296:56|328:60,1,65.6250025033952,8|0,0:0|0:0,0:0:0:0:
432,104,48773,1,2,0:0:0:0:
436,96,48870,1,2,0:0:0:0:
432,176,48967,2,0,L|444:244,1,65.6250025033952,2|0,0:0|0:0,0:0:0:0:
328,252,49160,2,0,L|340:184,1,65.6250025033952,8|0,0:0|0:0,0:0:0:0:
276,340,49354,6,0,P|244:336|204:340,1,70,2|0,0:0|0:0,0:0:0:0:
148,248,49547,2,0,P|116:252|76:248,1,70,2|0,0:0|0:0,0:0:0:0:
192,112,49741,6,0,B|132:68|132:68|328:92,1,262.5,8|0,0:0|0:0,0:0:0:0:
436,54,50128,6,0,P|468:134|320:86,1,350,2|8,0:0|0:0,0:0:0:0:
240,44,51289,2,0,P|228:92|232:136,1,65.6250025033952,4|0,0:0|0:0,0:0:0:0:
168,224,51676,6,0,B|144:272|144:272|148:180|108:88,1,218.75,2|0,0:0|0:0,0:0:0:0:
36,112,52257,2,0,L|32:84,3,16.4062506258488,4|0|0|0,0:0|0:0|0:0|0:0,0:0:0:0:
68,312,52450,5,6,0:0:0:0:
116,332,52546,1,2,0:0:0:0:
168,337,52644,5,2,0:0:0:0:
219,326,52740,1,2,0:0:0:0:
264,308,52838,6,0,P|308:296|396:320,1,131.25000500679,10|0,0:0|0:0,0:0:0:0:
468,256,53225,6,0,B|376:188|244:216|244:216|288:172|368:168,1,354.375001351833,8|0,0:0|0:0,0:0:0:0:
372,84,53612,2,0,P|332:84|292:96,1,65.6250025033952,0|0,0:0|0:0,0:0:0:0:
228,128,53805,2,0,P|190:152|161:182,1,65.6250025033952,2|0,0:0|0:0,0:0:0:0:
72,248,53999,5,12,0:0:0:0:
84,224,54096,1,4,0:0:0:0:
96,192,54192,2,0,L|80:268,1,65.6250025033952,6|0,0:0|0:0,0:0:0:0:
184,352,54386,2,0,L|168:276,1,65.6250025033952,2|0,0:0|0:0,0:0:0:0:
288,312,54579,1,2,0:0:0:0:
320,288,54676,1,0,0:0:0:0:
416,196,54773,6,0,B|448:180|448:180|405:240,1,109.375,8|0,0:0|0:0,0:0:0:0:
228,176,54967,2,0,B|196:160|196:160|238:220,1,109.375,2|0,0:0|0:0,0:0:0:0:
424,196,55160,6,0,B|459:178|459:178|412:244,1,109.375,2|0,0:0|0:0,0:0:0:0:
218,175,55354,2,0,B|182:157|182:157|229:223,1,109.375,8|0,0:0|0:0,0:0:0:0:
364,96,55547,6,0,B|416:80|416:80|472:92,1,87.5,2|0,0:0|0:0,0:0:0:0:
244,92,55741,2,0,B|192:76|192:76|136:88,1,87.5,2|0,0:0|0:0,0:0:0:0:
44,80,55934,5,6,0:0:0:0:
55,160,56030,1,6,0:0:0:0:
67,241,56127,1,6,0:0:0:0:
79,321,56224,1,0,0:0:0:0:
180,352,56321,6,0,B|192:228|164:128|164:128|216:256,1,350,2|8,0:0|0:0,0:0:0:0:
304,280,57483,2,0,L|376:276,1,65.6250025033952,0|0,0:0|0:0,0:0:0:0:
448,184,57870,6,0,P|401:152|304:280,1,262.5,2|4,0:0|0:0,0:0:0:0:
448,84,58515,6,0,L|436:48,1,21.8750008344651,0|0,0:0|0:0,0:0:0:0:
448,84,58644,6,0,P|380:68|268:104,1,131.25000500679,10|2,0:0|0:0,0:0:0:0:
232,132,58934,1,4,0:0:0:0:
232,132,59031,2,0,P|132:104|160:200,1,236.249992790222,2|0,0:0|0:0,0:0:0:0:
112,304,59418,6,0,B|218:340|258:256|258:256|230:124,1,301.875005757809,8|0,0:0|0:0,0:0:0:0:
319,76,59805,6,0,L|339:172,1,87.5,2|0,0:0|0:0,0:0:0:0:
400,336,59999,2,0,L|420:240,1,87.5,2|0,0:0|0:0,0:0:0:0:
329,57,60192,6,0,L|352:168,1,65.6250025033952,8|0,0:0|0:0,0:0:0:0:
411,347,60386,2,0,L|432:243,1,78.7499975967408,2|0,0:0|0:0,0:0:0:0:
336,36,60579,6,0,L|360:155,1,78.7499975967408,2|0,0:0|0:0,0:0:0:0:
424,356,60773,2,0,L|448:236,1,78.7499975967408,2|0,0:0|0:0,0:0:0:0:
336,36,60967,6,0,L|236:32,1,87.5,8|0,0:0|0:0,0:0:0:0:
160,32,61160,2,0,L|60:28,1,87.5,2|0,0:0|0:0,0:0:0:0:
24,136,61354,6,0,L|111:139,1,87.5,2|0,0:0|0:0,0:0:0:0:
200,140,61547,2,0,L|287:143,1,87.5,2|6,0:0|0:0,0:0:0:0:
396,148,61692,5,6,0:0:0:0:
396,148,61741,2,0,P|404:200|400:240,1,78.7499975967408,10|0,0:0|0:0,0:0:0:0:
292,344,61934,2,0,P|284:292|288:252,1,83.1249977803231,8|0,0:0|0:0,0:0:0:0:
320,72,62128,5,6,0:0:0:0:
394,34,62224,1,6,0:0:0:0:
465,78,62321,1,6,0:0:0:0:
292,344,62515,6,0,P|180:336|308:264,1,350,2|8,0:0|0:0,0:0:0:0:
384,272,63676,2,0,L|396:348,1,65.6250025033952,4|0,0:0|0:0,0:0:0:0:
388,152,64063,6,0,P|256:120|128:156,1,262.5,2|6,0:0|0:0,0:0:0:0:
112,68,64692,6,0,B|128:60,1,16.4062506258488,0|0,0:0|0:0,0:0:0:0:
112,64,64838,6,0,P|159:47|200:44,1,78.7499975967408,8|0,0:0|0:0,0:0:0:0:
288,40,65031,2,0,P|338:45|376:59,1,78.7499975967408,2|0,0:0|0:0,0:0:0:0:
444,144,65225,6,0,L|456:244,1,87.5,2|0,0:0|0:0,0:0:0:0:
432,160,65418,2,0,L|443:254,1,87.5,2|0,0:0|0:0,0:0:0:0:
448,332,65612,6,0,B|388:344|336:328|336:328|288:344|288:344|240:316|152:332,1,262.5,8|0,0:0|0:0,0:0:0:0:
96,328,66386,2,0,L|88:252,1,65.6250025033952,8|2,0:0|0:0,0:0:0:0:
96,60,66773,2,0,L|88:136,1,65.6250025033952,4|4,0:0|0:0,0:0:0:0:
208,100,67160,6,0,P|264:92|336:124,2,131.25,2|0|6,0:0|0:0|0:0,0:0:0:0:
340,304,67934,6,0,B|392:220|328:116|328:116|280:180,1,262.5,10|0,0:0|0:0,0:0:0:0:
236,272,68321,1,4,0:0:0:0:
152,252,68418,1,4,0:0:0:0:
64,240,68515,2,0,L|52:164,1,65.6250025033952,6|0,0:0|0:0,0:0:0:0:
148,229,68709,6,0,B|126:153|178:73|178:73|260:93|290:166,1,314.999990386963,8|8,0:0|0:0,0:0:0:0:
384,192,69870,2,0,L|388:232,1,21.875,4|0,0:0|0:0,0:0:0:0:
464,264,70063,2,0,L|460:304,1,21.875,4|0,0:0|0:0,0:0:0:0:
372,344,70257,6,0,P|268:304|100:344,1,262.5,2|6,0:0|0:0,0:0:0:0:
48,280,70886,2,0,L|72:264,1,16.4062506258488,0|0,0:0|0:0,0:0:0:0:
48,280,71031,6,0,P|88:256|136:240,1,78.7499975967408,10|0,0:0|0:0,0:0:0:0:
416,280,71225,2,0,P|376:256|328:240,1,78.7499975967408,2|0,0:0|0:0,0:0:0:0:
66,272,71418,6,0,P|102:250|146:235,1,87.5,2|0,0:0|0:0,0:0:0:0:
401,272,71612,2,0,P|365:250|321:235,1,87.5,2|0,0:0|0:0,0:0:0:0:
228,107,71805,6,0,P|140:79|68:275,1,350,8|8,0:0|0:0,0:0:0:0:
152,192,72773,5,6,0:0:0:0:
160,196,72967,1,4,0:0:0:0:
168,200,73160,1,4,0:0:0:0:
368,96,73354,5,6,0:0:0:0:
288,200,73937,5,2,0:0:0:0:
308,216,74020,1,2,0:0:0:0:
332,232,74104,1,0,0:0:0:0:
376,348,74187,5,8,0:0:0:0:
427,309,74270,1,8,0:0:0:0:
449,248,74353,1,0,0:0:0:0:
434,185,74436,1,0,0:0:0:0:
387,140,74520,1,4,0:0:0:0:
356,112,74687,6,0,L|348:64,3,43.75,8|0|0|0,0:0|0:0|0:0|0:0,0:0:0:0:
252,164,75020,2,0,L|244:212,3,43.75,8|0|0|0,0:0|0:0|0:0|0:0,0:0:0:0:
184,68,75354,6,0,L|176:20,3,43.75,8|0|0|0,0:0|0:0|0:0|0:0,0:0:0:0:
80,120,75687,2,0,L|72:168,3,43.75,8|0|0|0,0:0|0:0|0:0|0:0,0:0:0:0:
140,248,76020,6,0,L|183:255,3,43.75,8|0|0|0,0:0|0:0|0:0|0:0,0:0:0:0:
268,336,76354,2,0,L|224:343,3,43.75,8|0|0|0,0:0|0:0|0:0|0:0,0:0:0:0:
292,240,76687,6,0,L|335:247,3,43.75,8|0|0|0,0:0|0:0|0:0|0:0,0:0:0:0:
420,328,77020,2,0,L|376:335,3,43.75,8|0|0|0,0:0|0:0|0:0|0:0,0:0:0:0:
456,216,77354,6,0,L|448:148,3,52.4999983978272,8|0|0|0,0:0|0:0|0:0|0:0,0:0:0:0:
344,76,77687,2,0,L|336:144,3,52.4999983978272,8|0|0|0,0:0|0:0|0:0|0:0,0:0:0:0:
200,336,78020,6,0,L|192:268,3,52.4999983978272,8|0|0|0,0:0|0:0|0:0|0:0,0:0:0:0:
88,196,78353,2,0,L|80:264,3,52.4999983978272,8|0|0|0,0:0|0:0|0:0|0:0,0:0:0:0:
200,196,78687,6,0,L|268:188,3,52.4999983978272,8|0|0|0,0:0|0:0|0:0|0:0,0:0:0:0:
340,84,79020,2,0,L|272:76,3,52.4999983978272,8|0|0|0,0:0|0:0|0:0|0:0,0:0:0:0:
356,200,79354,6,0,L|364:268,3,52.4999983978272,8|0|0|0,0:0|0:0|0:0|0:0,0:0:0:0:
468,340,79687,2,0,L|476:272,3,52.4999983978272,8|0|0|0,0:0|0:0|0:0|0:0,0:0:0:0:
356,344,80020,6,0,P|320:348|284:344,1,52.4999983978272,8|0,0:0|0:0,0:0:0:0:
144,312,80187,2,0,P|180:308|216:312,1,52.4999983978272,0|0,0:0|0:0,0:0:0:0:
320,264,80354,6,0,P|284:268|248:264,1,52.4999983978272,8|0,0:0|0:0,0:0:0:0:
108,232,80521,2,0,P|144:228|180:232,1,52.4999983978272,0|0,0:0|0:0,0:0:0:0:
288,184,80687,6,0,P|252:188|216:184,1,52.4999983978272,8|0,0:0|0:0,0:0:0:0:
76,152,80854,2,0,P|112:148|148:152,1,52.4999983978272,0|0,0:0|0:0,0:0:0:0:
260,104,81020,6,0,P|224:108|188:104,1,52.4999983978272,8|0,0:0|0:0,0:0:0:0:
96,64,81187,2,0,L|56:64,2,34.9999989318848,0|0|0,0:0|0:0|0:0,0:0:0:0:
332,48,81353,6,0,P|340:80|344:104,1,52.4999983978272,8|0,0:0|0:0,0:0:0:0:
444,280,81520,2,0,P|452:248|456:224,1,52.4999983978272,0|0,0:0|0:0,0:0:0:0:
336,38,81687,6,0,P|345:72|349:98,1,52.4999983978272,8|0,0:0|0:0,0:0:0:0:
456,285,81853,2,0,P|464:251|469:226,1,52.4999983978272,0|0,0:0|0:0,0:0:0:0:
342,28,82020,6,0,P|351:65|355:92,1,52.4999983978272,8|0,0:0|0:0,0:0:0:0:
469,291,82187,2,0,P|478:255|482:228,1,52.4999983978272,0|0,0:0|0:0,0:0:0:0:
347,18,82353,6,0,P|357:56|362:85,1,52.4999983978272,8|0,0:0|0:0,0:0:0:0:
484,300,82520,2,0,L|488:320,3,10.9375,0|0|0|0,0:0|0:0|0:0|0:0,0:0:0:0:
392,336,82687,5,2,0:0:0:0:
348,318,82770,1,0,0:0:0:0:
301,311,82853,1,2,0:0:0:0:
254,316,82936,1,0,0:0:0:0:
208,340,83020,5,2,0:0:0:0:
156,346,83103,1,0,0:0:0:0:
109,325,83186,1,2,0:0:0:0:
81,281,83269,1,0,0:0:0:0:
76,228,83353,5,2,0:0:0:0:
96,175,83436,1,0,0:0:0:0:
144,143,83519,1,2,0:0:0:0:
200,145,83602,1,0,0:0:0:0:
248,172,83687,5,2,0:0:0:0:
304,198,83770,1,0,0:0:0:0:
366,193,83853,1,2,0:0:0:0:
418,158,83936,1,0,0:0:0:0:
445,102,84020,5,8,0:0:0:0:
268,80,84603,5,2,0:0:0:0:
274,123,84686,1,2,0:0:0:0:
281,166,84769,1,0,0:0:0:0:
200,212,84853,5,8,0:0:0:0:
192,164,84936,1,8,0:0:0:0:
184,116,85019,1,0,0:0:0:0:
72,68,85103,2,0,L|88:120,1,43.75,0|8,0:0|0:0,0:0:0:0:
120,260,85353,6,0,B|164:296|208:300|256:280|256:280|304:256|352:260|396:288|396:288|356:316|356:364,1,328.125,8|0,0:0|0:0,0:0:0:0:
456,356,85687,2,0,P|472:324|480:288,1,65.6250025033952,2|0,0:0|0:0,0:0:0:0:
448,76,85853,2,0,P|464:108|472:144,1,65.6250025033952,2|0,0:0|0:0,0:0:0:0:
484,216,86020,1,8,0:0:0:0:
432,368,86187,6,0,P|449:332|458:292,1,65.6250025033952,2|0,0:0|0:0,0:0:0:0:
423,58,86353,2,0,P|440:93|449:133,1,65.6250025033952,2|0,0:0|0:0,0:0:0:0:
316,72,86520,6,0,L|312:48,1,19.6874993991852,8|0,0:0|0:0,0:0:0:0:
316,72,86687,6,0,B|184:32|80:72|80:72|152:112|184:120,1,301.875005757809,8|0,0:0|0:0,0:0:0:0:
212,160,87020,1,6,0:0:0:0:
280,200,87103,1,6,0:0:0:0:
348,240,87187,2,0,L|384:264,2,29.1666666666667,6|0|0,0:0|0:0|0:0,0:0:0:0:
200,244,87353,6,0,P|156:240|116:252,1,70,8|0,0:0|0:0,0:0:0:0:
244,344,87520,2,0,P|288:348|328:336,1,70,2|0,0:0|0:0,0:0:0:0:
416,241,87687,2,0,P|382:235|348:240,1,70,2|0,0:0|0:0,0:0:0:0:
80,296,87853,2,0,L|76:264,1,26.25,8|0,0:0|0:0,0:0:0:0:
80,296,88020,6,0,B|60:80|60:80|124:248,1,328.125,8|0,0:0|0:0,0:0:0:0:
200,228,88353,2,0,P|200:188|192:144,1,65.6250025033952,2|0,0:0|0:0,0:0:0:0:
224,212,88520,2,0,P|224:172|216:128,1,65.6250025033952,2|0,0:0|0:0,0:0:0:0:
264,40,88687,1,8,0:0:0:0:
388,168,88853,6,0,P|388:208|396:252,1,65.6250025033952,2|0,0:0|0:0,0:0:0:0:
364,184,89020,2,0,P|364:224|372:268,1,65.6250025033952,2|0,0:0|0:0,0:0:0:0:
464,328,89187,1,8,0:0:0:0:
464,328,89353,6,0,L|356:328,1,87.5,2|0,0:0|0:0,0:0:0:0:
300,328,89520,2,0,L|192:328,1,87.5,2|0,0:0|0:0,0:0:0:0:
112,184,89687,6,0,L|199:184,1,87.5,2|0,0:0|0:0,0:0:0:0:
276,184,89854,2,0,L|363:184,1,87.5,2|0,0:0|0:0,0:0:0:0:
456,44,90020,6,0,L|348:44,1,87.5,2|0,0:0|0:0,0:0:0:0:
292,44,90187,2,0,L|184:44,1,87.5,2|0,0:0|0:0,0:0:0:0:
48,104,90353,6,0,P|40:60|48:12,1,91.8749971961976,8|0,0:0|0:0,0:0:0:0:
48,248,90520,2,0,P|40:292|48:340,1,91.8749971961976,8|0,0:0|0:0,0:0:0:0:
168,88,90687,6,0,B|84:212|180:332|180:332|244:264,1,328.125,8|0,0:0|0:0,0:0:0:0:
292,224,91020,1,6,0:0:0:0:
352,156,91103,1,6,0:0:0:0:
412,84,91187,2,0,L|456:24,1,65.6250025033952,6|0,0:0|0:0,0:0:0:0:
233,81,91353,6,0,L|153:89,1,65.6250025033952,10|0,0:0|0:0,0:0:0:0:
352,156,91520,2,0,L|432:164,1,65.6250025033952,2|0,0:0|0:0,0:0:0:0:
227,52,91687,6,0,L|126:62,1,65.6250025033952,2|0,0:0|0:0,0:0:0:0:
376,146,91854,2,0,L|476:156,1,65.6250025033952,2|0,0:0|0:0,0:0:0:0:
460,260,92020,5,10,0:0:0:0:
476,280,92103,1,2,0:0:0:0:
416,336,92187,2,0,L|340:352,1,65.6250025033952,2|0,0:0|0:0,0:0:0:0:
252,352,92353,2,0,L|176:336,1,65.6250025033952,8|0,0:0|0:0,0:0:0:0:
84,304,92520,5,0,0:0:0:0:
84,304,92576,2,0,L|88:260,1,29.1666666666667,0|0,0:0|0:0,0:0:0:0:
88,136,92687,6,0,P|144:128|192:136,1,96.250002937317,8|0,0:0|0:0,0:0:0:0:
416,96,92853,2,0,P|360:88|312:96,1,96.250002937317,2|0,0:0|0:0,0:0:0:0:
64,128,93020,6,0,P|128:119|183:128,1,96.250002937317,2|0,0:0|0:0,0:0:0:0:
428,60,93187,2,0,L|400:60,1,26.25,8|0,0:0|0:0,0:0:0:0:
248,44,93353,6,0,B|224:188|340:264|340:264|384:220|416:120,1,367.49998878479,8|0,0:0|0:0,0:0:0:0:
480,184,93687,6,0,P|468:224|448:264,1,65.6250025033952,6|6,0:0|0:0,0:0:0:0:
404,320,93853,2,0,P|366:337|328:348,1,43.75,6|0,0:0|0:0,0:0:0:0:
176,332,94020,6,0,L|172:252,1,65.6250025033952,10|0,0:0|0:0,0:0:0:0:
76,252,94187,2,0,L|80:172,1,65.6250025033952,2|0,0:0|0:0,0:0:0:0:
200,320,94353,6,0,L|196:247,1,65.6250025033952,2|0,0:0|0:0,0:0:0:0:
104,120,94520,2,0,L|107:81,1,32.8125,8|0,0:0|0:0,0:0:0:0:
107,87,94687,6,0,B|204:128|284:104|284:104|192:72,1,262.500010013581,8|0,0:0|0:0,0:0:0:0:
368,40,94937,2,0,P|388:112|368:184,1,131.25000500679,2|0,0:0|0:0,0:0:0:0:
452,248,95187,6,0,P|464:212|468:176,1,74.3750014185906,2|0,0:0|0:0,0:0:0:0:
352,328,95353,2,0,P|340:292|336:256,1,74.3750014185906,8|0,0:0|0:0,0:0:0:0:
216,256,95520,5,2,0:0:0:0:
132,224,95603,1,2,0:0:0:0:
44,196,95687,2,0,B|72:128|64:36|64:36|96:100,1,223.125004255772,10|0,0:0|0:0,0:0:0:0:
172,24,96020,6,0,B|240:16|240:16|316:36,1,131.25,0|0,0:0|0:0,0:0:0:0:
384,76,96353,2,0,L|392:156,1,70,10|0,0:0|0:0,0:0:0:0:
432,128,96520,2,0,L|440:184,2,46.6666666666667,2|0|0,0:0|0:0|0:0,0:0:0:0:
440,268,96687,5,10,0:0:0:0:
391,268,96770,1,6,0:0:0:0:
343,268,96853,1,6,0:0:0:0:
295,268,96936,1,6,0:0:0:0:
234,268,97020,5,6,0:0:0:0:
288,268,97103,1,6,0:0:0:0:
343,268,97186,1,6,0:0:0:0:
399,268,97269,1,6,0:0:0:0:
460,272,97353,6,0,L|452:196,1,65.6250025033952,2|0,0:0|0:0,0:0:0:0:
344,172,97520,2,0,L|352:96,1,65.6250025033952,2|0,0:0|0:0,0:0:0:0:
264,68,97687,6,0,L|184:72,1,65.6250025033952,10|0,0:0|0:0,0:0:0:0:
64,172,97853,1,2,0:0:0:0:
64,172,97909,2,0,L|148:176,1,52.4999983978272,0|0,0:0|0:0,0:0:0:0:
266,48,98020,6,0,L|167:51,1,91.8749971961976,10|0,0:0|0:0,0:0:0:0:
42,165,98187,2,0,L|152:172,1,104.999996795654,2|0,0:0|0:0,0:0:0:0:
268,36,98353,6,0,L|143:39,1,118.125000450611,2|0,0:0|0:0,0:0:0:0:
28,160,98520,2,0,L|160:168,1,131.25000500679,2|0,0:0|0:0,0:0:0:0:
280,312,98687,6,0,B|308:262|305:218|278:174|278:174|247:130|243:82|264:35|264:35|300:72|340:88,1,380.625011615754,8|0,0:0|0:0,0:0:0:0:
424,92,99020,2,0,L|436:188,1,87.5,2|0,0:0|0:0,0:0:0:0:
424,348,99187,2,0,L|436:252,1,87.5,2|0,0:0|0:0,0:0:0:0:
280,308,99353,5,10,0:0:0:0:
226,309,99436,1,2,0:0:0:0:
173,311,99519,1,2,0:0:0:0:
119,313,99602,1,2,0:0:0:0:
36,316,99687,5,2,0:0:0:0:
36,254,99770,1,2,0:0:0:0:
37,193,99853,1,2,0:0:0:0:
38,132,99936,1,2,0:0:0:0:
44,72,100020,6,0,L|48:212,1,131.25000500679,8|0,0:0|0:0,0:0:0:0:
173,311,100187,2,0,L|176:180,1,118.125000450611,2|0,0:0|0:0,0:0:0:0:
59,80,100353,6,0,L|62:210,1,104.999996795654,2|0,0:0|0:0,0:0:0:0:
178,302,100520,2,0,L|181:180,1,91.8749971961976,8|0,0:0|0:0,0:0:0:0:
73,88,100687,6,0,L|77:209,1,78.7499975967408,2|0,0:0|0:0,0:0:0:0:
184,294,100854,2,0,L|187:181,1,65.6250025033952,2|0,0:0|0:0,0:0:0:0:
288,136,101020,6,0,L|308:216,1,76.5625,2|0,0:0|0:0,0:0:0:0:
288,136,101353,6,0,B|320:255|320:255|400:143|364:7,1,354.375001351833,10|0,0:0|0:0,0:0:0:0:
444,24,101687,2,0,P|452:76|448:120,1,87.5,2|0,0:0|0:0,0:0:0:0:
388,308,101853,2,0,P|420:265|436:225,1,87.5,2|0,0:0|0:0,0:0:0:0:
455,14,102020,2,0,P|464:69|459:115,1,87.5,2|0,0:0|0:0,0:0:0:0:
395,314,102186,2,0,P|430:270|447:227,1,87.5,2|0,0:0|0:0,0:0:0:0:
466,3,102353,2,0,P|476:61|470:110,1,87.5,2|0,0:0|0:0,0:0:0:0:
403,321,102519,2,0,P|440:274|458:229,1,87.5,2|0,0:0|0:0,0:0:0:0:
318,145,102687,6,0,B|238:101|238:101|482:89,1,328.125,8|0,0:0|0:0,0:0:0:0:
264,212,103020,2,0,L|196:172,1,65.6250025033952,2|0,0:0|0:0,0:0:0:0:
124,128,103187,2,0,P|108:116|92:88,3,32.8125012516976,2|0|0|0,0:0|0:0|0:0|0:0,0:0:0:0:
44,184,103353,6,0,P|36:237|44:292,1,109.375,8|0,0:0|0:0,0:0:0:0:
64,220,103520,2,0,P|56:273|68:324,1,87.5,2|0,0:0|0:0,0:0:0:0:
172,304,103687,6,0,P|268:216|228:344,1,354.375001351833,8|0,0:0|0:0,0:0:0:0:
360,368,104020,2,0,P|388:228|224:108,1,354.375001351833,8|0,0:0|0:0,0:0:0:0:
208,24,104353,6,0,P|264:28|328:48,1,109.375,2|0,0:0|0:0,0:0:0:0:
397,91,104520,2,0,P|434:134|465:193,1,109.375,2|0,0:0|0:0,0:0:0:0:
468,276,104687,6,0,L|460:376,1,78.7499975967408,8|0,0:0|0:0,0:0:0:0:
332,352,104853,1,4,0:0:0:0:
308,336,104937,1,4,0:0:0:0:
280,312,105020,2,0,L|180:300,1,87.5,2|0,0:0|0:0,0:0:0:0:
40,236,105187,2,0,L|140:224,1,87.5,2|0,0:0|0:0,0:0:0:0:
280,312,105353,6,0,P|288:264|284:208,1,87.5,8|0,0:0|0:0,0:0:0:0:
180,152,105520,1,4,0:0:0:0:
188,132,105603,1,4,0:0:0:0:
200,104,105687,6,0,L|220:52,1,43.75,2|0,0:0|0:0,0:0:0:0:
228,96,105853,6,0,L|256:28,1,52.4999983978272,8|0,0:0|0:0,0:0:0:0:
260,88,106020,6,0,L|288:8,1,61.2499981307984,8|0,0:0|0:0,0:0:0:0:
292,84,106187,6,0,L|320:0,1,70,8|0,0:0|0:0,0:0:0:0:
376,128,106353,6,0,B|432:52|432:52|372:312,1,341.249984378815,8|0,0:0|0:0,0:0:0:0:
296,332,106687,6,0,P|224:284|128:332,1,196.875007510186,2|0,0:0|0:0,0:0:0:0:
32,268,107020,2,0,L|36:344,1,61.2499981307984,8|0,0:0|0:0,0:0:0:0:
35,206,107187,2,0,L|31:282,1,61.2499981307984,8|0,0:0|0:0,0:0:0:0:
31,144,107353,2,0,L|35:220,1,61.2499981307984,8|0,0:0|0:0,0:0:0:0:
34,82,107520,2,0,L|30:158,1,61.2499981307984,8|0,0:0|0:0,0:0:0:0:
120,44,107687,2,0,L|116:248,1,183.749994392395,8|0,0:0|0:0,0:0:0:0:
232,236,108020,6,0,B|216:148|216:148|224:88|224:88|256:140,1,196.875007510186,2|0,0:0|0:0,0:0:0:0:
344,156,108353,2,0,L|332:68,1,78.7499975967408,8|0,0:0|0:0,0:0:0:0:
333,234,108520,2,0,L|345:146,1,78.7499975967408,8|0,0:0|0:0,0:0:0:0:
444,292,108687,1,8,0:0:0:0:
328,332,108853,6,0,L|244:324,1,78.7499975967408,8|0,0:0|0:0,0:0:0:0:
64,272,109020,2,0,L|148:264,1,78.7499975967408,8|0,0:0|0:0,0:0:0:0:
340,324,109187,2,0,L|256:316,1,78.7499975967408,8|0,0:0|0:0,0:0:0:0:
48,264,109353,6,0,B|48:120|48:120|88:188,1,196.875007510186,2|0,0:0|0:0,0:0:0:0:
156,112,109687,1,8,0:0:0:0:
216,124,109770,1,0,0:0:0:0:
272,132,109853,2,0,L|372:140,1,78.7499975967408,8|0,0:0|0:0,0:0:0:0:
268,232,110020,5,8,0:0:0:0:
336,244,110103,1,0,0:0:0:0:
404,252,110186,2,0,L|504:260,1,78.7499975967408,8|0,0:0|0:0,0:0:0:0:
404,348,110353,6,0,B|324:328|324:328|252:360|252:360|164:340,1,236.249992790222,8|0,0:0|0:0,0:0:0:0:
52,344,110687,6,0,L|48:160,1,153.125001460314,2|0,0:0|0:0,0:0:0:0:
156,76,110853,2,0,L|152:200,1,65.6250025033952,2|0,0:0|0:0,0:0:0:0:
38,353,111020,6,0,L|34:157,1,153.125001460314,2|0,0:0|0:0,0:0:0:0:
149,68,111186,2,0,L|148:236,1,153.125001460314,2|0,0:0|0:0,0:0:0:0:
28,356,111353,6,0,L|23:153,1,153.125001460314,2|0,0:0|0:0,0:0:0:0:
143,62,111519,2,0,L|141:235,1,153.125001460314,2|0,0:0|0:0,0:0:0:0:
332,124,111687,2,0,L|336:96,6,21.875,0|0|0|0|0|0|6,0:0|0:0|0:0|0:0|0:0|0:0|0:0,0:0:0:0:
320,252,112020,5,8,0:0:0:0:
472,200,112187,1,2,0:0:0:0:
404,340,112353,1,2,0:0:0:0:
372,96,112520,1,2,0:0:0:0:
248,340,112687,5,8,0:0:0:0:
432,264,112853,1,2,0:0:0:0:
176,316,113020,1,2,0:0:0:0:
496,320,113187,1,2,0:0:0:0:
200,160,113353,6,0,L|188:84,1,65.6250025033952,8|0,0:0|0:0,0:0:0:0:
108,200,113520,2,0,L|96:276,1,65.6250025033952,2|0,0:0|0:0,0:0:0:0:
292,216,113687,6,0,L|280:140,1,65.6250025033952,2|0,0:0|0:0,0:0:0:0:
200,256,113854,2,0,L|188:332,1,65.6250025033952,2|0,0:0|0:0,0:0:0:0:
396,336,114020,6,0,L|392:232,1,87.5,10|0,0:0|0:0,0:0:0:0:
468,184,114187,2,0,L|472:80,1,87.5,2|0,0:0|0:0,0:0:0:0:
405,346,114353,6,0,L|401:234,1,87.5,2|0,0:0|0:0,0:0:0:0:
482,183,114520,2,0,L|487:72,1,87.5,2|0,0:0|0:0,0:0:0:0:
408,32,114687,5,10,0:0:0:0:
352,15,114770,1,0,0:0:0:0:
295,29,114853,1,2,0:0:0:0:
255,71,114936,1,0,0:0:0:0:
242,128,115020,5,2,0:0:0:0:
264,180,115103,1,0,0:0:0:0:
280,235,115186,1,2,0:0:0:0:
266,292,115269,1,0,0:0:0:0:
224,332,115353,5,2,0:0:0:0:
167,345,115436,1,0,0:0:0:0:
112,336,115520,1,2,0:0:0:0:
80,279,115603,1,0,0:0:0:0:
83,214,115687,5,2,0:0:0:0:
120,161,115770,1,0,0:0:0:0:
179,134,115853,1,2,0:0:0:0:
243,142,115937,1,0,0:0:0:0:
292,168,116020,6,0,P|332:176|368:172,1,65.6250025033952,10|0,0:0|0:0,0:0:0:0:
308,188,116187,2,0,P|348:196|440:172,1,131.25000500679,2|0,0:0|0:0,0:0:0:0:
352,40,116520,6,0,L|272:36,1,65.6250025033952,2|2,0:0|0:0,0:0:0:0:
208,36,116645,1,2,0:0:0:0:
188,40,116687,2,0,L|108:36,1,65.6250025033952,10|0,0:0|0:0,0:0:0:0:
48,104,116853,6,0,L|56:168,1,56.8749973964692,2|0,0:0|0:0,0:0:0:0:
120,228,117020,2,0,P|192:200|268:296,1,196.875007510186,8|0,0:0|0:0,0:0:0:0:
184,292,117353,5,4,0:0:0:0:
