osu file format v14

[General]
AudioFilename: audio.mp3
AudioLeadIn: 0
PreviewTime: 580
Countdown: 0
SampleSet: Normal
StackLeniency: 0.3
Mode: 1
LetterboxInBreaks: 0
WidescreenStoryboard: 0

[Editor]
Bookmarks: 81270
DistanceSpacing: 1.1
BeatDivisor: 4
GridSize: 32
TimelineZoom: 3.4

[Metadata]
Title:Narcissus At Oasis (Freezer Remix)
TitleUnicode:Narcissus At Oasis (Freezer Remix)
Artist:Freezer
ArtistUnicode:Freezer
Creator:EijiKuinbii
Version:Link's Frozen Oni
Source:SOUND VOLTEX IV HEAVENLY HAVEN
Tags:Ryu☆ SDVX melodic dubstep neuro drumstep wooble bass downtempo glitch pitch halfstep Silver_Cr0w AJIekceu Remus Missing Link SoldatRacer buhaha PandaHero DefendeRDjulus Livstvichka yShadowXOP_ avalanche -Light- shmiklak marvollo m_a_r_v_o_l_l_o Don Omar EYA-
BeatmapID:1369270
BeatmapSetID:614615

[Difficulty]
HPDrainRate:5
CircleSize:2
OverallDifficulty:5
ApproachRate:9
SliderMultiplier:1.4
SliderTickRate:1

[Events]
//Background and Video events
0,0,"_BG.jpg",0,0
//Break Periods
//Storyboard Layer 0 (Background)
//Storyboard Layer 1 (Fail)
//Storyboard Layer 2 (Pass)
//Storyboard Layer 3 (Foreground)
//Storyboard Sound Samples

[TimingPoints]
580,387.096774193548,4,1,0,45,1,0
580,-133.333333333333,4,1,0,45,0,0
12967,-100,4,1,0,45,0,0
24289,-98.0392156862745,4,1,0,45,0,0
24386,-96.1538461538461,4,1,0,45,0,0
24483,-94.3396226415094,4,1,0,45,0,0
24579,-92.5925925925926,4,1,0,45,0,0
24676,-90.9090909090909,4,1,0,45,0,0
24773,-89.2857142857143,4,1,0,45,0,0
24870,-87.719298245614,4,1,0,45,0,0
24967,-86.2068965517241,4,1,0,45,0,0
25063,-84.7457627118644,4,1,0,45,0,0
25160,-83.3333333333333,4,1,0,45,0,0
25257,-81.9672131147541,4,1,0,45,0,0
25354,-80,4,1,0,45,0,1
48579,-81.3008130081301,4,1,0,45,0,1
48773,-82.6446280991736,4,1,0,45,0,1
48870,-84.0336134453781,4,1,0,45,0,1
48967,-85.4700854700855,4,1,0,45,0,1
49160,-86.9565217391304,4,1,0,45,0,1
49354,-88.4955752212389,4,1,0,45,0,1
49450,-90.0900900900901,4,1,0,45,0,1
49547,-91.743119266055,4,1,0,45,0,1
49741,-93.4579439252336,4,1,0,45,0,1
49934,-95.2380952380952,4,1,0,45,0,1
50031,-97.0873786407767,4,1,0,45,0,1
50128,-100,4,1,0,45,0,0
52257,-97.0873786407767,4,1,0,45,0,0
52321,-94.3396226415094,4,1,0,45,0,0
52386,-91.743119266055,4,1,0,45,0,0
52450,-89.2857142857143,4,1,0,45,0,0
52547,-86.9565217391304,4,1,0,45,0,0
52644,-84.7457627118644,4,1,0,45,0,0
52741,-82.6446280991736,4,1,0,45,0,0
52838,-80.6451612903226,4,1,0,45,0,0
53031,-78.7401574803149,4,1,0,45,0,0
53225,-76.9230769230769,4,1,0,45,0,1
55934,-80,4,1,0,45,0,1
56031,-83.3333333333333,4,1,0,45,0,1
56128,-86.9565217391304,4,1,0,45,0,1
56225,-90.9090909090909,4,1,0,45,0,1
56321,-95.2380952380952,4,1,0,45,0,0
56709,-100,4,1,0,45,0,0
59418,-100,4,1,0,45,0,1
60967,-96.1538461538461,4,1,0,45,0,1
61063,-92.5925925925926,4,1,0,45,0,1
61160,-89.2857142857143,4,1,0,45,0,1
61257,-86.2068965517241,4,1,0,45,0,1
61354,-83.3333333333333,4,1,0,45,0,1
61450,-80.6451612903226,4,1,0,45,0,1
61547,-78.125,4,1,0,45,0,1
62128,-80.6451612903226,4,1,0,45,0,1
62225,-83.3333333333333,4,1,0,45,0,1
62321,-86.2068965517241,4,1,0,45,0,1
62418,-89.2857142857143,4,1,0,45,0,1
62515,-92.5925925925926,4,1,0,45,0,0
62902,-100,4,1,0,45,0,0
70902,-96.1538461538461,4,1,0,45,0,0
70967,-92.5925925925926,4,1,0,45,0,0
71031,-89.2857142857143,4,1,0,45,0,0
71128,-86.2068965517241,4,1,0,45,0,0
71225,-80.6451612903226,4,1,0,45,0,0
71418,-78.125,4,1,0,45,0,0
71612,-80.6451612903226,4,1,0,45,0,0
71805,-83.3333333333333,4,1,0,45,0,0
72192,-86.2068965517241,4,1,0,45,0,0
72579,-89.2857142857143,4,1,0,45,0,0
72773,-92.5925925925926,4,1,0,45,0,0
72967,-96.1538461538461,4,1,0,45,0,0
73354,333.333333333333,4,1,0,70,1,0
73354,-133.333333333333,4,1,0,70,0,0
73454,-100,4,1,0,70,0,0
84437,-98.0392156862745,4,1,0,70,0,0
84520,-96.1538461538461,4,1,0,70,0,0
84603,-94.3396226415094,4,1,0,70,0,0
84687,-92.5925925925926,4,1,0,70,0,0
84770,-90.9090909090909,4,1,0,70,0,0
84853,-89.2857142857143,4,1,0,70,0,0
84937,-87.719298245614,4,1,0,70,0,0
85020,-86.2068965517241,4,1,0,70,0,0
85103,-84.7457627118644,4,1,0,70,0,0
85187,-83.3333333333333,4,1,0,70,0,0
85270,-81.9672131147541,4,1,0,70,0,0
85353,-80,4,1,0,70,0,1
95520,-83.3333333333333,4,1,0,70,0,1
95603,-86.9565217391304,4,1,0,70,0,1
95687,-90.9090909090909,4,1,0,70,0,1
95853,-95.2380952380952,4,1,0,70,0,1
96020,-100,4,1,0,70,0,0
96353,-95.2380952380952,4,1,0,70,0,0
96437,-90.9090909090909,4,1,0,70,0,0
96520,-86.9565217391304,4,1,0,70,0,0
96603,-80,4,1,0,70,0,0
96687,-80,4,1,0,70,0,1
106687,-80,4,1,0,70,0,0
112020,-79.3650793650794,4,1,0,70,0,0
112103,-78.7401574803149,4,1,0,70,0,0
112187,-78.125,4,1,0,70,0,0
112270,-77.5193798449612,4,1,0,70,0,0
112353,-76.9230769230769,4,1,0,70,0,0
112437,-76.3358778625954,4,1,0,70,0,0
112520,-75.7575757575758,4,1,0,70,0,0
112603,-75.187969924812,4,1,0,70,0,0
112687,-74.6268656716418,4,1,0,70,0,0
112770,-74.0740740740741,4,1,0,70,0,0
112853,-73.5294117647059,4,1,0,70,0,0
112937,-72.992700729927,4,1,0,70,0,0
113020,-72.463768115942,4,1,0,70,0,0
113103,-71.9424460431655,4,1,0,70,0,0
113187,-71.4285714285714,4,1,0,70,0,0
113270,-70.9219858156028,4,1,0,70,0,0
113353,-70.4225352112676,4,1,0,70,0,0
113437,-69.9300699300699,4,1,0,70,0,0
113520,-69.4444444444444,4,1,0,70,0,0
113603,-68.9655172413793,4,1,0,70,0,0
113687,-68.4931506849315,4,1,0,70,0,0
113770,-68.0272108843537,4,1,0,70,0,0
113853,-67.5675675675676,4,1,0,70,0,0
113937,-67.1140939597315,4,1,0,70,0,0
114020,-66.6666666666667,4,1,0,70,0,0
114103,-66.2251655629139,4,1,0,70,0,0
114187,-65.7894736842105,4,1,0,70,0,0
114270,-65.359477124183,4,1,0,70,0,0
114353,-64.9350649350649,4,1,0,70,0,0
114437,-64.5161290322581,4,1,0,70,0,0
114520,-64.1025641025641,4,1,0,70,0,0
114603,-63.6942675159236,4,1,0,70,0,0
114687,-63.2911392405063,4,1,0,70,0,0
114770,-62.8930817610063,4,1,0,70,0,0
114853,-62.5,4,1,0,70,0,0
114937,-62.111801242236,4,1,0,70,0,0
115020,-61.7283950617284,4,1,0,70,0,0
115103,-61.3496932515337,4,1,0,70,0,0
115187,-60.9756097560976,4,1,0,70,0,0
115270,-60.6060606060606,4,1,0,70,0,0
115353,-60.2409638554217,4,1,0,70,0,0
115437,-59.8802395209581,4,1,0,70,0,0
115520,-59.5238095238095,4,1,0,70,0,0
115603,-59.1715976331361,4,1,0,70,0,0
115687,-58.8235294117647,4,1,0,70,0,0
115770,-58.4795321637427,4,1,0,70,0,0
115853,-58.1395348837209,4,1,0,70,0,0
115937,-57.8034682080925,4,1,0,70,0,0
116020,-57.4712643678161,4,1,0,70,0,0
116270,-66.6666666666667,4,1,0,70,0,0
116353,-71.4285714285714,4,1,0,70,0,0
116520,-76.9230769230769,4,1,0,70,0,0
116645,-83.3333333333333,4,1,0,70,0,0
116853,-90.9090909090909,4,1,0,70,0,0
117020,-100,4,1,0,70,0,0
117187,-111.111111111111,4,1,0,70,0,0
117353,-125,4,1,0,70,0,0

[Colours]
Combo1 : 55,87,119
Combo2 : 172,253,237
Combo3 : 206,206,206
Combo4 : 226,177,245

[HitObjects]
256,192,580,5,12,0:0:0:0:
256,192,967,1,8,0:0:0:0:
256,192,1160,1,8,0:0:0:0:
256,192,1354,1,0,0:0:0:0:
256,192,1741,1,8,0:0:0:0:
256,192,2128,1,0,0:0:0:0:
256,192,2515,1,8,0:0:0:0:
256,192,2709,1,0,0:0:0:0:
256,192,2773,1,0,0:0:0:0:
256,192,2838,1,0,0:0:0:0:
256,192,2902,1,8,0:0:0:0:
256,192,3289,1,8,0:0:0:0:
256,192,3676,1,0,0:0:0:0:
256,192,4063,1,8,0:0:0:0:
256,192,4257,1,0,0:0:0:0:
256,192,4450,1,8,0:0:0:0:
256,192,4838,1,8,0:0:0:0:
256,192,5225,1,0,0:0:0:0:
256,192,5515,1,0,0:0:0:0:
256,192,5612,1,8,0:0:0:0:
256,192,5805,1,0,0:0:0:0:
256,192,5999,1,8,0:0:0:0:
256,192,6192,1,0,0:0:0:0:
256,192,6386,1,8,0:0:0:0:
256,192,6773,1,12,0:0:0:0:
256,192,7160,1,8,0:0:0:0:
256,192,7354,1,8,0:0:0:0:
256,192,7547,1,8,0:0:0:0:
256,192,7934,1,8,0:0:0:0:
256,192,8321,1,0,0:0:0:0:
256,192,8709,1,8,0:0:0:0:
256,192,8902,1,0,0:0:0:0:
256,192,8967,1,0,0:0:0:0:
256,192,9031,1,0,0:0:0:0:
256,192,9096,1,8,0:0:0:0:
256,192,9483,1,8,0:0:0:0:
256,192,9870,1,0,0:0:0:0:
256,192,10257,1,8,0:0:0:0:
256,192,10450,1,0,0:0:0:0:
256,192,10644,1,8,0:0:0:0:
256,192,11031,1,8,0:0:0:0:
256,192,11418,1,0,0:0:0:0:
256,192,11709,1,0,0:0:0:0:
256,192,11805,1,8,0:0:0:0:
256,192,11999,1,0,0:0:0:0:
256,192,12192,1,0,0:0:0:0:
256,192,12386,1,8,0:0:0:0:
256,192,12483,1,8,0:0:0:0:
256,192,12579,1,0,0:0:0:0:
256,192,12773,1,0,0:0:0:0:
256,192,12967,1,0,0:0:0:0:
256,192,13063,1,0,0:0:0:0:
256,192,13160,1,8,0:0:0:0:
256,192,13257,1,8,0:0:0:0:
256,192,13354,1,0,0:0:0:0:
256,192,13450,1,0,0:0:0:0:
256,192,13547,1,8,0:0:0:0:
256,192,13644,1,8,0:0:0:0:
256,192,13741,1,0,0:0:0:0:
256,192,13838,1,0,0:0:0:0:
256,192,13934,1,8,0:0:0:0:
256,192,14031,1,8,0:0:0:0:
256,192,14128,1,0,0:0:0:0:
256,192,14225,1,0,0:0:0:0:
256,192,14321,1,8,0:0:0:0:
256,192,14418,1,8,0:0:0:0:
256,192,14515,1,0,0:0:0:0:
256,192,14612,1,0,0:0:0:0:
256,192,14709,1,8,0:0:0:0:
256,192,14805,1,8,0:0:0:0:
256,192,14902,1,0,0:0:0:0:
256,192,14999,1,0,0:0:0:0:
256,192,15096,1,8,0:0:0:0:
256,192,15192,1,8,0:0:0:0:
256,192,15289,1,0,0:0:0:0:
256,192,15386,1,0,0:0:0:0:
256,192,15483,1,8,0:0:0:0:
256,192,15579,1,8,0:0:0:0:
256,192,15676,1,0,0:0:0:0:
256,192,15773,1,0,0:0:0:0:
256,192,15870,1,8,0:0:0:0:
256,192,15967,1,8,0:0:0:0:
256,192,16063,1,0,0:0:0:0:
256,192,16160,1,0,0:0:0:0:
256,192,16257,1,8,0:0:0:0:
256,192,16354,1,8,0:0:0:0:
256,192,16450,1,0,0:0:0:0:
256,192,16547,1,0,0:0:0:0:
256,192,16644,1,8,0:0:0:0:
256,192,16741,1,8,0:0:0:0:
256,192,16838,1,0,0:0:0:0:
256,192,16934,1,0,0:0:0:0:
256,192,17031,1,8,0:0:0:0:
256,192,17128,1,8,0:0:0:0:
256,192,17225,1,0,0:0:0:0:
256,192,17321,1,0,0:0:0:0:
256,192,17418,1,8,0:0:0:0:
256,192,17515,1,8,0:0:0:0:
256,192,17612,1,0,0:0:0:0:
256,192,17709,1,0,0:0:0:0:
256,192,17805,1,8,0:0:0:0:
256,192,17902,1,8,0:0:0:0:
256,192,17999,1,0,0:0:0:0:
256,192,18096,1,0,0:0:0:0:
256,192,18192,1,8,0:0:0:0:
256,192,18289,1,8,0:0:0:0:
256,192,18386,1,0,0:0:0:0:
256,192,18483,1,0,0:0:0:0:
256,192,18579,1,8,0:0:0:0:
256,192,18676,1,8,0:0:0:0:
256,192,18773,1,0,0:0:0:0:
256,192,18870,1,0,0:0:0:0:
256,192,18967,1,8,0:0:0:0:
256,192,19063,1,8,0:0:0:0:
256,192,19160,1,0,0:0:0:0:
256,192,19257,1,8,0:0:0:0:
256,192,19353,1,0,0:0:0:0:
256,192,19450,1,8,0:0:0:0:
256,192,19547,1,0,0:0:0:0:
256,192,19644,1,8,0:0:0:0:
256,192,19741,1,0,0:0:0:0:
256,192,19837,1,8,0:0:0:0:
256,192,19934,1,0,0:0:0:0:
256,192,20031,1,8,0:0:0:0:
256,192,20128,1,0,0:0:0:0:
256,192,20224,1,8,0:0:0:0:
256,192,20321,1,0,0:0:0:0:
256,192,20418,1,8,0:0:0:0:
256,192,20515,1,0,0:0:0:0:
256,192,20612,1,0,0:0:0:0:
256,192,20708,1,0,0:0:0:0:
256,192,20805,1,8,0:0:0:0:
256,192,20902,1,0,0:0:0:0:
256,192,20999,1,8,0:0:0:0:
256,192,21095,1,0,0:0:0:0:
256,192,21192,1,8,0:0:0:0:
256,192,21289,1,0,0:0:0:0:
256,192,21386,1,8,0:0:0:0:
256,192,21482,1,0,0:0:0:0:
256,192,21579,1,8,0:0:0:0:
256,192,21676,1,0,0:0:0:0:
256,192,21773,1,8,0:0:0:0:
256,192,21870,1,0,0:0:0:0:
256,192,21967,1,8,0:0:0:0:
256,192,22063,1,8,0:0:0:0:
256,192,22112,1,8,0:0:0:0:
256,192,22160,1,8,0:0:0:0:
256,192,22209,1,8,0:0:0:0:
256,192,22257,1,0,0:0:0:0:
256,192,22354,1,8,0:0:0:0:
256,192,22450,1,8,0:0:0:0:
256,192,22547,1,8,0:0:0:0:
256,192,22644,1,0,0:0:0:0:
256,192,22741,1,8,0:0:0:0:
256,192,22838,1,8,0:0:0:0:
256,192,22934,1,8,0:0:0:0:
256,192,23031,1,0,0:0:0:0:
256,192,23128,1,8,0:0:0:0:
256,192,23225,1,8,0:0:0:0:
256,192,23321,1,8,0:0:0:0:
256,192,23418,1,0,0:0:0:0:
256,192,23515,1,8,0:0:0:0:
256,192,23612,1,8,0:0:0:0:
256,192,23709,1,8,0:0:0:0:
256,192,23805,1,0,0:0:0:0:
256,192,23999,1,8,0:0:0:0:
256,192,24289,1,8,0:0:0:0:
256,192,24386,1,8,0:0:0:0:
256,192,24483,1,8,0:0:0:0:
256,192,24579,1,8,0:0:0:0:
256,192,24676,1,8,0:0:0:0:
256,192,24773,1,0,0:0:0:0:
256,192,24870,1,0,0:0:0:0:
256,192,24967,1,0,0:0:0:0:
256,192,25063,1,0,0:0:0:0:
256,192,25160,1,0,0:0:0:0:
256,192,25257,1,0,0:0:0:0:
256,192,25354,1,8,0:0:0:0:
256,192,25741,1,8,0:0:0:0:
256,192,25934,1,8,0:0:0:0:
256,192,26128,1,0,0:0:0:0:
256,192,26321,1,8,0:0:0:0:
256,192,26515,1,8,0:0:0:0:
256,192,26709,1,8,0:0:0:0:
256,192,26902,1,8,0:0:0:0:
256,192,27192,1,0,0:0:0:0:
256,192,27289,1,8,0:0:0:0:
256,192,27386,1,8,0:0:0:0:
256,192,27483,1,0,0:0:0:0:
256,192,27547,1,0,0:0:0:0:
256,192,27612,1,0,0:0:0:0:
256,192,27676,1,8,0:0:0:0:
256,192,27870,1,8,0:0:0:0:
256,192,28063,1,8,0:0:0:0:
256,192,28257,1,4,0:0:0:0:
256,192,28450,1,8,0:0:0:0:
256,192,28838,1,8,0:0:0:0:
256,192,29031,1,8,0:0:0:0:
256,192,29225,1,0,0:0:0:0:
256,192,29418,1,8,0:0:0:0:
256,192,29612,1,8,0:0:0:0:
256,192,29805,1,0,0:0:0:0:
256,192,29999,1,8,0:0:0:0:
256,192,30096,1,0,0:0:0:0:
256,192,30192,1,8,0:0:0:0:
256,192,30289,1,0,0:0:0:0:
256,192,30386,1,8,0:0:0:0:
256,192,30483,1,0,0:0:0:0:
256,192,30579,1,8,0:0:0:0:
256,192,30676,1,0,0:0:0:0:
256,192,30773,1,8,0:0:0:0:
256,192,30870,1,0,0:0:0:0:
256,192,30967,1,8,0:0:0:0:
256,192,31063,1,0,0:0:0:0:
256,192,31160,1,8,0:0:0:0:
256,192,31354,1,8,0:0:0:0:
256,192,31547,1,4,0:0:0:0:
256,192,31934,1,8,0:0:0:0:
256,192,32031,1,0,0:0:0:0:
256,192,32128,1,0,0:0:0:0:
256,192,32321,1,8,0:0:0:0:
256,192,32515,1,8,0:0:0:0:
256,192,32709,1,8,0:0:0:0:
256,192,32902,1,8,0:0:0:0:
256,192,33096,1,0,0:0:0:0:
256,192,33192,1,0,0:0:0:0:
256,192,33289,1,0,0:0:0:0:
256,192,33483,1,0,0:0:0:0:
256,192,33676,1,0,0:0:0:0:
256,192,33741,1,0,0:0:0:0:
256,192,33805,1,0,0:0:0:0:
256,192,33870,1,8,0:0:0:0:
256,192,34063,1,8,0:0:0:0:
256,192,34257,1,8,0:0:0:0:
256,192,34450,1,0,0:0:0:0:
256,192,34644,1,12,0:0:0:0:
256,192,35031,1,0,0:0:0:0:
256,192,35128,1,0,0:0:0:0:
256,192,35225,1,0,0:0:0:0:
256,192,35418,1,8,0:0:0:0:
256,192,35612,1,8,0:0:0:0:
256,192,35805,1,8,0:0:0:0:
256,192,35999,1,0,0:0:0:0:
256,192,36192,1,8,0:0:0:0:
256,192,36483,1,8,0:0:0:0:
256,192,36579,1,0,0:0:0:0:
256,192,36773,1,8,0:0:0:0:
256,192,36918,1,0,0:0:0:0:
256,192,36967,1,0,0:0:0:0:
256,192,37160,1,8,0:0:0:0:
256,192,37257,1,8,0:0:0:0:
256,192,37354,1,0,0:0:0:0:
256,192,37547,1,0,0:0:0:0:
256,192,37741,1,12,0:0:0:0:
256,192,38128,1,8,0:0:0:0:
256,192,38321,1,8,0:0:0:0:
256,192,38515,1,8,0:0:0:0:
256,192,38612,1,0,0:0:0:0:
256,192,38709,1,8,0:0:0:0:
256,192,38805,1,0,0:0:0:0:
256,192,38902,1,8,0:0:0:0:
256,192,38999,1,0,0:0:0:0:
256,192,39096,1,8,0:0:0:0:
256,192,39192,1,0,0:0:0:0:
256,192,39289,1,8,0:0:0:0:
256,192,39483,1,8,0:0:0:0:
256,192,39676,1,0,0:0:0:0:
256,192,39870,1,8,0:0:0:0:
256,192,39934,1,8,0:0:0:0:
256,192,39999,1,8,0:0:0:0:
256,192,40063,1,8,0:0:0:0:
256,192,40257,1,0,0:0:0:0:
256,192,40450,1,0,0:0:0:0:
256,192,40644,1,0,0:0:0:0:
256,192,40838,1,12,0:0:0:0:
256,192,41225,1,8,0:0:0:0:
256,192,41418,1,8,0:0:0:0:
256,192,41612,1,8,0:0:0:0:
256,192,41709,1,0,0:0:0:0:
256,192,41805,1,8,0:0:0:0:
256,192,41902,1,0,0:0:0:0:
256,192,41999,1,8,0:0:0:0:
256,192,42096,1,0,0:0:0:0:
256,192,42192,1,8,0:0:0:0:
256,192,42289,1,0,0:0:0:0:
256,192,42386,1,8,0:0:0:0:
256,192,42483,1,0,0:0:0:0:
256,192,42579,1,8,0:0:0:0:
256,192,42676,1,0,0:0:0:0:
256,192,42773,1,8,0:0:0:0:
256,192,42870,1,0,0:0:0:0:
256,192,42967,1,8,0:0:0:0:
256,192,43063,1,0,0:0:0:0:
256,192,43160,1,8,0:0:0:0:
256,192,43257,1,0,0:0:0:0:
256,192,43354,1,8,0:0:0:0:
256,192,43450,1,0,0:0:0:0:
256,192,43547,1,8,0:0:0:0:
256,192,43934,1,12,0:0:0:0:
256,192,44321,1,0,0:0:0:0:
256,192,44515,1,0,0:0:0:0:
256,192,44709,1,8,0:0:0:0:
256,192,44902,1,0,0:0:0:0:
256,192,45096,1,0,0:0:0:0:
256,192,45289,1,0,0:0:0:0:
256,192,45483,1,12,0:0:0:0:
256,192,45870,1,8,0:0:0:0:
256,192,46063,1,8,0:0:0:0:
256,192,46128,1,8,0:0:0:0:
256,192,46192,1,8,0:0:0:0:
256,192,46257,1,8,0:0:0:0:
256,192,46450,1,0,0:0:0:0:
256,192,46644,1,8,0:0:0:0:
256,192,46838,1,8,0:0:0:0:
256,192,47031,1,4,0:0:0:0:
256,192,47418,1,0,0:0:0:0:
256,192,47612,1,0,0:0:0:0:
256,192,47805,1,12,0:0:0:0:
256,192,47999,1,0,0:0:0:0:
256,192,48096,1,0,0:0:0:0:
256,192,48192,1,0,0:0:0:0:
256,192,48386,1,0,0:0:0:0:
256,192,48579,1,12,0:0:0:0:
256,192,48773,1,0,0:0:0:0:
256,192,48870,1,8,0:0:0:0:
256,192,48967,1,0,0:0:0:0:
256,192,49160,1,8,0:0:0:0:
256,192,49354,1,0,0:0:0:0:
256,192,49450,1,8,0:0:0:0:
256,192,49547,1,0,0:0:0:0:
256,192,49741,1,8,0:0:0:0:
256,192,49934,1,8,0:0:0:0:
256,192,50031,1,8,0:0:0:0:
256,192,50128,1,0,0:0:0:0:
256,192,50515,1,8,0:0:0:0:
256,192,50709,1,8,0:0:0:0:
256,192,50902,1,0,0:0:0:0:
256,192,51289,1,8,0:0:0:0:
256,192,51676,1,4,0:0:0:0:
256,192,52063,1,8,0:0:0:0:
256,192,52257,1,0,0:0:0:0:
256,192,52321,1,0,0:0:0:0:
256,192,52386,1,0,0:0:0:0:
256,192,52450,1,0,0:0:0:0:
256,192,52547,1,8,0:0:0:0:
256,192,52644,1,8,0:0:0:0:
256,192,52741,1,8,0:0:0:0:
256,192,52838,1,8,0:0:0:0:
256,192,53031,1,0,0:0:0:0:
256,192,53225,1,12,0:0:0:0:
256,192,53612,1,8,0:0:0:0:
256,192,53805,1,8,0:0:0:0:
256,192,53999,1,0,0:0:0:0:
256,192,54096,1,0,0:0:0:0:
256,192,54192,1,0,0:0:0:0:
256,192,54386,1,8,0:0:0:0:
256,192,54579,1,8,0:0:0:0:
256,192,54773,1,8,0:0:0:0:
256,192,54967,1,8,0:0:0:0:
256,192,55063,1,8,0:0:0:0:
256,192,55160,1,0,0:0:0:0:
256,192,55354,1,0,0:0:0:0:
256,192,55547,1,8,0:0:0:0:
256,192,55741,1,8,0:0:0:0:
256,192,55934,1,8,0:0:0:0:
256,192,56031,1,0,0:0:0:0:
256,192,56128,1,8,0:0:0:0:
256,192,56225,1,0,0:0:0:0:
256,192,56321,1,8,0:0:0:0:
256,192,56709,1,8,0:0:0:0:
256,192,56902,1,8,0:0:0:0:
256,192,57096,1,0,0:0:0:0:
256,192,57483,1,0,0:0:0:0:
256,192,57870,1,12,0:0:0:0:
256,192,58257,1,0,0:0:0:0:
256,192,58450,1,8,0:0:0:0:
256,192,58515,1,8,0:0:0:0:
256,192,58579,1,8,0:0:0:0:
256,192,58644,1,8,0:0:0:0:
256,192,58838,1,0,0:0:0:0:
256,192,59031,1,8,0:0:0:0:
256,192,59225,1,0,0:0:0:0:
256,192,59418,1,8,0:0:0:0:
256,192,59805,1,0,0:0:0:0:
256,192,59999,1,0,0:0:0:0:
256,192,60192,1,0,0:0:0:0:
256,192,60386,1,8,0:0:0:0:
256,192,60579,1,0,0:0:0:0:
256,192,60773,1,8,0:0:0:0:
256,192,60967,1,8,0:0:0:0:
256,192,61063,1,0,0:0:0:0:
256,192,61160,1,8,0:0:0:0:
256,192,61257,1,0,0:0:0:0:
256,192,61354,1,8,0:0:0:0:
256,192,61450,1,0,0:0:0:0:
256,192,61547,1,8,0:0:0:0:
256,192,61644,1,0,0:0:0:0:
256,192,61692,1,0,0:0:0:0:
256,192,61741,1,0,0:0:0:0:
256,192,61934,1,0,0:0:0:0:
256,192,62128,1,8,0:0:0:0:
256,192,62225,1,8,0:0:0:0:
256,192,62321,1,8,0:0:0:0:
256,192,62418,1,8,0:0:0:0:
256,192,62515,1,0,0:0:0:0:
256,192,62902,1,0,0:0:0:0:
256,192,63096,1,0,0:0:0:0:
256,192,63289,1,8,0:0:0:0:
256,192,63676,1,0,0:0:0:0:
256,192,64063,1,12,0:0:0:0:
256,192,64450,1,0,0:0:0:0:
256,192,64644,1,0,0:0:0:0:
256,192,64709,1,0,0:0:0:0:
256,192,64773,1,0,0:0:0:0:
256,192,64838,1,0,0:0:0:0:
256,192,65031,1,8,0:0:0:0:
256,192,65225,1,8,0:0:0:0:
256,192,65418,1,8,0:0:0:0:
256,192,65612,1,0,0:0:0:0:
256,192,65999,1,0,0:0:0:0:
256,192,66192,1,8,0:0:0:0:
256,192,66386,1,0,0:0:0:0:
256,192,66579,1,8,0:0:0:0:
256,192,66773,1,8,0:0:0:0:
256,192,67160,1,0,0:0:0:0:
256,192,67450,1,8,0:0:0:0:
256,192,67741,1,8,0:0:0:0:
256,192,67934,1,0,0:0:0:0:
256,192,68321,1,8,0:0:0:0:
256,192,68418,1,8,0:0:0:0:
256,192,68515,1,8,0:0:0:0:
256,192,68612,1,0,0:0:0:0:
256,192,68709,1,0,0:0:0:0:
256,192,69096,1,8,0:0:0:0:
256,192,69483,1,0,0:0:0:0:
256,192,69870,1,8,0:0:0:0:
256,192,70063,1,8,0:0:0:0:
256,192,70257,1,0,0:0:0:0:
256,192,70644,1,8,0:0:0:0:
256,192,70902,1,0,0:0:0:0:
256,192,70967,1,0,0:0:0:0:
256,192,71031,1,8,0:0:0:0:
256,192,71128,1,0,0:0:0:0:
256,192,71225,1,8,0:0:0:0:
256,192,71321,1,0,0:0:0:0:
256,192,71418,1,8,0:0:0:0:
256,192,71612,1,0,0:0:0:0:
256,192,71805,1,8,0:0:0:0:
256,192,72192,1,0,0:0:0:0:
256,192,72579,1,8,0:0:0:0:
256,192,72773,1,0,0:0:0:0:
256,192,72967,1,8,0:0:0:0:
256,192,73354,1,12,0:0:0:0:
256,192,73937,1,8,0:0:0:0:
256,192,74020,1,8,0:0:0:0:
256,192,74104,1,0,0:0:0:0:
256,192,74187,1,8,0:0:0:0:
256,192,74270,1,8,0:0:0:0:
256,192,74354,1,0,0:0:0:0:
256,192,74437,1,0,0:0:0:0:
256,192,74520,1,8,0:0:0:0:
256,192,74687,1,0,0:0:0:0:
256,192,74770,1,0,0:0:0:0:
256,192,74854,1,8,0:0:0:0:
256,192,74937,1,8,0:0:0:0:
256,192,75020,1,0,0:0:0:0:
256,192,75104,1,0,0:0:0:0:
256,192,75187,1,8,0:0:0:0:
256,192,75270,1,8,0:0:0:0:
256,192,75354,1,0,0:0:0:0:
256,192,75437,1,0,0:0:0:0:
256,192,75520,1,8,0:0:0:0:
256,192,75604,1,8,0:0:0:0:
256,192,75687,1,0,0:0:0:0:
256,192,75770,1,0,0:0:0:0:
256,192,75854,1,8,0:0:0:0:
256,192,75937,1,8,0:0:0:0:
256,192,76020,1,0,0:0:0:0:
256,192,76104,1,0,0:0:0:0:
256,192,76187,1,8,0:0:0:0:
256,192,76270,1,8,0:0:0:0:
256,192,76354,1,0,0:0:0:0:
256,192,76437,1,0,0:0:0:0:
256,192,76520,1,8,0:0:0:0:
256,192,76604,1,8,0:0:0:0:
256,192,76687,1,0,0:0:0:0:
256,192,76770,1,0,0:0:0:0:
256,192,76854,1,8,0:0:0:0:
256,192,76937,1,8,0:0:0:0:
256,192,77020,1,0,0:0:0:0:
256,192,77104,1,0,0:0:0:0:
256,192,77187,1,8,0:0:0:0:
256,192,77270,1,8,0:0:0:0:
256,192,77354,1,0,0:0:0:0:
256,192,77437,1,0,0:0:0:0:
256,192,77520,1,8,0:0:0:0:
256,192,77604,1,8,0:0:0:0:
256,192,77687,1,0,0:0:0:0:
256,192,77770,1,0,0:0:0:0:
256,192,77854,1,8,0:0:0:0:
256,192,77937,1,8,0:0:0:0:
256,192,78020,1,0,0:0:0:0:
256,192,78104,1,0,0:0:0:0:
256,192,78187,1,8,0:0:0:0:
256,192,78270,1,8,0:0:0:0:
256,192,78354,1,0,0:0:0:0:
256,192,78437,1,0,0:0:0:0:
256,192,78520,1,8,0:0:0:0:
256,192,78604,1,8,0:0:0:0:
256,192,78687,1,0,0:0:0:0:
256,192,78770,1,0,0:0:0:0:
256,192,78854,1,8,0:0:0:0:
256,192,78937,1,8,0:0:0:0:
256,192,79020,1,0,0:0:0:0:
256,192,79104,1,0,0:0:0:0:
256,192,79187,1,8,0:0:0:0:
256,192,79270,1,8,0:0:0:0:
256,192,79354,1,0,0:0:0:0:
256,192,79437,1,0,0:0:0:0:
256,192,79520,1,8,0:0:0:0:
256,192,79604,1,8,0:0:0:0:
256,192,79687,1,0,0:0:0:0:
256,192,79770,1,0,0:0:0:0:
256,192,79854,1,8,0:0:0:0:
256,192,79937,1,8,0:0:0:0:
256,192,80020,1,0,0:0:0:0:
256,192,80104,1,8,0:0:0:0:
256,192,80187,1,0,0:0:0:0:
256,192,80270,1,8,0:0:0:0:
256,192,80354,1,0,0:0:0:0:
256,192,80437,1,8,0:0:0:0:
256,192,80520,1,0,0:0:0:0:
256,192,80603,1,8,0:0:0:0:
256,192,80687,1,0,0:0:0:0:
256,192,80770,1,8,0:0:0:0:
256,192,80853,1,0,0:0:0:0:
256,192,80937,1,8,0:0:0:0:
256,192,81020,1,0,0:0:0:0:
256,192,81103,1,8,0:0:0:0:
256,192,81187,1,0,0:0:0:0:
256,192,81270,1,0,0:0:0:0:
256,192,81353,1,0,0:0:0:0:
256,192,81437,1,8,0:0:0:0:
256,192,81520,1,0,0:0:0:0:
256,192,81603,1,8,0:0:0:0:
256,192,81687,1,0,0:0:0:0:
256,192,81770,1,8,0:0:0:0:
256,192,81853,1,0,0:0:0:0:
256,192,81937,1,8,0:0:0:0:
256,192,82020,1,0,0:0:0:0:
256,192,82103,1,8,0:0:0:0:
256,192,82187,1,0,0:0:0:0:
256,192,82270,1,8,0:0:0:0:
256,192,82353,1,0,0:0:0:0:
256,192,82437,1,8,0:0:0:0:
256,192,82520,1,8,0:0:0:0:
256,192,82562,1,8,0:0:0:0:
256,192,82603,1,8,0:0:0:0:
256,192,82645,1,8,0:0:0:0:
256,192,82687,1,0,0:0:0:0:
256,192,82770,1,8,0:0:0:0:
256,192,82853,1,8,0:0:0:0:
256,192,82937,1,8,0:0:0:0:
256,192,83020,1,0,0:0:0:0:
256,192,83103,1,8,0:0:0:0:
256,192,83187,1,8,0:0:0:0:
256,192,83270,1,8,0:0:0:0:
256,192,83353,1,0,0:0:0:0:
256,192,83437,1,8,0:0:0:0:
256,192,83520,1,8,0:0:0:0:
256,192,83603,1,8,0:0:0:0:
256,192,83687,1,0,0:0:0:0:
256,192,83770,1,8,0:0:0:0:
256,192,83853,1,8,0:0:0:0:
256,192,83937,1,8,0:0:0:0:
256,192,84020,1,0,0:0:0:0:
256,192,84187,1,8,0:0:0:0:
256,192,84437,1,8,0:0:0:0:
256,192,84520,1,8,0:0:0:0:
256,192,84603,1,8,0:0:0:0:
256,192,84687,1,8,0:0:0:0:
256,192,84770,1,8,0:0:0:0:
256,192,84853,1,0,0:0:0:0:
256,192,84937,1,0,0:0:0:0:
256,192,85020,1,0,0:0:0:0:
256,192,85103,1,0,0:0:0:0:
256,192,85187,1,0,0:0:0:0:
256,192,85270,1,0,0:0:0:0:
256,192,85353,1,8,0:0:0:0:
256,192,85687,1,8,0:0:0:0:
256,192,85853,1,8,0:0:0:0:
256,192,86020,1,0,0:0:0:0:
256,192,86187,1,8,0:0:0:0:
256,192,86353,1,8,0:0:0:0:
256,192,86520,1,4,0:0:0:0:
256,192,86687,1,8,0:0:0:0:
256,192,87020,1,8,0:0:0:0:
256,192,87103,1,8,0:0:0:0:
256,192,87187,1,8,0:0:0:0:
256,192,87242,1,0,0:0:0:0:
256,192,87298,1,0,0:0:0:0:
256,192,87353,1,8,0:0:0:0:
256,192,87520,1,8,0:0:0:0:
256,192,87687,1,8,0:0:0:0:
256,192,87853,1,0,0:0:0:0:
256,192,88020,1,12,0:0:0:0:
256,192,88353,1,8,0:0:0:0:
256,192,88520,1,8,0:0:0:0:
256,192,88687,1,0,0:0:0:0:
256,192,88853,1,8,0:0:0:0:
256,192,89020,1,8,0:0:0:0:
256,192,89187,1,0,0:0:0:0:
256,192,89353,1,8,0:0:0:0:
256,192,89437,1,0,0:0:0:0:
256,192,89520,1,8,0:0:0:0:
256,192,89603,1,0,0:0:0:0:
256,192,89687,1,8,0:0:0:0:
256,192,89770,1,0,0:0:0:0:
256,192,89853,1,8,0:0:0:0:
256,192,89937,1,0,0:0:0:0:
256,192,90020,1,8,0:0:0:0:
256,192,90103,1,0,0:0:0:0:
256,192,90187,1,8,0:0:0:0:
256,192,90270,1,0,0:0:0:0:
256,192,90353,1,8,0:0:0:0:
256,192,90520,1,0,0:0:0:0:
256,192,90687,1,12,0:0:0:0:
256,192,91020,1,0,0:0:0:0:
256,192,91103,1,0,0:0:0:0:
256,192,91187,1,0,0:0:0:0:
256,192,91353,1,0,0:0:0:0:
256,192,91520,1,8,0:0:0:0:
256,192,91687,1,8,0:0:0:0:
256,192,91853,1,8,0:0:0:0:
256,192,92020,1,0,0:0:0:0:
256,192,92103,1,0,0:0:0:0:
256,192,92187,1,0,0:0:0:0:
256,192,92353,1,8,0:0:0:0:
256,192,92520,1,0,0:0:0:0:
256,192,92576,1,0,0:0:0:0:
256,192,92631,1,0,0:0:0:0:
256,192,92687,1,8,0:0:0:0:
256,192,92853,1,8,0:0:0:0:
256,192,93020,1,8,0:0:0:0:
256,192,93187,1,0,0:0:0:0:
256,192,93353,1,12,0:0:0:0:
256,192,93520,1,0,0:0:0:0:
256,192,93687,1,8,0:0:0:0:
256,192,93770,1,8,0:0:0:0:
256,192,93853,1,8,0:0:0:0:
256,192,94020,1,8,0:0:0:0:
256,192,94187,1,0,0:0:0:0:
256,192,94353,1,8,0:0:0:0:
256,192,94603,1,0,0:0:0:0:
256,192,94687,1,8,0:0:0:0:
256,192,94853,1,8,0:0:0:0:
256,192,94937,1,0,0:0:0:0:
256,192,95020,1,8,0:0:0:0:
256,192,95187,1,0,0:0:0:0:
256,192,95298,1,0,0:0:0:0:
256,192,95353,1,0,0:0:0:0:
256,192,95520,1,8,0:0:0:0:
256,192,95603,1,8,0:0:0:0:
256,192,95687,1,0,0:0:0:0:
256,192,95853,1,0,0:0:0:0:
256,192,96020,1,8,0:0:0:0:
256,192,96353,1,8,0:0:0:0:
256,192,96437,1,0,0:0:0:0:
256,192,96520,1,8,0:0:0:0:
256,192,96603,1,0,0:0:0:0:
256,192,96645,1,0,0:0:0:0:
256,192,96687,1,8,0:0:0:0:
256,192,96770,1,0,0:0:0:0:
256,192,96853,1,8,0:0:0:0:
256,192,96937,1,0,0:0:0:0:
256,192,97020,1,8,0:0:0:0:
256,192,97103,1,0,0:0:0:0:
256,192,97187,1,8,0:0:0:0:
256,192,97270,1,0,0:0:0:0:
256,192,97353,1,8,0:0:0:0:
256,192,97437,1,0,0:0:0:0:
256,192,97520,1,8,0:0:0:0:
256,192,97603,1,0,0:0:0:0:
256,192,97687,1,8,0:0:0:0:
256,192,97770,1,8,0:0:0:0:
256,192,97853,1,8,0:0:0:0:
256,192,97909,1,8,0:0:0:0:
256,192,97965,1,8,0:0:0:0:
256,192,98020,1,8,0:0:0:0:
256,192,98103,1,0,0:0:0:0:
256,192,98187,1,8,0:0:0:0:
256,192,98270,1,0,0:0:0:0:
256,192,98353,1,8,0:0:0:0:
256,192,98437,1,8,0:0:0:0:
256,192,98520,1,0,0:0:0:0:
256,192,98603,1,0,0:0:0:0:
256,192,98687,1,8,0:0:0:0:
256,192,99020,1,8,0:0:0:0:
256,192,99103,1,0,0:0:0:0:
256,192,99187,1,8,0:0:0:0:
256,192,99270,1,0,0:0:0:0:
256,192,99353,1,8,0:0:0:0:
256,192,99437,1,8,0:0:0:0:
256,192,99520,1,0,0:0:0:0:
256,192,99603,1,0,0:0:0:0:
256,192,99687,1,8,0:0:0:0:
256,192,99770,1,8,0:0:0:0:
256,192,99853,1,0,0:0:0:0:
256,192,99937,1,0,0:0:0:0:
256,192,100020,1,8,0:0:0:0:
256,192,100103,1,0,0:0:0:0:
256,192,100187,1,8,0:0:0:0:
256,192,100270,1,0,0:0:0:0:
256,192,100353,1,8,0:0:0:0:
256,192,100437,1,0,0:0:0:0:
256,192,100520,1,8,0:0:0:0:
256,192,100603,1,0,0:0:0:0:
256,192,100687,1,8,0:0:0:0:
256,192,100770,1,0,0:0:0:0:
256,192,100853,1,8,0:0:0:0:
256,192,100937,1,0,0:0:0:0:
256,192,101020,1,8,0:0:0:0:
256,192,101187,1,12,0:0:0:0:
256,192,101353,1,0,0:0:0:0:
256,192,101687,1,0,0:0:0:0:
256,192,101853,1,0,0:0:0:0:
256,192,102020,1,8,0:0:0:0:
256,192,102187,1,0,0:0:0:0:
256,192,102353,1,0,0:0:0:0:
256,192,102520,1,0,0:0:0:0:
256,192,102687,1,12,0:0:0:0:
256,192,103020,1,0,0:0:0:0:
256,192,103187,1,0,0:0:0:0:
256,192,103242,1,0,0:0:0:0:
256,192,103298,1,0,0:0:0:0:
256,192,103353,1,8,0:0:0:0:
256,192,103520,1,8,0:0:0:0:
256,192,103687,1,0,0:0:0:0:
256,192,103853,1,0,0:0:0:0:
256,192,104020,1,12,0:0:0:0:
256,192,104187,1,0,0:0:0:0:
256,192,104353,1,8,0:0:0:0:
256,192,104520,1,8,0:0:0:0:
256,192,104687,1,4,0:0:0:0:
256,192,104853,1,8,0:0:0:0:
256,192,104937,1,8,0:0:0:0:
256,192,105020,1,0,0:0:0:0:
256,192,105187,1,0,0:0:0:0:
256,192,105353,1,12,0:0:0:0:
256,192,105520,1,8,0:0:0:0:
256,192,105603,1,0,0:0:0:0:
256,192,105687,1,8,0:0:0:0:
256,192,105853,1,8,0:0:0:0:
256,192,106020,1,8,0:0:0:0:
256,192,106103,1,0,0:0:0:0:
256,192,106187,1,8,0:0:0:0:
256,192,106353,1,8,0:0:0:0:
256,192,106520,1,8,0:0:0:0:
256,192,106603,1,8,0:0:0:0:
256,192,106687,1,0,0:0:0:0:
256,192,106853,1,8,0:0:0:0:
256,192,107019,1,0,0:0:0:0:
256,192,107187,1,8,0:0:0:0:
256,192,107353,1,0,0:0:0:0:
256,192,107520,1,8,0:0:0:0:
256,192,107687,1,8,0:0:0:0:
256,192,107853,1,8,0:0:0:0:
256,192,108020,1,0,0:0:0:0:
256,192,108187,1,8,0:0:0:0:
256,192,108353,1,8,0:0:0:0:
256,192,108437,1,8,0:0:0:0:
256,192,108520,1,8,0:0:0:0:
256,192,108603,1,0,0:0:0:0:
256,192,108687,1,0,0:0:0:0:
256,192,108853,1,0,0:0:0:0:
256,192,109020,1,8,0:0:0:0:
256,192,109187,1,8,0:0:0:0:
256,192,109353,1,0,0:0:0:0:
256,192,109520,1,8,0:0:0:0:
256,192,109687,1,0,0:0:0:0:
256,192,109853,1,0,0:0:0:0:
256,192,110020,1,8,0:0:0:0:
256,192,110187,1,0,0:0:0:0:
256,192,110353,1,8,0:0:0:0:
256,192,110520,1,0,0:0:0:0:
256,192,110687,1,8,0:0:0:0:
256,192,110770,1,0,0:0:0:0:
256,192,110853,1,8,0:0:0:0:
256,192,110937,1,0,0:0:0:0:
256,192,111020,1,8,0:0:0:0:
256,192,111103,1,0,0:0:0:0:
256,192,111187,1,8,0:0:0:0:
256,192,111270,1,0,0:0:0:0:
256,192,111353,1,8,0:0:0:0:
256,192,111437,1,0,0:0:0:0:
256,192,111520,1,8,0:0:0:0:
256,192,111603,1,0,0:0:0:0:
256,192,111687,1,8,0:0:0:0:
256,192,111728,1,8,0:0:0:0:
256,192,111770,1,8,0:0:0:0:
256,192,111812,1,8,0:0:0:0:
256,192,111853,1,8,0:0:0:0:
256,192,111937,1,0,0:0:0:0:
256,192,112020,1,8,0:0:0:0:
256,192,112103,1,0,0:0:0:0:
256,192,112187,1,8,0:0:0:0:
256,192,112270,1,0,0:0:0:0:
256,192,112353,1,8,0:0:0:0:
256,192,112437,1,8,0:0:0:0:
256,192,112520,1,8,0:0:0:0:
256,192,112603,1,8,0:0:0:0:
256,192,112687,1,0,0:0:0:0:
256,192,112770,1,0,0:0:0:0:
256,192,112853,1,0,0:0:0:0:
256,192,112937,1,0,0:0:0:0:
256,192,113020,1,0,0:0:0:0:
256,192,113103,1,0,0:0:0:0:
256,192,113187,1,0,0:0:0:0:
256,192,113270,1,0,0:0:0:0:
256,192,113353,1,8,0:0:0:0:
256,192,113437,1,8,0:0:0:0:
256,192,113520,1,8,0:0:0:0:
256,192,113603,1,0,0:0:0:0:
256,192,113687,1,8,0:0:0:0:
256,192,113770,1,0,0:0:0:0:
256,192,113853,1,8,0:0:0:0:
256,192,113937,1,8,0:0:0:0:
256,192,114020,1,8,0:0:0:0:
256,192,114103,1,0,0:0:0:0:
256,192,114187,1,8,0:0:0:0:
256,192,114270,1,0,0:0:0:0:
256,192,114353,1,8,0:0:0:0:
256,192,114437,1,0,0:0:0:0:
256,192,114520,1,0,0:0:0:0:
256,192,114603,1,0,0:0:0:0:
256,192,114687,1,0,0:0:0:0:
256,192,114770,1,0,0:0:0:0:
256,192,114853,1,8,0:0:0:0:
256,192,114937,1,8,0:0:0:0:
256,192,115020,1,0,0:0:0:0:
256,192,115103,1,0,0:0:0:0:
256,192,115187,1,8,0:0:0:0:
256,192,115270,1,8,0:0:0:0:
256,192,115353,1,0,0:0:0:0:
256,192,115437,1,0,0:0:0:0:
256,192,115520,1,8,0:0:0:0:
256,192,115603,1,8,0:0:0:0:
256,192,115687,1,0,0:0:0:0:
256,192,115770,1,0,0:0:0:0:
256,192,115853,1,8,0:0:0:0:
256,192,115937,1,8,0:0:0:0:
256,192,116020,1,0,0:0:0:0:
256,192,116270,1,8,0:0:0:0:
256,192,116353,1,0,0:0:0:0:
256,192,116520,1,8,0:0:0:0:
256,192,116645,1,0,0:0:0:0:
256,192,116687,1,0,0:0:0:0:
256,192,116853,1,8,0:0:0:0:
256,192,117020,1,0,0:0:0:0:
256,192,117187,1,0,0:0:0:0:
256,192,117353,1,12,0:0:0:0:
