osu file format v14

[General]
AudioFilename: audio.mp3
AudioLeadIn: 0
PreviewTime: 580
Countdown: 0
SampleSet: Soft
StackLeniency: 0.7
Mode: 0
LetterboxInBreaks: 0
EpilepsyWarning: 1
WidescreenStoryboard: 1

[Editor]
DistanceSpacing: 0.8
BeatDivisor: 4
GridSize: 32
TimelineZoom: 3.4

[Metadata]
Title:Narcissus At Oasis (Freezer Remix)
TitleUnicode:Narcissus At Oasis (Freezer Remix)
Artist:Freezer
ArtistUnicode:Freezer
Creator:EijiKuinbii
Version:Insane
Source:SOUND VOLTEX IV HEAVENLY HAVEN
Tags:Ryu☆ SDVX melodic dubstep neuro drumstep wooble bass downtempo glitch pitch halfstep Silver_Cr0w AJIekceu Remus Missing Link SoldatRacer buhaha PandaHero DefendeRDjulus Livstvichka yShadowXOP_ avalanche -Light- shmiklak marvollo m_a_r_v_o_l_l_o Don Omar EYA-
BeatmapID:1361514
BeatmapSetID:614615

[Difficulty]
HPDrainRate:4
CircleSize:3.5
OverallDifficulty:7
ApproachRate:9
SliderMultiplier:2.5
SliderTickRate:1

[Events]
//Background and Video events
0,0,"_BG.jpg",0,0
//Break Periods
//Storyboard Layer 0 (Background)
//Storyboard Layer 1 (Fail)
//Storyboard Layer 2 (Pass)
//Storyboard Layer 3 (Foreground)
//Storyboard Sound Samples

[TimingPoints]
580,387.096774193548,4,2,1,45,1,0
25354,-50,4,2,1,45,0,1
50128,-100,4,2,1,45,0,0
53225,-50,4,2,1,45,0,1
56321,-100,4,2,1,45,0,0
59418,-50,4,2,1,45,0,1
62515,-100,4,2,1,45,0,0
73354,333.333333333333,4,2,1,70,1,0
81603,-100,4,2,1,5,0,0
81687,-100,4,2,1,70,0,0
81937,-100,4,2,1,5,0,0
82020,-100,4,2,1,70,0,0
82270,-100,4,2,1,5,0,0
82353,-100,4,2,1,70,0,0
85353,-50,4,2,1,70,0,1
96020,-100,4,2,1,70,0,0
96687,-50,4,2,1,70,0,1
106687,-100,4,2,1,70,0,0
117020,-200,4,2,1,70,0,0

[Colours]
Combo1 : 55,87,119
Combo2 : 172,253,237
Combo3 : 206,206,206
Combo4 : 226,177,245

[HitObjects]
174,112,580,6,0,B|146:260|146:260|185:204,1,187.5,2|0,0:0|0:0,0:0:0:0:
264,209,967,1,0,0:0:0:0:
264,209,1160,1,0,0:0:0:0:
342,163,1354,1,8,0:0:0:0:
257,112,1547,1,0,0:0:0:0:
409,89,1741,2,0,P|440:188|370:261,1,187.5,0|0,0:0|0:0,0:0:0:0:
301,236,2128,5,2,0:0:0:0:
264,209,2321,1,0,0:0:0:0:
225,305,2515,1,0,0:0:0:0:
355,317,2709,2,0,P|381:340|389:369,1,62.5,0|0,0:0|0:0,0:0:0:0:
388,365,2902,2,0,L|398:217,1,125,8|0,0:0|0:0,0:0:0:0:
314,153,3289,1,0,0:0:0:0:
314,153,3483,1,0,0:0:0:0:
127,92,3676,6,0,L|264:79,1,125,2|0,0:0|0:0,0:0:0:0:
314,153,4063,1,0,0:0:0:0:
314,153,4257,1,0,0:0:0:0:
44,140,4450,2,0,P|10:220|27:266,1,125,8|0,0:0|0:0,0:0:0:0:
100,212,4838,2,0,L|224:226,1,125,0|0,0:0|0:0,0:0:0:0:
314,153,5225,6,0,B|316:225|316:225|308:265|308:265|312:346,2,187.5,8|8|8,0:0|0:0|0:0,0:0:0:0:
249,45,5999,1,8,0:0:0:0:
334,72,6192,1,0,0:0:0:0:
170,84,6386,2,0,L|99:73,3,62.5,0|0|0|0,0:0|0:0|0:0|0:0,0:0:0:0:
170,84,6773,6,0,P|193:147|177:226,1,125,2|0,0:0|0:0,0:0:0:0:
92,260,7160,1,0,0:0:0:0:
92,260,7354,1,0,0:0:0:0:
90,166,7547,1,8,0:0:0:0:
10,210,7741,1,0,0:0:0:0:
94,352,7934,2,0,L|228:342,1,125,0|0,0:0|0:0,0:0:0:0:
427,166,8321,6,0,P|333:226|330:363,1,250,2|0,0:0|0:0,0:0:0:0:
473,262,8902,2,0,L|416:254,3,41.6666666666667,0|0|0|8,0:0|0:0|0:0|0:0,0:0:0:0:
512,189,9289,1,0,0:0:0:0:
494,107,9483,1,0,0:0:0:0:
421,65,9676,1,0,0:0:0:0:
221,96,9870,6,0,B|268:91|268:91|302:96|302:96|365:92,1,125,2|0,0:0|0:0,0:0:0:0:
421,65,10257,1,0,0:0:0:0:
421,65,10450,1,0,0:0:0:0:
174,27,10644,2,0,P|139:109|174:165,1,125,8|0,0:0|0:0,0:0:0:0:
227,268,11031,1,0,0:0:0:0:
252,273,11225,1,0,0:0:0:0:
144,321,11418,6,0,B|116:219|175:237|147:129,2,187.5,8|8|0,0:0|0:0|0:0,0:0:0:0:
252,273,12192,1,8,0:0:0:0:
393,224,12386,1,4,0:0:0:0:
393,224,12483,1,4,0:0:0:0:
393,224,12579,1,2,0:0:0:0:
207,182,12773,1,0,0:0:0:0:
443,148,12967,6,0,P|480:210|480:230,2,62.5,2|0|0,0:0|0:0|0:0,0:0:0:0:
405,71,13354,2,0,P|440:7|457:-2,2,62.5,0|0|0,0:0|0:0|0:0,0:0:0:0:
361,144,13741,2,0,P|288:145|271:135,2,62.5,0|0|0,0:0|0:0|0:0,0:0:0:0:
443,148,14128,1,0,0:0:0:0:
114,238,14515,6,0,P|77:300|77:320,2,62.5,2|0|0,0:0|0:0|0:0,0:0:0:0:
152,161,14902,2,0,P|116:97|99:87,2,62.5,0|0|0,0:0|0:0|0:0,0:0:0:0:
196,234,15289,2,0,P|268:235|285:225,2,62.5,0|0|0,0:0|0:0|0:0,0:0:0:0:
114,238,15676,1,0,0:0:0:0:
358,313,16063,6,0,P|285:314|268:304,2,62.5,2|0|0,0:0|0:0|0:0,0:0:0:0:
443,318,16450,2,0,P|480:380|480:400,2,62.5,0|0|0,0:0|0:0|0:0,0:0:0:0:
402,243,16837,2,0,P|437:179|454:169,2,62.5,0|0|0,0:0|0:0|0:0,0:0:0:0:
358,313,17224,1,0,0:0:0:0:
124,92,17612,6,0,P|115:61|97:36,2,62.5,2|0|0,0:0|0:0|0:0,0:0:0:0:
171,162,17999,2,0,P|201:170|232:167,2,62.5,0|0|0,0:0|0:0|0:0,0:0:0:0:
87,164,18386,2,0,P|65:186|52:214,2,62.5,0|0|0,0:0|0:0|0:0,0:0:0:0:
124,92,18773,1,0,0:0:0:0:
308,144,19160,5,2,0:0:0:0:
308,144,19354,1,0,0:0:0:0:
304,244,19547,1,0,0:0:0:0:
304,244,19741,1,0,0:0:0:0:
204,240,19934,1,0,0:0:0:0:
204,240,20128,1,0,0:0:0:0:
208,140,20321,1,0,0:0:0:0:
208,140,20515,2,0,P|203:104|182:69,1,62.5,4|4,0:0|0:0,0:0:0:0:
125,137,20709,6,0,P|88:197|99:250,1,125,2|0,0:0|0:0,0:0:0:0:
201,323,21096,2,0,P|261:360|314:349,1,125,0|0,0:0|0:0,0:0:0:0:
387,247,21483,2,0,P|424:187|413:134,1,125,0|0,0:0|0:0,0:0:0:0:
311,61,21870,2,0,P|251:24|198:35,1,125,0|0,0:0|0:0,0:0:0:0:
200,33,22112,6,0,L|191:87,3,31.25,0|0|0|2,0:0|0:0|0:0|0:0,0:0:0:0:
90,197,22450,1,0,0:0:0:0:
298,212,22644,2,0,B|226:196|170:248|170:248|306:286|406:149|406:149|394:261|453:313|453:313|504:274|500:208,1,687.5,0|0,0:0|0:0,0:0:0:0:
256,192,24386,12,0,25257,0:0:0:0:
87,46,25354,6,0,P|37:158|52:281,1,250,8|0,0:0|0:0,0:0:0:0:
373,196,25741,2,0,B|282:175|282:175|226:189|226:189|126:167,1,250,2|2,0:0|0:0,0:0:0:0:
445,111,26128,1,8,0:0:0:0:
461,130,26321,1,0,0:0:0:0:
449,316,26515,1,0,0:0:0:0:
363,75,26709,2,0,P|432:24|489:37,1,125,4|0,0:0|0:0,0:0:0:0:
461,130,26902,6,0,B|374:179|374:179|281:141|281:141|31:157,1,375,8|0,0:0|0:0,0:0:0:0:
16,226,27289,2,0,L|33:353,2,125,4|4|0,0:0|0:0|0:0,0:0:0:0:
191,48,27676,1,8,0:0:0:0:
400,127,27870,1,8,0:0:0:0:
321,336,28063,1,8,0:0:0:0:
112,257,28257,2,0,L|129:384,1,125,2|0,0:0|0:0,0:0:0:0:
208,321,28450,6,0,B|221:204|221:204|132:153|132:153|207:-20,1,375,8|0,0:0|0:0,0:0:0:0:
484,125,28838,2,0,B|331:84|382:164|240:119,1,250,2|2,0:0|0:0,0:0:0:0:
413,202,29225,1,8,0:0:0:0:
91,270,29418,2,0,P|211:206|340:295,2,250,2|2|4,0:0|0:0|0:0,0:0:0:0:
449,326,29999,6,0,L|452:191,1,125,8|0,0:0|0:0,0:0:0:0:
428,313,30192,1,8,0:0:0:0:
302,252,30386,2,0,L|299:117,1,125,8|0,0:0|0:0,0:0:0:0:
323,239,30579,1,8,0:0:0:0:
191,333,30773,2,0,L|194:198,1,125,8|0,0:0|0:0,0:0:0:0:
170,320,30966,1,8,0:0:0:0:
39,261,31160,2,0,L|36:126,2,125,2|0|2,0:0|0:0|0:0,0:0:0:0:
293,143,31547,6,0,P|204:41|86:119,1,250,8|0,0:0|0:0,0:0:0:0:
191,333,31934,2,0,L|319:351,2,125,4|4|4,0:0|0:0|0:0,0:0:0:0:
312,250,32321,1,8,0:0:0:0:
197,231,32515,1,2,0:0:0:0:
380,150,32709,1,8,0:0:0:0:
151,114,32902,1,2,0:0:0:0:
312,73,33096,5,4,0:0:0:0:
313,81,33192,1,4,0:0:0:0:
315,89,33289,1,4,0:0:0:0:
197,231,33483,1,8,0:0:0:0:
361,240,33676,1,0,0:0:0:0:
372,235,33773,1,0,0:0:0:0:
384,231,33870,2,0,B|446:217|446:217|518:243,1,125,8|0,0:0|0:0,0:0:0:0:
508,258,34063,1,8,0:0:0:0:
512,275,34257,1,8,0:0:0:0:
203,328,34450,2,0,L|210:203,1,125,2|0,0:0|0:0,0:0:0:0:
86,78,34644,6,0,P|8:200|75:306,1,250,8|0,0:0|0:0,0:0:0:0:
310,95,35031,2,0,B|261:83|261:83|230:98|230:98|171:86,2,125,4|4|4,0:0|0:0|0:0,0:0:0:0:
484,39,35418,1,8,0:0:0:0:
463,129,35612,1,8,0:0:0:0:
400,26,35805,1,8,0:0:0:0:
379,25,35999,1,2,0:0:0:0:
359,25,36192,6,0,B|283:76|283:76|199:29|199:29|10:66,2,375,8|8|8,0:0|0:0|0:0,0:0:0:0:
158,136,36967,1,0,0:0:0:0:
96,210,37160,1,2,0:0:0:0:
142,296,37354,2,0,B|257:353|347:241|347:241|318:207|270:181|214:224,1,375,2|0,0:0|0:0,0:0:0:0:
221,218,37741,6,0,P|93:138|102:52,1,250,8|0,0:0|0:0,0:0:0:0:
394,68,38128,1,2,0:0:0:0:
407,153,38321,1,2,0:0:0:0:
307,70,38515,2,0,L|172:57,7,125,4|4|4|4|4|4|4|4,0:0|0:0|0:0|0:0|0:0|0:0|0:0|0:0,0:0:0:0:
394,68,39289,5,2,0:0:0:0:
407,153,39482,1,2,0:0:0:0:
112,166,39676,1,8,0:0:0:0:
331,220,39870,1,2,0:0:0:0:
204,118,40063,1,8,0:0:0:0:
225,325,40257,1,2,0:0:0:0:
112,166,40450,1,8,0:0:0:0:
331,220,40644,1,2,0:0:0:0:
123,266,40838,6,0,P|9:185|39:88,1,250,8|0,0:0|0:0,0:0:0:0:
290,145,41225,1,2,0:0:0:0:
331,220,41418,1,2,0:0:0:0:
418,221,41612,2,0,L|405:361,7,125,4|4|4|4|4|4|4|4,0:0|0:0|0:0|0:0|0:0|0:0|0:0|0:0,0:0:0:0:
290,145,42386,5,8,0:0:0:0:
331,220,42579,1,2,0:0:0:0:
351,89,42773,1,2,0:0:0:0:
290,145,42967,1,8,0:0:0:0:
190,57,43160,1,2,0:0:0:0:
272,60,43354,1,2,0:0:0:0:
130,126,43547,2,0,B|81:115|43:75|43:75|74:358,1,375,8|0,0:0|0:0,0:0:0:0:
72,346,43934,6,0,B|189:364|189:364|236:316|236:316|465:338,1,375,8|0,0:0|0:0,0:0:0:0:
465,255,44321,2,0,L|457:124,1,125,2|0,0:0|0:0,0:0:0:0:
441,249,44515,1,2,0:0:0:0:
281,210,44709,2,0,L|289:79,1,125,2|0,0:0|0:0,0:0:0:0:
305,204,44903,1,2,0:0:0:0:
125,260,45096,2,0,L|117:129,1,125,2|0,0:0|0:0,0:0:0:0:
101,254,45290,1,2,0:0:0:0:
204,20,45483,6,0,P|359:17|383:147,1,250,8|0,0:0|0:0,0:0:0:0:
441,313,45870,2,0,B|343:366|343:366|271:329|271:329|75:351,1,375,8|0,0:0|0:0,0:0:0:0:
17,300,46257,1,8,0:0:0:0:
234,253,46450,1,2,0:0:0:0:
67,22,46644,2,0,P|20:144|115:217,1,250,8|0,0:0|0:0,0:0:0:0:
485,153,47031,6,0,B|347:114|347:114|245:147|245:147|125:117,1,375,8|0,0:0|0:0,0:0:0:0:
96,214,47418,2,0,L|106:371,2,125,2|0|2,0:0|0:0|0:0,0:0:0:0:
344,209,47805,1,2,0:0:0:0:
154,16,47999,1,4,0:0:0:0:
150,26,48096,1,4,0:0:0:0:
146,34,48192,1,6,0:0:0:0:
96,214,48386,1,2,0:0:0:0:
285,146,48579,5,8,0:0:0:0:
378,149,48773,1,2,0:0:0:0:
330,227,48967,1,2,0:0:0:0:
202,93,49160,1,8,0:0:0:0:
61,104,49354,1,2,0:0:0:0:
154,16,49547,1,2,0:0:0:0:
101,189,49741,2,0,B|152:270|148:304|106:393|106:393|-14:357|50:242,1,375,8|0,0:0|0:0,0:0:0:0:
101,189,50128,6,0,B|179:124|275:164|275:164|319:268|439:254|439:254|457:184|428:149,1,500,2|8,0:0|0:0,0:0:0:0:
428,149,51676,6,0,B|457:184|439:254|439:254|319:268|275:164|275:164|179:124|101:189,1,500,2|6,0:0|0:0,0:0:0:0:
101,188,53225,6,0,P|87:275|236:347,1,250,8|0,0:0|0:0,0:0:0:0:
205,156,53612,1,0,0:0:0:0:
197,248,53805,1,2,0:0:0:0:
352,194,53999,1,12,0:0:0:0:
344,102,54192,1,6,0:0:0:0:
205,156,54386,1,2,0:0:0:0:
197,248,54579,1,2,0:0:0:0:
428,250,54773,6,0,B|458:319|458:319|488:127,2,250,8|2|2,0:0|0:0|0:0,0:0:0:0:
197,248,55354,1,8,0:0:0:0:
352,194,55547,1,2,0:0:0:0:
194,31,55741,2,0,L|205:162,1,125,2|0,0:0|0:0,0:0:0:0:
285,260,55934,2,0,L|274:391,2,125,6|6|6,0:0|0:0|0:0,0:0:0:0:
352,194,56321,6,0,B|406:125|406:125|320:59|320:59|263:122|263:122|167:112|167:112|46:129,1,500,2|8,0:0|0:0,0:0:0:0:
46,129,57870,6,0,B|167:112|167:112|263:122|263:122|320:59|320:59|406:125|406:125|352:194,1,500,2|10,0:0|0:0,0:0:0:0:
351,194,59418,6,0,P|306:300|403:362,1,250,8|0,0:0|0:0,0:0:0:0:
471,101,59805,2,0,L|326:107,1,125,2|0,0:0|0:0,0:0:0:0:
475,80,59999,1,2,0:0:0:0:
142,145,60192,2,0,L|287:151,1,125,8|0,0:0|0:0,0:0:0:0:
138,124,60386,1,2,0:0:0:0:
136,103,60579,1,2,0:0:0:0:
134,81,60773,1,2,0:0:0:0:
60,292,60967,6,0,B|293:348|226:232|426:283,1,375,8|0,0:0|0:0,0:0:0:0:
511,229,61354,2,0,P|404:83|223:183,1,375,2|6,0:0|0:0,0:0:0:0:
203,217,61741,1,10,0:0:0:0:
363,226,61934,1,8,0:0:0:0:
113,184,62128,1,6,0:0:0:0:
110,173,62225,1,6,0:0:0:0:
107,161,62321,1,6,0:0:0:0:
142,79,62515,6,0,B|256:41|256:41|352:57|352:57|510:54|510:54|388:81,1,500,2|8,0:0|0:0,0:0:0:0:
388,81,64063,6,0,B|510:54|510:54|352:57|352:57|256:41|256:41|142:79,1,500,2|8,0:0|0:0,0:0:0:0:
193,228,65031,5,2,0:0:0:0:
307,250,65225,1,2,0:0:0:0:
265,137,65418,1,2,0:0:0:0:
231,334,65612,6,0,P|25:262|141:78,1,500,8|8,0:0|0:0,0:0:0:0:
141,78,67160,6,0,P|25:262|231:334,1,500,2|10,0:0|0:0,0:0:0:0:
250,160,68321,5,4,0:0:0:0:
251,171,68418,1,4,0:0:0:0:
252,182,68515,1,6,0:0:0:0:
169,100,68709,6,0,B|258:52|258:52|320:103|320:103|523:110|523:110|408:123,1,500,8|8,0:0|0:0,0:0:0:0:
408,123,70257,6,0,B|523:110|523:110|320:103|320:103|258:52|258:52|169:100,1,500,2|10,0:0|0:0,0:0:0:0:
133,224,71225,5,2,0:0:0:0:
152,349,71418,1,2,0:0:0:0:
205,281,71612,1,2,0:0:0:0:
22,178,71805,6,0,B|118:120|118:120|241:175|241:175|433:160|433:160|360:149,1,500,8|8,0:0|0:0,0:0:0:0:
374,151,73354,5,6,0:0:0:0:
256,192,73854,12,0,74687,0:0:0:0:
262,142,75020,5,8,0:0:0:0:
243,139,75354,1,8,0:0:0:0:
224,136,75687,1,8,0:0:0:0:
93,273,76020,5,8,0:0:0:0:
111,270,76354,1,8,0:0:0:0:
130,267,76687,1,8,0:0:0:0:
149,264,77020,1,8,0:0:0:0:
341,180,77354,6,0,P|343:96|291:57,1,125,8|0,0:0|0:0,0:0:0:0:
262,142,77687,1,8,0:0:0:0:
149,264,78020,2,0,P|147:180|199:141,1,125,8|0,0:0|0:0,0:0:0:0:
228,226,78353,1,8,0:0:0:0:
161,28,78687,6,0,L|173:180,1,125,8|0,0:0|0:0,0:0:0:0:
252,17,79020,2,0,L|264:169,1,125,8|0,0:0|0:0,0:0:0:0:
343,6,79354,2,0,L|355:158,1,125,8|0,0:0|0:0,0:0:0:0:
441,117,79687,2,0,L|446:55,3,62.5,8|0|0|0,0:0|0:0|0:0|0:0,0:0:0:0:
352,130,80020,6,0,L|346:215,2,62.5,8|0|0,0:0|0:0|0:0,0:0:0:0:
214,180,80354,2,0,L|220:265,2,62.5,8|0|0,0:0|0:0|0:0,0:0:0:0:
59,124,80687,2,0,L|53:209,2,62.5,8|0|0,0:0|0:0|0:0,0:0:0:0:
199,90,81020,1,8,0:0:0:0:
352,130,81187,2,0,L|346:215,1,62.5,0|0,0:0|0:0,0:0:0:0:
343,291,81353,6,0,P|261:284|186:187,1,187.5,8|0,0:0|0:0,0:0:0:0:
165,166,81687,2,0,P|199:239|153:353,1,187.5,8|0,0:0|0:0,0:0:0:0:
146,383,82020,2,0,P|192:315|313:299,1,187.5,8|0,0:0|0:0,0:0:0:0:
343,291,82353,1,8,0:0:0:0:
453,343,82520,2,0,L|447:386,2,41.6666666666667,0|0|0,0:0|0:0|0:0,0:0:0:0:
428,247,82687,6,0,L|523:242,3,62.5,2|0|2|0,0:0|0:0|0:0|0:0,0:0:0:0:
335,199,83020,2,0,L|272:202,3,62.5,2|0|2|0,0:0|0:0|0:0|0:0,0:0:0:0:
434,148,83353,2,0,L|529:143,3,62.5,2|0|2|0,0:0|0:0|0:0|0:0,0:0:0:0:
341,100,83687,2,0,L|278:102,3,62.5,2|0|0|0,0:0|0:0|0:0|0:0,0:0:0:0:
423,53,84020,5,8,0:0:0:0:
256,192,84520,12,0,85187,0:0:0:0:
78,94,85353,6,0,B|192:48|192:48|279:96|279:96|500:102,1,375,8|0,0:0|0:0,0:0:0:0:
487,41,85687,1,2,0:0:0:0:
312,3,85853,1,2,0:0:0:0:
295,15,86020,1,8,0:0:0:0:
186,140,86187,2,0,B|160:259|246:264|220:384,2,250,2|2|8,0:0|0:0|0:0,0:0:0:0:
359,158,86687,6,0,P|436:148|306:227,1,500,8|6,0:0|0:0,0:0:0:0:
281,127,87187,2,0,P|317:83|341:73,2,83.3333333333333,6|0|0,0:0|0:0|0:0,0:0:0:0:
294,211,87353,1,8,0:0:0:0:
413,249,87520,1,2,0:0:0:0:
241,273,87687,1,2,0:0:0:0:
472,318,87853,2,0,P|505:246|481:192,1,125,8|0,0:0|0:0,0:0:0:0:
490,88,88020,6,0,B|391:98|391:98|306:42|306:42|121:50,1,375,8|0,0:0|0:0,0:0:0:0:
62,103,88353,1,2,0:0:0:0:
76,261,88520,1,2,0:0:0:0:
84,243,88687,1,8,0:0:0:0:
289,134,88853,2,0,B|297:226|297:226|284:287|284:287|293:392,2,250,2|2|8,0:0|0:0|0:0,0:0:0:0:
471,74,89353,6,0,L|339:60,1,125,2|0,0:0|0:0,0:0:0:0:
480,57,89520,1,2,0:0:0:0:
164,147,89687,2,0,L|296:133,1,125,2|0,0:0|0:0,0:0:0:0:
155,130,89854,1,2,0:0:0:0:
501,185,90020,2,0,L|369:171,1,125,2|0,0:0|0:0,0:0:0:0:
510,168,90187,1,2,0:0:0:0:
119,235,90353,1,8,0:0:0:0:
399,93,90520,1,8,0:0:0:0:
376,341,90687,6,0,P|329:169|155:130,1,375,8|0,0:0|0:0,0:0:0:0:
119,235,91020,2,0,L|128:378,2,125,6|6|6,0:0|0:0|0:0,0:0:0:0:
82,93,91353,1,10,0:0:0:0:
197,209,91520,1,2,0:0:0:0:
151,45,91687,1,2,0:0:0:0:
41,207,91853,1,2,0:0:0:0:
261,130,92020,5,10,0:0:0:0:
263,142,92104,1,2,0:0:0:0:
265,155,92187,1,2,0:0:0:0:
335,264,92353,2,0,B|357:141|357:141|350:-8,1,250,8|0,0:0|0:0,0:0:0:0:
151,45,92687,1,8,0:0:0:0:
143,211,92853,1,2,0:0:0:0:
281,51,93020,1,2,0:0:0:0:
93,113,93187,2,0,P|64:60|75:0,1,125,8|0,0:0|0:0,0:0:0:0:
151,45,93353,6,0,P|232:163|121:355,1,375,8|0,0:0|0:0,0:0:0:0:
44,320,93687,2,0,L|46:177,2,125,6|6|6,0:0|0:0|0:0,0:0:0:0:
254,368,94020,1,10,0:0:0:0:
143,211,94187,1,2,0:0:0:0:
133,349,94353,1,2,0:0:0:0:
309,288,94520,1,8,0:0:0:0:
124,105,94687,6,0,B|249:153|249:153|348:120|348:120|537:131,2,375,8|2|2,0:0|0:0|0:0,0:0:0:0:
124,105,95242,2,0,P|112:63|115:23,2,83.3333333333333,0|0|8,0:0|0:0|0:0,0:0:0:0:
209,226,95520,2,0,P|217:294|201:371,2,125,2|2|10,0:0|0:0|0:0,0:0:0:0:
209,226,96020,6,0,P|200:164|208:102,1,125,0|0,0:0|0:0,0:0:0:0:
473,100,96353,1,10,0:0:0:0:
39,100,96520,1,2,0:0:0:0:
273,42,96687,6,0,L|437:58,7,125,10|6|6|6|6|6|6|6,0:0|0:0|0:0|0:0|0:0|0:0|0:0|0:0,0:0:0:0:
193,17,97353,1,2,0:0:0:0:
208,102,97520,1,2,0:0:0:0:
339,163,97687,5,10,0:0:0:0:
146,178,97853,1,2,0:0:0:0:
273,42,98020,1,10,0:0:0:0:
264,229,98187,1,2,0:0:0:0:
365,72,98353,1,2,0:0:0:0:
350,257,98520,1,2,0:0:0:0:
125,94,98687,6,0,B|18:113|18:113|-19:261|-19:261|65:343,1,375,8|0,0:0|0:0,0:0:0:0:
209,366,99020,1,2,0:0:0:0:
193,17,99187,1,2,0:0:0:0:
146,178,99353,2,0,B|136:227|136:227|143:313,7,125,10|2|2|2|2|2|2|2,0:0|0:0|0:0|0:0|0:0|0:0|0:0|0:0,0:0:0:0:
208,102,100020,5,8,0:0:0:0:
242,190,100187,1,2,0:0:0:0:
360,210,100353,1,2,0:0:0:0:
406,85,100520,1,8,0:0:0:0:
261,29,100687,1,2,0:0:0:0:
242,190,100853,1,2,0:0:0:0:
479,384,101020,2,0,B|501:277|501:277|493:135,1,250,2|0,0:0|0:0,0:0:0:0:
39,103,101353,6,0,B|176:88|176:88|304:120|304:120|406:85,1,375,10|0,0:0|0:0,0:0:0:0:
492,39,101687,2,0,L|487:211,1,125,2|0,0:0|0:0,0:0:0:0:
464,27,101853,1,2,0:0:0:0:
348,200,102020,2,0,L|353:372,1,125,2|0,0:0|0:0,0:0:0:0:
376,188,102186,1,2,0:0:0:0:
200,180,102353,2,0,L|195:352,1,125,2|0,0:0|0:0,0:0:0:0:
172,168,102519,1,2,0:0:0:0:
33,55,102687,6,0,B|64:203|64:203|43:366|43:366|121:266,1,375,8|0,0:0|0:0,0:0:0:0:
172,268,103020,2,0,L|313:276,1,125,2|0,0:0|0:0,0:0:0:0:
376,188,103187,2,0,L|500:180,1,125,2|0,0:0|0:0,0:0:0:0:
505,274,103353,1,8,0:0:0:0:
482,75,103520,1,2,0:0:0:0:
433,328,103687,1,8,0:0:0:0:
228,67,104020,6,0,B|106:151|106:151|-4:43|-4:43|69:52,1,375,8|0,0:0|0:0,0:0:0:0:
22,186,104353,2,0,P|6:250|53:324,1,125,2|0,0:0|0:0,0:0:0:0:
97,242,104520,1,2,0:0:0:0:
322,104,104687,1,8,0:0:0:0:
351,305,104853,2,0,L|367:160,2,125,4|4|2,0:0|0:0|0:0,0:0:0:0:
322,104,105187,1,2,0:0:0:0:
433,328,105353,5,8,0:0:0:0:
456,159,105520,1,4,0:0:0:0:
257,172,105687,1,2,0:0:0:0:
433,328,105853,5,8,0:0:0:0:
456,159,106020,1,8,0:0:0:0:
257,172,106187,1,8,0:0:0:0:
508,265,106353,2,0,B|401:233|401:233|303:280|303:280|126:265,1,375,8|0,0:0|0:0,0:0:0:0:
59,211,106687,6,0,P|136:160|215:186,1,125,2|0,0:0|0:0,0:0:0:0:
165,360,107020,1,8,0:0:0:0:
148,266,107187,1,8,0:0:0:0:
279,324,107353,1,8,0:0:0:0:
262,230,107520,1,8,0:0:0:0:
392,156,107687,1,8,0:0:0:0:
268,130,107853,1,8,0:0:0:0:
144,104,108020,6,0,B|92:45|92:45|243:61,1,187.5,2|0,0:0|0:0,0:0:0:0:
262,230,108353,1,8,0:0:0:0:
268,130,108520,1,8,0:0:0:0:
191,274,108687,1,8,0:0:0:0:
197,174,108854,1,8,0:0:0:0:
308,305,109020,1,8,0:0:0:0:
191,274,109187,1,8,0:0:0:0:
74,243,109353,6,0,B|42:269|25:320|25:320|59:350|117:341,1,187.5,2|0,0:0|0:0,0:0:0:0:
191,274,109687,1,8,0:0:0:0:
197,174,109853,1,8,0:0:0:0:
292,220,110020,1,8,0:0:0:0:
286,120,110186,1,8,0:0:0:0:
74,97,110353,1,8,0:0:0:0:
205,65,110520,1,8,0:0:0:0:
336,33,110687,5,2,0:0:0:0:
328,310,110853,1,2,0:0:0:0:
347,36,111020,1,2,0:0:0:0:
339,313,111186,1,2,0:0:0:0:
359,39,111353,1,2,0:0:0:0:
351,316,111519,1,2,0:0:0:0:
412,148,111687,6,0,L|402:88,6,31.25,0|0|0|0|0|0|6,0:0|0:0|0:0|0:0|0:0|0:0|0:0,0:0:0:0:
374,229,112020,6,0,L|125:200,1,250,8|2,0:0|0:0,0:0:0:0:
40,334,112687,2,0,L|288:305,1,250,8|2,0:0|0:0,0:0:0:0:
512,161,113353,6,0,L|263:132,1,250,8|2,0:0|0:0,0:0:0:0:
13,70,114020,2,0,L|261:41,1,250,10|2,0:0|0:0,0:0:0:0:
327,248,114687,6,0,P|336:278|324:310,3,62.5,10|0|2|0,0:0|0:0|0:0|0:0,0:0:0:0:
234,227,115020,2,0,P|203:219|181:194,3,62.5,2|0|2|0,0:0|0:0|0:0|0:0,0:0:0:0:
298,156,115353,2,0,P|319:133|352:126,3,62.5,2|0|2|0,0:0|0:0|0:0|0:0,0:0:0:0:
327,248,115687,5,2,0:0:0:0:
333,262,115770,1,0,0:0:0:0:
335,277,115853,1,2,0:0:0:0:
333,292,115936,1,0,0:0:0:0:
326,306,116020,1,10,0:0:0:0:
234,227,116687,5,10,0:0:0:0:
298,156,116853,1,2,0:0:0:0:
199,13,117020,2,0,B|205:63|205:63|197:89|197:89|204:137,1,125,8|4,0:0|0:0,0:0:0:0:
