osu file format v14

[General]
AudioFilename: audio.mp3
AudioLeadIn: 0
PreviewTime: 580
Countdown: 0
SampleSet: Soft
StackLeniency: 0.7
Mode: 3
LetterboxInBreaks: 0
SpecialStyle: 0
WidescreenStoryboard: 1

[Editor]
DistanceSpacing: 1.2
BeatDivisor: 8
GridSize: 32
TimelineZoom: 2.7

[Metadata]
Title:Narcissus At Oasis (Freezer Remix)
TitleUnicode:Narcissus At Oasis (Freezer Remix)
Artist:Freezer
ArtistUnicode:Freezer
Creator:EijiKuinbii
Version:Aqualibrium
Source:SOUND VOLTEX IV HEAVENLY HAVEN
Tags:Ryu☆ SDVX melodic dubstep neuro drumstep wooble bass downtempo glitch pitch halfstep Silver_Cr0w AJIekceu Remus Missing Link SoldatRacer buhaha PandaHero DefendeRDjulus Livstvichka yShadowXOP_ avalanche -Light- shmiklak marvollo m_a_r_v_o_l_l_o Don Omar EYA-
BeatmapID:1442407
BeatmapSetID:614615

[Difficulty]
HPDrainRate:9
CircleSize:4
OverallDifficulty:5
ApproachRate:9.6
SliderMultiplier:1.8
SliderTickRate:1

[Events]
//Background and Video events
0,0,"_BG.jpg",0,0
//Break Periods
//Storyboard Layer 0 (Background)
//Storyboard Layer 1 (Fail)
//Storyboard Layer 2 (Pass)
//Storyboard Layer 3 (Foreground)
//Storyboard Sound Samples

[TimingPoints]
580,387.096774193548,4,2,1,45,1,0
580,-100,4,2,1,45,0,0
25354,-100,4,2,1,70,0,1
50128,-100,4,2,1,45,0,0
53225,-100,4,2,1,70,0,1
56321,-100,4,2,1,45,0,0
59418,-100,4,2,1,70,0,1
62515,-100,4,2,1,45,0,0
73354,333.333333333333,4,2,1,70,1,0
73937,-116.279069767442,4,2,1,40,0,0
85353,-116.279069767442,4,2,1,70,0,1
96020,-116.279069767442,4,2,1,70,0,0
96687,-116.279069767442,4,2,1,70,0,1
106687,-116.279069767442,4,2,1,70,0,0

[Colours]
Combo1 : 55,87,119
Combo2 : 172,253,237
Combo3 : 206,206,206
Combo4 : 226,177,245

[HitObjects]
192,192,580,5,0,0:0:0:0:
64,192,580,1,0,0:0:0:0:
448,192,580,1,0,0:0:0:0:
320,192,676,1,0,0:0:0:0:
192,192,773,1,0,0:0:0:0:
320,192,870,1,0,0:0:0:0:
448,192,967,1,0,0:0:0:0:
192,192,967,1,0,0:0:0:0:
64,192,1063,1,0,0:0:0:0:
192,192,1160,1,0,0:0:0:0:
64,192,1257,1,0,0:0:0:0:
320,192,1354,1,0,0:0:0:0:
448,192,1354,1,0,0:0:0:0:
192,192,1354,1,0,0:0:0:0:
64,192,1450,1,0,0:0:0:0:
192,192,1547,1,0,0:0:0:0:
320,192,1644,1,0,0:0:0:0:
64,192,1741,1,0,0:0:0:0:
192,192,1741,1,0,0:0:0:0:
448,192,1838,1,0,0:0:0:0:
320,192,1934,1,0,0:0:0:0:
448,192,2031,1,0,0:0:0:0:
192,192,2128,1,0,0:0:0:0:
64,192,2128,1,0,0:0:0:0:
320,192,2128,1,0,0:0:0:0:
448,192,2225,1,0,0:0:0:0:
320,192,2321,1,0,0:0:0:0:
192,192,2418,1,0,0:0:0:0:
64,192,2515,1,0,0:0:0:0:
320,192,2515,1,0,0:0:0:0:
448,192,2612,1,0,0:0:0:0:
192,192,2709,1,0,0:0:0:0:
320,192,2773,1,0,0:0:0:0:
448,192,2773,1,0,0:0:0:0:
192,192,2838,1,0,0:0:0:0:
64,192,2838,1,0,0:0:0:0:
320,192,2902,1,0,0:0:0:0:
448,192,2902,1,0,0:0:0:0:
64,192,2902,1,0,0:0:0:0:
192,192,2999,1,0,0:0:0:0:
64,192,3096,1,0,0:0:0:0:
192,192,3192,1,0,0:0:0:0:
320,192,3289,1,0,0:0:0:0:
64,192,3289,1,0,0:0:0:0:
448,192,3386,1,0,0:0:0:0:
320,192,3483,1,0,0:0:0:0:
448,192,3579,1,0,0:0:0:0:
320,192,3676,1,0,0:0:0:0:
64,192,3676,1,0,0:0:0:0:
192,192,3676,1,0,0:0:0:0:
448,192,3773,1,0,0:0:0:0:
320,192,3870,1,0,0:0:0:0:
192,192,3967,1,0,0:0:0:0:
64,192,4063,1,0,0:0:0:0:
448,192,4063,1,0,0:0:0:0:
320,192,4160,1,0,0:0:0:0:
192,192,4257,1,0,0:0:0:0:
64,192,4257,1,0,0:0:0:0:
320,192,4354,1,0,0:0:0:0:
448,192,4450,1,0,0:0:0:0:
192,192,4450,1,0,0:0:0:0:
64,192,4450,1,0,0:0:0:0:
320,192,4547,1,0,0:0:0:0:
192,192,4644,1,0,0:0:0:0:
320,192,4741,1,0,0:0:0:0:
448,192,4838,1,0,0:0:0:0:
192,192,4838,1,0,0:0:0:0:
64,192,4934,1,0,0:0:0:0:
192,192,5031,1,0,0:0:0:0:
64,192,5128,1,0,0:0:0:0:
192,192,5225,1,0,0:0:0:0:
448,192,5225,1,0,0:0:0:0:
320,192,5225,1,0,0:0:0:0:
64,192,5321,1,0,0:0:0:0:
192,192,5418,1,0,0:0:0:0:
320,192,5515,1,0,0:0:0:0:
448,192,5515,1,0,0:0:0:0:
64,192,5612,1,0,0:0:0:0:
192,192,5612,1,0,0:0:0:0:
320,192,5709,1,0,0:0:0:0:
192,192,5805,1,0,0:0:0:0:
448,192,5805,1,0,0:0:0:0:
64,192,5902,1,0,0:0:0:0:
320,192,5999,1,0,0:0:0:0:
192,192,5999,1,0,0:0:0:0:
448,192,5999,1,0,0:0:0:0:
64,192,6096,1,0,0:0:0:0:
192,192,6192,1,0,0:0:0:0:
448,192,6192,1,0,0:0:0:0:
320,192,6289,1,0,0:0:0:0:
192,192,6386,1,0,0:0:0:0:
64,192,6386,1,0,0:0:0:0:
320,192,6483,1,0,0:0:0:0:
192,192,6579,1,0,0:0:0:0:
320,192,6676,1,0,0:0:0:0:
192,192,6773,1,0,0:0:0:0:
64,192,6773,1,0,0:0:0:0:
448,192,6773,1,0,0:0:0:0:
320,192,6870,1,0,0:0:0:0:
448,192,6967,1,0,0:0:0:0:
320,192,7063,1,0,0:0:0:0:
448,192,7160,1,0,0:0:0:0:
192,192,7160,1,0,0:0:0:0:
64,192,7257,1,0,0:0:0:0:
192,192,7354,1,0,0:0:0:0:
64,192,7450,1,0,0:0:0:0:
448,192,7547,1,0,0:0:0:0:
320,192,7547,1,0,0:0:0:0:
192,192,7547,1,0,0:0:0:0:
64,192,7644,1,0,0:0:0:0:
192,192,7741,1,0,0:0:0:0:
64,192,7838,1,0,0:0:0:0:
448,192,7934,1,0,0:0:0:0:
192,192,7934,1,0,0:0:0:0:
320,192,8031,1,0,0:0:0:0:
448,192,8128,1,0,0:0:0:0:
320,192,8225,1,0,0:0:0:0:
192,192,8321,1,0,0:0:0:0:
448,192,8321,1,0,0:0:0:0:
64,192,8321,1,0,0:0:0:0:
320,192,8418,1,0,0:0:0:0:
192,192,8515,1,0,0:0:0:0:
320,192,8612,1,0,0:0:0:0:
192,192,8709,1,0,0:0:0:0:
448,192,8709,1,0,0:0:0:0:
64,192,8805,1,0,0:0:0:0:
192,192,8902,1,0,0:0:0:0:
320,192,8967,1,0,0:0:0:0:
448,192,8967,1,0,0:0:0:0:
192,192,9031,1,0,0:0:0:0:
64,192,9031,1,0,0:0:0:0:
320,192,9096,1,0,0:0:0:0:
448,192,9096,1,0,0:0:0:0:
64,192,9096,1,0,0:0:0:0:
192,192,9192,1,0,0:0:0:0:
320,192,9289,1,0,0:0:0:0:
192,192,9386,1,0,0:0:0:0:
448,192,9483,1,0,0:0:0:0:
64,192,9483,1,0,0:0:0:0:
320,192,9579,1,0,0:0:0:0:
448,192,9676,1,0,0:0:0:0:
320,192,9773,1,0,0:0:0:0:
192,192,9870,1,0,0:0:0:0:
64,192,9870,1,0,0:0:0:0:
448,192,9870,1,0,0:0:0:0:
320,192,9967,1,0,0:0:0:0:
192,192,10063,1,0,0:0:0:0:
64,192,10160,1,0,0:0:0:0:
192,192,10257,1,0,0:0:0:0:
448,192,10257,1,0,0:0:0:0:
320,192,10354,1,0,0:0:0:0:
192,192,10450,1,0,0:0:0:0:
64,192,10450,1,0,0:0:0:0:
320,192,10547,1,0,0:0:0:0:
192,192,10644,1,0,0:0:0:0:
64,192,10644,1,0,0:0:0:0:
448,192,10644,1,0,0:0:0:0:
320,192,10741,1,0,0:0:0:0:
192,192,10838,1,0,0:0:0:0:
320,192,10934,1,0,0:0:0:0:
192,192,11031,1,0,0:0:0:0:
448,192,11031,1,0,0:0:0:0:
64,192,11128,1,0,0:0:0:0:
192,192,11225,1,0,0:0:0:0:
64,192,11321,1,0,0:0:0:0:
192,192,11418,1,0,0:0:0:0:
320,192,11418,1,0,0:0:0:0:
448,192,11418,1,0,0:0:0:0:
64,192,11515,1,0,0:0:0:0:
192,192,11612,1,0,0:0:0:0:
320,192,11709,1,0,0:0:0:0:
448,192,11709,1,0,0:0:0:0:
192,192,11805,1,0,0:0:0:0:
64,192,11805,1,0,0:0:0:0:
320,192,11902,1,0,0:0:0:0:
448,192,11999,1,0,0:0:0:0:
64,192,11999,1,0,0:0:0:0:
320,192,12096,1,0,0:0:0:0:
448,192,12192,1,0,0:0:0:0:
192,192,12192,1,0,0:0:0:0:
64,192,12192,1,0,0:0:0:0:
320,192,12289,1,0,0:0:0:0:
192,192,12386,1,0,0:0:0:0:
64,192,12386,1,0,0:0:0:0:
320,192,12483,1,0,0:0:0:0:
448,192,12483,1,0,0:0:0:0:
192,192,12579,1,0,0:0:0:0:
64,192,12579,1,0,0:0:0:0:
320,192,12676,1,0,0:0:0:0:
192,192,12773,1,0,0:0:0:0:
320,192,12870,1,0,0:0:0:0:
64,192,12967,1,0,0:0:0:0:
448,192,12967,1,0,0:0:0:0:
192,192,12967,1,0,0:0:0:0:
320,192,12967,1,0,0:0:0:0:
320,192,13160,1,0,0:0:0:0:
64,192,13160,1,0,0:0:0:0:
192,192,13257,1,0,0:0:0:0:
448,192,13354,1,0,0:0:0:0:
192,192,13354,1,0,0:0:0:0:
320,192,13354,1,0,0:0:0:0:
192,192,13547,1,0,0:0:0:0:
448,192,13547,1,0,0:0:0:0:
320,192,13644,1,0,0:0:0:0:
320,192,13741,1,0,0:0:0:0:
192,192,13741,1,0,0:0:0:0:
64,192,13741,1,0,0:0:0:0:
448,192,13934,1,0,0:0:0:0:
320,192,13934,1,0,0:0:0:0:
64,192,14031,1,0,0:0:0:0:
64,192,14128,1,0,0:0:0:0:
192,192,14128,1,0,0:0:0:0:
320,192,14128,1,0,0:0:0:0:
192,192,14321,1,0,0:0:0:0:
448,192,14321,1,0,0:0:0:0:
320,192,14418,1,0,0:0:0:0:
320,192,14515,1,0,0:0:0:0:
64,192,14515,1,0,0:0:0:0:
448,192,14515,1,0,0:0:0:0:
64,192,14709,1,0,0:0:0:0:
192,192,14709,1,0,0:0:0:0:
448,192,14805,1,0,0:0:0:0:
448,192,14902,1,0,0:0:0:0:
320,192,14902,1,0,0:0:0:0:
192,192,14902,1,0,0:0:0:0:
64,192,15096,1,0,0:0:0:0:
448,192,15096,1,0,0:0:0:0:
192,192,15192,1,0,0:0:0:0:
320,192,15289,1,0,0:0:0:0:
192,192,15289,1,0,0:0:0:0:
64,192,15289,1,0,0:0:0:0:
192,192,15483,1,0,0:0:0:0:
448,192,15483,1,0,0:0:0:0:
320,192,15579,1,0,0:0:0:0:
320,192,15676,1,0,0:0:0:0:
64,192,15676,1,0,0:0:0:0:
448,192,15676,1,0,0:0:0:0:
448,192,15870,1,0,0:0:0:0:
64,192,15870,1,0,0:0:0:0:
192,192,15967,1,0,0:0:0:0:
64,192,16063,1,0,0:0:0:0:
448,192,16063,1,0,0:0:0:0:
192,192,16063,1,0,0:0:0:0:
192,192,16257,1,0,0:0:0:0:
320,192,16257,1,0,0:0:0:0:
448,192,16354,1,0,0:0:0:0:
448,192,16450,1,0,0:0:0:0:
320,192,16450,1,0,0:0:0:0:
64,192,16450,1,0,0:0:0:0:
192,192,16644,1,0,0:0:0:0:
448,192,16644,1,0,0:0:0:0:
64,192,16741,1,0,0:0:0:0:
64,192,16838,1,0,0:0:0:0:
192,192,16838,1,0,0:0:0:0:
320,192,16838,1,0,0:0:0:0:
192,192,17031,1,0,0:0:0:0:
448,192,17031,1,0,0:0:0:0:
320,192,17128,1,0,0:0:0:0:
448,192,17225,1,0,0:0:0:0:
320,192,17225,1,0,0:0:0:0:
192,192,17225,1,0,0:0:0:0:
64,192,17418,1,0,0:0:0:0:
448,192,17418,1,0,0:0:0:0:
192,192,17515,1,0,0:0:0:0:
192,192,17612,1,0,0:0:0:0:
64,192,17612,1,0,0:0:0:0:
320,192,17612,1,0,0:0:0:0:
448,192,17805,1,0,0:0:0:0:
192,192,17805,1,0,0:0:0:0:
320,192,17902,1,0,0:0:0:0:
64,192,17999,1,0,0:0:0:0:
320,192,17999,1,0,0:0:0:0:
448,192,17999,1,0,0:0:0:0:
448,192,18192,1,0,0:0:0:0:
64,192,18192,1,0,0:0:0:0:
192,192,18289,1,0,0:0:0:0:
192,192,18386,1,0,0:0:0:0:
448,192,18386,1,0,0:0:0:0:
64,192,18386,1,0,0:0:0:0:
320,192,18579,1,0,0:0:0:0:
448,192,18579,1,0,0:0:0:0:
64,192,18676,1,0,0:0:0:0:
64,192,18773,1,0,0:0:0:0:
192,192,18773,1,0,0:0:0:0:
320,192,18773,1,0,0:0:0:0:
448,192,18967,1,0,0:0:0:0:
320,192,18967,1,0,0:0:0:0:
192,192,19063,1,0,0:0:0:0:
64,192,19160,1,0,0:0:0:0:
192,192,19160,1,0,0:0:0:0:
448,192,19160,1,0,0:0:0:0:
320,192,19257,1,0,0:0:0:0:
192,192,19354,1,0,0:0:0:0:
448,192,19354,1,0,0:0:0:0:
320,192,19354,1,0,0:0:0:0:
64,192,19450,1,0,0:0:0:0:
64,192,19547,1,0,0:0:0:0:
448,192,19547,1,0,0:0:0:0:
320,192,19547,1,0,0:0:0:0:
192,192,19644,1,0,0:0:0:0:
192,192,19741,1,0,0:0:0:0:
320,192,19741,1,0,0:0:0:0:
64,192,19741,1,0,0:0:0:0:
448,192,19838,1,0,0:0:0:0:
448,192,19934,1,0,0:0:0:0:
320,192,19934,1,0,0:0:0:0:
64,192,19934,1,0,0:0:0:0:
192,192,20031,1,0,0:0:0:0:
192,192,20128,1,0,0:0:0:0:
320,192,20128,1,0,0:0:0:0:
448,192,20128,1,0,0:0:0:0:
64,192,20225,1,0,0:0:0:0:
64,192,20321,1,0,0:0:0:0:
192,192,20321,1,0,0:0:0:0:
320,192,20321,1,0,0:0:0:0:
448,192,20418,1,0,0:0:0:0:
448,192,20515,1,0,0:0:0:0:
320,192,20515,1,0,0:0:0:0:
192,192,20515,1,0,0:0:0:0:
64,192,20612,1,0,0:0:0:0:
192,192,20612,1,0,0:0:0:0:
64,192,20709,1,0,0:0:0:0:
448,192,20709,1,0,0:0:0:0:
320,192,20709,1,0,0:0:0:0:
192,192,20805,1,0,0:0:0:0:
64,192,20902,1,0,0:0:0:0:
448,192,20902,1,0,0:0:0:0:
192,192,20902,1,0,0:0:0:0:
320,192,20999,1,0,0:0:0:0:
448,192,21096,1,0,0:0:0:0:
320,192,21096,1,0,0:0:0:0:
192,192,21096,1,0,0:0:0:0:
64,192,21192,1,0,0:0:0:0:
64,192,21289,1,0,0:0:0:0:
192,192,21289,1,0,0:0:0:0:
320,192,21289,1,0,0:0:0:0:
448,192,21386,1,0,0:0:0:0:
448,192,21483,1,0,0:0:0:0:
192,192,21483,1,0,0:0:0:0:
64,192,21483,1,0,0:0:0:0:
320,192,21579,1,0,0:0:0:0:
320,192,21676,1,0,0:0:0:0:
192,192,21676,1,0,0:0:0:0:
448,192,21676,1,0,0:0:0:0:
64,192,21773,1,0,0:0:0:0:
64,192,21870,1,0,0:0:0:0:
192,192,21870,1,0,0:0:0:0:
320,192,21870,1,0,0:0:0:0:
448,192,21967,1,0,0:0:0:0:
448,192,22063,1,0,0:0:0:0:
320,192,22063,1,0,0:0:0:0:
64,192,22112,1,0,0:0:0:0:
192,192,22112,1,0,0:0:0:0:
320,192,22160,1,0,0:0:0:0:
448,192,22160,1,0,0:0:0:0:
192,192,22209,1,0,0:0:0:0:
64,192,22209,1,0,0:0:0:0:
320,192,22257,1,0,0:0:0:0:
448,192,22257,1,0,0:0:0:0:
64,192,22257,1,0,0:0:0:0:
192,192,22354,1,0,0:0:0:0:
320,192,22354,1,0,0:0:0:0:
448,192,22450,1,0,0:0:0:0:
192,192,22450,1,0,0:0:0:0:
64,192,22450,1,0,0:0:0:0:
320,192,22547,1,0,0:0:0:0:
448,192,22547,1,0,0:0:0:0:
320,192,22644,1,0,0:0:0:0:
192,192,22644,1,0,0:0:0:0:
64,192,22644,1,0,0:0:0:0:
64,192,22741,1,0,0:0:0:0:
448,192,22741,1,0,0:0:0:0:
192,192,22838,1,0,0:0:0:0:
320,192,22838,1,0,0:0:0:0:
448,192,22838,1,0,0:0:0:0:
320,192,22934,1,0,0:0:0:0:
64,192,22934,1,0,0:0:0:0:
64,192,23031,1,0,0:0:0:0:
192,192,23031,1,0,0:0:0:0:
448,192,23031,1,0,0:0:0:0:
320,192,23128,1,0,0:0:0:0:
448,192,23128,1,0,0:0:0:0:
320,192,23225,1,0,0:0:0:0:
192,192,23225,1,0,0:0:0:0:
64,192,23225,1,0,0:0:0:0:
448,192,23321,1,0,0:0:0:0:
192,192,23321,1,0,0:0:0:0:
320,192,23418,1,0,0:0:0:0:
448,192,23418,1,0,0:0:0:0:
64,192,23418,1,0,0:0:0:0:
192,192,23515,1,0,0:0:0:0:
320,192,23515,1,0,0:0:0:0:
448,192,23612,1,0,0:0:0:0:
192,192,23612,1,0,0:0:0:0:
64,192,23612,1,0,0:0:0:0:
320,192,23709,1,0,0:0:0:0:
64,192,23709,1,0,0:0:0:0:
192,192,23805,1,0,0:0:0:0:
320,192,23805,1,0,0:0:0:0:
448,192,23805,1,0,0:0:0:0:
64,192,23805,1,0,0:0:0:0:
448,192,25354,1,0,0:0:0:0:
192,192,25354,1,0,0:0:0:0:
320,192,25386,1,0,0:0:0:0:
64,192,25418,1,0,0:0:0:0:
192,192,25450,1,0,0:0:0:0:
320,192,25483,1,0,0:0:0:0:
448,192,25515,1,0,0:0:0:0:
192,192,25547,1,0,0:0:0:0:
64,192,25579,1,0,0:0:0:0:
448,192,25612,1,0,0:0:0:0:
320,192,25644,1,0,0:0:0:0:
64,192,25676,1,0,0:0:0:0:
192,192,25709,1,0,0:0:0:0:
448,192,25741,128,0,25886:0:0:0:0:
320,192,25741,128,0,25886:0:0:0:0:
448,192,25983,128,0,26128:0:0:0:0:
320,192,25983,128,0,26128:0:0:0:0:
64,192,26128,1,0,0:0:0:0:
192,192,26128,1,0,0:0:0:0:
448,192,26321,1,0,0:0:0:0:
192,192,26321,128,0,26418:0:0:0:0:
64,192,26321,128,0,26418:0:0:0:0:
320,192,26515,1,0,0:0:0:0:
448,192,26515,128,0,26612:0:0:0:0:
64,192,26515,128,0,26612:0:0:0:0:
64,192,26902,1,0,0:0:0:0:
448,192,26902,1,0,0:0:0:0:
192,192,26934,1,0,0:0:0:0:
320,192,26967,1,0,0:0:0:0:
448,192,26999,1,0,0:0:0:0:
64,192,27031,1,0,0:0:0:0:
192,192,27063,1,0,0:0:0:0:
448,192,27096,1,0,0:0:0:0:
320,192,27128,1,0,0:0:0:0:
64,192,27160,1,0,0:0:0:0:
192,192,27192,1,0,0:0:0:0:
448,192,27225,1,0,0:0:0:0:
320,192,27257,1,0,0:0:0:0:
64,192,27289,128,0,27386:0:0:0:0:
192,192,27289,128,0,27386:0:0:0:0:
448,192,27386,128,0,27483:0:0:0:0:
320,192,27386,128,0,27483:0:0:0:0:
192,192,27483,128,0,27531:0:0:0:0:
64,192,27483,128,0,27531:0:0:0:0:
64,192,27604,1,0,0:0:0:0:
320,192,27604,1,0,0:0:0:0:
192,192,27676,1,0,0:0:0:0:
448,192,27676,1,0,0:0:0:0:
320,192,27773,128,0,27870:0:0:0:0:
64,192,27773,128,0,27870:0:0:0:0:
192,192,27967,128,0,28063:0:0:0:0:
448,192,27967,128,0,28063:0:0:0:0:
320,192,28063,1,0,0:0:0:0:
64,192,28063,1,0,0:0:0:0:
192,192,28160,128,0,28257:0:0:0:0:
448,192,28160,128,0,28257:0:0:0:0:
320,192,28257,1,0,0:0:0:0:
64,192,28257,1,0,0:0:0:0:
448,192,28450,1,0,0:0:0:0:
64,192,28450,1,0,0:0:0:0:
320,192,28483,1,0,0:0:0:0:
192,192,28515,1,0,0:0:0:0:
64,192,28547,1,0,0:0:0:0:
320,192,28579,1,0,0:0:0:0:
448,192,28612,1,0,0:0:0:0:
64,192,28644,1,0,0:0:0:0:
192,192,28676,1,0,0:0:0:0:
448,192,28709,1,0,0:0:0:0:
320,192,28741,1,0,0:0:0:0:
64,192,28773,1,0,0:0:0:0:
192,192,28805,1,0,0:0:0:0:
320,192,28838,128,0,28934:0:0:0:0:
448,192,28838,128,0,28934:0:0:0:0:
320,192,29031,128,0,29225:0:0:0:0:
448,192,29031,128,0,29225:0:0:0:0:
192,192,29225,1,0,0:0:0:0:
64,192,29225,1,0,0:0:0:0:
192,192,29418,128,0,29515:0:0:0:0:
64,192,29418,128,0,29515:0:0:0:0:
320,192,29612,128,0,29709:0:0:0:0:
64,192,29612,128,0,29709:0:0:0:0:
192,192,29805,128,0,29902:0:0:0:0:
448,192,29805,128,0,29902:0:0:0:0:
64,192,29999,128,0,30096:0:0:0:0:
320,192,29999,128,0,30096:0:0:0:0:
448,192,30096,1,0,0:0:0:0:
192,192,30096,1,0,0:0:0:0:
192,192,30192,128,0,30289:0:0:0:0:
448,192,30192,128,0,30289:0:0:0:0:
320,192,30289,1,0,0:0:0:0:
64,192,30289,1,0,0:0:0:0:
192,192,30386,128,0,30483:0:0:0:0:
64,192,30386,128,0,30483:0:0:0:0:
320,192,30483,1,0,0:0:0:0:
448,192,30483,1,0,0:0:0:0:
448,192,30579,128,0,30676:0:0:0:0:
320,192,30579,128,0,30676:0:0:0:0:
192,192,30676,1,0,0:0:0:0:
64,192,30676,1,0,0:0:0:0:
448,192,30773,128,0,30870:0:0:0:0:
192,192,30773,128,0,30870:0:0:0:0:
64,192,30870,1,0,0:0:0:0:
320,192,30870,1,0,0:0:0:0:
448,192,30967,128,0,31063:0:0:0:0:
64,192,30967,128,0,31063:0:0:0:0:
192,192,31063,1,0,0:0:0:0:
320,192,31063,1,0,0:0:0:0:
64,192,31160,128,0,31257:0:0:0:0:
192,192,31160,128,0,31257:0:0:0:0:
320,192,31160,128,0,31257:0:0:0:0:
448,192,31160,128,0,31257:0:0:0:0:
64,192,31354,128,0,31450:0:0:0:0:
192,192,31354,128,0,31450:0:0:0:0:
320,192,31354,128,0,31450:0:0:0:0:
448,192,31354,128,0,31450:0:0:0:0:
64,192,31547,1,0,0:0:0:0:
320,192,31547,1,0,0:0:0:0:
192,192,31579,1,0,0:0:0:0:
448,192,31612,1,0,0:0:0:0:
320,192,31644,1,0,0:0:0:0:
64,192,31676,1,0,0:0:0:0:
192,192,31709,1,0,0:0:0:0:
320,192,31741,1,0,0:0:0:0:
448,192,31773,1,0,0:0:0:0:
192,192,31805,1,0,0:0:0:0:
64,192,31838,1,0,0:0:0:0:
320,192,31870,1,0,0:0:0:0:
448,192,31902,1,0,0:0:0:0:
192,192,31934,128,0,31983:0:0:0:0:
320,192,31934,128,0,31983:0:0:0:0:
448,192,32031,128,0,32079:0:0:0:0:
64,192,32031,128,0,32079:0:0:0:0:
192,192,32128,128,0,32225:0:0:0:0:
320,192,32128,128,0,32225:0:0:0:0:
192,192,32321,1,0,0:0:0:0:
320,192,32321,1,0,0:0:0:0:
448,192,32321,128,0,32418:0:0:0:0:
64,192,32321,128,0,32418:0:0:0:0:
192,192,32515,128,0,32612:0:0:0:0:
448,192,32515,128,0,32612:0:0:0:0:
192,192,32709,128,0,32854:0:0:0:0:
64,192,32709,128,0,32854:0:0:0:0:
448,192,32950,128,0,33047:0:0:0:0:
320,192,32950,128,0,33047:0:0:0:0:
64,192,33096,128,0,33144:0:0:0:0:
192,192,33096,128,0,33144:0:0:0:0:
448,192,33192,128,0,33241:0:0:0:0:
320,192,33192,128,0,33241:0:0:0:0:
192,192,33289,128,0,33338:0:0:0:0:
64,192,33289,128,0,33338:0:0:0:0:
320,192,33483,128,0,33628:0:0:0:0:
448,192,33483,128,0,33628:0:0:0:0:
64,192,33725,1,0,0:0:0:0:
320,192,33725,1,0,0:0:0:0:
448,192,33805,1,0,0:0:0:0:
192,192,33805,1,0,0:0:0:0:
64,192,33870,128,0,33967:0:0:0:0:
320,192,33870,128,0,33967:0:0:0:0:
64,192,34063,128,0,34160:0:0:0:0:
320,192,34063,128,0,34160:0:0:0:0:
320,192,34257,128,0,34450:0:0:0:0:
64,192,34257,128,0,34450:0:0:0:0:
192,192,34450,1,0,0:0:0:0:
448,192,34450,1,0,0:0:0:0:
64,192,34644,1,0,0:0:0:0:
320,192,34644,1,0,0:0:0:0:
192,192,34676,1,0,0:0:0:0:
448,192,34709,1,0,0:0:0:0:
320,192,34741,1,0,0:0:0:0:
64,192,34773,1,0,0:0:0:0:
192,192,34805,1,0,0:0:0:0:
448,192,34838,1,0,0:0:0:0:
320,192,34870,1,0,0:0:0:0:
192,192,34902,1,0,0:0:0:0:
64,192,34934,1,0,0:0:0:0:
320,192,34967,1,0,0:0:0:0:
192,192,34999,1,0,0:0:0:0:
64,192,35031,128,0,35128:0:0:0:0:
448,192,35031,128,0,35128:0:0:0:0:
320,192,35128,128,0,35225:0:0:0:0:
192,192,35128,128,0,35225:0:0:0:0:
64,192,35225,128,0,35418:0:0:0:0:
448,192,35225,128,0,35418:0:0:0:0:
320,192,35418,1,0,0:0:0:0:
192,192,35418,1,0,0:0:0:0:
64,192,35515,128,0,35612:0:0:0:0:
320,192,35515,128,0,35612:0:0:0:0:
192,192,35612,1,0,0:0:0:0:
448,192,35612,1,0,0:0:0:0:
448,192,35709,128,0,35805:0:0:0:0:
192,192,35709,128,0,35805:0:0:0:0:
320,192,35805,1,0,0:0:0:0:
64,192,35805,1,0,0:0:0:0:
64,192,35902,128,0,35999:0:0:0:0:
320,192,35902,128,0,35999:0:0:0:0:
192,192,35999,1,0,0:0:0:0:
448,192,35999,1,0,0:0:0:0:
448,192,36096,128,0,36192:0:0:0:0:
64,192,36096,128,0,36192:0:0:0:0:
192,192,36192,1,0,0:0:0:0:
320,192,36192,1,0,0:0:0:0:
64,192,36289,1,0,0:0:0:0:
192,192,36338,1,0,0:0:0:0:
448,192,36386,1,0,0:0:0:0:
320,192,36434,1,0,0:0:0:0:
64,192,36483,1,0,0:0:0:0:
192,192,36483,1,0,0:0:0:0:
320,192,36531,1,0,0:0:0:0:
448,192,36579,1,0,0:0:0:0:
64,192,36628,1,0,0:0:0:0:
192,192,36676,1,0,0:0:0:0:
448,192,36725,1,0,0:0:0:0:
320,192,36773,1,0,0:0:0:0:
192,192,36773,1,0,0:0:0:0:
64,192,36821,1,0,0:0:0:0:
448,192,36870,1,0,0:0:0:0:
320,192,36918,1,0,0:0:0:0:
64,192,36967,1,0,0:0:0:0:
192,192,36967,1,0,0:0:0:0:
320,192,37015,1,0,0:0:0:0:
448,192,37063,1,0,0:0:0:0:
64,192,37112,1,0,0:0:0:0:
192,192,37160,1,0,0:0:0:0:
320,192,37160,1,0,0:0:0:0:
64,192,37257,1,0,0:0:0:0:
320,192,37257,1,0,0:0:0:0:
448,192,37257,1,0,0:0:0:0:
448,192,37354,1,0,0:0:0:0:
192,192,37354,1,0,0:0:0:0:
64,192,37354,1,0,0:0:0:0:
192,192,37547,1,0,0:0:0:0:
320,192,37547,1,0,0:0:0:0:
448,192,37547,1,0,0:0:0:0:
320,192,37741,1,0,0:0:0:0:
448,192,37741,1,0,0:0:0:0:
64,192,37741,1,0,0:0:0:0:
192,192,37741,1,0,0:0:0:0:
64,192,37838,128,0,37934:0:0:0:0:
320,192,37838,128,0,37934:0:0:0:0:
192,192,37934,128,0,38031:0:0:0:0:
448,192,37934,128,0,38031:0:0:0:0:
320,192,38128,128,0,38225:0:0:0:0:
64,192,38128,128,0,38321:0:0:0:0:
448,192,38225,1,0,0:0:0:0:
192,192,38225,1,0,0:0:0:0:
192,192,38321,128,0,38418:0:0:0:0:
448,192,38321,128,0,38515:0:0:0:0:
320,192,38418,1,0,0:0:0:0:
64,192,38418,1,0,0:0:0:0:
320,192,38515,128,0,38563:0:0:0:0:
192,192,38515,128,0,38612:0:0:0:0:
64,192,38612,128,0,38660:0:0:0:0:
448,192,38612,128,0,38660:0:0:0:0:
192,192,38709,128,0,38757:0:0:0:0:
320,192,38709,128,0,38805:0:0:0:0:
64,192,38805,128,0,38854:0:0:0:0:
448,192,38805,128,0,38854:0:0:0:0:
320,192,38902,128,0,38950:0:0:0:0:
192,192,38902,128,0,38999:0:0:0:0:
448,192,38999,128,0,39047:0:0:0:0:
64,192,38999,128,0,39047:0:0:0:0:
192,192,39096,128,0,39144:0:0:0:0:
320,192,39096,128,0,39192:0:0:0:0:
64,192,39192,128,0,39241:0:0:0:0:
448,192,39192,128,0,39241:0:0:0:0:
320,192,39289,128,0,39386:0:0:0:0:
192,192,39289,128,0,39386:0:0:0:0:
448,192,39386,1,0,0:0:0:0:
64,192,39386,1,0,0:0:0:0:
320,192,39483,128,0,39579:0:0:0:0:
192,192,39483,128,0,39579:0:0:0:0:
64,192,39579,1,0,0:0:0:0:
448,192,39579,1,0,0:0:0:0:
64,192,39676,128,0,39773:0:0:0:0:
448,192,39676,128,0,39773:0:0:0:0:
448,192,39870,1,0,0:0:0:0:
320,192,39870,1,0,0:0:0:0:
64,192,39934,1,0,0:0:0:0:
192,192,39934,1,0,0:0:0:0:
320,192,39999,1,0,0:0:0:0:
448,192,39999,1,0,0:0:0:0:
192,192,40063,1,0,0:0:0:0:
64,192,40063,1,0,0:0:0:0:
448,192,40257,128,0,40354:0:0:0:0:
192,192,40257,128,0,40354:0:0:0:0:
320,192,40354,1,0,0:0:0:0:
64,192,40354,1,0,0:0:0:0:
320,192,40450,128,0,40547:0:0:0:0:
64,192,40450,128,0,40547:0:0:0:0:
448,192,40547,1,0,0:0:0:0:
192,192,40547,1,0,0:0:0:0:
448,192,40644,128,0,40741:0:0:0:0:
64,192,40644,128,0,40741:0:0:0:0:
192,192,40741,1,0,0:0:0:0:
320,192,40741,1,0,0:0:0:0:
192,192,40838,1,0,0:0:0:0:
448,192,40838,1,0,0:0:0:0:
64,192,40870,1,0,0:0:0:0:
320,192,40902,1,0,0:0:0:0:
448,192,40934,1,0,0:0:0:0:
192,192,40967,1,0,0:0:0:0:
64,192,40999,1,0,0:0:0:0:
448,192,41031,1,0,0:0:0:0:
320,192,41063,1,0,0:0:0:0:
192,192,41096,1,0,0:0:0:0:
64,192,41128,1,0,0:0:0:0:
320,192,41160,1,0,0:0:0:0:
448,192,41192,1,0,0:0:0:0:
64,192,41225,128,0,41321:0:0:0:0:
192,192,41225,128,0,41321:0:0:0:0:
320,192,41321,1,0,0:0:0:0:
448,192,41321,1,0,0:0:0:0:
320,192,41418,128,0,41515:0:0:0:0:
448,192,41418,128,0,41515:0:0:0:0:
192,192,41515,1,0,0:0:0:0:
64,192,41515,1,0,0:0:0:0:
64,192,41612,128,0,41660:0:0:0:0:
320,192,41612,128,0,41709:0:0:0:0:
448,192,41709,128,0,41757:0:0:0:0:
192,192,41709,128,0,41805:0:0:0:0:
64,192,41805,128,0,41854:0:0:0:0:
320,192,41805,128,0,41902:0:0:0:0:
448,192,41902,128,0,41950:0:0:0:0:
192,192,41902,128,0,41999:0:0:0:0:
64,192,41999,128,0,42047:0:0:0:0:
320,192,41999,128,0,42096:0:0:0:0:
448,192,42096,128,0,42144:0:0:0:0:
192,192,42096,128,0,42192:0:0:0:0:
64,192,42192,128,0,42241:0:0:0:0:
320,192,42192,128,0,42289:0:0:0:0:
192,192,42289,128,0,42338:0:0:0:0:
448,192,42289,128,0,42338:0:0:0:0:
320,192,42386,1,0,0:0:0:0:
64,192,42386,128,0,42483:0:0:0:0:
320,192,42579,128,0,42676:0:0:0:0:
192,192,42579,1,0,0:0:0:0:
64,192,42579,1,0,0:0:0:0:
192,192,42773,128,0,42870:0:0:0:0:
448,192,42773,1,0,0:0:0:0:
320,192,42773,1,0,0:0:0:0:
448,192,42967,128,0,43063:0:0:0:0:
320,192,42967,1,0,0:0:0:0:
64,192,42967,1,0,0:0:0:0:
192,192,43160,128,0,43257:0:0:0:0:
320,192,43160,1,0,0:0:0:0:
64,192,43160,1,0,0:0:0:0:
448,192,43354,1,0,0:0:0:0:
192,192,43354,1,0,0:0:0:0:
320,192,43354,128,0,43450:0:0:0:0:
192,192,43547,1,0,0:0:0:0:
448,192,43547,1,0,0:0:0:0:
320,192,43596,1,0,0:0:0:0:
64,192,43644,1,0,0:0:0:0:
192,192,43692,1,0,0:0:0:0:
448,192,43741,1,0,0:0:0:0:
320,192,43789,1,0,0:0:0:0:
64,192,43838,1,0,0:0:0:0:
192,192,43886,1,0,0:0:0:0:
448,192,43934,1,0,0:0:0:0:
320,192,43934,1,0,0:0:0:0:
64,192,43967,1,0,0:0:0:0:
192,192,43999,1,0,0:0:0:0:
448,192,44031,1,0,0:0:0:0:
320,192,44063,1,0,0:0:0:0:
192,192,44096,1,0,0:0:0:0:
64,192,44128,1,0,0:0:0:0:
320,192,44160,1,0,0:0:0:0:
448,192,44192,1,0,0:0:0:0:
192,192,44225,1,0,0:0:0:0:
64,192,44257,1,0,0:0:0:0:
448,192,44289,1,0,0:0:0:0:
320,192,44321,128,0,44418:0:0:0:0:
192,192,44321,128,0,44418:0:0:0:0:
64,192,44418,1,0,0:0:0:0:
448,192,44418,1,0,0:0:0:0:
64,192,44515,128,0,44612:0:0:0:0:
448,192,44515,1,0,0:0:0:0:
320,192,44612,1,0,0:0:0:0:
192,192,44612,1,0,0:0:0:0:
192,192,44709,128,0,44805:0:0:0:0:
448,192,44709,128,0,44805:0:0:0:0:
64,192,44805,1,0,0:0:0:0:
320,192,44805,1,0,0:0:0:0:
64,192,44902,128,0,44999:0:0:0:0:
320,192,44902,128,0,44999:0:0:0:0:
192,192,44999,1,0,0:0:0:0:
448,192,44999,1,0,0:0:0:0:
64,192,45096,128,0,45192:0:0:0:0:
448,192,45096,128,0,45192:0:0:0:0:
320,192,45192,1,0,0:0:0:0:
192,192,45192,1,0,0:0:0:0:
320,192,45289,128,0,45386:0:0:0:0:
192,192,45289,128,0,45386:0:0:0:0:
448,192,45386,1,0,0:0:0:0:
64,192,45386,1,0,0:0:0:0:
64,192,45483,1,0,0:0:0:0:
320,192,45483,1,0,0:0:0:0:
192,192,45515,1,0,0:0:0:0:
448,192,45547,1,0,0:0:0:0:
320,192,45579,1,0,0:0:0:0:
64,192,45612,1,0,0:0:0:0:
192,192,45644,1,0,0:0:0:0:
320,192,45676,1,0,0:0:0:0:
448,192,45709,1,0,0:0:0:0:
192,192,45741,1,0,0:0:0:0:
64,192,45773,1,0,0:0:0:0:
320,192,45870,128,0,45967:0:0:0:0:
448,192,45870,128,0,45967:0:0:0:0:
192,192,45967,1,0,0:0:0:0:
64,192,45967,1,0,0:0:0:0:
64,192,46063,1,0,0:0:0:0:
192,192,46063,1,0,0:0:0:0:
320,192,46128,1,0,0:0:0:0:
448,192,46128,1,0,0:0:0:0:
192,192,46192,1,0,0:0:0:0:
64,192,46192,1,0,0:0:0:0:
320,192,46257,1,0,0:0:0:0:
448,192,46257,1,0,0:0:0:0:
64,192,46354,128,0,46450:0:0:0:0:
192,192,46354,128,0,46450:0:0:0:0:
320,192,46450,128,0,46644:0:0:0:0:
448,192,46450,128,0,46644:0:0:0:0:
192,192,46644,128,0,46838:0:0:0:0:
64,192,46644,128,0,46838:0:0:0:0:
448,192,47031,1,0,0:0:0:0:
192,192,47031,1,0,0:0:0:0:
320,192,47063,1,0,0:0:0:0:
64,192,47096,1,0,0:0:0:0:
192,192,47128,1,0,0:0:0:0:
448,192,47160,1,0,0:0:0:0:
320,192,47192,1,0,0:0:0:0:
64,192,47225,1,0,0:0:0:0:
192,192,47257,1,0,0:0:0:0:
320,192,47289,1,0,0:0:0:0:
448,192,47321,1,0,0:0:0:0:
192,192,47354,1,0,0:0:0:0:
64,192,47386,1,0,0:0:0:0:
320,192,47418,128,0,47515:0:0:0:0:
448,192,47418,128,0,47515:0:0:0:0:
192,192,47515,1,0,0:0:0:0:
64,192,47515,1,0,0:0:0:0:
192,192,47612,128,0,47709:0:0:0:0:
64,192,47612,128,0,47709:0:0:0:0:
320,192,47709,1,0,0:0:0:0:
448,192,47709,1,0,0:0:0:0:
64,192,47805,1,0,0:0:0:0:
448,192,47805,128,0,47854:0:0:0:0:
320,192,47805,128,0,47854:0:0:0:0:
448,192,47999,1,0,0:0:0:0:
192,192,47999,128,0,48047:0:0:0:0:
64,192,47999,128,0,48047:0:0:0:0:
320,192,48096,128,0,48144:0:0:0:0:
448,192,48096,128,0,48144:0:0:0:0:
192,192,48192,128,0,48241:0:0:0:0:
64,192,48192,128,0,48241:0:0:0:0:
64,192,48386,128,0,48434:0:0:0:0:
448,192,48386,1,0,0:0:0:0:
448,192,48579,128,0,48676:0:0:0:0:
192,192,48579,128,0,48676:0:0:0:0:
320,192,48579,1,0,0:0:0:0:
64,192,48579,1,0,0:0:0:0:
64,192,48773,1,0,0:0:0:0:
192,192,48773,1,0,0:0:0:0:
64,192,48967,1,0,0:0:0:0:
192,192,48967,1,0,0:0:0:0:
64,192,49160,1,0,0:0:0:0:
448,192,49160,1,0,0:0:0:0:
320,192,49354,1,0,0:0:0:0:
448,192,49354,1,0,0:0:0:0:
320,192,49547,1,0,0:0:0:0:
448,192,49547,1,0,0:0:0:0:
448,192,49741,1,0,0:0:0:0:
64,192,49741,1,0,0:0:0:0:
64,192,49934,1,0,0:0:0:0:
192,192,49983,1,0,0:0:0:0:
448,192,50031,1,0,0:0:0:0:
320,192,50079,1,0,0:0:0:0:
192,192,50128,1,0,0:0:0:0:
64,192,50128,1,0,0:0:0:0:
448,192,50176,1,0,0:0:0:0:
320,192,50225,1,0,0:0:0:0:
64,192,50273,1,0,0:0:0:0:
192,192,50321,1,0,0:0:0:0:
320,192,50370,1,0,0:0:0:0:
448,192,50418,1,0,0:0:0:0:
64,192,50467,1,0,0:0:0:0:
192,192,50515,1,0,0:0:0:0:
448,192,50563,1,0,0:0:0:0:
320,192,50612,1,0,0:0:0:0:
192,192,50660,1,0,0:0:0:0:
64,192,50709,1,0,0:0:0:0:
320,192,50757,1,0,0:0:0:0:
192,192,50805,1,0,0:0:0:0:
448,192,50854,1,0,0:0:0:0:
64,192,50902,1,0,0:0:0:0:
320,192,50902,1,0,0:0:0:0:
448,192,50999,1,0,0:0:0:0:
320,192,51096,1,0,0:0:0:0:
64,192,51096,1,0,0:0:0:0:
192,192,51192,1,0,0:0:0:0:
320,192,51289,1,0,0:0:0:0:
448,192,51289,1,0,0:0:0:0:
64,192,51386,1,0,0:0:0:0:
192,192,51483,1,0,0:0:0:0:
448,192,51483,1,0,0:0:0:0:
320,192,51579,1,0,0:0:0:0:
192,192,51676,1,0,0:0:0:0:
64,192,51676,1,0,0:0:0:0:
448,192,51725,1,0,0:0:0:0:
320,192,51773,1,0,0:0:0:0:
64,192,51821,1,0,0:0:0:0:
192,192,51870,1,0,0:0:0:0:
320,192,51918,1,0,0:0:0:0:
448,192,51967,1,0,0:0:0:0:
192,192,52015,1,0,0:0:0:0:
64,192,52063,1,0,0:0:0:0:
320,192,52112,1,0,0:0:0:0:
448,192,52160,1,0,0:0:0:0:
192,192,52209,1,0,0:0:0:0:
320,192,52257,1,0,0:0:0:0:
448,192,52321,1,0,0:0:0:0:
64,192,52321,1,0,0:0:0:0:
320,192,52386,1,0,0:0:0:0:
192,192,52386,1,0,0:0:0:0:
64,192,52450,1,0,0:0:0:0:
448,192,52450,1,0,0:0:0:0:
192,192,52547,1,0,0:0:0:0:
320,192,52644,1,0,0:0:0:0:
448,192,52644,1,0,0:0:0:0:
192,192,52741,1,0,0:0:0:0:
320,192,52838,1,0,0:0:0:0:
448,192,52838,1,0,0:0:0:0:
192,192,52870,1,0,0:0:0:0:
64,192,52902,1,0,0:0:0:0:
320,192,52934,1,0,0:0:0:0:
448,192,52967,1,0,0:0:0:0:
192,192,52999,1,0,0:0:0:0:
64,192,53031,1,0,0:0:0:0:
64,192,53225,1,0,0:0:0:0:
320,192,53225,1,0,0:0:0:0:
192,192,53257,1,0,0:0:0:0:
448,192,53289,1,0,0:0:0:0:
320,192,53321,1,0,0:0:0:0:
64,192,53354,1,0,0:0:0:0:
192,192,53386,1,0,0:0:0:0:
320,192,53418,1,0,0:0:0:0:
448,192,53450,1,0,0:0:0:0:
192,192,53483,1,0,0:0:0:0:
64,192,53515,1,0,0:0:0:0:
320,192,53547,1,0,0:0:0:0:
448,192,53579,1,0,0:0:0:0:
192,192,53612,128,0,53709:0:0:0:0:
64,192,53612,128,0,53709:0:0:0:0:
320,192,53805,128,0,53902:0:0:0:0:
448,192,53805,128,0,53902:0:0:0:0:
192,192,53805,1,0,0:0:0:0:
64,192,53805,1,0,0:0:0:0:
320,192,53999,128,0,54047:0:0:0:0:
64,192,53999,128,0,54047:0:0:0:0:
192,192,53999,1,0,0:0:0:0:
448,192,53999,1,0,0:0:0:0:
448,192,54096,128,0,54144:0:0:0:0:
192,192,54096,128,0,54144:0:0:0:0:
320,192,54192,128,0,54289:0:0:0:0:
64,192,54192,128,0,54289:0:0:0:0:
320,192,54386,128,0,54483:0:0:0:0:
64,192,54386,128,0,54483:0:0:0:0:
320,192,54579,128,0,54676:0:0:0:0:
64,192,54579,128,0,54676:0:0:0:0:
192,192,54773,1,0,0:0:0:0:
448,192,54773,1,0,0:0:0:0:
320,192,54870,1,0,0:0:0:0:
64,192,54870,1,0,0:0:0:0:
64,192,54967,128,0,55063:0:0:0:0:
448,192,54967,128,0,55063:0:0:0:0:
320,192,55160,128,0,55257:0:0:0:0:
192,192,55160,128,0,55257:0:0:0:0:
320,192,55354,128,0,55450:0:0:0:0:
448,192,55354,128,0,55450:0:0:0:0:
448,192,55547,128,0,55644:0:0:0:0:
64,192,55547,128,0,55644:0:0:0:0:
192,192,55741,128,0,55838:0:0:0:0:
64,192,55741,128,0,55838:0:0:0:0:
192,192,55934,128,0,56031:0:0:0:0:
320,192,55934,128,0,56031:0:0:0:0:
320,192,56128,128,0,56225:0:0:0:0:
448,192,56128,128,0,56225:0:0:0:0:
64,192,56321,5,0,0:0:0:0:
320,192,56321,1,0,0:0:0:0:
192,192,56370,1,0,0:0:0:0:
448,192,56418,1,0,0:0:0:0:
320,192,56467,1,0,0:0:0:0:
192,192,56515,1,0,0:0:0:0:
64,192,56563,1,0,0:0:0:0:
320,192,56612,1,0,0:0:0:0:
448,192,56660,1,0,0:0:0:0:
192,192,56709,1,0,0:0:0:0:
320,192,56757,1,0,0:0:0:0:
64,192,56805,1,0,0:0:0:0:
192,192,56854,1,0,0:0:0:0:
448,192,56902,1,0,0:0:0:0:
320,192,56950,1,0,0:0:0:0:
64,192,56999,1,0,0:0:0:0:
192,192,57047,1,0,0:0:0:0:
320,192,57096,1,0,0:0:0:0:
448,192,57096,1,0,0:0:0:0:
192,192,57192,1,0,0:0:0:0:
64,192,57289,1,0,0:0:0:0:
320,192,57289,1,0,0:0:0:0:
448,192,57386,1,0,0:0:0:0:
64,192,57483,1,0,0:0:0:0:
192,192,57483,1,0,0:0:0:0:
320,192,57579,1,0,0:0:0:0:
448,192,57676,1,0,0:0:0:0:
64,192,57676,1,0,0:0:0:0:
192,192,57773,1,0,0:0:0:0:
320,192,57870,1,0,0:0:0:0:
448,192,57870,1,0,0:0:0:0:
192,192,57918,1,0,0:0:0:0:
64,192,57967,1,0,0:0:0:0:
320,192,58015,1,0,0:0:0:0:
192,192,58063,1,0,0:0:0:0:
448,192,58112,1,0,0:0:0:0:
320,192,58160,1,0,0:0:0:0:
64,192,58209,1,0,0:0:0:0:
192,192,58257,1,0,0:0:0:0:
448,192,58305,1,0,0:0:0:0:
320,192,58354,1,0,0:0:0:0:
192,192,58402,1,0,0:0:0:0:
448,192,58450,1,0,0:0:0:0:
64,192,58499,1,0,0:0:0:0:
192,192,58499,1,0,0:0:0:0:
448,192,58579,1,0,0:0:0:0:
320,192,58579,1,0,0:0:0:0:
64,192,58644,1,0,0:0:0:0:
192,192,58644,1,0,0:0:0:0:
448,192,58838,1,0,0:0:0:0:
192,192,58838,1,0,0:0:0:0:
64,192,59031,1,0,0:0:0:0:
320,192,59031,1,0,0:0:0:0:
192,192,59225,1,0,0:0:0:0:
320,192,59225,1,0,0:0:0:0:
448,192,59418,1,0,0:0:0:0:
64,192,59418,1,0,0:0:0:0:
320,192,59450,1,0,0:0:0:0:
192,192,59483,1,0,0:0:0:0:
64,192,59515,1,0,0:0:0:0:
448,192,59547,1,0,0:0:0:0:
320,192,59579,1,0,0:0:0:0:
64,192,59612,1,0,0:0:0:0:
192,192,59644,1,0,0:0:0:0:
448,192,59676,1,0,0:0:0:0:
320,192,59709,1,0,0:0:0:0:
192,192,59741,1,0,0:0:0:0:
64,192,59773,1,0,0:0:0:0:
320,192,59805,128,0,59902:0:0:0:0:
448,192,59805,128,0,59902:0:0:0:0:
448,192,59999,128,0,60096:0:0:0:0:
192,192,59999,128,0,60096:0:0:0:0:
320,192,60192,1,0,0:0:0:0:
64,192,60192,1,0,0:0:0:0:
192,192,60192,1,0,0:0:0:0:
192,192,60386,128,0,60483:0:0:0:0:
64,192,60386,128,0,60483:0:0:0:0:
64,192,60579,128,0,60676:0:0:0:0:
320,192,60579,128,0,60676:0:0:0:0:
192,192,60773,128,0,60870:0:0:0:0:
448,192,60773,128,0,60870:0:0:0:0:
320,192,60967,128,0,61063:0:0:0:0:
64,192,60967,128,0,61063:0:0:0:0:
448,192,61063,1,0,0:0:0:0:
192,192,61063,1,0,0:0:0:0:
448,192,61160,128,0,61257:0:0:0:0:
192,192,61160,128,0,61257:0:0:0:0:
320,192,61257,1,0,0:0:0:0:
64,192,61257,1,0,0:0:0:0:
320,192,61354,128,0,61450:0:0:0:0:
64,192,61354,128,0,61450:0:0:0:0:
192,192,61450,1,0,0:0:0:0:
448,192,61450,1,0,0:0:0:0:
192,192,61547,128,0,61644:0:0:0:0:
448,192,61547,128,0,61644:0:0:0:0:
320,192,61644,1,0,0:0:0:0:
64,192,61644,1,0,0:0:0:0:
192,192,61741,1,0,0:0:0:0:
448,192,61741,1,0,0:0:0:0:
448,192,61934,1,0,0:0:0:0:
192,192,61934,1,0,0:0:0:0:
64,192,62128,1,0,0:0:0:0:
448,192,62128,1,0,0:0:0:0:
192,192,62160,1,0,0:0:0:0:
320,192,62192,1,0,0:0:0:0:
448,192,62225,1,0,0:0:0:0:
192,192,62257,1,0,0:0:0:0:
64,192,62289,1,0,0:0:0:0:
448,192,62321,1,0,0:0:0:0:
320,192,62354,1,0,0:0:0:0:
64,192,62386,1,0,0:0:0:0:
192,192,62418,1,0,0:0:0:0:
320,192,62450,1,0,0:0:0:0:
448,192,62483,1,0,0:0:0:0:
192,192,62515,1,0,0:0:0:0:
64,192,62515,1,0,0:0:0:0:
320,192,62563,1,0,0:0:0:0:
448,192,62612,1,0,0:0:0:0:
64,192,62660,1,0,0:0:0:0:
192,192,62709,1,0,0:0:0:0:
448,192,62757,1,0,0:0:0:0:
320,192,62805,1,0,0:0:0:0:
64,192,62854,1,0,0:0:0:0:
192,192,62902,1,0,0:0:0:0:
320,192,62950,1,0,0:0:0:0:
448,192,62999,1,0,0:0:0:0:
192,192,63047,1,0,0:0:0:0:
320,192,63096,1,0,0:0:0:0:
64,192,63144,1,0,0:0:0:0:
192,192,63192,1,0,0:0:0:0:
320,192,63241,1,0,0:0:0:0:
448,192,63289,1,0,0:0:0:0:
64,192,63289,1,0,0:0:0:0:
320,192,63386,1,0,0:0:0:0:
64,192,63483,1,0,0:0:0:0:
192,192,63483,1,0,0:0:0:0:
448,192,63579,1,0,0:0:0:0:
320,192,63676,1,0,0:0:0:0:
64,192,63676,1,0,0:0:0:0:
192,192,63773,1,0,0:0:0:0:
448,192,63870,1,0,0:0:0:0:
320,192,63870,1,0,0:0:0:0:
192,192,63967,1,0,0:0:0:0:
64,192,64063,1,0,0:0:0:0:
320,192,64063,1,0,0:0:0:0:
448,192,64112,1,0,0:0:0:0:
192,192,64160,1,0,0:0:0:0:
320,192,64209,1,0,0:0:0:0:
64,192,64257,1,0,0:0:0:0:
192,192,64305,1,0,0:0:0:0:
448,192,64354,1,0,0:0:0:0:
320,192,64402,1,0,0:0:0:0:
192,192,64450,1,0,0:0:0:0:
64,192,64499,1,0,0:0:0:0:
320,192,64547,1,0,0:0:0:0:
448,192,64596,1,0,0:0:0:0:
64,192,64644,1,0,0:0:0:0:
448,192,64709,1,0,0:0:0:0:
192,192,64709,1,0,0:0:0:0:
320,192,64773,1,0,0:0:0:0:
64,192,64773,1,0,0:0:0:0:
192,192,64838,1,0,0:0:0:0:
448,192,64838,1,0,0:0:0:0:
320,192,65031,128,0,65128:0:0:0:0:
64,192,65031,128,0,65128:0:0:0:0:
320,192,65225,128,0,65321:0:0:0:0:
64,192,65225,128,0,65321:0:0:0:0:
448,192,65418,128,0,65515:0:0:0:0:
192,192,65418,128,0,65515:0:0:0:0:
320,192,65612,1,0,0:0:0:0:
64,192,65612,1,0,0:0:0:0:
448,192,65660,1,0,0:0:0:0:
192,192,65709,1,0,0:0:0:0:
64,192,65757,1,0,0:0:0:0:
448,192,65805,1,0,0:0:0:0:
320,192,65854,1,0,0:0:0:0:
192,192,65902,1,0,0:0:0:0:
64,192,65950,1,0,0:0:0:0:
320,192,65999,1,0,0:0:0:0:
448,192,66047,1,0,0:0:0:0:
192,192,66096,1,0,0:0:0:0:
320,192,66144,1,0,0:0:0:0:
64,192,66192,1,0,0:0:0:0:
192,192,66241,1,0,0:0:0:0:
448,192,66241,1,0,0:0:0:0:
320,192,66289,1,0,0:0:0:0:
64,192,66338,1,0,0:0:0:0:
192,192,66386,1,0,0:0:0:0:
448,192,66386,1,0,0:0:0:0:
320,192,66579,1,0,0:0:0:0:
64,192,66579,1,0,0:0:0:0:
192,192,66773,1,0,0:0:0:0:
320,192,66870,1,0,0:0:0:0:
448,192,66967,1,0,0:0:0:0:
64,192,67063,1,0,0:0:0:0:
192,192,67160,1,0,0:0:0:0:
448,192,67160,1,0,0:0:0:0:
320,192,67209,1,0,0:0:0:0:
64,192,67257,1,0,0:0:0:0:
192,192,67305,1,0,0:0:0:0:
448,192,67354,1,0,0:0:0:0:
320,192,67402,1,0,0:0:0:0:
192,192,67450,1,0,0:0:0:0:
64,192,67499,1,0,0:0:0:0:
320,192,67547,1,0,0:0:0:0:
192,192,67596,1,0,0:0:0:0:
448,192,67644,1,0,0:0:0:0:
320,192,67692,1,0,0:0:0:0:
192,192,67741,1,0,0:0:0:0:
64,192,67789,1,0,0:0:0:0:
320,192,67838,1,0,0:0:0:0:
448,192,67886,1,0,0:0:0:0:
64,192,67934,1,0,0:0:0:0:
192,192,67934,1,0,0:0:0:0:
320,192,67967,1,0,0:0:0:0:
448,192,67999,1,0,0:0:0:0:
64,192,68031,1,0,0:0:0:0:
192,192,68063,1,0,0:0:0:0:
448,192,68096,1,0,0:0:0:0:
320,192,68128,1,0,0:0:0:0:
192,192,68160,1,0,0:0:0:0:
64,192,68192,1,0,0:0:0:0:
320,192,68225,1,0,0:0:0:0:
448,192,68257,1,0,0:0:0:0:
64,192,68289,1,0,0:0:0:0:
192,192,68321,1,0,0:0:0:0:
320,192,68321,1,0,0:0:0:0:
448,192,68418,1,0,0:0:0:0:
64,192,68418,1,0,0:0:0:0:
192,192,68515,1,0,0:0:0:0:
448,192,68515,1,0,0:0:0:0:
320,192,68547,1,0,0:0:0:0:
64,192,68579,1,0,0:0:0:0:
192,192,68612,1,0,0:0:0:0:
448,192,68644,1,0,0:0:0:0:
320,192,68676,1,0,0:0:0:0:
192,192,68709,1,0,0:0:0:0:
64,192,68709,1,0,0:0:0:0:
448,192,68757,1,0,0:0:0:0:
320,192,68805,1,0,0:0:0:0:
64,192,68854,1,0,0:0:0:0:
192,192,68902,1,0,0:0:0:0:
320,192,68950,1,0,0:0:0:0:
448,192,68999,1,0,0:0:0:0:
192,192,69047,1,0,0:0:0:0:
320,192,69096,1,0,0:0:0:0:
64,192,69144,1,0,0:0:0:0:
192,192,69192,1,0,0:0:0:0:
448,192,69241,1,0,0:0:0:0:
320,192,69289,1,0,0:0:0:0:
192,192,69338,1,0,0:0:0:0:
64,192,69386,1,0,0:0:0:0:
448,192,69434,1,0,0:0:0:0:
320,192,69483,1,0,0:0:0:0:
192,192,69483,1,0,0:0:0:0:
64,192,69579,1,0,0:0:0:0:
192,192,69676,1,0,0:0:0:0:
448,192,69676,1,0,0:0:0:0:
320,192,69773,1,0,0:0:0:0:
448,192,69870,1,0,0:0:0:0:
64,192,69870,1,0,0:0:0:0:
192,192,69967,1,0,0:0:0:0:
448,192,70063,1,0,0:0:0:0:
320,192,70063,1,0,0:0:0:0:
64,192,70160,1,0,0:0:0:0:
192,192,70257,1,0,0:0:0:0:
448,192,70257,1,0,0:0:0:0:
320,192,70305,1,0,0:0:0:0:
64,192,70354,1,0,0:0:0:0:
192,192,70402,1,0,0:0:0:0:
448,192,70450,1,0,0:0:0:0:
320,192,70499,1,0,0:0:0:0:
64,192,70547,1,0,0:0:0:0:
192,192,70596,1,0,0:0:0:0:
320,192,70644,1,0,0:0:0:0:
448,192,70692,1,0,0:0:0:0:
192,192,70741,1,0,0:0:0:0:
320,192,70789,1,0,0:0:0:0:
64,192,70838,1,0,0:0:0:0:
192,192,70902,1,0,0:0:0:0:
448,192,70902,1,0,0:0:0:0:
320,192,70967,1,0,0:0:0:0:
64,192,70967,1,0,0:0:0:0:
192,192,71031,128,0,71128:0:0:0:0:
448,192,71031,128,0,71128:0:0:0:0:
448,192,71225,128,0,71321:0:0:0:0:
192,192,71225,128,0,71321:0:0:0:0:
320,192,71418,128,0,71515:0:0:0:0:
64,192,71418,128,0,71515:0:0:0:0:
192,192,71612,128,0,71709:0:0:0:0:
320,192,71612,128,0,71709:0:0:0:0:
64,192,71805,1,0,0:0:0:0:
448,192,71805,1,0,0:0:0:0:
320,192,71854,1,0,0:0:0:0:
192,192,71902,1,0,0:0:0:0:
64,192,71950,1,0,0:0:0:0:
320,192,71999,1,0,0:0:0:0:
448,192,72047,1,0,0:0:0:0:
64,192,72096,1,0,0:0:0:0:
192,192,72144,1,0,0:0:0:0:
320,192,72192,1,0,0:0:0:0:
448,192,72241,1,0,0:0:0:0:
192,192,72289,1,0,0:0:0:0:
64,192,72338,1,0,0:0:0:0:
448,192,72386,1,0,0:0:0:0:
320,192,72434,1,0,0:0:0:0:
64,192,72483,1,0,0:0:0:0:
192,192,72531,1,0,0:0:0:0:
320,192,72579,1,0,0:0:0:0:
448,192,72579,1,0,0:0:0:0:
192,192,72676,1,0,0:0:0:0:
64,192,72773,1,0,0:0:0:0:
448,192,72773,1,0,0:0:0:0:
320,192,72870,1,0,0:0:0:0:
192,192,72967,1,0,0:0:0:0:
64,192,72967,1,0,0:0:0:0:
320,192,73063,1,0,0:0:0:0:
448,192,73160,1,0,0:0:0:0:
192,192,73160,1,0,0:0:0:0:
64,192,73257,1,0,0:0:0:0:
320,192,73354,1,0,0:0:0:0:
448,192,73354,1,0,0:0:0:0:
448,192,74687,1,0,0:0:0:0:
320,192,74687,1,0,0:0:0:0:
448,192,74854,1,0,0:0:0:0:
64,192,74854,1,0,0:0:0:0:
192,192,74937,1,0,0:0:0:0:
64,192,75020,1,0,0:0:0:0:
192,192,75020,1,0,0:0:0:0:
64,192,75187,1,0,0:0:0:0:
192,192,75187,1,0,0:0:0:0:
320,192,75270,1,0,0:0:0:0:
448,192,75354,1,0,0:0:0:0:
320,192,75354,1,0,0:0:0:0:
64,192,75520,1,0,0:0:0:0:
320,192,75520,1,0,0:0:0:0:
192,192,75604,1,0,0:0:0:0:
192,192,75687,1,0,0:0:0:0:
64,192,75687,1,0,0:0:0:0:
448,192,75854,1,0,0:0:0:0:
192,192,75854,1,0,0:0:0:0:
320,192,75937,1,0,0:0:0:0:
448,192,76020,1,0,0:0:0:0:
320,192,76020,1,0,0:0:0:0:
448,192,76187,1,0,0:0:0:0:
192,192,76187,1,0,0:0:0:0:
64,192,76270,1,0,0:0:0:0:
64,192,76354,1,0,0:0:0:0:
192,192,76354,1,0,0:0:0:0:
192,192,76520,1,0,0:0:0:0:
64,192,76520,1,0,0:0:0:0:
448,192,76604,1,0,0:0:0:0:
320,192,76687,1,0,0:0:0:0:
448,192,76687,1,0,0:0:0:0:
448,192,76854,1,0,0:0:0:0:
64,192,76854,1,0,0:0:0:0:
192,192,76937,1,0,0:0:0:0:
192,192,77020,1,0,0:0:0:0:
64,192,77020,1,0,0:0:0:0:
448,192,77187,1,0,0:0:0:0:
192,192,77187,1,0,0:0:0:0:
320,192,77270,1,0,0:0:0:0:
320,192,77354,1,0,0:0:0:0:
448,192,77354,1,0,0:0:0:0:
448,192,77520,1,0,0:0:0:0:
64,192,77520,1,0,0:0:0:0:
192,192,77604,1,0,0:0:0:0:
192,192,77687,1,0,0:0:0:0:
64,192,77687,1,0,0:0:0:0:
64,192,77854,1,0,0:0:0:0:
320,192,77854,1,0,0:0:0:0:
448,192,77937,1,0,0:0:0:0:
320,192,78020,1,0,0:0:0:0:
448,192,78020,1,0,0:0:0:0:
448,192,78187,1,0,0:0:0:0:
64,192,78187,1,0,0:0:0:0:
192,192,78270,1,0,0:0:0:0:
192,192,78354,1,0,0:0:0:0:
64,192,78354,1,0,0:0:0:0:
64,192,78520,1,0,0:0:0:0:
192,192,78520,1,0,0:0:0:0:
320,192,78604,1,0,0:0:0:0:
320,192,78687,1,0,0:0:0:0:
448,192,78687,1,0,0:0:0:0:
320,192,78854,1,0,0:0:0:0:
448,192,78854,1,0,0:0:0:0:
192,192,78937,1,0,0:0:0:0:
192,192,79020,1,0,0:0:0:0:
64,192,79020,1,0,0:0:0:0:
320,192,79187,1,0,0:0:0:0:
64,192,79187,1,0,0:0:0:0:
448,192,79270,1,0,0:0:0:0:
320,192,79354,1,0,0:0:0:0:
448,192,79354,1,0,0:0:0:0:
448,192,79520,1,0,0:0:0:0:
192,192,79520,1,0,0:0:0:0:
64,192,79604,1,0,0:0:0:0:
192,192,79687,1,0,0:0:0:0:
64,192,79687,1,0,0:0:0:0:
448,192,79854,1,0,0:0:0:0:
64,192,79854,1,0,0:0:0:0:
320,192,79937,1,0,0:0:0:0:
320,192,80020,1,0,0:0:0:0:
448,192,80020,1,0,0:0:0:0:
64,192,80104,1,0,0:0:0:0:
64,192,80187,1,0,0:0:0:0:
320,192,80187,1,0,0:0:0:0:
448,192,80270,1,0,0:0:0:0:
192,192,80354,1,0,0:0:0:0:
448,192,80354,1,0,0:0:0:0:
320,192,80437,1,0,0:0:0:0:
320,192,80520,1,0,0:0:0:0:
192,192,80520,1,0,0:0:0:0:
64,192,80603,1,0,0:0:0:0:
64,192,80687,1,0,0:0:0:0:
192,192,80687,1,0,0:0:0:0:
448,192,80770,1,0,0:0:0:0:
448,192,80853,1,0,0:0:0:0:
320,192,80853,1,0,0:0:0:0:
192,192,80937,1,0,0:0:0:0:
192,192,81020,1,0,0:0:0:0:
64,192,81020,1,0,0:0:0:0:
448,192,81103,1,0,0:0:0:0:
448,192,81187,1,0,0:0:0:0:
320,192,81187,1,0,0:0:0:0:
192,192,81270,1,0,0:0:0:0:
64,192,81270,1,0,0:0:0:0:
320,192,81353,1,0,0:0:0:0:
448,192,81353,1,0,0:0:0:0:
192,192,81437,1,0,0:0:0:0:
64,192,81520,1,0,0:0:0:0:
192,192,81520,1,0,0:0:0:0:
320,192,81603,1,0,0:0:0:0:
64,192,81687,1,0,0:0:0:0:
320,192,81687,1,0,0:0:0:0:
192,192,81770,1,0,0:0:0:0:
192,192,81853,1,0,0:0:0:0:
448,192,81853,1,0,0:0:0:0:
320,192,81937,1,0,0:0:0:0:
320,192,82020,1,0,0:0:0:0:
64,192,82020,1,0,0:0:0:0:
448,192,82103,1,0,0:0:0:0:
448,192,82187,1,0,0:0:0:0:
192,192,82187,1,0,0:0:0:0:
64,192,82270,1,0,0:0:0:0:
320,192,82353,1,0,0:0:0:0:
64,192,82353,1,0,0:0:0:0:
192,192,82437,1,0,0:0:0:0:
320,192,82520,1,0,0:0:0:0:
64,192,82520,1,0,0:0:0:0:
192,192,82562,1,0,0:0:0:0:
320,192,82603,1,0,0:0:0:0:
448,192,82603,1,0,0:0:0:0:
192,192,82645,1,0,0:0:0:0:
64,192,82687,1,0,0:0:0:0:
448,192,82687,1,0,0:0:0:0:
192,192,82770,1,0,0:0:0:0:
320,192,82770,1,0,0:0:0:0:
448,192,82853,1,0,0:0:0:0:
320,192,82853,1,0,0:0:0:0:
192,192,82937,1,0,0:0:0:0:
64,192,82937,1,0,0:0:0:0:
320,192,83020,1,0,0:0:0:0:
192,192,83020,1,0,0:0:0:0:
320,192,83103,1,0,0:0:0:0:
64,192,83103,1,0,0:0:0:0:
64,192,83187,1,0,0:0:0:0:
192,192,83187,1,0,0:0:0:0:
448,192,83270,1,0,0:0:0:0:
192,192,83270,1,0,0:0:0:0:
320,192,83353,1,0,0:0:0:0:
448,192,83353,1,0,0:0:0:0:
64,192,83437,1,0,0:0:0:0:
192,192,83437,1,0,0:0:0:0:
448,192,83520,1,0,0:0:0:0:
64,192,83520,1,0,0:0:0:0:
192,192,83603,1,0,0:0:0:0:
320,192,83603,1,0,0:0:0:0:
448,192,83687,1,0,0:0:0:0:
320,192,83687,1,0,0:0:0:0:
64,192,83770,1,0,0:0:0:0:
192,192,83770,1,0,0:0:0:0:
448,192,83853,1,0,0:0:0:0:
64,192,83853,1,0,0:0:0:0:
320,192,83937,1,0,0:0:0:0:
448,192,83937,1,0,0:0:0:0:
192,192,84020,1,0,0:0:0:0:
64,192,84020,1,0,0:0:0:0:
448,192,85353,1,0,0:0:0:0:
64,192,85353,1,0,0:0:0:0:
320,192,85395,1,0,0:0:0:0:
192,192,85437,1,0,0:0:0:0:
64,192,85478,1,0,0:0:0:0:
448,192,85520,1,0,0:0:0:0:
320,192,85562,1,0,0:0:0:0:
64,192,85603,1,0,0:0:0:0:
192,192,85645,1,0,0:0:0:0:
320,192,85687,128,0,85770:0:0:0:0:
448,192,85687,128,0,85770:0:0:0:0:
320,192,85853,128,0,85937:0:0:0:0:
448,192,85853,128,0,85937:0:0:0:0:
192,192,86020,1,0,0:0:0:0:
64,192,86020,1,0,0:0:0:0:
64,192,86187,128,0,86270:0:0:0:0:
192,192,86187,128,0,86270:0:0:0:0:
64,192,86353,128,0,86437:0:0:0:0:
192,192,86353,128,0,86437:0:0:0:0:
64,192,86687,1,0,0:0:0:0:
320,192,86687,1,0,0:0:0:0:
192,192,86728,1,0,0:0:0:0:
448,192,86770,1,0,0:0:0:0:
320,192,86812,1,0,0:0:0:0:
192,192,86853,1,0,0:0:0:0:
64,192,86895,1,0,0:0:0:0:
320,192,86937,1,0,0:0:0:0:
448,192,86978,1,0,0:0:0:0:
320,192,87020,128,0,87103:0:0:0:0:
64,192,87020,128,0,87103:0:0:0:0:
192,192,87103,128,0,87187:0:0:0:0:
448,192,87103,128,0,87187:0:0:0:0:
64,192,87187,128,0,87270:0:0:0:0:
320,192,87187,128,0,87270:0:0:0:0:
448,192,87270,1,0,0:0:0:0:
192,192,87270,1,0,0:0:0:0:
320,192,87353,1,0,0:0:0:0:
64,192,87353,1,0,0:0:0:0:
192,192,87437,128,0,87520:0:0:0:0:
448,192,87437,128,0,87520:0:0:0:0:
64,192,87603,128,0,87687:0:0:0:0:
320,192,87603,128,0,87687:0:0:0:0:
192,192,87770,128,0,87853:0:0:0:0:
320,192,87770,128,0,87853:0:0:0:0:
448,192,88020,1,0,0:0:0:0:
64,192,88020,1,0,0:0:0:0:
320,192,88062,1,0,0:0:0:0:
192,192,88103,1,0,0:0:0:0:
64,192,88145,1,0,0:0:0:0:
320,192,88187,1,0,0:0:0:0:
448,192,88228,1,0,0:0:0:0:
64,192,88270,1,0,0:0:0:0:
192,192,88312,1,0,0:0:0:0:
320,192,88353,128,0,88437:0:0:0:0:
448,192,88353,128,0,88437:0:0:0:0:
320,192,88520,128,0,88603:0:0:0:0:
448,192,88520,128,0,88603:0:0:0:0:
192,192,88687,1,0,0:0:0:0:
64,192,88687,1,0,0:0:0:0:
448,192,88853,128,0,88937:0:0:0:0:
64,192,88853,128,0,88937:0:0:0:0:
320,192,89020,128,0,89187:0:0:0:0:
64,192,89020,128,0,89187:0:0:0:0:
64,192,89353,128,0,89437:0:0:0:0:
192,192,89353,128,0,89437:0:0:0:0:
320,192,89437,1,0,0:0:0:0:
448,192,89437,1,0,0:0:0:0:
320,192,89520,128,0,89603:0:0:0:0:
448,192,89520,128,0,89603:0:0:0:0:
192,192,89603,1,0,0:0:0:0:
64,192,89603,1,0,0:0:0:0:
448,192,89687,128,0,89770:0:0:0:0:
192,192,89687,128,0,89770:0:0:0:0:
320,192,89770,1,0,0:0:0:0:
64,192,89770,1,0,0:0:0:0:
64,192,89853,128,0,89937:0:0:0:0:
320,192,89853,128,0,89937:0:0:0:0:
448,192,89937,1,0,0:0:0:0:
192,192,89937,1,0,0:0:0:0:
192,192,90020,128,0,90103:0:0:0:0:
320,192,90020,128,0,90103:0:0:0:0:
64,192,90103,1,0,0:0:0:0:
448,192,90103,1,0,0:0:0:0:
448,192,90187,128,0,90270:0:0:0:0:
192,192,90187,128,0,90270:0:0:0:0:
320,192,90270,1,0,0:0:0:0:
64,192,90270,1,0,0:0:0:0:
64,192,90353,128,0,90437:0:0:0:0:
192,192,90353,128,0,90437:0:0:0:0:
320,192,90353,128,0,90437:0:0:0:0:
448,192,90353,128,0,90437:0:0:0:0:
64,192,90520,128,0,90603:0:0:0:0:
192,192,90520,128,0,90603:0:0:0:0:
320,192,90520,128,0,90603:0:0:0:0:
448,192,90520,128,0,90603:0:0:0:0:
64,192,90687,1,0,0:0:0:0:
320,192,90687,1,0,0:0:0:0:
192,192,90728,1,0,0:0:0:0:
448,192,90770,1,0,0:0:0:0:
320,192,90812,1,0,0:0:0:0:
64,192,90853,1,0,0:0:0:0:
192,192,90895,1,0,0:0:0:0:
320,192,90937,1,0,0:0:0:0:
448,192,90978,1,0,0:0:0:0:
192,192,91020,128,0,91062:0:0:0:0:
64,192,91020,128,0,91062:0:0:0:0:
320,192,91103,128,0,91145:0:0:0:0:
448,192,91103,128,0,91145:0:0:0:0:
192,192,91187,128,0,91228:0:0:0:0:
64,192,91187,128,0,91228:0:0:0:0:
320,192,91353,128,0,91437:0:0:0:0:
448,192,91353,128,0,91437:0:0:0:0:
64,192,91520,128,0,91603:0:0:0:0:
320,192,91520,128,0,91603:0:0:0:0:
448,192,91687,128,0,91770:0:0:0:0:
192,192,91687,128,0,91770:0:0:0:0:
320,192,91853,128,0,91937:0:0:0:0:
192,192,91853,128,0,91937:0:0:0:0:
448,192,92020,128,0,92062:0:0:0:0:
64,192,92020,128,0,92062:0:0:0:0:
320,192,92103,128,0,92145:0:0:0:0:
192,192,92103,128,0,92145:0:0:0:0:
64,192,92187,128,0,92228:0:0:0:0:
448,192,92187,128,0,92228:0:0:0:0:
448,192,92353,128,0,92437:0:0:0:0:
192,192,92353,128,0,92437:0:0:0:0:
64,192,92520,1,0,0:0:0:0:
320,192,92520,1,0,0:0:0:0:
192,192,92603,1,0,0:0:0:0:
448,192,92603,1,0,0:0:0:0:
320,192,92687,128,0,92770:0:0:0:0:
64,192,92687,128,0,92770:0:0:0:0:
320,192,92853,128,0,92937:0:0:0:0:
64,192,92853,128,0,92937:0:0:0:0:
192,192,93020,128,0,93103:0:0:0:0:
448,192,93020,128,0,93103:0:0:0:0:
64,192,93187,1,0,0:0:0:0:
320,192,93187,1,0,0:0:0:0:
448,192,93353,1,0,0:0:0:0:
192,192,93353,1,0,0:0:0:0:
64,192,93395,1,0,0:0:0:0:
320,192,93437,1,0,0:0:0:0:
448,192,93478,1,0,0:0:0:0:
64,192,93520,1,0,0:0:0:0:
192,192,93562,1,0,0:0:0:0:
448,192,93603,1,0,0:0:0:0:
320,192,93645,1,0,0:0:0:0:
192,192,93687,128,0,93770:0:0:0:0:
64,192,93687,128,0,93770:0:0:0:0:
320,192,93770,128,0,93853:0:0:0:0:
448,192,93770,128,0,93853:0:0:0:0:
192,192,93853,128,0,93937:0:0:0:0:
64,192,93853,128,0,93937:0:0:0:0:
320,192,94020,128,0,94103:0:0:0:0:
448,192,94020,128,0,94103:0:0:0:0:
192,192,94187,128,0,94270:0:0:0:0:
320,192,94187,128,0,94270:0:0:0:0:
64,192,94353,128,0,94437:0:0:0:0:
448,192,94353,128,0,94437:0:0:0:0:
192,192,94520,128,0,94603:0:0:0:0:
320,192,94520,128,0,94603:0:0:0:0:
64,192,94687,1,0,0:0:0:0:
448,192,94687,1,0,0:0:0:0:
320,192,94728,1,0,0:0:0:0:
192,192,94770,1,0,0:0:0:0:
64,192,94812,1,0,0:0:0:0:
448,192,94853,1,0,0:0:0:0:
320,192,94895,1,0,0:0:0:0:
192,192,94937,1,0,0:0:0:0:
64,192,94937,1,0,0:0:0:0:
448,192,94978,1,0,0:0:0:0:
320,192,95020,1,0,0:0:0:0:
64,192,95062,1,0,0:0:0:0:
192,192,95103,1,0,0:0:0:0:
320,192,95145,1,0,0:0:0:0:
448,192,95187,1,0,0:0:0:0:
64,192,95187,1,0,0:0:0:0:
192,192,95228,1,0,0:0:0:0:
448,192,95270,1,0,0:0:0:0:
320,192,95312,1,0,0:0:0:0:
192,192,95353,1,0,0:0:0:0:
64,192,95353,1,0,0:0:0:0:
448,192,95395,1,0,0:0:0:0:
320,192,95437,1,0,0:0:0:0:
64,192,95478,1,0,0:0:0:0:
192,192,95520,1,0,0:0:0:0:
448,192,95520,1,0,0:0:0:0:
64,192,95603,1,0,0:0:0:0:
320,192,95603,1,0,0:0:0:0:
192,192,95687,1,0,0:0:0:0:
448,192,95687,1,0,0:0:0:0:
448,192,96020,1,0,0:0:0:0:
320,192,96048,1,0,0:0:0:0:
64,192,96076,1,0,0:0:0:0:
192,192,96103,1,0,0:0:0:0:
448,192,96131,1,0,0:0:0:0:
320,192,96159,1,0,0:0:0:0:
192,192,96187,1,0,0:0:0:0:
64,192,96215,1,0,0:0:0:0:
320,192,96242,1,0,0:0:0:0:
448,192,96270,1,0,0:0:0:0:
192,192,96298,1,0,0:0:0:0:
64,192,96326,1,0,0:0:0:0:
320,192,96353,1,0,0:0:0:0:
448,192,96353,1,0,0:0:0:0:
64,192,96437,1,0,0:0:0:0:
192,192,96437,1,0,0:0:0:0:
320,192,96520,1,0,0:0:0:0:
448,192,96520,1,0,0:0:0:0:
192,192,96603,1,0,0:0:0:0:
64,192,96603,1,0,0:0:0:0:
320,192,96645,1,0,0:0:0:0:
448,192,96645,1,0,0:0:0:0:
192,192,96687,1,0,0:0:0:0:
64,192,96687,1,0,0:0:0:0:
448,192,96770,128,0,96812:0:0:0:0:
192,192,96770,128,0,96812:0:0:0:0:
320,192,96853,128,0,96895:0:0:0:0:
64,192,96853,128,0,96895:0:0:0:0:
448,192,96937,128,0,96978:0:0:0:0:
192,192,96937,128,0,96978:0:0:0:0:
320,192,97020,128,0,97062:0:0:0:0:
64,192,97020,128,0,97062:0:0:0:0:
192,192,97103,128,0,97145:0:0:0:0:
448,192,97103,128,0,97145:0:0:0:0:
320,192,97187,128,0,97228:0:0:0:0:
64,192,97187,128,0,97228:0:0:0:0:
192,192,97270,128,0,97312:0:0:0:0:
448,192,97270,128,0,97312:0:0:0:0:
320,192,97353,128,0,97437:0:0:0:0:
64,192,97353,128,0,97437:0:0:0:0:
192,192,97520,128,0,97603:0:0:0:0:
448,192,97520,128,0,97603:0:0:0:0:
64,192,97687,1,0,0:0:0:0:
320,192,97687,1,0,0:0:0:0:
192,192,97728,1,0,0:0:0:0:
448,192,97770,1,0,0:0:0:0:
320,192,97812,1,0,0:0:0:0:
192,192,97853,1,0,0:0:0:0:
64,192,97909,1,0,0:0:0:0:
448,192,97909,1,0,0:0:0:0:
192,192,97965,1,0,0:0:0:0:
320,192,97965,1,0,0:0:0:0:
64,192,98020,128,0,98103:0:0:0:0:
448,192,98020,128,0,98103:0:0:0:0:
64,192,98187,128,0,98270:0:0:0:0:
192,192,98187,128,0,98270:0:0:0:0:
192,192,98353,128,0,98437:0:0:0:0:
320,192,98353,128,0,98437:0:0:0:0:
448,192,98520,128,0,98603:0:0:0:0:
64,192,98520,128,0,98603:0:0:0:0:
320,192,98687,1,0,0:0:0:0:
448,192,98687,1,0,0:0:0:0:
192,192,98728,1,0,0:0:0:0:
64,192,98770,1,0,0:0:0:0:
448,192,98812,1,0,0:0:0:0:
320,192,98853,1,0,0:0:0:0:
64,192,98895,1,0,0:0:0:0:
192,192,98937,1,0,0:0:0:0:
320,192,98978,1,0,0:0:0:0:
64,192,99020,128,0,99103:0:0:0:0:
448,192,99020,128,0,99103:0:0:0:0:
192,192,99187,128,0,99270:0:0:0:0:
320,192,99187,128,0,99270:0:0:0:0:
64,192,99353,128,0,99395:0:0:0:0:
448,192,99353,128,0,99395:0:0:0:0:
320,192,99437,128,0,99478:0:0:0:0:
192,192,99437,128,0,99478:0:0:0:0:
448,192,99520,128,0,99562:0:0:0:0:
64,192,99520,128,0,99562:0:0:0:0:
192,192,99603,128,0,99645:0:0:0:0:
320,192,99603,128,0,99645:0:0:0:0:
448,192,99687,128,0,99728:0:0:0:0:
64,192,99687,128,0,99728:0:0:0:0:
320,192,99770,128,0,99812:0:0:0:0:
192,192,99770,128,0,99812:0:0:0:0:
448,192,99853,128,0,99895:0:0:0:0:
64,192,99853,128,0,99895:0:0:0:0:
192,192,99937,128,0,99978:0:0:0:0:
320,192,99937,128,0,99978:0:0:0:0:
64,192,100020,128,0,100103:0:0:0:0:
448,192,100020,128,0,100103:0:0:0:0:
448,192,100187,128,0,100270:0:0:0:0:
192,192,100187,128,0,100270:0:0:0:0:
320,192,100353,128,0,100437:0:0:0:0:
448,192,100353,128,0,100437:0:0:0:0:
448,192,100520,128,0,100603:0:0:0:0:
64,192,100520,128,0,100603:0:0:0:0:
320,192,100687,128,0,100770:0:0:0:0:
192,192,100687,128,0,100770:0:0:0:0:
192,192,100853,128,0,100937:0:0:0:0:
64,192,100853,128,0,100937:0:0:0:0:
64,192,101020,1,0,0:0:0:0:
448,192,101020,1,0,0:0:0:0:
320,192,101062,1,0,0:0:0:0:
192,192,101103,1,0,0:0:0:0:
64,192,101145,1,0,0:0:0:0:
320,192,101187,1,0,0:0:0:0:
448,192,101228,1,0,0:0:0:0:
64,192,101270,1,0,0:0:0:0:
192,192,101312,1,0,0:0:0:0:
448,192,101353,1,0,0:0:0:0:
320,192,101353,1,0,0:0:0:0:
64,192,101381,1,0,0:0:0:0:
192,192,101409,1,0,0:0:0:0:
448,192,101437,1,0,0:0:0:0:
320,192,101465,1,0,0:0:0:0:
64,192,101492,1,0,0:0:0:0:
192,192,101520,1,0,0:0:0:0:
448,192,101548,1,0,0:0:0:0:
320,192,101576,1,0,0:0:0:0:
64,192,101603,1,0,0:0:0:0:
192,192,101631,1,0,0:0:0:0:
448,192,101659,1,0,0:0:0:0:
320,192,101687,1,0,0:0:0:0:
64,192,101853,128,0,101937:0:0:0:0:
320,192,101853,128,0,101937:0:0:0:0:
448,192,102020,128,0,102103:0:0:0:0:
192,192,102020,128,0,102103:0:0:0:0:
320,192,102187,128,0,102270:0:0:0:0:
448,192,102187,128,0,102270:0:0:0:0:
64,192,102353,128,0,102437:0:0:0:0:
192,192,102353,128,0,102437:0:0:0:0:
320,192,102520,128,0,102603:0:0:0:0:
64,192,102520,128,0,102603:0:0:0:0:
448,192,102687,1,0,0:0:0:0:
192,192,102687,1,0,0:0:0:0:
320,192,102728,1,0,0:0:0:0:
64,192,102770,1,0,0:0:0:0:
192,192,102812,1,0,0:0:0:0:
320,192,102853,1,0,0:0:0:0:
448,192,102895,1,0,0:0:0:0:
64,192,102937,1,0,0:0:0:0:
192,192,102978,1,0,0:0:0:0:
320,192,103020,128,0,103103:0:0:0:0:
448,192,103020,128,0,103103:0:0:0:0:
64,192,103187,128,0,103270:0:0:0:0:
320,192,103187,128,0,103270:0:0:0:0:
448,192,103353,1,0,0:0:0:0:
192,192,103353,1,0,0:0:0:0:
448,192,103437,128,0,103520:0:0:0:0:
192,192,103437,128,0,103520:0:0:0:0:
320,192,103520,128,0,103603:0:0:0:0:
64,192,103520,128,0,103603:0:0:0:0:
320,192,103687,128,0,103770:0:0:0:0:
192,192,103687,128,0,103770:0:0:0:0:
448,192,104020,1,0,0:0:0:0:
64,192,104020,1,0,0:0:0:0:
320,192,104048,1,0,0:0:0:0:
192,192,104076,1,0,0:0:0:0:
64,192,104103,1,0,0:0:0:0:
448,192,104131,1,0,0:0:0:0:
320,192,104159,1,0,0:0:0:0:
64,192,104187,1,0,0:0:0:0:
192,192,104215,1,0,0:0:0:0:
448,192,104242,1,0,0:0:0:0:
320,192,104270,1,0,0:0:0:0:
64,192,104298,1,0,0:0:0:0:
192,192,104326,1,0,0:0:0:0:
320,192,104353,128,0,104437:0:0:0:0:
448,192,104353,128,0,104437:0:0:0:0:
320,192,104520,128,0,104603:0:0:0:0:
64,192,104520,128,0,104603:0:0:0:0:
448,192,104687,128,0,104770:0:0:0:0:
192,192,104687,128,0,104770:0:0:0:0:
64,192,104853,128,0,104937:0:0:0:0:
192,192,104853,128,0,104937:0:0:0:0:
320,192,104937,128,0,105020:0:0:0:0:
448,192,104937,128,0,105020:0:0:0:0:
192,192,105020,128,0,105103:0:0:0:0:
64,192,105020,128,0,105103:0:0:0:0:
320,192,105187,128,0,105270:0:0:0:0:
448,192,105187,128,0,105270:0:0:0:0:
64,192,105353,1,0,0:0:0:0:
192,192,105353,1,0,0:0:0:0:
320,192,105437,1,0,0:0:0:0:
192,192,105520,1,0,0:0:0:0:
320,192,105520,1,0,0:0:0:0:
64,192,105603,1,0,0:0:0:0:
64,192,105687,1,0,0:0:0:0:
192,192,105687,1,0,0:0:0:0:
448,192,105770,1,0,0:0:0:0:
448,192,105853,1,0,0:0:0:0:
320,192,105853,1,0,0:0:0:0:
192,192,105937,1,0,0:0:0:0:
64,192,106020,1,0,0:0:0:0:
192,192,106020,1,0,0:0:0:0:
320,192,106103,1,0,0:0:0:0:
320,192,106187,1,0,0:0:0:0:
192,192,106187,1,0,0:0:0:0:
448,192,106270,1,0,0:0:0:0:
320,192,106353,1,0,0:0:0:0:
448,192,106353,1,0,0:0:0:0:
192,192,106437,1,0,0:0:0:0:
64,192,106437,1,0,0:0:0:0:
448,192,106520,1,0,0:0:0:0:
320,192,106520,1,0,0:0:0:0:
192,192,106603,1,0,0:0:0:0:
64,192,106603,1,0,0:0:0:0:
320,192,106687,1,0,0:0:0:0:
448,192,106687,1,0,0:0:0:0:
64,192,106687,1,0,0:0:0:0:
192,192,106770,1,0,0:0:0:0:
64,192,106812,1,0,0:0:0:0:
448,192,106853,1,0,0:0:0:0:
320,192,106895,1,0,0:0:0:0:
64,192,106937,1,0,0:0:0:0:
192,192,106978,1,0,0:0:0:0:
320,192,107020,128,0,107103:0:0:0:0:
448,192,107020,128,0,107103:0:0:0:0:
64,192,107187,128,0,107270:0:0:0:0:
320,192,107187,128,0,107270:0:0:0:0:
192,192,107353,1,0,0:0:0:0:
448,192,107353,1,0,0:0:0:0:
192,192,107520,128,0,107603:0:0:0:0:
448,192,107520,128,0,107603:0:0:0:0:
64,192,107687,128,0,107770:0:0:0:0:
320,192,107687,128,0,107770:0:0:0:0:
192,192,107770,1,0,0:0:0:0:
448,192,107770,1,0,0:0:0:0:
448,192,107853,128,0,107937:0:0:0:0:
192,192,107853,128,0,107937:0:0:0:0:
320,192,108020,128,0,108187:0:0:0:0:
64,192,108020,128,0,108187:0:0:0:0:
192,192,108187,1,0,0:0:0:0:
448,192,108187,1,0,0:0:0:0:
64,192,108353,1,0,0:0:0:0:
320,192,108353,1,0,0:0:0:0:
320,192,108520,128,0,108603:0:0:0:0:
192,192,108520,128,0,108603:0:0:0:0:
64,192,108687,128,0,108770:0:0:0:0:
192,192,108687,128,0,108770:0:0:0:0:
448,192,108687,1,0,0:0:0:0:
320,192,108687,1,0,0:0:0:0:
64,192,108853,128,0,108937:0:0:0:0:
448,192,108853,128,0,108937:0:0:0:0:
320,192,109020,128,0,109103:0:0:0:0:
448,192,109020,128,0,109103:0:0:0:0:
192,192,109020,1,0,0:0:0:0:
64,192,109020,1,0,0:0:0:0:
320,192,109187,128,0,109270:0:0:0:0:
64,192,109187,128,0,109270:0:0:0:0:
192,192,109353,1,0,0:0:0:0:
448,192,109353,1,0,0:0:0:0:
64,192,109395,1,0,0:0:0:0:
320,192,109437,1,0,0:0:0:0:
448,192,109478,1,0,0:0:0:0:
64,192,109520,1,0,0:0:0:0:
192,192,109562,1,0,0:0:0:0:
448,192,109603,1,0,0:0:0:0:
320,192,109645,1,0,0:0:0:0:
192,192,109687,128,0,109770:0:0:0:0:
64,192,109687,128,0,109770:0:0:0:0:
448,192,109853,128,0,109937:0:0:0:0:
192,192,109853,128,0,109937:0:0:0:0:
320,192,110020,1,0,0:0:0:0:
64,192,110020,1,0,0:0:0:0:
192,192,110187,128,0,110270:0:0:0:0:
448,192,110187,128,0,110270:0:0:0:0:
64,192,110353,128,0,110437:0:0:0:0:
448,192,110353,128,0,110437:0:0:0:0:
320,192,110353,1,0,0:0:0:0:
192,192,110353,1,0,0:0:0:0:
192,192,110520,128,0,110603:0:0:0:0:
320,192,110520,128,0,110603:0:0:0:0:
448,192,110687,128,0,110812:0:0:0:0:
64,192,110687,128,0,110812:0:0:0:0:
192,192,110812,1,0,0:0:0:0:
320,192,110812,1,0,0:0:0:0:
192,192,110937,128,0,111020:0:0:0:0:
320,192,110937,128,0,111020:0:0:0:0:
64,192,111020,1,0,0:0:0:0:
448,192,111020,1,0,0:0:0:0:
64,192,111103,128,0,111187:0:0:0:0:
192,192,111103,128,0,111187:0:0:0:0:
320,192,111187,1,0,0:0:0:0:
448,192,111187,1,0,0:0:0:0:
320,192,111270,128,0,111353:0:0:0:0:
448,192,111270,128,0,111353:0:0:0:0:
192,192,111353,1,0,0:0:0:0:
64,192,111353,1,0,0:0:0:0:
192,192,111437,128,0,111520:0:0:0:0:
448,192,111437,128,0,111520:0:0:0:0:
320,192,111520,1,0,0:0:0:0:
64,192,111520,1,0,0:0:0:0:
64,192,111603,128,0,111687:0:0:0:0:
320,192,111603,128,0,111687:0:0:0:0:
192,192,111687,1,0,0:0:0:0:
448,192,111687,1,0,0:0:0:0:
320,192,111770,1,0,0:0:0:0:
64,192,111770,1,0,0:0:0:0:
192,192,111853,1,0,0:0:0:0:
448,192,111853,1,0,0:0:0:0:
320,192,111937,1,0,0:0:0:0:
64,192,111937,1,0,0:0:0:0:
192,192,112020,1,0,0:0:0:0:
448,192,112020,1,0,0:0:0:0:
64,192,112103,1,0,0:0:0:0:
448,192,112187,1,0,0:0:0:0:
64,192,112187,1,0,0:0:0:0:
192,192,112270,1,0,0:0:0:0:
448,192,112353,1,0,0:0:0:0:
192,192,112353,1,0,0:0:0:0:
320,192,112437,1,0,0:0:0:0:
64,192,112520,1,0,0:0:0:0:
320,192,112520,1,0,0:0:0:0:
192,192,112603,1,0,0:0:0:0:
192,192,112687,1,0,0:0:0:0:
448,192,112687,1,0,0:0:0:0:
64,192,112770,1,0,0:0:0:0:
64,192,112853,1,0,0:0:0:0:
192,192,112853,1,0,0:0:0:0:
448,192,112937,1,0,0:0:0:0:
448,192,113020,1,0,0:0:0:0:
320,192,113020,1,0,0:0:0:0:
192,192,113103,1,0,0:0:0:0:
320,192,113187,1,0,0:0:0:0:
192,192,113187,1,0,0:0:0:0:
448,192,113270,1,0,0:0:0:0:
448,192,113353,1,0,0:0:0:0:
64,192,113353,1,0,0:0:0:0:
192,192,113437,1,0,0:0:0:0:
192,192,113520,1,0,0:0:0:0:
64,192,113520,1,0,0:0:0:0:
320,192,113603,1,0,0:0:0:0:
320,192,113687,1,0,0:0:0:0:
64,192,113687,1,0,0:0:0:0:
192,192,113770,1,0,0:0:0:0:
192,192,113853,1,0,0:0:0:0:
448,192,113853,1,0,0:0:0:0:
64,192,113937,1,0,0:0:0:0:
64,192,114020,1,0,0:0:0:0:
192,192,114020,1,0,0:0:0:0:
448,192,114103,1,0,0:0:0:0:
448,192,114187,1,0,0:0:0:0:
320,192,114187,1,0,0:0:0:0:
192,192,114270,1,0,0:0:0:0:
192,192,114353,1,0,0:0:0:0:
448,192,114353,1,0,0:0:0:0:
64,192,114437,1,0,0:0:0:0:
64,192,114520,1,0,0:0:0:0:
320,192,114520,1,0,0:0:0:0:
448,192,114603,1,0,0:0:0:0:
320,192,114687,1,0,0:0:0:0:
448,192,114687,1,0,0:0:0:0:
192,192,114770,1,0,0:0:0:0:
64,192,114770,1,0,0:0:0:0:
320,192,114853,1,0,0:0:0:0:
448,192,114853,1,0,0:0:0:0:
192,192,114937,1,0,0:0:0:0:
64,192,114937,1,0,0:0:0:0:
320,192,115020,1,0,0:0:0:0:
448,192,115020,1,0,0:0:0:0:
192,192,115103,1,0,0:0:0:0:
64,192,115103,1,0,0:0:0:0:
320,192,115187,1,0,0:0:0:0:
448,192,115187,1,0,0:0:0:0:
192,192,115270,1,0,0:0:0:0:
64,192,115270,1,0,0:0:0:0:
448,192,115353,1,0,0:0:0:0:
320,192,115353,1,0,0:0:0:0:
192,192,115437,1,0,0:0:0:0:
64,192,115437,1,0,0:0:0:0:
320,192,115520,1,0,0:0:0:0:
448,192,115520,1,0,0:0:0:0:
192,192,115603,1,0,0:0:0:0:
64,192,115603,1,0,0:0:0:0:
320,192,115687,1,0,0:0:0:0:
448,192,115687,1,0,0:0:0:0:
192,192,115770,1,0,0:0:0:0:
64,192,115770,1,0,0:0:0:0:
320,192,115853,1,0,0:0:0:0:
448,192,115853,1,0,0:0:0:0:
192,192,115937,1,0,0:0:0:0:
64,192,115937,1,0,0:0:0:0:
320,192,116020,1,0,0:0:0:0:
448,192,116020,1,0,0:0:0:0:
192,192,116103,128,0,116187:0:0:0:0:
64,192,116270,128,0,116353:0:0:0:0:
192,192,116437,128,0,116478:0:0:0:0:
64,192,116562,128,0,116687:0:0:0:0:
448,192,116687,1,0,0:0:0:0:
320,192,116687,1,0,0:0:0:0:
192,192,116770,128,0,116853:0:0:0:0:
320,192,116853,1,0,0:0:0:0:
448,192,116853,1,0,0:0:0:0:
64,192,116937,128,0,116978:0:0:0:0:
320,192,117020,1,0,0:0:0:0:
192,192,117103,128,0,117353:0:0:0:0:
448,192,117187,1,0,0:0:0:0:
320,192,117353,1,0,0:0:0:0:
448,192,117353,1,0,0:0:0:0:
