osu file format v14

[General]
AudioFilename: audio.mp3
AudioLeadIn: 0
PreviewTime: 580
Countdown: 0
SampleSet: Soft
StackLeniency: 0.7
Mode: 0
LetterboxInBreaks: 0
EpilepsyWarning: 1
WidescreenStoryboard: 1

[Editor]
Bookmarks: 93187
DistanceSpacing: 3
BeatDivisor: 4
GridSize: 32
TimelineZoom: 3.4

[Metadata]
Title:Narcissus At Oasis (Freezer Remix)
TitleUnicode:Narcissus At Oasis (Freezer Remix)
Artist:Freezer
ArtistUnicode:Freezer
Creator:EijiKuinbii
Version:-Light-'s Expert
Source:SOUND VOLTEX IV HEAVENLY HAVEN
Tags:Ryu☆ SDVX melodic dubstep neuro drumstep wooble bass downtempo glitch pitch halfstep Silver_Cr0w AJIekceu Remus Missing Link SoldatRacer buhaha PandaHero DefendeRDjulus Livstvichka yShadowXOP_ avalanche -Light- shmiklak marvollo m_a_r_v_o_l_l_o Don Omar EYA-
BeatmapID:1307659
BeatmapSetID:614615

[Difficulty]
HPDrainRate:5
CircleSize:4
OverallDifficulty:8.2
ApproachRate:9.7
SliderMultiplier:1.9
SliderTickRate:1

[Events]
//Background and Video events
0,0,"_BG.jpg",0,0
//Break Periods
//Storyboard Layer 0 (Background)
//Storyboard Layer 1 (Fail)
//Storyboard Layer 2 (Pass)
//Storyboard Layer 3 (Foreground)
//Storyboard Sound Samples

[TimingPoints]
580,387.096774193548,4,2,1,45,1,0
12967,-100,4,2,1,45,0,0
13354,-90.9090909090909,4,2,1,45,0,0
13741,-83.3333333333333,4,2,1,45,0,0
14128,-76.9230769230769,4,2,1,45,0,0
14515,-100,4,2,1,45,0,0
16450,-90.9090909090909,4,2,1,45,0,0
16838,-83.3333333333333,4,2,1,45,0,0
17225,-76.9230769230769,4,2,1,45,0,0
17612,-100,4,2,1,45,0,0
17999,-90.9090909090909,4,2,1,45,0,0
18386,-83.3333333333333,4,2,1,45,0,0
18773,-76.9230769230769,4,2,1,45,0,0
19160,-100,4,2,1,45,0,0
22257,-83.3333333333333,4,2,1,45,0,0
23709,-500,4,2,1,45,0,0
24483,-100,4,2,1,45,0,0
25354,-55.5555555555556,4,2,1,70,0,1
25741,-40,4,2,1,70,0,1
26709,-500,4,2,1,70,0,1
26902,-66.6666666666667,4,2,1,70,0,1
27289,-40,4,2,1,70,0,1
27386,-30.3030303030303,4,2,1,70,0,1
27676,-25,4,2,1,70,0,1
28257,-500,4,2,1,70,0,1
28450,-100,4,2,1,70,0,1
28838,-40,4,2,1,70,0,1
29999,-100,4,2,1,70,0,1
31160,-50,4,2,1,70,0,1
31547,-66.6666666666667,4,2,1,70,0,1
31934,-40,4,2,1,70,0,1
33676,-25,4,2,1,70,0,1
34450,-500,4,2,1,70,0,1
34644,-66.6666666666667,4,2,1,70,0,1
35031,-40,4,2,1,70,0,1
35999,-100,4,2,1,70,0,1
37741,-66.6666666666667,4,2,1,70,0,1
38128,-40,4,2,1,70,0,1
38515,-66.6666666666667,4,2,1,70,0,1
39289,-40,4,2,1,70,0,1
40838,-66.6666666666667,4,2,1,70,0,1
41225,-40,4,2,1,70,0,1
41612,-66.6666666666667,4,2,1,70,0,1
42386,-100,4,2,1,70,0,1
42579,-111.111111111111,4,2,1,70,0,1
42773,-125,4,2,1,70,0,1
42967,-142.857142857143,4,2,1,70,0,1
43160,-125,4,2,1,70,0,1
43354,-142.857142857143,4,2,1,70,0,1
43547,-250,4,2,1,70,0,1
43934,-66.6666666666667,4,2,1,70,0,1
45870,-40,4,2,1,70,0,1
47031,-66.6666666666667,4,2,1,70,0,1
47418,-40,4,2,1,70,0,1
48579,-100,4,2,1,70,0,1
49741,-200,4,2,1,70,0,1
50128,-200,4,2,1,45,0,0
50902,-133.333333333333,4,2,1,45,0,0
51676,-200,4,2,1,45,0,0
52257,-133.333333333333,4,2,1,45,0,0
52450,-66.6666666666667,4,2,1,45,0,0
53225,-40,4,2,1,70,0,1
53612,-40,4,2,1,70,0,1
54773,-25,4,2,1,70,0,1
56321,-200,4,2,1,45,0,0
57096,-133.333333333333,4,2,1,45,0,0
57870,-200,4,2,1,45,0,0
58450,-133.333333333333,4,2,1,45,0,0
58644,-66.6666666666667,4,2,1,45,0,0
59031,-50,4,2,1,45,0,0
59418,-66.6666666666667,4,2,1,70,0,1
59805,-50,4,2,1,70,0,1
60967,-66.6666666666667,4,2,1,70,0,1
61741,-33.3333333333333,4,2,1,70,0,1
62128,-40,4,2,1,70,0,1
62515,-200,4,2,1,45,0,0
63289,-133.333333333333,4,2,1,45,0,0
64063,-200,4,2,1,45,0,0
64692,-100,4,2,1,45,0,0
64838,-66.6666666666667,4,2,1,45,0,0
65612,-200,4,2,1,45,0,0
66192,-133.333333333333,4,2,1,45,0,0
67160,-200,4,2,1,45,0,0
67934,-40,4,2,1,45,0,0
68709,-200,4,2,1,45,0,0
69483,-133.333333333333,4,2,1,45,0,0
69967,-133.333333333333,4,2,1,5,0,0
70063,-133.333333333333,4,2,1,45,0,0
70160,-133.333333333333,4,2,1,5,0,0
70257,-200,4,2,1,45,0,0
70644,-133.333333333333,4,2,1,45,0,0
71031,-55.5555555555556,4,2,1,45,0,0
71805,-200,4,2,1,45,0,0
72579,-133.333333333333,4,2,1,45,0,0
73354,333.333333333333,4,2,1,70,1,0
73937,-100,4,2,1,40,0,0
74687,-66.6666666666667,4,2,1,70,0,0
76020,-100,4,2,1,70,0,0
77354,-50,4,2,1,70,0,0
80020,-66.6666666666667,4,2,1,70,0,0
82687,-100,4,2,1,70,0,0
83353,-66.6666666666667,4,2,1,70,0,0
84603,-100,4,2,1,50,0,0
85353,-66.6666666666667,4,2,1,70,0,1
85687,-40,4,2,1,70,0,1
86520,-500,4,2,1,70,0,1
86687,-55.5555555555556,4,2,1,70,0,1
87020,-66.6666666666667,4,2,1,70,0,1
87103,-30.3030303030303,4,2,1,70,0,1
87353,-25,4,2,1,70,0,1
87853,-500,4,2,1,70,0,1
88020,-55.5555555555556,4,2,1,70,0,1
88353,-40,4,2,1,70,0,1
89187,-200,4,2,1,70,0,1
89353,-50,4,2,1,70,0,1
90353,-25,4,2,1,70,0,1
90687,-55.5555555555556,4,2,1,70,0,1
91020,-40,4,2,1,70,0,1
92465,-55.5555555555556,4,2,1,70,0,1
92687,-25,4,2,1,70,0,1
93187,-500,4,2,1,70,0,1
93353,-55.5555555555556,4,2,1,70,0,1
93687,-40,4,2,1,70,0,1
94520,-100,4,2,1,70,0,1
95853,-200,4,2,1,70,0,1
96020,-50,4,2,1,70,0,0
96353,-40,4,2,1,70,0,0
96687,-100,4,2,1,70,0,1
97353,-40,4,2,1,70,0,1
98687,-41.6666666666667,4,2,1,70,0,1
99020,-40,4,2,1,70,0,1
99353,-100,4,2,1,70,0,1
101020,-250,4,2,1,70,0,1
101353,-55.5555555555556,4,2,1,70,0,1
101687,-66.6666666666667,4,2,1,70,0,1
103020,-40,4,2,1,70,0,1
104020,-66.6666666666667,4,2,1,70,0,1
104353,-40,4,2,1,70,0,1
105353,-100,4,2,1,70,0,1
106353,-100,4,2,1,70,0,1
106687,-66.6666666666667,4,2,1,70,0,0
107020,-50,4,2,1,50,0,0
108020,-66.6666666666667,4,2,1,70,0,0
108353,-50,4,2,1,50,0,0
108687,-40,4,2,1,50,0,0
109353,-66.6666666666667,4,2,1,70,0,0
109687,-50,4,2,1,50,0,0
110687,-100,4,2,1,70,0,0
111687,-100,4,2,1,70,0,0
112020,-50,4,2,1,70,0,0
114187,-40,4,2,1,70,0,0
114687,-66.6666666666667,4,2,1,70,0,0
116020,-200,4,2,1,45,0,0
117020,-100,4,2,1,45,0,0

[Colours]
Combo1 : 55,87,119
Combo2 : 172,253,237
Combo3 : 206,206,206
Combo4 : 226,177,245

[HitObjects]
399,96,12967,6,0,L|333:92,3,47.5,2|0|0|0,0:0|0:0|0:0|0:0,0:0:0:0:
131,184,13354,2,0,L|197:180,3,52.2500015945435,0|0|0|0,0:0|0:0|0:0|0:0,0:0:0:0:
432,80,13741,2,0,L|339:74,3,56.9999982604981,0|0|0|0,0:0|0:0|0:0|0:0,0:0:0:0:
110,208,14128,2,0,L|202:202,3,61.7499971733095,0|0|0|0,0:0|0:0|0:0|0:0,0:0:0:0:
428,155,14515,5,2,0:0:0:0:
402,194,14611,1,0,0:0:0:0:
399,241,14708,1,0,0:0:0:0:
418,284,14805,1,0,0:0:0:0:
403,329,14902,5,0,0:0:0:0:
364,303,14998,1,0,0:0:0:0:
317,300,15095,1,0,0:0:0:0:
274,319,15192,1,0,0:0:0:0:
232,341,15289,5,0,0:0:0:0:
185,349,15385,1,0,0:0:0:0:
140,338,15482,1,0,0:0:0:0:
103,307,15579,1,0,0:0:0:0:
101,355,15676,5,0,0:0:0:0:
76,315,15772,1,0,0:0:0:0:
72,268,15869,1,0,0:0:0:0:
91,225,15966,1,0,0:0:0:0:
129,196,16063,6,0,L|133:252,3,47.5,2|0|0|0,0:0|0:0|0:0|0:0,0:0:0:0:
367,87,16450,2,0,L|370:34,3,52.2500015945435,0|0|0|0,0:0|0:0|0:0|0:0,0:0:0:0:
117,201,16838,2,0,L|121:263,3,56.9999982604981,0|0|0|0,0:0|0:0|0:0|0:0,0:0:0:0:
378,81,17225,2,0,L|383:12,3,61.7499971733095,0|0|0|0,0:0|0:0|0:0|0:0,0:0:0:0:
337,220,17612,6,0,L|393:216,3,47.5,2|0|0|0,0:0|0:0|0:0|0:0,0:0:0:0:
112,65,17999,2,0,L|59:61,3,52.2500015945435,0|0|0|0,0:0|0:0|0:0|0:0,0:0:0:0:
342,231,18387,2,0,L|403:226,3,56.9999982604981,0|0|0|0,0:0|0:0|0:0|0:0,0:0:0:0:
106,53,18774,2,0,L|37:48,3,61.7499971733095,0|0|0|0,0:0|0:0|0:0|0:0,0:0:0:0:
208,130,19160,6,0,L|264:127,1,47.5,2|0,0:0|0:0,0:0:0:0:
276,211,19354,2,0,L|323:208,1,47.5,0|0,0:0|0:0,0:0:0:0:
187,243,19547,2,0,L|131:240,1,47.5,0|0,0:0|0:0,0:0:0:0:
119,324,19741,2,0,L|71:321,1,47.5,0|0,0:0|0:0,0:0:0:0:
231,325,19934,6,0,L|233:374,1,47.5,0|0,0:0|0:0,0:0:0:0:
346,306,20128,2,0,L|344:355,1,47.5,0|0,0:0|0:0,0:0:0:0:
274,163,20321,2,0,L|276:212,1,47.5,0|0,0:0|0:0,0:0:0:0:
389,144,20515,1,4,0:0:0:0:
389,144,20612,1,4,0:0:0:0:
389,144,20709,6,0,L|452:140,1,47.5,2|0,0:0|0:0,0:0:0:0:
321,31,20902,2,0,L|317:94,1,47.5,0|0,0:0|0:0,0:0:0:0:
234,143,21096,2,0,L|238:206,1,47.5,0|0,0:0|0:0,0:0:0:0:
330,237,21289,2,0,L|326:300,1,47.5,0|0,0:0|0:0,0:0:0:0:
217,328,21483,6,0,L|160:322,1,47.5,0|0,0:0|0:0,0:0:0:0:
37,267,21676,2,0,L|94:261,1,47.5,0|0,0:0|0:0,0:0:0:0:
246,224,21870,2,0,L|189:218,1,47.5,0|0,0:0|0:0,0:0:0:0:
58,135,22063,2,0,L|29:132,3,23.75,0|0|0|0,0:0|0:0|0:0|0:0,0:0:0:0:
97,50,22257,5,2,0:0:0:0:
126,98,22353,1,0,0:0:0:0:
133,154,22450,1,0,0:0:0:0:
116,208,22547,1,0,0:0:0:0:
75,319,22644,5,0,0:0:0:0:
122,348,22740,1,0,0:0:0:0:
179,354,22837,1,0,0:0:0:0:
231,333,22934,1,0,0:0:0:0:
323,264,23031,5,2,0:0:0:0:
370,234,23127,1,0,0:0:0:0:
427,228,23224,1,0,0:0:0:0:
479,249,23321,1,0,0:0:0:0:
399,342,23418,5,0,0:0:0:0:
349,314,23514,1,0,0:0:0:0:
323,264,23611,1,0,0:0:0:0:
328,208,23708,1,0,0:0:0:0:
362,140,23805,5,8,0:0:0:0:
356,62,24483,5,0,0:0:0:0:
356,62,24579,1,2,0:0:0:0:
356,62,24676,1,2,0:0:0:0:
371,80,24773,6,0,L|424:75,1,47.5,0|0,0:0|0:0,0:0:0:0:
275,129,24967,2,0,L|222:124,1,47.5,2|2,0:0|0:0,0:0:0:0:
370,190,25160,2,0,L|423:185,1,47.5,2|0,0:0|0:0,0:0:0:0:
311,277,25354,6,0,B|206:245|110:300|110:300|183:313,1,256.499992172241,8|0,0:0|0:0,0:0:0:0:
389,334,25741,2,0,B|405:282|405:282|393:205,1,118.75,2|0,0:0|0:0,0:0:0:0:
238,60,25934,2,0,B|228:123|228:123|244:175,1,118.75,2|0,0:0|0:0,0:0:0:0:
434,142,26128,1,8,0:0:0:0:
244,175,26321,6,0,B|181:188|181:188|118:172,1,118.75,0|0,0:0|0:0,0:0:0:0:
378,74,26515,2,0,B|441:61|441:61|504:77,1,118.75,0|0,0:0|0:0,0:0:0:0:
266,39,26709,2,0,L|266:46,1,4.75,4|0,0:0|0:0,0:0:0:0:
339,318,26902,6,0,B|272:309|272:309|191:341|191:341|120:324,1,213.750008153916,8|0,0:0|0:0,0:0:0:0:
32,206,27289,1,4,0:0:0:0:
32,206,27386,2,0,L|186:243,1,156.750001494885,4|0,0:0|0:0,0:0:0:0:
428,102,27547,1,0,0:0:0:0:
428,102,27612,1,0,0:0:0:0:
428,102,27676,6,0,B|375:76|299:99|299:99|352:128,1,190,8|0,0:0|0:0,0:0:0:0:
437,370,27870,2,0,P|465:273|428:159,1,190,8|0,0:0|0:0,0:0:0:0:
184,243,28063,2,0,B|270:285|270:285|385:276,1,190,8|0,0:0|0:0,0:0:0:0:
300,27,28257,2,0,L|300:34,1,4.75,2|0,0:0|0:0,0:0:0:0:
247,120,28450,6,0,B|201:111|169:120|169:120|132:106|97:108,1,142.5,8|0,0:0|0:0,0:0:0:0:
326,181,28838,2,0,L|470:184,1,118.75,2|0,0:0|0:0,0:0:0:0:
247,120,29031,2,0,B|229:186|229:186|249:234,1,118.75,2|0,0:0|0:0,0:0:0:0:
377,60,29225,1,8,0:0:0:0:
166,254,29418,6,0,L|169:377,1,118.75,2|0,0:0|0:0,0:0:0:0:
40,131,29612,1,2,0:0:0:0:
40,131,29709,1,0,0:0:0:0:
40,131,29805,2,0,L|37:254,1,118.75,4|0,0:0|0:0,0:0:0:0:
195,45,29999,6,0,B|249:50,1,47.5,8|0,0:0|0:0,0:0:0:0:
207,57,30192,2,0,B|261:62,1,47.5,8|0,0:0|0:0,0:0:0:0:
189,148,30386,6,0,B|135:153,1,47.5,8|0,0:0|0:0,0:0:0:0:
177,160,30579,2,0,B|123:165,1,47.5,8|0,0:0|0:0,0:0:0:0:
379,86,30774,6,0,B|433:91,1,47.5,8|0,0:0|0:0,0:0:0:0:
391,98,30967,2,0,B|445:103,1,47.5,8|0,0:0|0:0,0:0:0:0:
131,240,31160,6,0,B|36:248,1,95,2|0,0:0|0:0,0:0:0:0:
118,260,31354,2,0,B|23:268,1,95,2|0,0:0|0:0,0:0:0:0:
298,323,31547,6,0,B|359:337|411:319|411:319|459:343|510:332,1,213.750008153916,8|0,0:0|0:0,0:0:0:0:
436,161,31934,1,4,0:0:0:0:
419,67,32031,1,4,0:0:0:0:
362,136,32128,2,0,L|366:256,1,118.75,4|0,0:0|0:0,0:0:0:0:
204,348,32321,6,0,B|143:361|143:361|88:344,1,118.75,8|0,0:0|0:0,0:0:0:0:
252,133,32515,2,0,L|248:253,1,118.75,2|0,0:0|0:0,0:0:0:0:
64,87,32709,2,0,B|110:45|110:45|166:32,1,118.75,8|0,0:0|0:0,0:0:0:0:
366,255,32902,2,0,L|246:251,1,118.75,2|0,0:0|0:0,0:0:0:0:
445,148,33096,5,4,0:0:0:0:
450,29,33225,1,0,0:0:0:0:
464,165,33354,1,0,0:0:0:0:
469,46,33483,6,0,L|304:41,1,158.333333333333,8|0,0:0|0:0,0:0:0:0:
140,169,33741,1,0,0:0:0:0:
140,169,33806,1,0,0:0:0:0:
140,169,33870,6,0,B|211:194|286:172|286:172|246:147,1,190,8|0,0:0|0:0,0:0:0:0:
69,96,34063,2,0,B|39:181|39:181|82:288,1,190,8|0,0:0|0:0,0:0:0:0:
377,191,34257,2,0,B|360:102|360:102|269:31,1,190,8|0,0:0|0:0,0:0:0:0:
232,344,34450,2,0,L|240:344,1,4.75,2|0,0:0|0:0,0:0:0:0:
433,263,34645,6,0,B|387:274|331:261|331:261|278:277|210:257,1,213.750008153916,8|0,0:0|0:0,0:0:0:0:
55,165,35031,1,4,0:0:0:0:
143,129,35128,1,4,0:0:0:0:
223,179,35225,2,0,B|289:185|289:185|346:166,1,118.75,4|0,0:0|0:0,0:0:0:0:
134,217,35418,6,0,P|120:276|147:330,1,118.75,8|0,0:0|0:0,0:0:0:0:
235,91,35612,2,0,P|190:49|130:45,1,118.75,8|0,0:0|0:0,0:0:0:0:
279,263,35805,2,0,L|397:259,1,118.75,8|0,0:0|0:0,0:0:0:0:
506,129,35999,2,0,L|447:127,1,47.5,2|0,0:0|0:0,0:0:0:0:
338,168,36192,6,0,L|275:164,1,47.5,8|0,0:0|0:0,0:0:0:0:
338,168,36483,2,0,L|275:164,1,47.5,8|0,0:0|0:0,0:0:0:0:
338,168,36773,2,0,L|293:165,1,31.6666666666667,8|0,0:0|0:0,0:0:0:0:
284,138,36902,5,0,0:0:0:0:
284,138,36967,1,0,0:0:0:0:
141,60,37160,5,2,0:0:0:0:
65,138,37256,1,2,0:0:0:0:
56,246,37353,1,2,0:0:0:0:
118,336,37450,1,0,0:0:0:0:
145,298,37546,1,0,0:0:0:0:
154,252,37643,1,0,0:0:0:0:
142,206,37741,6,0,B|164:165|142:98|142:98|200:121|249:103,1,213.750008153916,8|0,0:0|0:0,0:0:0:0:
369,220,38128,2,0,L|250:211,1,118.75,2|0,0:0|0:0,0:0:0:0:
24,107,38321,2,0,L|143:98,1,118.75,2|0,0:0|0:0,0:0:0:0:
329,74,38515,5,4,0:0:0:0:
426,110,38611,1,4,0:0:0:0:
472,204,38708,1,4,0:0:0:0:
442,304,38805,1,4,0:0:0:0:
352,356,38902,2,0,L|268:348,1,71.2500027179719,4|4,0:0|0:0,0:0:0:0:
236,250,39096,5,4,0:0:0:0:
339,267,39192,1,4,0:0:0:0:
281,349,39289,2,0,L|111:331,1,158.333333333333,2|0,0:0|0:0,0:0:0:0:
0,244,39483,2,0,L|169:226,1,158.333333333333,2|0,0:0|0:0,0:0:0:0:
272,147,39676,2,0,B|331:157|331:157|397:144,1,118.75,8|0,0:0|0:0,0:0:0:0:
197,64,39870,1,2,0:0:0:0:
197,64,39935,1,0,0:0:0:0:
197,64,39999,1,2,0:0:0:0:
197,64,40063,6,0,B|138:54|138:54|72:67,1,118.75,8|0,0:0|0:0,0:0:0:0:
272,147,40257,2,0,B|292:90|292:90|290:23,1,118.75,2|0,0:0|0:0,0:0:0:0:
141,144,40450,2,0,B|131:203|131:203|144:268,1,118.75,8|0,0:0|0:0,0:0:0:0:
285,357,40644,2,0,B|295:298|295:298|282:232,1,118.75,2|0,0:0|0:0,0:0:0:0:
197,64,40838,6,0,B|144:46|85:66|85:66|37:45|-23:67,1,213.750008153916,8|0,0:0|0:0,0:0:0:0:
323,149,41225,2,0,L|445:142,1,118.75,2|0,0:0|0:0,0:0:0:0:
189,217,41418,2,0,L|67:210,1,118.75,2|0,0:0|0:0,0:0:0:0:
300,304,41612,5,4,0:0:0:0:
403,304,41708,1,4,0:0:0:0:
476,230,41805,1,4,0:0:0:0:
471,126,41902,1,4,0:0:0:0:
393,58,41999,6,0,L|317:60,1,71.2500027179719,4|4,0:0|0:0,0:0:0:0:
239,138,42192,1,4,0:0:0:0:
343,158,42288,1,0,0:0:0:0:
322,59,42386,6,0,L|245:57,1,47.5,8|0,0:0|0:0,0:0:0:0:
173,77,42579,2,0,L|96:75,1,42.7499986953736,2|0,0:0|0:0,0:0:0:0:
260,161,42773,2,0,L|297:162,1,38,2|0,0:0|0:0,0:0:0:0:
111,179,42966,2,0,L|149:180,1,38,8|0,0:0|0:0,0:0:0:0:
306,270,43160,2,0,L|268:269,1,38,2|0,0:0|0:0,0:0:0:0:
158,288,43354,2,0,L|120:287,1,33.2499989852906,2|0,0:0|0:0,0:0:0:0:
264,362,43547,2,0,L|329:357,1,57,8|0,0:0|0:0,0:0:0:0:
401,305,43934,6,0,B|367:263|307:267|307:267|324:211|302:153,1,213.750008153916,8|0,0:0|0:0,0:0:0:0:
408,126,44321,2,0,L|401:207,1,71.2500027179719,2|0,0:0|0:0,0:0:0:0:
219,122,44515,2,0,L|226:203,1,71.2500027179719,2|0,0:0|0:0,0:0:0:0:
429,108,44709,2,0,L|420:205,1,71.2500027179719,2|0,0:0|0:0,0:0:0:0:
202,103,44903,2,0,L|210:200,1,71.2500027179719,2|0,0:0|0:0,0:0:0:0:
451,92,45096,2,0,L|440:208,1,71.2500027179719,2|0,0:0|0:0,0:0:0:0:
178,86,45290,2,0,L|188:202,1,71.2500027179719,2|0,0:0|0:0,0:0:0:0:
321,262,45483,6,0,B|334:219|308:151|308:151|333:96|308:42,1,213.750008153916,8|0,0:0|0:0,0:0:0:0:
179,230,45870,2,0,B|215:140|204:44|204:44|173:91,1,237.5,8|0,0:0|0:0,0:0:0:0:
93,253,46127,1,0,0:0:0:0:
93,253,46192,1,0,0:0:0:0:
93,253,46257,2,0,P|117:297|197:320,1,118.75,8|0,0:0|0:0,0:0:0:0:
109,155,46450,2,0,P|58:153|-1:211,1,118.75,2|0,0:0|0:0,0:0:0:0:
210,211,46644,2,0,B|354:262|447:202|447:202|329:189,1,356.25,8|0,0:0|0:0,0:0:0:0:
136,49,47031,6,0,B|118:102|138:161|138:161|117:209|139:269,1,213.750008153916,8|0,0:0|0:0,0:0:0:0:
340,90,47418,2,0,B|277:78|277:78|216:90,1,118.75,2|0,0:0|0:0,0:0:0:0:
350,250,47612,2,0,B|413:262|413:262|474:250,1,118.75,2|0,0:0|0:0,0:0:0:0:
255,196,47805,2,0,P|233:239|249:313,1,118.75,2|0,0:0|0:0,0:0:0:0:
428,148,47999,1,4,0:0:0:0:
428,148,48096,1,4,0:0:0:0:
428,148,48192,2,0,P|450:105|434:31,1,118.75,6|0,0:0|0:0,0:0:0:0:
340,176,48386,2,0,P|366:216|438:239,1,118.75,2|0,0:0|0:0,0:0:0:0:
340,90,48579,5,8,0:0:0:0:
316,298,48773,1,2,0:0:0:0:
148,114,48967,1,2,0:0:0:0:
428,148,49160,2,0,L|425:207,1,47.5,8|0,0:0|0:0,0:0:0:0:
201,287,49354,1,2,0:0:0:0:
246,29,49547,1,2,0:0:0:0:
286,200,49741,6,0,L|249:199,1,23.75,8|0,0:0|0:0,0:0:0:0:
234,216,49934,1,0,0:0:0:0:
234,216,50031,1,0,0:0:0:0:
153,148,50128,6,0,P|127:197|176:304,1,166.25,2|0,0:0|0:0,0:0:0:0:
280,313,50902,2,0,L|244:310,1,35.625001358986,8|0,0:0|0:0,0:0:0:0:
345,96,51289,1,4,0:0:0:0:
445,210,51676,2,0,L|444:362,1,142.5,2|4,0:0|0:0,0:0:0:0:
362,163,52321,5,0,0:0:0:0:
356,173,52386,1,0,0:0:0:0:
327,210,52450,1,6,0:0:0:0:
261,185,52546,1,2,0:0:0:0:
196,210,52643,1,2,0:0:0:0:
130,234,52742,1,0,0:0:0:0:
62,238,52838,6,0,P|77:180|197:214,1,213.750008153916,10|0,0:0|0:0,0:0:0:0:
248,304,53225,2,0,B|384:331|491:255|491:255|350:267,1,356.25,8|0,0:0|0:0,0:0:0:0:
381,186,53612,2,0,B|339:175|297:196|297:196|335:214,1,118.75,0|0,0:0|0:0,0:0:0:0:
487,172,53805,2,0,B|504:118|504:118|485:57,1,118.75,2|0,0:0|0:0,0:0:0:0:
286,56,53999,2,0,L|154:61,1,118.75,12|4,0:0|0:0,0:0:0:0:
85,184,54192,1,6,0:0:0:0:
85,184,54289,1,0,0:0:0:0:
85,184,54386,6,0,L|94:317,1,118.75,2|0,0:0|0:0,0:0:0:0:
262,375,54579,2,0,L|270:256,1,118.75,2|0,0:0|0:0,0:0:0:0:
329,78,54773,6,0,B|361:44|361:44|447:117|385:169,1,190,8|0,0:0|0:0,0:0:0:0:
202,152,54967,2,0,L|430:167,1,190,2|0,0:0|0:0,0:0:0:0:
477,244,55160,2,0,B|502:283|502:283|324:287,1,190,2|0,0:0|0:0,0:0:0:0:
174,259,55354,2,0,B|121:245|83:171|83:171|197:254,1,190,8|0,0:0|0:0,0:0:0:0:
270,256,55547,2,0,P|211:332|88:340,1,190,2|0,0:0|0:0,0:3:0:0:
202,152,55741,6,0,B|160:95|194:23|194:23|212:90,1,190,2|0,0:0|0:0,0:0:0:0:
314,192,55934,2,0,B|321:262|256:307|256:307|274:240,1,190,6|6,0:0|0:0,0:0:0:0:
339,85,56128,2,0,B|395:42|468:77|468:77|401:95,1,190,6|0,0:0|0:0,0:0:0:0:
314,192,56321,6,0,L|134:182,1,166.25,2|0,0:0|0:0,0:0:0:0:
38,108,57096,2,0,L|83:105,1,35.625001358986,8|0,0:0|0:0,0:0:0:0:
208,298,57483,1,0,0:0:0:0:
298,155,57870,2,0,P|280:88|320:21,1,142.5,2|4,0:0|0:0,0:0:0:0:
374,88,58515,5,0,0:0:0:0:
363,109,58579,1,0,0:0:0:0:
379,153,58644,6,0,P|385:188|372:227,1,71.2500027179719,10|0,0:0|0:0,0:0:0:0:
187,234,58838,2,0,L|261:238,1,71.2500027179719,2|4,0:0|0:0,0:0:0:0:
419,301,59031,2,0,B|364:329|302:312|302:312|236:342|127:298,1,285,2|0,0:0|0:0,0:0:0:0:
84,233,59418,6,0,B|120:219|185:232|185:232|152:164|185:99,1,213.750008153916,8|0,0:0|0:0,0:0:0:0:
361,179,59805,2,0,L|246:172,1,95,2|0,0:0|0:0,0:0:0:0:
32,64,59999,2,0,L|147:57,1,95,2|0,0:0|0:0,0:0:0:0:
265,142,60192,1,8,0:0:0:0:
189,321,60386,6,0,B|138:332|138:332|81:316,1,95,2|0,0:0|0:0,0:0:0:0:
269,236,60579,2,0,B|304:274|304:274|318:332,1,95,2|0,0:0|0:0,0:0:0:0:
148,219,60773,2,0,B|163:169|163:169|206:127,1,95,2|0,0:0|0:0,0:3:0:0:
356,72,60967,6,0,L|434:75,1,71.2500027179719,8|0,0:0|0:0,0:0:0:0:
265,142,61160,2,0,L|193:139,1,71.2500027179719,2|0,0:0|0:0,0:0:0:0:
365,65,61354,2,0,L|458:68,1,71.2500027179719,2|0,0:0|0:0,0:0:0:0:
255,149,61547,2,0,L|170:145,1,71.2500027179719,2|6,0:0|0:0,0:0:0:0:
420,185,61741,6,0,P|443:254|409:320,1,142.500005435944,10|0,0:0|0:0,0:0:0:0:
201,233,61934,2,0,L|351:242,1,142.500005435944,8|0,0:0|0:0,0:0:0:0:
184,342,62128,2,0,B|103:371|103:371|13:167|182:66,1,356.25,6|0,0:0|0:0,0:0:0:0:
334,75,62515,6,0,L|343:252,1,166.25,2|0,0:0|0:0,0:0:0:0:
261,341,63289,2,0,L|263:287,1,35.625001358986,8|0,0:0|0:0,0:0:0:0:
431,123,63676,1,4,0:0:0:0:
253,215,64063,2,0,P|186:231|99:205,1,142.5,2|6,0:0|0:0,0:0:0:0:
152,132,64709,5,0,0:0:0:0:
162,137,64773,1,0,0:0:0:0:
219,134,64838,6,0,P|255:128|289:138,1,71.2500027179719,8|0,0:0|0:0,0:0:0:0:
355,292,65031,2,0,L|351:213,1,71.2500027179719,2|0,0:0|0:0,0:0:0:0:
408,62,65225,2,0,L|404:133,1,71.2500027179719,2|0,0:0|0:0,0:0:0:0:
504,151,65418,2,0,L|500:222,1,71.2500027179719,2|0,0:0|0:0,0:0:0:0:
355,292,65612,6,0,L|229:285,1,118.75,8|0,0:0|0:0,0:0:0:0:
103,223,66192,2,0,L|150:220,1,35.625001358986,0|0,0:0|0:0,0:0:0:0:
266,163,66386,2,0,L|218:160,1,35.625001358986,8|0,0:0|0:0,0:0:0:0:
118,111,66579,1,2,0:0:0:0:
236,285,66773,1,4,0:0:0:0:
282,62,67160,6,0,L|343:66,1,47.5,2|0,0:0|0:0,0:0:0:0:
463,99,67450,2,0,L|402:103,1,47.5,0|0,0:0|0:0,0:0:0:0:
324,174,67741,2,0,L|360:176,1,23.75,6|6,0:0|0:0,0:0:0:0:
464,295,67934,6,0,B|340:396|194:325|194:325|241:321|307:296,1,356.25,10|0,0:0|0:0,0:0:0:0:
352,261,68321,1,4,0:0:0:0:
266,219,68418,1,4,0:0:0:0:
175,248,68515,2,0,B|86:269|86:269|111:246,1,118.75,6|0,0:0|0:0,0:0:0:0:
187,156,68709,6,0,P|271:129|349:159,1,166.25,8|0,0:0|0:0,0:0:0:0:
459,217,69483,2,0,L|419:215,1,35.625001358986,8|0,0:0|0:0,0:0:0:0:
256,354,69870,5,4,0:0:0:0:
256,354,70063,1,4,0:0:0:0:
256,354,70257,6,0,L|170:351,1,71.25,2|0,0:0|0:0,0:0:0:0:
41,279,70644,2,0,L|113:276,1,71.2500027179719,0|6,0:0|0:0,0:0:0:0:
201,227,70902,5,0,0:0:0:0:
195,208,70967,1,0,0:0:0:0:
203,163,71031,6,0,P|217:117|205:73,1,85.4999973907472,10|0,0:0|0:0,0:0:0:0:
48,116,71225,2,0,L|133:117,1,85.4999973907472,2|0,0:0|0:0,0:0:0:0:
343,54,71418,2,0,L|428:53,1,85.4999973907472,2|0,0:0|0:0,0:0:0:0:
284,163,71612,2,0,L|369:162,1,85.4999973907472,2|0,0:0|0:0,0:0:0:0:
488,279,71805,6,0,L|311:276,1,166.25,8|0,0:0|0:0,0:0:0:0:
193,342,72579,2,0,L|237:341,1,35.625001358986,8|0,0:0|0:0,0:0:0:0:
81,267,72773,2,0,L|125:266,1,35.625001358986,6|4,0:0|0:0,0:0:0:0:
210,216,72967,1,4,0:0:0:0:
210,216,73354,5,6,0:0:0:0:
210,216,73937,5,2,0:0:0:0:
242,201,74020,1,2,0:0:0:0:
277,195,74103,1,0,0:0:0:0:
312,200,74186,1,8,0:0:0:0:
345,214,74270,1,8,0:0:0:0:
391,294,74354,5,0,0:0:0:0:
302,281,74437,1,0,0:0:0:0:
277,195,74520,1,4,0:0:0:0:
352,65,74687,6,0,L|426:68,3,71.2500027179719,8|0|0|0,0:0|0:0|0:0|0:0,0:0:0:0:
202,34,75020,2,0,L|128:37,3,71.2500027179719,8|0|0|0,0:0|0:0|0:0|0:0,0:0:0:0:
367,68,75354,2,0,L|455:71,3,71.2500027179719,8|0|0|0,0:0|0:0|0:0|0:0,0:0:0:0:
187,30,75687,2,0,L|98:34,3,71.2500027179719,8|0|0|0,0:0|0:0|0:0|0:0,0:0:0:0:
305,191,76020,5,8,0:0:0:0:
289,235,76103,1,0,0:0:0:0:
292,282,76186,1,0,0:0:0:0:
314,324,76269,1,0,0:0:0:0:
384,296,76354,5,8,0:0:0:0:
339,281,76437,1,0,0:0:0:0:
292,282,76520,1,0,0:0:0:0:
248,299,76603,1,0,0:0:0:0:
197,349,76687,5,8,0:0:0:0:
152,364,76770,1,0,0:0:0:0:
105,363,76853,1,0,0:0:0:0:
61,346,76936,1,0,0:0:0:0:
19,285,77020,5,8,0:0:0:0:
63,271,77103,1,0,0:0:0:0:
109,283,77186,1,0,0:0:0:0:
141,317,77269,1,0,0:0:0:0:
152,364,77354,6,0,P|208:341|236:317,3,95,8|0|0|0,0:0|0:0|0:0|0:0,0:0:0:0:
170,137,77687,2,0,P|161:196|168:233,3,95,8|0|0|0,0:0|0:0|0:0|0:0,0:0:0:0:
355,247,78020,2,0,P|307:210|272:197,3,95,8|0|0|0,0:0|0:0|0:0|0:0,0:0:0:0:
423,128,78354,2,0,P|445:184|469:212,3,95,8|0|0|0,0:0|0:0|0:0|0:0,0:0:0:0:
318,19,78687,6,0,B|267:10|267:10|220:23,3,95,8|0|0|0,0:0|0:0|0:0|0:0,0:0:0:0:
275,198,79020,2,0,B|284:147|284:147|271:100,3,95,8|0|0|0,0:0|0:0|0:0|0:0,0:0:0:0:
90,147,79354,2,0,B|141:156|141:156|188:143,3,95,8|0|0|0,0:0|0:0|0:0|0:0,0:0:0:0:
104,257,79687,2,0,B|53:248|53:248|6:261,3,95,8|0|0|0,0:0|0:0|0:0|0:0,0:0:0:0:
205,342,80020,6,0,L|277:340,1,71.2500027179719,8|0,0:0|0:0,0:0:0:0:
238,247,80187,2,0,L|310:245,1,71.2500027179719,0|0,0:0|0:0,0:0:0:0:
444,309,80354,2,0,L|372:310,1,71.2500027179719,8|0,0:0|0:0,0:0:0:0:
477,214,80520,2,0,L|405:215,1,71.2500027179719,0|0,0:0|0:0,0:0:0:0:
359,45,80687,6,0,L|360:117,1,71.2500027179719,8|0,0:0|0:0,0:0:0:0:
249,83,80853,2,0,L|250:155,1,71.2500027179719,0|0,0:0|0:0,0:0:0:0:
310,317,81020,2,0,L|308:245,1,71.2500027179719,8|0,0:0|0:0,0:0:0:0:
205,342,81187,1,0,0:0:0:0:
205,342,81270,1,0,0:0:0:0:
205,342,81353,6,0,L|133:343,1,71.2500027179719,8|0,0:0|0:0,0:0:0:0:
135,247,81520,2,0,L|63:248,1,71.2500027179719,0|0,0:0|0:0,0:0:0:0:
237,213,81687,2,0,L|309:211,1,71.2500027179719,8|0,0:0|0:0,0:0:0:0:
167,118,81853,2,0,L|239:116,1,71.2500027179719,0|0,0:0|0:0,0:0:0:0:
430,108,82020,6,0,L|428:36,1,71.2500027179719,8|0,0:0|0:0,0:0:0:0:
321,189,82187,2,0,L|319:117,1,71.2500027179719,0|0,0:0|0:0,0:0:0:0:
431,215,82353,2,0,L|433:287,1,71.2500027179719,8|0,0:0|0:0,0:0:0:0:
315,340,82520,6,0,L|354:340,3,35.625001358986,0|0|0|0,0:0|0:0|0:0|0:0,0:0:0:0:
137,329,82687,5,2,0:0:0:0:
101,298,82770,1,0,0:0:0:0:
81,255,82853,1,2,0:0:0:0:
82,208,82936,1,0,0:0:0:0:
102,166,83020,1,2,0:0:0:0:
139,136,83103,1,0,0:0:0:0:
185,125,83186,1,2,0:0:0:0:
231,134,83270,1,0,0:0:0:0:
211,242,83353,5,2,0:0:0:0:
145,223,83436,1,0,0:0:0:0:
102,166,83519,1,2,0:0:0:0:
102,97,83602,1,0,0:0:0:0:
144,41,83686,1,2,0:0:0:0:
211,21,83769,1,0,0:0:0:0:
276,46,83852,1,2,0:0:0:0:
315,105,83936,1,0,0:0:0:0:
308,174,84019,5,8,0:0:0:0:
162,346,84603,5,2,0:0:0:0:
141,303,84686,1,2,0:0:0:0:
140,256,84769,1,0,0:0:0:0:
158,212,84852,1,8,0:0:0:0:
179,168,84937,1,8,0:0:0:0:
203,127,85020,1,0,0:0:0:0:
202,80,85103,1,0,0:0:0:0:
176,41,85186,1,8,0:0:0:0:
134,20,85270,1,0,0:0:0:0:
87,25,85353,6,0,B|63:84|85:129|85:129|61:189|85:238,1,213.750008153916,8|0,0:0|0:0,0:0:0:0:
264,234,85687,2,0,B|328:245|328:245|381:231,1,118.75,2|0,0:0|0:0,0:0:0:0:
279,78,85853,2,0,B|215:67|215:67|161:80,1,118.75,2|0,0:0|0:0,0:0:0:0:
382,148,86020,1,8,0:0:0:0:
177,177,86187,6,0,B|166:241|166:241|180:294,1,118.75,2|0,0:0|0:0,0:0:0:0:
466,209,86353,2,0,B|479:156|479:156|468:92,1,118.75,2|0,0:0|0:0,0:0:0:0:
336,328,86520,2,0,L|342:328,1,4.75,8|0,0:0|0:0,0:0:0:0:
323,63,86687,6,0,B|263:58|263:58|156:90|156:90|68:75,1,256.499992172241,8|0,0:0|0:0,0:0:0:0:
278,149,87020,1,6,0:0:0:0:
278,149,87103,2,0,L|434:160,1,156.750001494885,6|6,0:0|0:0,0:0:0:0:
222,251,87242,1,0,0:0:0:0:
222,251,87298,1,0,0:0:0:0:
222,251,87353,6,0,B|163:274|79:249|79:249|140:227,1,190,8|0,0:0|0:0,0:0:0:0:
182,11,87520,2,0,P|236:100|206:180,1,190,2|0,0:0|0:0,0:0:0:0:
1,197,87687,2,0,B|45:116|45:116|143:97,1,190,2|0,0:0|0:0,0:0:0:0:
445,179,87853,2,0,L|437:178,1,4.75,8|0,0:0|0:0,0:0:0:0:
326,341,88020,6,0,B|269:364|207:343|207:343|128:362|73:344,1,256.499992172241,8|0,0:0|0:0,0:0:0:0:
278,149,88353,2,0,P|291:216|277:275,1,118.75,2|0,0:0|0:0,0:0:0:0:
222,61,88520,2,0,B|277:49|277:49|343:70,1,118.75,2|0,0:0|0:0,0:0:0:0:
208,216,88687,1,8,0:0:0:0:
396,245,88853,6,0,B|460:257|460:257|513:244,1,118.75,2|0,0:0|0:0,0:0:0:0:
278,149,89020,2,0,B|225:136|225:136|161:148,1,118.75,2|0,0:0|0:0,0:0:0:0:
428,68,89187,2,0,L|424:98,1,23.75,8|0,0:0|0:0,0:0:0:0:
326,341,89353,6,0,L|325:234,1,95,2|0,0:0|0:0,0:0:0:0:
341,333,89520,2,0,L|340:226,1,95,2|0,0:0|0:0,0:0:0:0:
161,147,89687,6,0,L|162:254,1,95,2|0,0:0|0:0,0:0:0:0:
146,155,89854,2,0,L|147:262,1,95,2|0,0:0|0:0,0:0:0:0:
349,108,90020,6,0,L|455:97,1,95,2|0,0:0|0:0,0:0:0:0:
358,122,90187,2,0,L|464:111,1,95,2|0,0:0|0:0,0:0:0:0:
168,48,90353,6,0,P|73:40|168:48,1,190,8|0,0:0|0:0,0:3:0:0:
153,61,90520,2,0,P|58:53|153:61,1,190,8|0,0:0|0:0,0:3:0:0:
260,201,90687,6,0,B|327:188|369:245|369:245|434:206|499:229,1,256.499992172241,8|0,0:0|0:0,0:0:0:0:
288,291,91020,1,6,0:0:0:0:
198,261,91103,1,6,0:0:0:0:
122,320,91187,2,0,P|103:263|120:201,1,118.75,6|0,0:0|0:0,0:0:0:0:
272,75,91353,6,0,B|337:65|337:65|402:86,1,118.75,10|0,0:0|0:0,0:0:0:0:
192,167,91520,2,0,L|188:38,1,118.75,2|0,0:0|0:0,0:0:0:0:
371,236,91687,2,0,B|381:301|381:301|360:366,1,118.75,2|0,0:0|0:0,0:0:0:0:
169,284,91853,2,0,L|306:291,1,118.75,2|0,0:0|0:0,0:0:0:0:
174,202,92020,5,10,0:0:0:0:
47,224,92131,1,0,0:0:0:0:
192,167,92242,1,0,0:0:0:0:
54,140,92409,6,0,B|23:138|-10:170|-10:170|8:124|-2:79,1,158.333333333333,0|0,0:0|0:0,0:0:0:0:
179,91,92576,1,0,0:0:0:0:
179,91,92632,1,0,0:0:0:0:
179,91,92687,2,0,B|249:63|324:109|324:109|268:121,1,190,8|0,0:0|0:0,0:0:0:0:
236,243,92853,2,0,L|32:222,1,190,2|0,0:0|0:0,0:0:0:0:
331,191,93020,2,0,B|351:291|351:291|299:370,1,190,2|0,0:0|0:0,0:0:0:0:
119,342,93187,2,0,L|134:342,1,9.5,8|0,0:0|0:0,0:0:0:0:
463,310,93353,6,0,B|491:239|465:185|465:185|494:113|465:54,1,256.499992172241,8|0,0:0|0:0,0:0:0:0:
383,107,93687,1,6,0:0:0:0:
301,58,93770,1,6,0:0:0:0:
224,113,93853,2,0,B|162:125|162:125|91:107,1,118.75,6|0,0:0|0:0,0:0:0:0:
305,149,94020,6,0,P|325:205|306:260,1,118.75,10|0,0:0|0:0,0:0:0:0:
111,219,94187,2,0,L|229:210,1,118.75,2|0,0:0|0:0,0:0:0:0:
488,330,94353,2,0,L|369:321,1,118.75,2|0,0:0|0:0,0:0:0:0:
185,347,94520,2,0,L|244:342,1,47.5,8|0,0:0|0:0,0:0:0:0:
412,210,94687,6,0,L|364:205,1,47.5,8|0,0:0|0:0,0:0:0:0:
412,210,94937,2,0,L|364:205,1,47.5,2|0,0:0|0:0,0:0:0:0:
412,210,95187,2,0,L|364:205,1,47.5,2|0,0:0|0:0,0:0:0:0:
335,181,95353,5,8,0:0:0:0:
335,181,95409,1,0,0:0:0:0:
261,241,95520,5,2,0:0:0:0:
239,162,95603,1,2,0:0:0:0:
277,91,95686,1,10,0:0:0:0:
354,66,95769,1,0,0:0:0:0:
427,102,95853,6,0,L|427:141,1,23.75,0|0,0:0|0:0,0:0:0:0:
412,210,96020,2,0,B|369:269|365:343|365:343|289:313|213:346,1,285,0|0,0:0|0:0,0:0:0:0:
142,228,96353,2,0,L|262:241,1,118.75,10|0,0:0|0:0,0:0:0:0:
61,288,96520,2,0,B|43:229|43:229|63:167,1,118.75,2|0,0:0|0:0,0:0:0:0:
166,69,96687,5,10,0:0:0:0:
262,35,96770,1,6,0:0:0:0:
360,68,96853,1,6,0:0:0:0:
416,154,96936,1,6,0:0:0:0:
407,256,97020,6,0,L|352:252,1,47.5,6|6,0:0|0:0,0:0:0:0:
232,148,97187,5,6,0:0:0:0:
339,184,97270,1,6,0:0:0:0:
260,240,97353,2,0,L|121:223,1,118.75,2|0,0:0|0:0,0:0:0:0:
258,65,97520,2,0,L|397:82,1,118.75,2|0,0:0|0:0,0:0:0:0:
176,123,97687,2,0,B|164:60|164:60|191:3,1,118.75,10|0,0:0|0:0,0:0:0:0:
339,184,97853,1,2,0:0:0:0:
339,184,97909,1,0,0:0:0:0:
339,184,97965,1,0,0:0:0:0:
339,184,98020,6,0,B|351:247|351:247|324:304,1,118.75,10|0,0:0|0:0,0:0:0:0:
258,65,98187,2,0,L|397:82,1,118.75,2|0,0:0|0:0,0:0:0:0:
260,240,98353,2,0,L|137:224,1,118.75,2|0,0:0|0:0,0:0:0:0:
395,327,98520,2,0,L|518:311,1,118.75,2|0,0:0|0:0,0:0:0:0:
236,351,98687,6,0,B|160:330|60:353|60:353|60:258|24:181,1,341.999989562989,8|0,0:0|0:0,0:0:0:0:
148,106,99020,2,0,L|141:240,1,118.75,2|0,0:0|0:0,0:0:0:0:
320,340,99187,2,0,L|313:221,1,118.75,2|0,0:0|0:0,0:0:0:0:
308,79,99353,5,10,0:0:0:0:
228,14,99436,1,2,0:0:0:0:
125,13,99519,1,2,0:0:0:0:
45,75,99602,1,2,0:0:0:0:
20,175,99687,6,0,L|26:233,1,47.5,2|2,0:0|0:0,0:0:0:0:
133,290,99853,5,2,0:0:0:0:
123,185,99936,1,2,0:0:0:0:
24,222,100020,6,0,L|30:280,1,47.5,8|0,0:0|0:0,0:0:0:0:
133,290,100187,2,0,L|127:348,1,47.5,2|0,0:0|0:0,0:0:0:0:
118,137,100353,2,0,L|124:195,1,47.5,2|0,0:0|0:0,0:0:0:0:
227,205,100520,2,0,L|221:263,1,47.5,8|0,0:0|0:0,0:0:0:0:
236,106,100687,2,0,L|231:58,1,47.5,2|0,0:0|0:0,0:0:0:0:
336,174,100853,2,0,L|340:126,1,47.5,2|0,0:0|0:0,0:0:0:0:
453,64,101020,2,0,L|456:122,1,57,2|0,0:0|0:0,0:0:0:0:
427,215,101353,6,0,B|389:268|317:258|317:258|340:331|300:388,1,256.499992172241,10|0,0:0|0:0,0:0:0:0:
153,304,101687,2,0,L|238:308,1,71.2500027179719,2|0,0:0|0:0,0:0:0:0:
336,174,101853,2,0,L|251:178,1,71.2500027179719,2|0,0:0|0:0,0:0:0:0:
134,317,102020,2,0,L|236:321,1,71.2500027179719,2|0,0:0|0:0,0:0:0:0:
354,161,102186,2,0,L|252:165,1,71.2500027179719,2|0,0:0|0:0,0:0:0:0:
112,332,102353,2,0,L|235:338,1,71.2500027179719,2|0,0:0|0:0,0:0:0:0:
376,145,102519,2,0,L|253:151,1,71.2500027179719,2|0,0:0|0:0,0:0:0:0:
43,166,102687,6,0,B|20:219|39:262|39:262|14:315|48:383,1,213.750008153916,8|0,0:0|0:0,0:0:0:0:
154,135,103020,2,0,B|150:70|76:2|76:2|92:92,1,237.5,2|2,0:0|0:0,0:0:0:0:
109,229,103242,1,0,0:0:0:0:
109,229,103298,1,0,0:0:0:0:
108,228,103353,2,0,P|164:241|218:217,1,118.75,8|0,0:0|0:0,0:0:0:0:
244,71,103520,2,0,P|188:87|153:134,1,118.75,2|0,0:0|0:0,0:0:0:0:
334,233,103687,2,0,B|397:144|315:12|315:12|335:82|319:132,1,356.25,8|0,0:0|0:0,0:0:0:0:
251,297,104020,6,0,P|343:319|455:244,1,213.750008153916,8|0,0:0|0:0,0:0:0:0:
180,245,104353,2,0,P|157:294|177:364,1,118.75,2|0,0:0|0:0,0:0:0:0:
334,233,104520,2,0,P|357:184|337:114,1,118.75,2|0,0:0|0:0,0:0:0:0:
184,148,104687,2,0,B|123:155|123:155|76:192,1,118.75,8|0,0:0|0:0,0:0:0:0:
343,123,104853,1,4,0:0:0:0:
343,123,104937,1,4,0:0:0:0:
343,123,105020,2,0,L|464:139,1,118.75,2|0,0:0|0:0,0:0:0:0:
177,56,105187,2,0,L|56:72,1,118.75,2|0,0:0|0:0,0:0:0:0:
180,245,105353,5,8,0:0:0:0:
289,41,105520,1,4,0:0:0:0:
288,363,105687,1,2,0:0:0:0:
179,144,105853,2,0,L|237:149,1,47.5,8|0,0:0|0:0,0:0:0:0:
371,244,106020,1,8,0:0:0:0:
87,289,106187,1,8,0:0:0:0:
146,50,106353,6,0,L|204:55,1,47.5,8|0,0:0|0:0,0:0:0:0:
228,32,106520,1,0,0:0:0:0:
228,32,106603,1,0,0:0:0:0:
275,138,106687,6,0,P|349:158|482:99,1,213.750008153916,2|0,0:0|0:0,0:0:0:0:
271,59,107020,2,0,P|215:82|185:120,1,95,8|0,0:0|0:0,0:0:0:0:
414,249,107187,2,0,P|469:225|499:187,1,95,8|0,0:0|0:0,0:0:0:0:
275,138,107353,1,8,0:0:0:0:
221,286,107520,2,0,L|226:390,1,95,8|0,0:0|0:0,0:0:0:0:
80,172,107687,1,8,0:0:0:0:
80,172,107770,1,0,0:0:0:0:
80,172,107853,2,0,L|75:276,1,95,8|0,0:0|0:0,0:0:0:0:
243,119,108020,6,0,B|185:86|124:105|124:105|66:77|0:117,1,213.750008153916,2|0,0:0|0:0,0:0:0:0:
304,200,108353,1,8,0:0:0:0:
304,200,108437,1,0,0:0:0:0:
304,200,108520,2,0,P|334:148|332:96,1,95,8|0,0:0|0:0,0:0:0:0:
180,187,108687,1,8,0:0:0:0:
317,300,108853,2,0,L|443:294,1,118.75,8|0,0:0|0:0,0:0:0:0:
172,345,109020,2,0,L|46:339,1,118.75,8|0,0:0|0:0,0:0:0:0:
335,283,109187,2,0,L|461:277,1,118.75,8|0,0:0|0:0,0:0:0:0:
225,276,109353,6,0,B|178:255|111:268|111:268|109:217|60:170,1,213.750008153916,2|0,0:0|0:0,0:0:0:0:
170,92,109687,2,0,L|181:200,1,95,8|0,0:0|0:0,0:0:0:0:
344,188,109853,2,0,L|333:296,1,95,8|0,0:0|0:0,0:0:0:0:
459,87,110020,1,8,0:0:0:0:
214,18,110187,1,8,0:0:0:0:
214,18,110270,1,0,0:0:0:0:
214,18,110353,2,0,P|162:9|109:23,1,95,8|0,0:0|0:0,0:0:0:0:
298,108,110520,2,0,P|330:67|346:14,1,95,8|0,0:0|0:0,0:0:0:0:
170,92,110687,6,0,L|111:100,1,47.5,2|0,0:0|0:0,0:0:0:0:
154,105,110853,2,0,L|95:113,1,47.5,2|0,0:0|0:0,0:0:0:0:
257,206,111020,6,0,L|316:214,1,47.5,2|0,0:0|0:0,0:0:0:0:
273,219,111186,2,0,L|332:227,1,47.5,2|0,0:0|0:0,0:0:0:0:
180,315,111353,6,0,L|121:323,1,47.5,2|0,0:0|0:0,0:0:0:0:
164,328,111519,2,0,L|105:336,1,47.5,2|0,0:0|0:0,0:0:0:0:
303,346,111687,6,0,L|333:342,6,23.75,0|0|0|0|0|0|6,0:0|0:0|0:0|0:0|0:0|0:0|0:0,0:0:0:0:
348,235,112020,6,0,L|453:247,1,95,8|0,0:0|0:0,0:0:0:0:
311,128,112187,2,0,L|416:140,1,95,2|0,0:0|0:0,0:0:0:0:
243,231,112353,2,0,L|138:243,1,95,2|0,0:0|0:0,0:0:0:0:
200,128,112520,2,0,L|95:140,1,95,2|0,0:0|0:0,0:0:0:0:
94,44,112687,6,0,L|106:149,1,95,8|0,0:0|0:0,0:0:0:0:
84,243,112853,2,0,L|96:348,1,95,2|0,0:0|0:0,0:0:0:0:
189,33,113020,2,0,L|201:138,1,95,2|0,0:0|0:0,0:0:0:0:
179,232,113186,2,0,L|191:337,1,95,2|0,0:0|0:0,0:0:0:0:
311,128,113353,6,0,L|323:23,1,95,8|0,0:0|0:0,0:0:0:0:
411,140,113520,2,0,L|399:245,1,95,2|0,0:0|0:0,0:0:0:0:
179,232,113687,2,0,L|284:244,1,95,2|0,0:0|0:0,0:0:0:0:
397,346,113853,1,2,0:0:0:0:
397,346,113937,1,0,0:0:0:0:
397,346,114020,6,0,L|292:334,1,95,10|0,0:0|0:0,0:0:0:0:
92,285,114187,2,0,B|76:217|76:217|101:154,1,118.75,2|0,0:0|0:0,0:0:0:0:
255,39,114353,2,0,B|270:106|270:106|245:169,1,118.75,2|0,0:0|0:0,0:0:0:0:
60,85,114520,2,0,L|181:93,1,118.75,2|0,0:0|0:0,0:0:0:0:
266,252,114687,5,10,0:0:0:0:
333,234,114770,1,0,0:0:0:0:
376,179,114853,1,2,0:0:0:0:
378,109,114936,1,0,0:0:0:0:
343,47,115020,5,2,0:0:0:0:
300,103,115103,1,0,0:0:0:0:
296,173,115186,1,2,0:0:0:0:
332,233,115269,1,0,0:0:0:0:
378,288,115353,5,2,0:0:0:0:
326,334,115436,1,0,0:0:0:0:
256,335,115519,1,2,0:0:0:0:
203,290,115602,1,0,0:0:0:0:
180,221,115687,5,2,0:0:0:0:
128,174,115770,1,0,0:0:0:0:
58,173,115853,1,2,0:0:0:0:
5,218,115936,1,0,0:0:0:0:
0,289,116020,6,0,L|36:283,1,23.75,10|0,0:0|0:0,0:0:0:0:
367,195,116270,2,0,L|331:189,1,23.75,0|0,0:0|0:0,0:0:0:0:
166,50,116520,2,0,L|189:53,1,23.75,2|2,0:0|0:0,0:0:0:0:
257,115,116687,5,10,0:0:0:0:
449,46,116853,1,2,0:0:0:0:
396,309,117020,2,0,L|400:364,1,47.5,8|0,0:0|0:0,0:0:0:0:
396,309,117187,2,0,L|400:364,1,47.5,0|0,0:0|0:0,0:0:0:0:
396,309,117353,5,4,0:0:0:0:
