osu file format v14

[General]
AudioFilename: audio.mp3
AudioLeadIn: 0
PreviewTime: 142015
Countdown: 0
SampleSet: Soft
StackLeniency: 0.7
Mode: 0
LetterboxInBreaks: 0
WidescreenStoryboard: 1

[Editor]
Bookmarks: 29484,43546,44484,46359,53859,55734,58077,63312,69796,74484,80265,104484,111984,127296,133546,140109,141359,170921,173890
DistanceSpacing: 0.8
BeatDivisor: 4
GridSize: 4
TimelineZoom: 1.700001

[Metadata]
Title:Op 25 no 11
TitleUnicode:Op 25 no 11
Artist:Frederic Francois Chopin
ArtistUnicode:Frédéric François Chopin
Creator:Louis Cyphre
Version:Ultimate
Source:
Tags:
BeatmapID:1169250
BeatmapSetID:529007

[Difficulty]
HPDrainRate:6.4
CircleSize:5.1
OverallDifficulty:7.4
ApproachRate:9.1
SliderMultiplier:2.8
SliderTickRate:1

[Events]
//Background and Video events
0,0,"bgomg.png",0,0
//Break Periods
2,97184,103900
//Storyboard Layer 0 (Background)
//Storyboard Layer 1 (Fail)
//Storyboard Layer 2 (Pass)
//Storyboard Layer 3 (Foreground)
//Storyboard Layer 4 (Overlay)
//Storyboard Sound Samples
Sample,21984,0,"E4.wav",70

[TimingPoints]
17,1250,4,2,1,20,1,0
16267,1428.57142857143,4,2,1,15,1,0
19127,2857.14285714286,4,2,1,10,1,0
21954,652.173913043478,4,2,1,10,1,0
21984,468.75,4,2,1,36,1,0
22062,-100,4,2,1,50,0,0
25734,-100,4,2,1,36,0,0
25773,-100,4,2,1,40,0,0
26202,-100,4,2,1,37,0,0
26671,-100,4,2,1,34,0,0
27140,-100,4,2,1,31,0,0
27609,-100,4,2,1,28,0,0
28077,-100,4,2,1,25,0,0
28546,-100,4,2,1,22,0,0
29015,-100,4,2,1,19,0,0
29484,-100,4,2,1,36,0,0
29562,-100,4,2,1,22,0,0
29640,-100,4,2,1,24,0,0
29718,-100,4,2,1,26,0,0
29796,-100,4,2,1,28,0,0
29874,-100,4,2,1,30,0,0
29952,-100,4,2,1,32,0,0
30030,-100,4,2,1,34,0,0
30109,-100,4,2,1,36,0,0
30187,-100,4,2,1,38,0,0
30265,-100,4,2,1,40,0,0
30343,-100,4,2,1,42,0,0
30421,-100,4,2,1,44,0,0
30499,-100,4,2,1,42,0,0
30577,-100,4,2,1,40,0,0
30655,-100,4,2,1,38,0,0
30734,-100,4,2,1,36,0,0
30812,-100,4,2,1,34,0,0
30890,-100,4,2,1,32,0,0
30968,-100,4,2,1,30,0,0
31046,-100,4,2,1,28,0,0
31124,-100,4,2,1,26,0,0
31202,-100,4,2,1,24,0,0
31280,-100,4,2,1,22,0,0
31359,-100,4,2,1,20,0,0
31437,-100,4,2,1,22,0,0
31515,-100,4,2,1,24,0,0
31593,-100,4,2,1,26,0,0
31671,-100,4,2,1,28,0,0
31749,-100,4,2,1,30,0,0
31827,-100,4,2,1,32,0,0
31905,-100,4,2,1,34,0,0
31984,-100,4,2,1,36,0,0
32062,-100,4,2,1,38,0,0
32140,-100,4,2,1,40,0,0
32218,-100,4,2,1,42,0,0
32296,-100,4,2,1,44,0,0
32374,-100,4,2,1,42,0,0
32452,-100,4,2,1,40,0,0
32530,-100,4,2,1,38,0,0
32609,-100,4,2,1,36,0,0
32687,-100,4,2,1,34,0,0
32765,-100,4,2,1,35,0,0
32843,-100,4,2,1,30,0,0
32921,-100,4,2,1,28,0,0
32999,-100,4,2,1,26,0,0
33077,-100,4,2,1,24,0,0
33155,-100,4,2,1,22,0,0
33234,-100,4,2,1,35,0,0
33312,-100,4,2,1,23,0,0
33390,-100,4,2,1,26,0,0
33468,-100,4,2,1,29,0,0
33546,-100,4,2,1,32,0,0
33624,-100,4,2,1,35,0,0
33702,-100,4,2,1,38,0,0
33780,-100,4,2,1,41,0,0
33859,-100,4,2,1,44,0,0
33937,-100,4,2,1,47,0,0
34015,-100,4,2,1,50,0,0
34093,-100,4,2,1,53,0,0
34171,-100,4,2,1,56,0,0
34249,-100,4,2,1,53,0,0
34327,-100,4,2,1,50,0,0
34405,-100,4,2,1,47,0,0
34484,-100,4,2,1,44,0,0
34562,-100,4,2,1,41,0,0
34640,-100,4,2,1,32,0,0
34718,-100,4,2,1,35,0,0
34796,-100,4,2,1,32,0,0
34874,-100,4,2,1,29,0,0
34952,-100,4,2,1,26,0,0
35030,-100,4,2,1,23,0,0
35109,-100,4,2,1,36,0,0
35187,-100,4,2,1,24,0,0
35265,-100,4,2,1,28,0,0
35343,-100,4,2,1,32,0,0
35421,-100,4,2,1,36,0,0
35499,-100,4,2,1,40,0,0
35577,-100,4,2,1,44,0,0
35655,-100,4,2,1,48,0,0
35734,-100,4,2,1,52,0,0
35812,-100,4,2,1,56,0,0
35890,-100,4,2,1,60,0,0
35968,-100,4,2,1,64,0,0
36046,-100,4,2,1,68,0,0
36984,-100,4,2,1,36,0,0
37023,-100,4,2,1,50,0,0
40734,-100,4,2,1,36,0,0
40773,-100,4,2,1,40,0,0
41202,-100,4,2,1,37,0,0
41671,-100,4,2,1,34,0,0
42140,-100,4,2,1,31,0,0
42609,-100,4,2,1,28,0,0
43077,-100,4,2,1,25,0,0
43546,-100,4,2,1,22,0,0
44015,-100,4,2,1,19,0,0
44484,-100,4,2,1,36,0,0
44562,-100,4,2,1,22,0,0
44640,-100,4,2,1,24,0,0
44718,-100,4,2,1,26,0,0
44796,-100,4,2,1,28,0,0
44874,-100,4,2,1,30,0,0
44952,-100,4,2,1,32,0,0
45030,-100,4,2,1,34,0,0
45109,-100,4,2,1,36,0,0
45187,-100,4,2,1,38,0,0
45265,-100,4,2,1,40,0,0
45343,-100,4,2,1,42,0,0
45421,-100,4,2,1,30,0,0
45499,-100,4,2,1,42,0,0
45577,-100,4,2,1,40,0,0
45655,-100,4,2,1,38,0,0
45734,-100,4,2,1,36,0,0
45812,-100,4,2,1,34,0,0
45890,-100,4,2,1,36,0,0
45968,-100,4,2,1,30,0,0
46046,-100,4,2,1,28,0,0
46124,-100,4,2,1,26,0,0
46202,-100,4,2,1,24,0,0
46280,-100,4,2,1,22,0,0
46359,-100,4,2,1,36,0,0
46437,-100,4,2,1,22,0,0
46515,-100,4,2,1,24,0,0
46593,-100,4,2,1,26,0,0
46668,-100,4,2,1,28,0,0
46749,-100,4,2,1,30,0,0
46827,-100,4,2,1,32,0,0
46905,-100,4,2,1,34,0,0
46984,-100,4,2,1,36,0,0
47062,-100,4,2,1,38,0,0
47140,-100,4,2,1,40,0,0
47218,-100,4,2,1,42,0,0
47296,-100,4,2,1,44,0,0
47374,-100,4,2,1,42,0,0
47452,-100,4,2,1,40,0,0
47530,-100,4,2,1,38,0,0
47609,-100,4,2,1,36,0,0
47687,-100,4,2,1,34,0,0
47765,-100,4,2,1,36,0,0
47843,-100,4,2,1,30,0,0
47921,-100,4,2,1,28,0,0
47999,-100,4,2,1,26,0,0
48077,-100,4,2,1,24,0,0
48155,-100,4,2,1,22,0,0
48234,-100,4,2,1,36,0,0
48312,-100,4,2,1,22,0,0
48390,-100,4,2,1,24,0,0
48468,-100,4,2,1,26,0,0
48546,-100,4,2,1,28,0,0
48624,-100,4,2,1,30,0,0
48702,-100,4,2,1,32,0,0
48780,-100,4,2,1,34,0,0
48859,-100,4,2,1,36,0,0
48937,-100,4,2,1,38,0,0
49015,-100,4,2,1,40,0,0
49093,-100,4,2,1,42,0,0
49171,-100,4,2,1,44,0,0
49249,-100,4,2,1,46,0,0
49327,-100,4,2,1,48,0,0
49405,-100,4,2,1,50,0,0
49484,-100,4,2,1,52,0,0
49562,-100,4,2,1,54,0,0
49640,-100,4,2,1,36,0,0
49718,-100,4,2,1,58,0,0
49796,-100,4,2,1,60,0,0
49874,-100,4,2,1,62,0,0
49952,-100,4,2,1,64,0,0
50030,-100,4,2,1,66,0,0
50109,-100,4,2,1,36,0,0
50421,-100,4,2,1,36,0,0
51984,-100,4,2,1,36,0,0
52062,-100,4,2,1,23,0,0
52140,-100,4,2,1,26,0,0
52218,-100,4,2,1,29,0,0
52296,-100,4,2,1,32,0,0
52374,-100,4,2,1,35,0,0
52452,-100,4,2,1,38,0,0
52530,-100,4,2,1,41,0,0
52609,-100,4,2,1,44,0,0
52687,-100,4,2,1,47,0,0
52765,-100,4,2,1,50,0,0
52843,-100,4,2,1,53,0,0
52921,-100,4,2,1,56,0,0
52999,-100,4,2,1,53,0,0
53077,-100,4,2,1,50,0,0
53155,-100,4,2,1,47,0,0
53234,-100,4,2,1,44,0,0
53312,-100,4,2,1,41,0,0
53390,-100,4,2,1,36,0,0
53468,-100,4,2,1,35,0,0
53546,-100,4,2,1,32,0,0
53624,-100,4,2,1,29,0,0
53702,-100,4,2,1,26,0,0
53780,-100,4,2,1,23,0,0
53859,-100,4,2,1,36,0,0
53937,-100,4,2,1,22,0,0
54015,-100,4,2,1,24,0,0
54093,-100,4,2,1,26,0,0
54171,-100,4,2,1,28,0,0
54249,-100,4,2,1,30,0,0
54327,-100,4,2,1,32,0,0
54405,-100,4,2,1,34,0,0
54484,-100,4,2,1,36,0,0
54562,-100,4,2,1,38,0,0
54640,-100,4,2,1,40,0,0
54718,-100,4,2,1,42,0,0
54796,-100,4,2,1,44,0,0
54874,-100,4,2,1,46,0,0
54952,-100,4,2,1,48,0,0
55030,-100,4,2,1,50,0,0
55109,-100,4,2,1,52,0,0
55187,-100,4,2,1,54,0,0
55265,-100,4,2,1,56,0,0
55343,-100,4,2,1,58,0,0
55421,-100,4,2,1,60,0,0
55499,-100,4,2,1,62,0,0
55577,-100,4,2,1,64,0,0
55655,-100,4,2,1,66,0,0
55734,-100,4,2,1,36,0,0
55773,-100,4,2,1,50,0,0
59484,-100,4,2,1,40,0,0
59523,-100,4,2,1,36,0,0
59952,-100,4,2,1,37,0,0
60421,-100,4,2,1,34,0,0
60890,-100,4,2,1,31,0,0
61359,-100,4,2,1,28,0,0
61827,-100,4,2,1,25,0,0
62296,-100,4,2,1,22,0,0
62765,-100,4,2,1,19,0,0
63234,-100,4,2,1,36,0,0
63312,-100,4,2,1,22,0,0
63390,-100,4,2,1,24,0,0
63468,-100,4,2,1,26,0,0
63546,-100,4,2,1,28,0,0
63624,-100,4,2,1,30,0,0
63702,-100,4,2,1,32,0,0
63780,-100,4,2,1,34,0,0
63859,-100,4,2,1,36,0,0
63937,-100,4,2,1,38,0,0
64015,-100,4,2,1,40,0,0
64093,-100,4,2,1,42,0,0
64171,-100,4,2,1,44,0,0
64249,-100,4,2,1,42,0,0
64327,-100,4,2,1,40,0,0
64405,-100,4,2,1,38,0,0
64484,-100,4,2,1,36,0,0
64562,-100,4,2,1,34,0,0
64640,-100,4,2,1,36,0,0
64718,-100,4,2,1,30,0,0
64796,-100,4,2,1,28,0,0
64874,-100,4,2,1,26,0,0
64952,-100,4,2,1,24,0,0
65030,-100,4,2,1,22,0,0
65109,-100,4,2,1,36,0,0
65187,-100,4,2,1,22,0,0
65265,-100,4,2,1,24,0,0
65343,-100,4,2,1,26,0,0
65421,-100,4,2,1,28,0,0
65499,-100,4,2,1,30,0,0
65577,-100,4,2,1,32,0,0
65655,-100,4,2,1,34,0,0
65734,-100,4,2,1,36,0,0
65812,-100,4,2,1,38,0,0
65890,-100,4,2,1,40,0,0
65968,-100,4,2,1,42,0,0
66046,-100,4,2,1,44,0,0
66124,-100,4,2,1,42,0,0
66202,-100,4,2,1,40,0,0
66280,-100,4,2,1,38,0,0
66359,-100,4,2,1,36,0,0
66437,-100,4,2,1,34,0,0
66515,-100,4,2,1,36,0,0
66593,-100,4,2,1,30,0,0
66671,-100,4,2,1,28,0,0
66749,-100,4,2,1,26,0,0
66827,-100,4,2,1,24,0,0
66905,-100,4,2,1,22,0,0
66984,-100,4,2,1,36,0,0
67062,-100,4,2,1,23,0,0
67140,-100,4,2,1,26,0,0
67218,-100,4,2,1,29,0,0
67296,-100,4,2,1,32,0,0
67374,-100,4,2,1,35,0,0
67452,-100,4,2,1,38,0,0
67530,-100,4,2,1,41,0,0
67609,-100,4,2,1,44,0,0
67687,-100,4,2,1,47,0,0
67765,-100,4,2,1,50,0,0
67843,-100,4,2,1,53,0,0
67921,-100,4,2,1,56,0,0
67999,-100,4,2,1,53,0,0
68077,-100,4,2,1,50,0,0
68155,-100,4,2,1,47,0,0
68234,-100,4,2,1,44,0,0
68312,-100,4,2,1,41,0,0
68390,-100,4,2,1,36,0,0
68468,-100,4,2,1,35,0,0
68546,-100,4,2,1,32,0,0
68624,-100,4,2,1,29,0,0
68702,-100,4,2,1,26,0,0
68780,-100,4,2,1,23,0,0
68859,-100,4,2,1,36,0,0
68937,-100,4,2,1,24,0,0
69015,-100,4,2,1,28,0,0
69093,-100,4,2,1,32,0,0
69171,-100,4,2,1,36,0,0
69249,-100,4,2,1,40,0,0
69327,-100,4,2,1,44,0,0
69405,-100,4,2,1,48,0,0
69484,-100,4,2,1,52,0,0
69562,-100,4,2,1,56,0,0
69640,-100,4,2,1,60,0,0
69718,-100,4,2,1,64,0,0
69796,-100,4,2,1,68,0,0
70734,-100,4,2,1,30,0,0
70773,-100,4,2,1,50,0,0
74484,-100,4,2,1,36,0,0
74523,-100,4,2,1,40,0,0
74952,-100,4,2,1,37,0,0
75421,-100,4,2,1,34,0,0
75890,-100,4,2,1,31,0,0
76359,-100,4,2,1,28,0,0
76827,-100,4,2,1,25,0,0
77296,-100,4,2,1,21,0,0
77765,-100,4,2,1,18,0,0
78234,-100,4,2,1,36,0,0
78312,-100,4,2,1,22,0,0
78390,-100,4,2,1,24,0,0
78468,-100,4,2,1,26,0,0
78546,-100,4,2,1,28,0,0
78624,-100,4,2,1,30,0,0
78702,-100,4,2,1,32,0,0
78780,-100,4,2,1,34,0,0
78859,-100,4,2,1,36,0,0
78937,-100,4,2,1,38,0,0
79015,-100,4,2,1,40,0,0
79093,-100,4,2,1,42,0,0
79171,-100,4,2,1,44,0,0
79249,-100,4,2,1,42,0,0
79327,-100,4,2,1,40,0,0
79405,-100,4,2,1,38,0,0
79484,-100,4,2,1,36,0,0
79562,-100,4,2,1,34,0,0
79640,-100,4,2,1,32,0,0
79718,-100,4,2,1,30,0,0
79796,-100,4,2,1,28,0,0
79874,-100,4,2,1,26,0,0
79952,-100,4,2,1,24,0,0
80030,-100,4,2,1,22,0,0
80109,-100,4,2,1,36,0,0
80187,-100,4,2,1,22,0,0
80265,-100,4,2,1,24,0,0
80343,-100,4,2,1,26,0,0
80421,-100,4,2,1,28,0,0
80499,-100,4,2,1,30,0,0
80577,-100,4,2,1,32,0,0
80655,-100,4,2,1,34,0,0
80734,-100,4,2,1,36,0,0
80812,-100,4,2,1,38,0,0
80890,-100,4,2,1,40,0,0
80968,-100,4,2,1,42,0,0
81046,-100,4,2,1,44,0,0
81124,-100,4,2,1,42,0,0
81202,-100,4,2,1,40,0,0
81280,-100,4,2,1,38,0,0
81359,-100,4,2,1,36,0,0
81437,-100,4,2,1,34,0,0
81515,-100,4,2,1,36,0,0
81593,-100,4,2,1,30,0,0
81671,-100,4,2,1,28,0,0
81749,-100,4,2,1,26,0,0
81827,-100,4,2,1,24,0,0
81905,-100,4,2,1,22,0,0
81984,-100,4,2,1,36,0,0
82062,-100,4,2,1,22,0,0
82140,-100,4,2,1,24,0,0
82218,-100,4,2,1,26,0,0
82296,-100,4,2,1,28,0,0
82374,-100,4,2,1,30,0,0
82452,-100,4,2,1,32,0,0
82530,-100,4,2,1,34,0,0
82609,-100,4,2,1,36,0,0
82687,-100,4,2,1,38,0,0
82765,-100,4,2,1,40,0,0
82843,-100,4,2,1,42,0,0
82921,-100,4,2,1,44,0,0
82999,-100,4,2,1,46,0,0
83077,-100,4,2,1,48,0,0
83155,-100,4,2,1,50,0,0
83234,-100,4,2,1,52,0,0
83312,-100,4,2,1,54,0,0
83390,-100,4,2,1,36,0,0
83468,-100,4,2,1,58,0,0
83546,-100,4,2,1,60,0,0
83624,-100,4,2,1,62,0,0
83702,-100,4,2,1,64,0,0
83780,-100,4,2,1,66,0,0
83859,-100,4,2,1,36,0,0
83937,-100,4,2,1,40,0,0
84796,-100,4,2,1,36,0,0
84835,-100,4,2,1,38,0,0
85265,-100,4,2,1,36,0,0
85734,-100,4,2,1,34,0,0
85773,-100,4,2,1,25,0,0
86202,-100,4,2,1,25,0,0
86671,-100,4,2,1,25,0,0
87140,-100,4,2,1,25,0,0
87609,-100,4,2,1,20,0,0
88234,-100,4,2,1,20,0,0
88546,-100,4,2,1,20,0,0
88859,-100,4,2,1,20,0,0
89171,-100,4,2,1,20,0,0
89484,-100,4,2,1,36,0,0
89952,-100,4,2,1,36,0,0
90421,-100,4,2,1,36,0,0
90890,-100,4,2,1,36,0,0
93234,-100,4,2,1,36,0,0
93702,-100,4,2,1,36,0,0
94171,-100,4,2,1,36,0,0
94640,-100,4,2,1,36,0,0
96984,-200,4,2,1,20,0,0
104484,-100,4,2,1,36,0,0
104562,-100,4,2,1,24,0,0
104640,-100,4,2,1,28,0,0
104718,-100,4,2,1,36,0,0
104796,-100,4,2,1,36,0,0
104874,-100,4,2,1,40,0,0
104952,-100,4,2,1,44,0,0
105030,-100,4,2,1,48,0,0
105109,-100,4,2,1,52,0,0
105187,-100,4,2,1,56,0,0
105265,-100,4,2,1,60,0,0
105343,-100,4,2,1,64,0,0
105421,-100,4,2,1,68,0,0
105499,-100,4,2,1,64,0,0
105577,-100,4,2,1,60,0,0
105655,-100,4,2,1,56,0,0
105734,-100,4,2,1,52,0,0
105812,-100,4,2,1,48,0,0
105890,-100,4,2,1,44,0,0
105968,-100,4,2,1,40,0,0
106046,-100,4,2,1,36,0,0
106124,-100,4,2,1,30,0,0
106359,-100,4,2,1,30,0,0
106671,-100,4,2,1,32,0,0
106984,-100,4,2,1,34,0,0
107296,-100,4,2,1,36,0,0
107765,-100,4,2,1,40,0,0
107921,-100,4,2,1,44,0,0
108077,-100,4,2,1,48,0,0
108234,-100,4,2,1,52,0,0
108390,-100,4,2,1,30,0,0
108546,-100,4,2,1,30,0,0
108702,-100,4,2,1,40,0,0
108859,-100,4,2,1,44,0,0
109015,-100,4,2,1,48,0,0
109171,-100,4,2,1,36,0,0
109249,-100,4,2,1,30,0,0
109640,-100,4,2,1,30,0,0
110109,-100,4,2,1,32,0,0
110421,-100,4,2,1,34,0,0
110734,-100,4,2,1,36,0,0
111046,-100,4,2,1,38,0,0
111515,-100,4,2,1,40,0,0
111671,-100,4,2,1,44,0,0
111827,-100,4,2,1,48,0,0
111984,-100,4,2,1,36,0,0
112062,-100,4,2,1,30,0,0
112140,-100,4,2,1,30,0,0
112921,-100,4,2,1,36,0,0
112960,-100,4,2,1,30,0,0
113859,-100,4,2,1,36,0,0
113898,-100,4,2,1,30,0,0
114327,-100,4,2,1,28,0,0
114796,-100,4,2,1,36,0,0
114835,-100,4,2,1,26,0,0
115265,-100,4,2,1,24,0,0
115734,-100,4,2,1,22,0,0
116202,-100,4,2,1,23,0,0
116280,-100,4,2,1,25,0,0
116359,-100,4,2,1,28,0,0
116437,-100,4,2,1,31,0,0
116515,-100,4,2,1,34,0,0
116593,-100,4,2,1,37,0,0
116671,-100,4,2,1,40,0,0
116749,-100,4,2,1,38,0,0
116827,-100,4,2,1,36,0,0
116905,-100,4,2,1,34,0,0
116984,-100,4,2,1,32,0,0
117062,-100,4,2,1,30,0,0
117140,-100,4,2,1,28,0,0
117218,-100,4,2,1,26,0,0
117296,-100,4,2,1,24,0,0
117374,-100,4,2,1,22,0,0
117452,-100,4,2,1,20,0,0
117530,-100,4,2,1,18,0,0
117609,-100,4,2,1,20,0,0
117687,-100,4,2,1,22,0,0
117765,-100,4,2,1,24,0,0
117843,-100,4,2,1,26,0,0
117921,-100,4,2,1,28,0,0
117999,-100,4,2,1,30,0,0
118077,-100,4,2,1,32,0,0
118155,-100,4,2,1,34,0,0
118234,-100,4,2,1,36,0,0
118312,-100,4,2,1,38,0,0
118390,-100,4,2,1,40,0,0
118468,-100,4,2,1,42,0,0
118546,-100,4,2,1,44,0,0
118624,-100,4,2,1,46,0,0
118702,-100,4,2,1,44,0,0
118780,-100,4,2,1,42,0,0
118859,-100,4,2,1,40,0,0
118937,-100,4,2,1,38,0,0
119015,-100,4,2,1,36,0,0
119093,-100,4,2,1,34,0,0
119171,-100,4,2,1,32,0,0
119249,-100,4,2,1,30,0,0
119327,-100,4,2,1,28,0,0
119405,-100,4,2,1,26,0,0
119484,-100,4,2,1,20,0,0
119562,-100,4,2,1,22,0,0
119640,-100,4,2,1,24,0,0
119718,-100,4,2,1,26,0,0
119796,-100,4,2,1,28,0,0
119874,-100,4,2,1,30,0,0
119952,-100,4,2,1,32,0,0
120030,-100,4,2,1,34,0,0
120109,-100,4,2,1,36,0,0
120187,-100,4,2,1,38,0,0
120265,-100,4,2,1,40,0,0
120343,-100,4,2,1,42,0,0
120421,-100,4,2,1,44,0,0
120499,-100,4,2,1,42,0,0
120577,-100,4,2,1,40,0,0
120655,-100,4,2,1,38,0,0
120734,-100,4,2,1,36,0,0
120812,-100,4,2,1,34,0,0
120890,-100,4,2,1,32,0,0
120968,-100,4,2,1,30,0,0
121046,-100,4,2,1,28,0,0
121124,-100,4,2,1,26,0,0
121202,-100,4,2,1,24,0,0
121280,-100,4,2,1,22,0,0
121359,-100,4,2,1,20,0,0
121437,-100,4,2,1,21,0,0
121515,-100,4,2,1,22,0,0
121593,-100,4,2,1,23,0,0
121671,-100,4,2,1,24,0,0
121749,-100,4,2,1,25,0,0
121827,-100,4,2,1,26,0,0
121905,-100,4,2,1,27,0,0
121984,-100,4,2,1,28,0,0
122062,-100,4,2,1,29,0,0
122140,-100,4,2,1,30,0,0
122218,-100,4,2,1,31,0,0
122296,-100,4,2,1,32,0,0
122374,-100,4,2,1,31,0,0
122452,-100,4,2,1,30,0,0
122530,-100,4,2,1,29,0,0
122609,-100,4,2,1,28,0,0
122687,-100,4,2,1,27,0,0
122765,-100,4,2,1,26,0,0
122843,-100,4,2,1,25,0,0
122921,-100,4,2,1,24,0,0
122999,-100,4,2,1,23,0,0
123077,-100,4,2,1,22,0,0
123155,-100,4,2,1,21,0,0
123234,-100,4,2,1,20,0,0
123546,-100,4,2,1,22,0,0
123859,-100,4,2,1,24,0,0
124171,-100,4,2,1,26,0,0
124484,-100,4,2,1,28,0,0
124796,-100,4,2,1,30,0,0
125109,-100,4,2,1,32,0,0
125421,-100,4,2,1,34,0,0
125734,-100,4,2,1,36,0,0
126046,-100,4,2,1,38,0,0
126359,-100,4,2,1,40,0,0
126671,-100,4,2,1,42,0,0
126984,-100,4,2,1,20,0,0
127062,-100,4,2,1,21,0,0
127140,-100,4,2,1,22,0,0
127218,-100,4,2,1,23,0,0
127296,-100,4,2,1,24,0,0
127374,-100,4,2,1,25,0,0
127452,-100,4,2,1,26,0,0
127530,-100,4,2,1,27,0,0
127609,-100,4,2,1,28,0,0
127687,-100,4,2,1,29,0,0
127765,-100,4,2,1,30,0,0
127843,-100,4,2,1,31,0,0
127921,-100,4,2,1,32,0,0
127999,-100,4,2,1,33,0,0
128077,-100,4,2,1,34,0,0
128155,-100,4,2,1,35,0,0
128234,-100,4,2,1,36,0,0
128312,-100,4,2,1,37,0,0
128390,-100,4,2,1,38,0,0
128468,-100,4,2,1,39,0,0
128546,-100,4,2,1,40,0,0
128624,-100,4,2,1,41,0,0
128702,-100,4,2,1,42,0,0
128780,-100,4,2,1,43,0,0
128859,-100,4,2,1,44,0,0
128937,-100,4,2,1,45,0,0
129015,-100,4,2,1,46,0,0
129093,-100,4,2,1,47,0,0
129171,-100,4,2,1,48,0,0
129249,-100,4,2,1,49,0,0
129327,-100,4,2,1,50,0,0
129405,-100,4,2,1,51,0,0
129484,-100,4,2,1,52,0,0
129562,-100,4,2,1,53,0,0
129640,-100,4,2,1,54,0,0
129718,-100,4,2,1,55,0,0
129796,-100,4,2,1,56,0,0
130734,-100,4,2,1,20,0,0
130812,-100,4,2,1,21,0,0
130890,-100,4,2,1,22,0,0
130968,-100,4,2,1,23,0,0
131046,-100,4,2,1,24,0,0
131124,-100,4,2,1,25,0,0
131202,-100,4,2,1,26,0,0
131280,-100,4,2,1,27,0,0
131359,-100,4,2,1,28,0,0
131437,-100,4,2,1,29,0,0
131515,-100,4,2,1,30,0,0
131593,-100,4,2,1,31,0,0
131671,-100,4,2,1,32,0,0
131749,-100,4,2,1,33,0,0
131827,-100,4,2,1,34,0,0
131905,-100,4,2,1,35,0,0
131984,-100,4,2,1,36,0,0
132062,-100,4,2,1,37,0,0
132140,-100,4,2,1,38,0,0
132218,-100,4,2,1,39,0,0
132296,-100,4,2,1,40,0,0
132374,-100,4,2,1,41,0,0
132452,-100,4,2,1,42,0,0
132530,-100,4,2,1,43,0,0
132609,-100,4,2,1,44,0,0
132687,-100,4,2,1,45,0,0
132765,-100,4,2,1,46,0,0
132843,-100,4,2,1,47,0,0
132921,-100,4,2,1,48,0,0
132999,-100,4,2,1,49,0,0
133077,-100,4,2,1,50,0,0
133155,-100,4,2,1,51,0,0
133234,-100,4,2,1,52,0,0
133312,-100,4,2,1,53,0,0
133390,-100,4,2,1,54,0,0
133468,-100,4,2,1,55,0,0
133546,-100,4,2,1,56,0,0
134484,-100,4,2,1,10,0,0
140577,-100,4,2,1,15,0,0
140655,-100,4,2,1,20,0,0
140734,-100,4,2,1,25,0,0
140812,-100,4,2,1,30,0,0
140890,-100,4,2,1,35,0,0
140968,-100,4,2,1,40,0,0
141046,-100,4,2,1,45,0,0
141515,500,4,2,1,45,1,0
141515,-100,4,2,1,45,0,0
142015,468.75,4,2,1,36,1,0
142093,-100,4,2,1,50,0,0
145765,-100,4,2,1,36,0,0
145804,-100,4,2,1,40,0,0
146233,-100,4,2,1,37,0,0
146702,-100,4,2,1,34,0,0
147171,-100,4,2,1,31,0,0
147640,-100,4,2,1,28,0,0
148108,-100,4,2,1,25,0,0
148577,-100,4,2,1,22,0,0
149046,-100,4,2,1,19,0,0
149515,-100,4,2,1,36,0,0
149593,-100,4,2,1,22,0,0
149671,-100,4,2,1,24,0,0
149749,-100,4,2,1,26,0,0
149827,-100,4,2,1,28,0,0
149905,-100,4,2,1,30,0,0
149983,-100,4,2,1,32,0,0
150061,-100,4,2,1,34,0,0
150140,-100,4,2,1,36,0,0
150218,-100,4,2,1,38,0,0
150296,-100,4,2,1,40,0,0
150374,-100,4,2,1,42,0,0
150452,-100,4,2,1,44,0,0
150530,-100,4,2,1,42,0,0
150608,-100,4,2,1,40,0,0
150686,-100,4,2,1,38,0,0
150765,-100,4,2,1,36,0,0
150843,-100,4,2,1,34,0,0
150921,-100,4,2,1,32,0,0
150999,-100,4,2,1,30,0,0
151077,-100,4,2,1,28,0,0
151155,-100,4,2,1,26,0,0
151233,-100,4,2,1,24,0,0
151311,-100,4,2,1,22,0,0
151390,-100,4,2,1,20,0,0
151468,-100,4,2,1,22,0,0
151546,-100,4,2,1,24,0,0
151624,-100,4,2,1,26,0,0
151702,-100,4,2,1,28,0,0
151780,-100,4,2,1,30,0,0
151858,-100,4,2,1,32,0,0
151936,-100,4,2,1,34,0,0
152015,-100,4,2,1,36,0,0
152093,-100,4,2,1,38,0,0
152171,-100,4,2,1,40,0,0
152249,-100,4,2,1,42,0,0
152327,-100,4,2,1,44,0,0
152405,-100,4,2,1,42,0,0
152483,-100,4,2,1,40,0,0
152561,-100,4,2,1,38,0,0
152640,-100,4,2,1,36,0,0
152718,-100,4,2,1,34,0,0
152796,-100,4,2,1,36,0,0
152874,-100,4,2,1,30,0,0
152952,-100,4,2,1,28,0,0
153030,-100,4,2,1,26,0,0
153108,-100,4,2,1,24,0,0
153186,-100,4,2,1,22,0,0
153265,-100,4,2,1,35,0,0
153343,-100,4,2,1,23,0,0
153421,-100,4,2,1,26,0,0
153499,-100,4,2,1,29,0,0
153577,-100,4,2,1,32,0,0
153655,-100,4,2,1,35,0,0
153733,-100,4,2,1,38,0,0
153811,-100,4,2,1,41,0,0
153890,-100,4,2,1,44,0,0
153968,-100,4,2,1,47,0,0
154046,-100,4,2,1,50,0,0
154124,-100,4,2,1,53,0,0
154202,-100,4,2,1,56,0,0
154280,-100,4,2,1,53,0,0
154358,-100,4,2,1,50,0,0
154436,-100,4,2,1,47,0,0
154515,-100,4,2,1,44,0,0
154593,-100,4,2,1,41,0,0
154671,-100,4,2,1,32,0,0
154749,-100,4,2,1,35,0,0
154827,-100,4,2,1,32,0,0
154905,-100,4,2,1,29,0,0
154983,-100,4,2,1,26,0,0
155061,-100,4,2,1,23,0,0
155140,-100,4,2,1,36,0,0
155218,-100,4,2,1,24,0,0
155296,-100,4,2,1,28,0,0
155374,-100,4,2,1,32,0,0
155452,-100,4,2,1,36,0,0
155530,-100,4,2,1,40,0,0
155608,-100,4,2,1,44,0,0
155686,-100,4,2,1,48,0,0
155765,-100,4,2,1,52,0,0
155843,-100,4,2,1,56,0,0
155921,-100,4,2,1,60,0,0
155999,-100,4,2,1,64,0,0
156077,-100,4,2,1,68,0,0
157015,-100,4,2,1,30,0,0
157093,-100,4,2,1,50,0,0
160765,-100,4,2,1,36,0,0
160804,-100,4,2,1,40,0,0
161233,-100,4,2,1,37,0,0
161702,-100,4,2,1,34,0,0
162171,-100,4,2,1,31,0,0
162640,-100,4,2,1,28,0,0
163108,-100,4,2,1,25,0,0
163577,-100,4,2,1,22,0,0
164046,-100,4,2,1,19,0,0
164515,-100,4,2,1,36,0,0
164593,-100,4,2,1,23,0,0
164671,-100,4,2,1,26,0,0
164749,-100,4,2,1,29,0,0
164827,-100,4,2,1,32,0,0
164905,-100,4,2,1,35,0,0
164983,-100,4,2,1,38,0,0
165061,-100,4,2,1,41,0,0
165140,-100,4,2,1,44,0,0
165218,-100,4,2,1,47,0,0
165296,-100,4,2,1,50,0,0
165374,-100,4,2,1,53,0,0
165452,-100,4,2,1,56,0,0
165530,-100,4,2,1,53,0,0
165608,-100,4,2,1,50,0,0
165686,-100,4,2,1,47,0,0
165765,-100,4,2,1,44,0,0
165843,-100,4,2,1,41,0,0
165921,-100,4,2,1,36,0,0
165999,-100,4,2,1,35,0,0
166077,-100,4,2,1,32,0,0
166155,-100,4,2,1,29,0,0
166233,-100,4,2,1,26,0,0
166311,-100,4,2,1,23,0,0
166390,-100,4,2,1,36,0,0
166468,-100,4,2,1,23,0,0
166546,-100,4,2,1,26,0,0
166624,-100,4,2,1,29,0,0
166702,-100,4,2,1,32,0,0
166780,-100,4,2,1,35,0,0
166858,-100,4,2,1,38,0,0
166936,-100,4,2,1,41,0,0
167015,-100,4,2,1,44,0,0
167093,-100,4,2,1,47,0,0
167171,-100,4,2,1,50,0,0
167249,-100,4,2,1,53,0,0
167327,-100,4,2,1,56,0,0
167405,-100,4,2,1,53,0,0
167483,-100,4,2,1,50,0,0
167561,-100,4,2,1,47,0,0
167640,-100,4,2,1,44,0,0
167718,-100,4,2,1,41,0,0
167874,-100,4,2,1,35,0,0
167952,-100,4,2,1,32,0,0
168030,-100,4,2,1,29,0,0
168108,-100,4,2,1,26,0,0
168186,-100,4,2,1,23,0,0
168265,-100,4,2,1,30,0,0
168343,-100,4,2,1,33,0,0
168421,-100,4,2,1,36,0,0
168499,-100,4,2,1,39,0,0
168577,-100,4,2,1,42,0,0
168655,-100,4,2,1,45,0,0
168733,-100,4,2,1,48,0,0
168811,-100,4,2,1,51,0,0
168890,-100,4,2,1,54,0,0
168968,-100,4,2,1,57,0,0
169046,-100,4,2,1,60,0,0
169124,-100,4,2,1,63,0,0
169202,-100,4,2,1,66,0,0
169280,-100,4,2,1,69,0,0
169358,-100,4,2,1,66,0,0
169436,-100,4,2,1,63,0,0
169515,-100,4,2,1,60,0,0
169593,-100,4,2,1,57,0,0
169671,-100,4,2,1,54,0,0
169749,-100,4,2,1,56,0,0
169827,-100,4,2,1,58,0,0
169905,-100,4,2,1,60,0,0
169983,-100,4,2,1,62,0,0
170061,-100,4,2,1,64,0,0
170140,-100,4,2,1,66,0,0
170218,-100,4,2,1,69,0,0
170296,-100,4,2,1,66,0,0
170374,-100,4,2,1,63,0,0
170453,-100,4,2,1,60,0,0
170531,-100,4,2,1,57,0,0
170609,-100,4,2,1,54,0,0
170687,-100,4,2,1,56,0,0
170765,-100,4,2,1,58,0,0
170843,-100,4,2,1,60,0,0
170921,-100,4,2,1,62,0,0
170999,-100,4,2,1,64,0,0
171077,-100,4,2,1,24,0,0
171155,-100,4,2,1,23,0,0
171233,-100,4,2,1,22,0,0
171311,-100,4,2,1,21,0,0
171390,-100,4,2,1,20,0,0
171468,-100,4,2,1,19,0,0
171546,-100,4,2,1,18,0,0
171624,-100,4,2,1,17,0,0
171702,-100,4,2,1,16,0,0
171780,-100,4,2,1,15,0,0
171858,-100,4,2,1,14,0,0
171936,-100,4,2,1,13,0,0
172015,-100,4,2,1,12,0,0
172093,-100,4,2,1,13,0,0
172171,-100,4,2,1,14,0,0
172249,-100,4,2,1,15,0,0
172327,-100,4,2,1,16,0,0
172405,-100,4,2,1,17,0,0
172483,-100,4,2,1,18,0,0
172561,-100,4,2,1,19,0,0
172640,-100,4,2,1,20,0,0
172718,-100,4,2,1,21,0,0
172796,-100,4,2,1,22,0,0
172874,-100,4,2,1,23,0,0
172952,-100,4,2,1,24,0,0
173030,-100,4,2,1,25,0,0
173108,-100,4,2,1,26,0,0
173186,-100,4,2,1,27,0,0
173265,-100,4,2,1,28,0,0
173343,-100,4,2,1,29,0,0
173421,-100,4,2,1,30,0,0
173499,-100,4,2,1,31,0,0
173577,-100,4,2,1,32,0,0
173655,-100,4,2,1,33,0,0
173733,-100,4,2,1,34,0,0
173811,-100,4,2,1,35,0,0
173890,-100,4,2,1,36,0,0
173968,-100,4,2,1,37,0,0
174046,-100,4,2,1,38,0,0
174124,-100,4,2,1,39,0,0
174202,-100,4,2,1,40,0,0
174280,-100,4,2,1,41,0,0
174358,-100,4,2,1,42,0,0
174436,-100,4,2,1,43,0,0
174515,-100,4,2,1,44,0,0
174593,-100,4,2,1,45,0,0
174671,-100,4,2,1,46,0,0
174749,-100,4,2,1,47,0,0
174827,-100,4,2,1,48,0,0
174905,-100,4,2,1,49,0,0
174983,-100,4,2,1,50,0,0
175061,-100,4,2,1,51,0,0
175140,-100,4,2,1,52,0,0
175218,-100,4,2,1,53,0,0
175296,-100,4,2,1,54,0,0
175374,-100,4,2,1,55,0,0
175452,-100,4,2,1,56,0,0
175530,-100,4,2,1,57,0,0
175608,-100,4,2,1,58,0,0
175686,-100,4,2,1,59,0,0
175765,-100,4,2,1,36,0,0
176702,-100,4,2,1,36,0,0
177640,-100,4,2,1,36,0,0
179515,-100,4,2,1,30,0,0
180452,-100,4,2,1,30,0,0
181390,-100,4,2,1,30,0,0
182327,-100,4,2,1,30,0,0
183265,-100,4,2,1,30,0,0
185140,-100,4,2,1,40,0,0
186077,-100,4,2,1,40,0,0
187483,-100,4,2,1,55,0,0
191233,402.684563758389,4,2,1,60,1,0

[Colours]
Combo1 : 0,128,255
Combo2 : 0,64,128
Combo3 : 1,145,186

[HitObjects]
356,61,21954,6,0,L|373:110,1,50,4|0,0:1|0:0,0:0:0:0:
426,146,22140,1,0,0:0:0:0:
377,287,22296,1,0,0:0:0:0:
95,282,22452,2,0,P|197:259|306:243,1,210
38,225,22921,2,0,P|143:226|226:237,1,186.666666666667
0,159,23390,2,0,P|102:182|184:206,1,186.666666666667
276,103,23859,6,0,L|381:115,1,93.3333333333333
400,82,24093,2,0,L|371:134,1,46.6666666666667
382,309,24327,2,0,P|434:235|446:141,1,186.666666666667
225,37,24796,2,0,P|172:113|161:205,1,186.666666666667
59,95,25265,1,0,0:0:0:0:
85,183,25421,1,0,0:0:0:0:
113,271,25577,1,0,0:0:0:0:
369,281,25734,6,0,P|299:272|177:318,1,186.666666666667
3,195,26202,2,0,P|104:202|213:214,1,210
318,172,26671,2,0,P|227:148|137:124,1,186.666666666667
59,16,27140,2,0,P|147:46|234:79,1,186.666666666667
418,18,27609,5,0,0:0:0:0:
369,97,27765,1,0,0:0:0:0:
321,177,27921,1,0,0:0:0:0:
399,165,28077,5,0,0:0:0:0:
325,183,28233,1,0,0:0:0:0:
251,200,28389,1,0,0:0:0:0:
311,260,28546,5,0,0:0:0:0:
232,211,28702,1,0,0:0:0:0:
152,163,28858,1,0,0:0:0:0:
170,276,29014,5,0,0:0:0:0:
145,167,29170,1,0,0:0:0:0:
118,56,29326,1,0,0:0:0:0:
321,32,29484,6,0,L|306:133,1,93.3333333333333
373,289,29796,2,0,L|388:188,1,93.3333333333333
479,35,30109,1,0,0:0:0:0:
471,46,30187,1,0,0:0:0:0:
463,57,30265,1,0,0:0:0:0:
194,142,30421,1,0,0:0:0:0:
218,149,30499,1,0,0:0:0:0:
241,159,30577,1,0,0:0:0:0:
263,171,30655,1,0,0:0:0:0:
284,186,30733,1,0,0:0:0:0:
304,203,30811,1,0,0:0:0:0:
358,171,30889,5,0,0:0:0:0:
373,191,30967,1,0,0:0:0:0:
386,213,31046,1,0,0:0:0:0:
397,236,31124,1,0,0:0:0:0:
405,260,31202,1,0,0:0:0:0:
411,284,31280,1,0,0:0:0:0:
480,299,31359,6,0,L|495:198,1,93.3333333333333
428,42,31671,2,0,L|413:143,1,93.3333333333333
486,312,31984,1,0,0:0:0:0:
472,315,32062,1,0,0:0:0:0:
458,318,32140,1,0,0:0:0:0:
192,223,32296,5,0,0:0:0:0:
213,234,32374,1,0,0:0:0:0:
236,243,32452,1,0,0:0:0:0:
260,252,32530,1,0,0:0:0:0:
286,257,32609,1,0,0:0:0:0:
311,259,32687,1,0,0:0:0:0:
323,197,32765,5,0,0:0:0:0:
349,194,32843,1,0,0:0:0:0:
373,189,32921,1,0,0:0:0:0:
397,181,32999,1,0,0:0:0:0:
414,167,33077,1,0,0:0:0:0:
431,153,33155,1,0,0:0:0:0:
479,73,33234,6,0,L|376:53,1,93.3333333333333
163,107,33546,2,0,L|254:124,1,93.3333333333333
373,287,33859,1,0,0:0:0:0:
370,273,33937,1,0,0:0:0:0:
367,259,34015,1,0,0:0:0:0:
209,343,34171,5,0,0:0:0:0:
221,317,34249,1,0,0:0:0:0:
233,292,34327,1,0,0:0:0:0:
245,267,34405,1,0,0:0:0:0:
257,241,34484,1,0,0:0:0:0:
269,216,34562,1,0,0:0:0:0:
224,175,34640,5,0,0:0:0:0:
247,158,34718,1,0,0:0:0:0:
270,142,34796,1,0,0:0:0:0:
293,127,34874,1,0,0:0:0:0:
316,110,34953,1,0,0:0:0:0:
339,95,35031,1,0,0:0:0:0:
423,71,35109,6,0,L|391:162,1,93.3333333333333
120,260,35421,2,0,L|150:171,1,93.3333333333333
296,336,35734,1,0,0:0:0:0:
344,31,35890,1,0,0:0:0:0:
21,285,36046,1,0,0:0:0:0:
438,88,36984,6,0,L|339:116,1,93.3333333333333
294,73,37296,1,0,0:0:0:0:
161,205,37452,2,0,P|285:203|402:217,1,233.333333333333
490,292,37921,2,0,P|366:290|277:299,1,186.666666666667
96,206,38390,2,0,P|220:204|309:213,1,186.666666666667
333,171,38859,6,0,L|428:191,1,93.3333333333333
433,154,39093,2,0,L|449:197,1,46.6666666666667
422,335,39327,2,0,P|297:303|206:318,1,186.666666666667
76,99,39796,2,0,L|97:291,1,186.666666666667
220,215,40265,1,0,0:0:0:0:
182,139,40421,1,0,0:0:0:0:
144,63,40577,1,0,0:0:0:0:
348,42,40734,6,0,L|320:227,1,186.666666666667
228,333,41202,2,0,P|124:316|-4:319,1,233.333333333333
16,124,41671,2,0,L|163:240,1,186.666666666667
206,9,42140,2,0,L|227:216,1,186.666666666667
344,42,42609,5,0,0:0:0:0:
329,124,42765,1,0,0:0:0:0:
314,206,42921,1,0,0:0:0:0:
438,231,43077,5,0,0:0:0:0:
371,254,43233,1,0,0:0:0:0:
304,278,43389,1,0,0:0:0:0:
163,350,43546,5,0,0:0:0:0:
190,270,43702,1,0,0:0:0:0:
218,190,43859,1,0,0:0:0:0:
54,200,44015,5,0,0:0:0:0:
156,134,44171,1,0,0:0:0:0:
258,68,44327,1,0,0:0:0:0:
443,164,44484,6,0,P|363:161|293:194,1,140
248,189,44796,2,0,L|262:260,2,46.6666666666667
41,173,45109,2,0,L|142:197,1,93.3333333333333
332,294,45421,1,0,0:0:0:0:
308,296,45499,1,0,0:0:0:0:
284,298,45577,1,0,0:0:0:0:
260,300,45655,1,0,0:0:0:0:
236,302,45734,1,0,0:0:0:0:
212,304,45812,1,0,0:0:0:0:
199,362,45890,5,0,0:0:0:0:
175,357,45968,1,0,0:0:0:0:
151,353,46046,1,0,0:0:0:0:
127,350,46124,1,0,0:0:0:0:
103,346,46202,1,0,0:0:0:0:
79,343,46280,1,0,0:0:0:0:
24,309,46359,6,0,P|6:244|32:171,1,140
71,62,46671,2,0,L|81:124,2,46.6666666666667
245,214,46984,2,0,L|225:95,1,93.3333333333333
409,30,47296,1,0,0:0:0:0:
403,52,47374,1,0,0:0:0:0:
397,74,47452,1,0,0:0:0:0:
391,96,47530,1,0,0:0:0:0:
385,119,47609,1,0,0:0:0:0:
379,141,47687,1,0,0:0:0:0:
428,182,47765,5,0,0:0:0:0:
415,201,47843,1,0,0:0:0:0:
402,220,47921,1,0,0:0:0:0:
390,240,47999,1,0,0:0:0:0:
378,260,48077,1,0,0:0:0:0:
366,280,48155,1,0,0:0:0:0:
323,328,48234,6,0,L|210:335,1,93.3333333333333
102,262,48546,2,0,L|215:269,1,93.3333333333333
402,220,48859,2,0,L|308:225,1,93.3333333333333
55,158,49171,2,0,L|148:163,1,93.3333333333333
444,89,49484,2,0,L|350:94,1,93.3333333333333
0,37,49796,2,0,L|93:42,1,93.3333333333333
419,175,50109,6,0,L|228:175,1,186.666666666667
33,287,50577,2,0,P|136:271|238:290,1,210
505,317,51046,2,0,P|402:333|300:314,1,210
163,197,51515,1,0,0:0:0:0:
254,215,51671,1,0,0:0:0:0:
347,212,51827,1,0,0:0:0:0:
405,125,51984,6,0,P|313:110|222:131,1,186.666666666667
163,197,52452,1,0,0:0:0:0:
330,34,52609,1,0,0:0:0:0:
79,43,52765,1,0,0:0:0:0:
264,309,52921,2,0,P|304:221|296:120,1,186.666666666667
88,105,53390,1,0,0:0:0:0:
44,187,53546,1,0,0:0:0:0:
55,280,53702,1,0,0:0:0:0:
193,299,53859,6,0,L|299:273,1,93.3333333333333
486,241,54171,2,0,L|380:215,1,93.3333333333333
161,241,54484,6,0,L|256:188,1,93.3333333333333
470,115,54796,2,0,L|360:117,1,93.3333333333333
99,200,55109,6,0,L|177:124,1,93.3333333333333
379,14,55421,2,0,L|274:44,1,93.3333333333333
0,40,55734,6,0,L|20:147,1,93.3333333333333
15,224,56046,1,0,0:0:0:0:
160,327,56202,2,0,L|206:118,1,210
3,62,56671,2,0,P|95:71|187:58,1,186.666666666667
405,29,57140,2,0,L|273:161,1,186.666666666667
468,188,57609,6,0,L|354:231,1,93.3333333333333
362,177,57843,2,0,L|348:236,1,46.6666666666667
325,17,58077,2,0,L|256:201,1,186.666666666667
474,295,58546,2,0,P|385:270|291:277,1,186.666666666667
171,338,59015,1,0,0:0:0:0:
205,251,59171,1,0,0:0:0:0:
244,166,59327,1,0,0:0:0:0:
469,75,59484,6,0,P|378:69|282:75,1,186.666666666667
91,39,59952,2,0,P|114:122|86:247,1,210
260,352,60421,2,0,P|232:248|240:168,1,186.666666666667
395,243,60890,2,0,P|318:166|285:93,1,186.666666666667
106,27,61359,5,0,0:0:0:0:
180,34,61515,1,0,0:0:0:0:
254,41,61671,1,0,0:0:0:0:
127,99,61827,5,0,0:0:0:0:
179,104,61983,1,0,0:0:0:0:
232,109,62139,1,0,0:0:0:0:
142,167,62296,5,0,0:0:0:0:
189,172,62452,1,0,0:0:0:0:
236,176,62608,1,0,0:0:0:0:
183,237,62765,5,0,0:0:0:0:
216,240,62921,1,0,0:0:0:0:
249,243,63077,1,0,0:0:0:0:
329,323,63234,6,0,L|361:229,1,93.3333333333333
482,94,63546,2,0,L|451:182,1,93.3333333333333
347,21,63859,1,0,0:0:0:0:
350,34,63937,1,0,0:0:0:0:
353,47,64015,1,0,0:0:0:0:
165,19,64171,1,0,0:0:0:0:
177,38,64249,1,0,0:0:0:0:
189,57,64327,1,0,0:0:0:0:
201,76,64405,1,0,0:0:0:0:
213,96,64484,1,0,0:0:0:0:
225,115,64562,1,0,0:0:0:0:
178,157,64640,5,0,0:0:0:0:
196,173,64718,1,0,0:0:0:0:
216,191,64796,1,0,0:0:0:0:
236,207,64874,1,0,0:0:0:0:
255,227,64953,1,0,0:0:0:0:
275,245,65031,1,0,0:0:0:0:
308,302,65109,6,0,L|414:320,1,93.3333333333333
499,126,65421,2,0,L|401:115,1,93.3333333333333
201,44,65734,1,0,0:0:0:0:
206,56,65812,1,0,0:0:0:0:
211,68,65890,1,0,0:0:0:0:
47,194,66046,1,0,0:0:0:0:
69,188,66124,1,0,0:0:0:0:
91,181,66203,1,0,0:0:0:0:
113,174,66281,1,0,0:0:0:0:
135,167,66359,1,0,0:0:0:0:
157,161,66437,1,0,0:0:0:0:
219,178,66515,5,0,0:0:0:0:
243,164,66593,1,0,0:0:0:0:
267,152,66671,1,0,0:0:0:0:
291,138,66749,1,0,0:0:0:0:
315,126,66828,1,0,0:0:0:0:
339,114,66906,1,0,0:0:0:0:
329,44,66984,6,0,L|425:36,1,93.3333333333333
512,275,67296,2,0,L|416:283,1,93.3333333333333
217,311,67609,1,0,0:0:0:0:
230,305,67687,1,0,0:0:0:0:
243,300,67765,1,0,0:0:0:0:
59,263,67921,1,0,0:0:0:0:
85,255,67999,1,0,0:0:0:0:
109,249,68077,1,0,0:0:0:0:
135,243,68155,1,0,0:0:0:0:
163,235,68234,1,0,0:0:0:0:
187,229,68312,1,0,0:0:0:0:
189,166,68390,5,0,0:0:0:0:
215,172,68468,1,0,0:0:0:0:
238,179,68546,1,0,0:0:0:0:
265,186,68624,1,0,0:0:0:0:
289,192,68702,1,0,0:0:0:0:
315,200,68780,1,0,0:0:0:0:
368,165,68859,6,0,L|392:72,1,93.3333333333333
491,327,69171,2,0,L|388:333,1,93.3333333333333
473,214,69484,1,0,0:0:0:0:
206,298,69640,1,0,0:0:0:0:
473,38,69796,1,0,0:0:0:0:
454,137,70734,6,0,L|343:152,1,93.3333333333333
300,219,71046,1,0,0:0:0:0:
70,141,71202,2,0,P|184:143|283:141,1,210
201,40,71671,2,0,P|263:120|331:204,1,186.666666666667
324,27,72140,2,0,L|325:232,1,186.666666666667
473,26,72609,6,0,L|446:123,1,93.3333333333333
480,167,72843,2,0,L|426:124,1,46.6666666666667
426,281,73077,2,0,P|320:308|234:296,1,186.666666666667
13,219,73546,2,0,P|102:193|194:200,1,186.666666666667
336,36,74015,5,0,0:0:0:0:
306,124,74171,1,0,0:0:0:0:
215,103,74327,1,0,0:0:0:0:
78,346,74484,6,0,P|95:224|136:168,1,186.666666666667
43,39,74952,2,0,P|130:94|234:101,1,210
268,4,75421,2,0,P|238:91|254:182,1,186.666666666667
431,266,75890,2,0,P|460:178|444:87,1,186.666666666667
250,57,76359,5,0,0:0:0:0:
341,39,76515,1,0,0:0:0:0:
432,22,76671,1,0,0:0:0:0:
241,86,76827,5,0,0:0:0:0:
324,92,76983,1,0,0:0:0:0:
407,98,77139,1,0,0:0:0:0:
226,109,77296,5,0,0:0:0:0:
304,135,77452,1,0,0:0:0:0:
382,163,77608,1,0,0:0:0:0:
195,125,77765,5,0,0:0:0:0:
279,181,77921,1,0,0:0:0:0:
363,238,78077,1,0,0:0:0:0:
282,351,78234,6,0,L|183:327,1,93.3333333333333
78,193,78546,2,0,L|173:220,1,93.3333333333333
377,164,78859,1,0,0:0:0:0:
349,161,78937,1,0,0:0:0:0:
321,159,79015,1,0,0:0:0:0:
100,29,79171,5,0,0:0:0:0:
111,54,79249,1,0,0:0:0:0:
122,79,79327,1,0,0:0:0:0:
133,104,79405,1,0,0:0:0:0:
145,129,79484,1,0,0:0:0:0:
157,154,79562,1,0,0:0:0:0:
115,200,79640,5,0,0:0:0:0:
126,225,79718,1,0,0:0:0:0:
137,250,79796,1,0,0:0:0:0:
148,275,79874,1,0,0:0:0:0:
160,300,79953,1,0,0:0:0:0:
172,325,80031,1,0,0:0:0:0:
236,347,80109,6,0,L|333:358,1,93.3333333333333
480,194,80421,2,0,L|383:183,1,93.3333333333333
154,34,80734,1,0,0:0:0:0:
160,61,80812,1,0,0:0:0:0:
167,88,80890,1,0,0:0:0:0:
44,237,81046,5,0,0:0:0:0:
70,244,81124,1,0,0:0:0:0:
96,251,81202,1,0,0:0:0:0:
122,258,81280,1,0,0:0:0:0:
149,266,81359,1,0,0:0:0:0:
175,273,81437,1,0,0:0:0:0:
222,231,81515,5,0,0:0:0:0:
246,244,81593,1,0,0:0:0:0:
270,257,81671,1,0,0:0:0:0:
294,270,81749,1,0,0:0:0:0:
318,283,81827,1,0,0:0:0:0:
342,296,81905,1,0,0:0:0:0:
404,271,81984,6,0,P|436:237|448:192,1,93.3333333333333
292,17,82296,2,0,P|260:51|248:96,1,93.3333333333333
489,302,82609,2,0,L|383:279,1,93.3333333333333
151,84,82921,2,0,L|242:103,1,93.3333333333333
489,24,83234,2,0,L|456:126,1,93.3333333333333
122,172,83546,2,0,L|150:83,1,93.3333333333333
470,266,83859,6,0,L|437:368,1,93.3333333333333
270,352,84171,1,0,0:0:0:0:
276,342,84249,1,0,0:0:0:0:
282,333,84327,1,0,0:0:0:0:
222,173,84484,2,0,P|214:218|224:263,1,93.3333333333333
425,109,84796,2,0,P|346:122|227:96,1,186.666666666667
31,15,85265,5,0,0:0:0:0:
28,28,85343,1,0,0:0:0:0:
25,41,85421,1,0,0:0:0:0:
78,131,85577,1,0,0:0:0:0:
242,102,85734,2,0,P|191:100|56:157,1,186.666666666667
185,355,86202,5,0,0:0:0:0:
181,341,86280,1,0,0:0:0:0:
177,327,86359,1,0,0:0:0:0:
96,280,86515,1,0,0:0:0:0:
358,236,86671,2,0,P|269:215|176:232,1,186.666666666667
26,45,87140,2,0,L|136:87,1,93.3333333333333
201,49,87452,1,0,0:0:0:0:
369,74,87609,5,0,0:0:0:0:
369,74,87687,1,0,0:0:0:0:
369,74,87765,1,0,0:0:0:0:
459,273,87921,6,0,L|471:173,1,93.3333333333333
381,282,88234,2,0,L|393:182,1,93.3333333333333
413,86,88546,6,0,L|401:178,1,93.3333333333333
490,77,88859,2,0,L|478:169,1,93.3333333333333
419,350,89171,2,0,L|431:250,1,93.3333333333333
50,285,89484,6,0,P|120:263|230:286,1,186.666666666667
349,205,89952,2,0,P|261:250|225:349,1,210
201,33,90421,2,0,P|230:122|212:218,1,186.666666666667
294,351,90890,5,0,0:0:0:0:
289,337,90968,1,0,0:0:0:0:
284,323,91046,1,0,0:0:0:0:
301,229,91202,1,0,0:0:0:0:
377,308,91359,5,0,0:0:0:0:
372,294,91437,1,0,0:0:0:0:
367,280,91515,1,0,0:0:0:0:
384,186,91671,1,0,0:0:0:0:
460,265,91827,5,0,0:0:0:0:
455,251,91905,1,0,0:0:0:0:
450,237,91983,1,0,0:0:0:0:
467,143,92139,1,0,0:0:0:0:
441,25,92296,5,0,0:0:0:0:
371,98,92452,1,0,0:0:0:0:
271,108,92608,1,0,0:0:0:0:
171,82,92764,1,0,0:0:0:0:
71,94,92921,1,0,0:0:0:0:
3,168,93077,1,0,0:0:0:0:
35,271,93234,6,0,P|127:263|214:295,1,186.666666666667
416,259,93702,2,0,P|317:268|226:210,1,210
200,362,94171,2,0,L|232:178,1,186.666666666667
85,33,94640,5,0,0:0:0:0:
81,46,94718,1,0,0:0:0:0:
77,59,94796,1,0,0:0:0:0:
49,147,94952,1,0,0:0:0:0:
169,65,95109,5,0,0:0:0:0:
165,78,95187,1,0,0:0:0:0:
161,91,95265,1,0,0:0:0:0:
133,179,95421,1,0,0:0:0:0:
253,97,95577,5,0,0:0:0:0:
249,110,95655,1,0,0:0:0:0:
245,123,95733,1,0,0:0:0:0:
217,211,95889,1,0,0:0:0:0:
76,335,96046,5,0,0:3:0:0:
170,300,96202,1,0,0:3:0:0:
217,211,96358,1,0,0:3:0:0:
317,231,96514,1,0,0:3:0:0:
365,141,96670,1,0,0:3:0:0:
458,103,96827,1,0,0:3:0:0:
380,40,96984,5,2,0:0:0:0:
456,101,104484,6,0,L|451:157,1,46.6666666666667
390,124,104640,2,0,L|385:180,1,46.6666666666667
324,68,104796,2,0,L|319:124,1,46.6666666666667
258,91,104952,2,0,L|253:147,1,46.6666666666667
195,169,105109,1,0,0:0:0:0:
199,191,105187,1,0,0:0:0:0:
204,213,105265,2,0,L|214:263,1,46.6666666666667
357,252,105421,5,0,0:0:0:0:
334,268,105499,1,0,0:0:0:0:
311,284,105577,1,0,0:0:0:0:
288,300,105655,1,0,0:0:0:0:
264,316,105734,1,0,0:0:0:0:
241,332,105812,1,0,0:0:0:0:
181,312,105890,5,0,0:0:0:0:
160,317,105968,1,0,0:0:0:0:
139,322,106046,1,0,0:0:0:0:
119,328,106124,1,0,0:0:0:0:
97,333,106203,1,0,0:0:0:0:
76,339,106281,1,0,0:0:0:0:
26,292,106359,6,0,L|1:239,2,46.6666666666667
91,138,106671,2,0,L|76:90,2,46.6666666666667
253,81,106984,2,0,L|253:18,2,46.6666666666667
463,66,107296,5,0,0:0:0:0:
442,85,107374,1,0,0:0:0:0:
421,104,107452,1,0,0:0:0:0:
401,123,107530,1,0,0:0:0:0:
381,143,107609,1,0,0:0:0:0:
361,163,107687,1,0,0:0:0:0:
343,184,107765,5,0,0:0:0:0:
427,205,107921,1,0,0:0:0:0:
368,59,108077,1,0,0:0:0:0:
355,277,108234,2,0,L|298:242,1,46.6666666666667
267,297,108390,2,0,L|238:255,1,46.6666666666667
177,271,108546,2,0,L|166:220,1,46.6666666666667
102,224,108702,2,0,L|109:172,1,46.6666666666667
19,21,108859,5,0,0:0:0:0:
23,43,108937,1,0,0:0:0:0:
28,65,109015,2,0,L|38:115,1,46.6666666666667
138,60,109171,5,0,0:0:0:0:
163,72,109249,1,0,0:0:0:0:
187,84,109327,1,0,0:0:0:0:
211,96,109405,1,0,0:0:0:0:
236,108,109484,1,0,0:0:0:0:
260,120,109562,1,0,0:0:0:0:
321,101,109640,5,0,0:0:0:0:
328,118,109718,1,0,0:0:0:0:
334,136,109797,1,0,0:0:0:0:
340,153,109875,1,0,0:0:0:0:
346,170,109953,1,0,0:0:0:0:
353,187,110031,1,0,0:0:0:0:
413,209,110109,6,0,L|426:259,2,46.6666666666667
214,238,110421,2,0,L|254:282,2,46.6666666666667
51,325,110734,2,0,L|115:323,2,46.6666666666667
58,166,111046,6,0,L|24:211,1,46.6666666666667
78,99,111202,2,0,L|22:109,1,46.6666666666667
124,39,111359,2,0,L|59:30,1,46.6666666666667
204,23,111515,5,0,0:0:0:0:
140,188,111671,1,0,0:0:0:0:
354,75,111827,1,0,0:0:0:0:
78,99,111984,5,0,0:0:0:0:
223,49,112140,1,0,0:0:0:0:
193,199,112296,1,0,0:0:0:0:
136,32,112452,1,0,0:0:0:0:
252,132,112609,1,0,0:0:0:0:
106,182,112765,1,0,0:0:0:0:
222,282,112921,5,0,0:0:0:0:
368,232,113077,1,0,0:0:0:0:
252,132,113234,1,0,0:0:0:0:
309,299,113390,1,0,0:0:0:0:
339,149,113546,1,0,0:0:0:0:
194,199,113702,1,0,0:0:0:0:
309,299,113859,5,0,0:0:0:0:
389,314,114015,1,0,0:0:0:0:
336,375,114171,1,0,0:0:0:0:
339,149,114327,5,0,0:0:0:0:
311,72,114483,1,0,0:0:0:0:
391,87,114639,1,0,0:0:0:0:
194,198,114796,5,0,0:0:0:0:
141,259,114952,1,0,0:0:0:0:
114,183,115108,1,0,0:0:0:0:
309,299,115265,5,0,0:0:0:0:
389,314,115421,1,0,0:0:0:0:
336,375,115577,1,0,0:0:0:0:
429,62,115734,6,0,L|443:107,1,46.6666666666667
383,143,115890,2,0,L|416:183,1,46.6666666666667
359,224,116046,2,0,L|406:250,1,46.6666666666667
478,308,116202,5,0,0:0:0:0:
452,305,116280,1,0,0:0:0:0:
426,308,116358,1,0,0:0:0:0:
402,316,116436,1,0,0:0:0:0:
380,331,116514,1,0,0:0:0:0:
362,350,116592,1,0,0:0:0:0:
310,383,116671,5,0,0:0:0:0:
296,352,116749,1,0,0:0:0:0:
277,325,116827,1,0,0:0:0:0:
251,304,116905,1,0,0:0:0:0:
221,289,116983,1,0,0:0:0:0:
189,281,117061,1,0,0:0:0:0:
134,255,117140,5,0,0:0:0:0:
149,233,117218,1,0,0:0:0:0:
160,209,117296,1,0,0:0:0:0:
165,185,117374,1,0,0:0:0:0:
163,158,117452,1,0,0:0:0:0:
155,133,117530,1,0,0:0:0:0:
145,67,117609,6,0,L|119:17,1,46.6666666666667
222,89,117765,2,0,L|206:37,1,46.6666666666667
293,121,117921,2,0,L|286:68,1,46.6666666666667
337,31,118077,5,0,0:0:0:0:
349,44,118155,1,0,0:0:0:0:
361,57,118234,1,0,0:0:0:0:
373,70,118312,1,0,0:0:0:0:
385,83,118390,1,0,0:0:0:0:
397,97,118468,1,0,0:0:0:0:
456,92,118546,5,0,0:0:0:0:
437,112,118624,1,0,0:0:0:0:
418,132,118703,1,0,0:0:0:0:
399,152,118781,1,0,0:0:0:0:
381,172,118859,1,0,0:0:0:0:
362,194,118937,1,0,0:0:0:0:
302,208,119015,5,0,0:0:0:0:
314,221,119093,1,0,0:0:0:0:
326,234,119172,1,0,0:0:0:0:
338,247,119250,1,0,0:0:0:0:
350,260,119328,1,0,0:0:0:0:
362,274,119406,1,0,0:0:0:0:
367,337,119484,6,0,L|268:337,1,93.3333333333333
102,224,119796,2,0,L|203:223,1,93.3333333333333
297,128,120109,1,0,0:0:0:0:
297,128,120187,1,0,0:0:0:0:
297,128,120265,1,0,0:0:0:0:
53,47,120421,5,0,0:0:0:0:
70,64,120499,1,0,0:0:0:0:
91,78,120577,1,0,0:0:0:0:
114,88,120655,1,0,0:0:0:0:
139,94,120733,1,0,0:0:0:0:
164,95,120811,1,0,0:0:0:0:
215,58,120890,5,0,0:0:0:0:
251,59,120968,1,0,0:0:0:0:
288,68,121046,1,0,0:0:0:0:
321,82,121124,1,0,0:0:0:0:
352,103,121202,1,0,0:0:0:0:
377,128,121280,1,0,0:0:0:0:
441,119,121359,6,0,L|479:29,1,93.3333333333333
314,219,121671,2,0,L|276:129,1,93.3333333333333
460,314,121984,1,0,0:0:0:0:
460,314,122062,1,0,0:0:0:0:
460,314,122140,1,0,0:0:0:0:
268,337,122296,5,0,0:0:0:0:
251,320,122374,1,0,0:0:0:0:
230,306,122452,1,0,0:0:0:0:
207,296,122530,1,0,0:0:0:0:
182,290,122608,1,0,0:0:0:0:
157,289,122686,1,0,0:0:0:0:
95,275,122765,5,0,0:0:0:0:
112,243,122843,1,0,0:0:0:0:
122,206,122921,1,0,0:0:0:0:
127,171,122999,1,0,0:0:0:0:
124,133,123077,1,0,0:0:0:0:
115,99,123155,1,0,0:0:0:0:
128,37,123234,6,0,P|189:30|240:46,1,93.3333333333333
344,101,123546,2,0,P|283:108|232:92,1,93.3333333333333
94,122,123859,6,0,P|155:115|206:131,1,93.3333333333333
357,196,124171,2,0,P|296:203|245:187,1,93.3333333333333
52,224,124484,6,0,P|113:217|164:233,1,93.3333333333333
355,321,124796,2,0,P|294:328|243:312,1,93.3333333333333
82,144,125109,6,0,P|72:102|81:53,1,93.3333333333333
351,39,125421,2,0,P|361:81|352:130,1,93.3333333333333
112,293,125734,6,0,P|102:251|111:202,1,93.3333333333333
415,157,126046,2,0,P|425:199|416:248,1,93.3333333333333
110,129,126359,6,0,P|100:87|109:38,1,93.3333333333333
452,7,126671,2,0,P|462:49|453:98,1,93.3333333333333
60,344,126984,5,0,0:0:0:0:
161,337,127140,1,0,0:0:0:0:
82,266,127296,5,0,0:0:0:0:
194,266,127452,1,0,0:0:0:0:
108,193,127609,5,0,0:0:0:0:
231,187,127765,1,0,0:0:0:0:
132,114,127921,5,0,0:0:0:0:
266,102,128077,1,0,0:0:0:0:
155,33,128234,5,0,0:0:0:0:
286,16,128390,1,0,0:0:0:0:
418,65,128546,5,0,0:0:0:0:
263,90,128702,1,0,0:0:0:0:
416,151,128859,5,0,0:0:0:0:
251,180,129015,1,0,0:0:0:0:
410,235,129171,5,0,0:0:0:0:
234,264,129327,1,0,0:0:0:0:
408,316,129484,5,0,0:0:0:0:
220,340,129640,1,0,0:0:0:0:
295,149,129796,1,0,0:0:0:0:
451,344,130734,5,0,0:0:0:0:
351,337,130890,1,0,0:0:0:0:
429,266,131046,5,0,0:0:0:0:
317,266,131202,1,0,0:0:0:0:
403,193,131359,5,0,0:0:0:0:
280,187,131515,1,0,0:0:0:0:
379,114,131671,5,0,0:0:0:0:
245,102,131827,1,0,0:0:0:0:
356,33,131984,5,0,0:0:0:0:
225,16,132140,1,0,0:0:0:0:
94,65,132296,5,0,0:0:0:0:
249,90,132452,1,0,0:0:0:0:
95,151,132609,5,0,0:0:0:0:
260,180,132765,1,0,0:0:0:0:
101,235,132921,5,0,0:0:0:0:
277,264,133077,1,0,0:0:0:0:
103,316,133234,5,0,0:0:0:0:
291,340,133390,1,0,0:0:0:0:
217,149,133546,1,0,0:0:0:0:
456,43,134484,6,0,L|406:43,3,46.6666666666667
456,43,135421,6,0,L|406:43,3,46.6666666666667
512,192,136359,6,0,L|462:192,23,46.6666666666667
452,192,138234,5,0,0:0:0:0:
438,192,138312,1,0,0:0:0:0:
427,192,138390,1,0,0:0:0:0:
414,192,138468,1,0,0:0:0:0:
403,192,138546,1,0,0:0:0:0:
389,192,138624,1,0,0:0:0:0:
378,192,138702,1,0,0:0:0:0:
365,192,138780,1,0,0:0:0:0:
354,192,138859,1,0,0:0:0:0:
340,192,138937,1,0,0:0:0:0:
329,192,139015,1,0,0:0:0:0:
316,192,139093,1,0,0:0:0:0:
305,192,139171,5,0,0:0:0:0:
293,192,139249,1,0,0:0:0:0:
280,192,139327,1,0,0:0:0:0:
269,192,139405,1,0,0:0:0:0:
256,192,139484,1,0,0:0:0:0:
244,192,139562,1,0,0:0:0:0:
231,192,139640,1,0,0:0:0:0:
220,192,139718,1,0,0:0:0:0:
207,192,139796,1,0,0:0:0:0:
196,192,139874,1,0,0:0:0:0:
182,192,139952,1,0,0:0:0:0:
171,192,140030,1,0,0:0:0:0:
152,192,140109,5,0,0:0:0:0:
147,192,140187,1,0,0:0:0:0:
142,192,140265,1,0,0:0:0:0:
137,192,140343,1,0,0:0:0:0:
132,192,140421,1,0,0:0:0:0:
127,192,140499,1,0,0:0:0:0:
105,193,140577,5,0,0:0:0:0:
100,193,140655,1,0,0:0:0:0:
95,193,140733,1,0,0:0:0:0:
90,193,140811,1,0,0:0:0:0:
85,193,140889,1,0,0:0:0:0:
80,193,140967,1,0,0:0:0:0:
57,192,141046,6,0,P|43:148|42:102,1,93.3333333333333
144,24,141359,2,0,P|190:33|231:56,1,93.3333333333333
247,182,141681,2,0,P|215:216|175:241,1,93.3333333333333
462,302,142015,6,0,P|369:297|273:303,1,186.666666666667
69,245,142483,2,0,P|211:221|285:179,1,210
160,324,142952,2,0,P|131:228|145:143,1,186.666666666667
390,55,143421,2,0,P|269:66|202:53,1,186.666666666667
27,17,143890,6,0,L|52:119,1,93.3333333333333
83,104,144124,2,0,L|67:173,1,46.6666666666667
146,335,144358,2,0,P|172:223|164:142,1,186.666666666667
429,42,144827,2,0,P|270:54|234:44,1,186.666666666667
18,150,145296,5,0,0:0:0:0:
109,165,145452,1,0,0:0:0:0:
200,180,145608,1,0,0:0:0:0:
279,329,145765,6,0,P|285:236|329:155,1,186.666666666667
456,108,146233,2,0,P|368:146|255:142,1,210
374,47,146702,2,0,L|388:234,1,186.666666666667
240,77,147171,2,0,L|289:267,1,186.666666666667
155,347,147640,5,0,0:0:0:0:
163,254,147796,1,0,0:0:0:0:
169,161,147952,1,0,0:0:0:0:
48,205,148108,5,0,0:0:0:0:
96,146,148264,1,0,0:0:0:0:
145,87,148420,1,0,0:0:0:0:
17,97,148577,5,0,0:0:0:0:
96,146,148733,1,0,0:0:0:0:
176,194,148889,1,0,0:0:0:0:
201,303,149045,5,0,0:0:0:0:
176,194,149201,1,0,0:0:0:0:
149,83,149357,1,0,0:0:0:0:
294,25,149515,6,0,P|281:70|296:125,1,93.3333333333333
419,283,149827,2,0,P|431:238|417:183,1,93.3333333333333
478,56,150140,1,0,0:0:0:0:
464,60,150218,1,0,0:0:0:0:
450,64,150296,1,0,0:0:0:0:
214,182,150452,1,0,0:0:0:0:
237,181,150530,1,0,0:0:0:0:
259,184,150608,1,0,0:0:0:0:
281,192,150686,1,0,0:0:0:0:
301,205,150764,1,0,0:0:0:0:
318,220,150842,1,0,0:0:0:0:
375,191,150921,5,0,0:0:0:0:
387,210,150999,1,0,0:0:0:0:
395,230,151077,1,0,0:0:0:0:
399,254,151155,1,0,0:0:0:0:
398,277,151233,1,0,0:0:0:0:
394,300,151311,1,0,0:0:0:0:
351,348,151390,6,0,L|258:348,1,93.3333333333333
85,244,151702,2,0,L|178:244,1,93.3333333333333
348,149,152015,1,0,0:0:0:0:
353,136,152093,1,0,0:0:0:0:
358,123,152171,1,0,0:0:0:0:
146,32,152327,1,0,0:0:0:0:
162,48,152405,1,0,0:0:0:0:
174,66,152483,1,0,0:0:0:0:
183,88,152561,1,0,0:0:0:0:
187,112,152639,1,0,0:0:0:0:
187,134,152717,1,0,0:0:0:0:
247,157,152796,5,0,0:0:0:0:
240,179,152874,1,0,0:0:0:0:
231,198,152952,1,0,0:0:0:0:
216,217,153030,1,0,0:0:0:0:
198,232,153108,1,0,0:0:0:0:
178,244,153186,1,0,0:0:0:0:
116,313,153265,6,0,L|214:337,1,93.3333333333333
444,244,153577,2,0,L|353:266,1,93.3333333333333
138,183,153890,1,0,0:0:0:0:
124,181,153968,1,0,0:0:0:0:
110,179,154046,1,0,0:0:0:0:
345,59,154202,5,0,0:0:0:0:
322,63,154280,1,0,0:0:0:0:
299,66,154358,1,0,0:0:0:0:
276,69,154436,1,0,0:0:0:0:
253,72,154514,1,0,0:0:0:0:
230,76,154592,1,0,0:0:0:0:
179,113,154671,5,0,0:0:0:0:
156,109,154749,1,0,0:0:0:0:
133,106,154827,1,0,0:0:0:0:
110,103,154905,1,0,0:0:0:0:
87,99,154983,1,0,0:0:0:0:
64,96,155061,1,0,0:0:0:0:
6,134,155140,6,0,L|40:223,1,93.3333333333333
249,318,155452,2,0,L|215:229,1,93.3333333333333
21,287,155765,1,0,0:0:0:0:
245,166,155921,1,0,0:0:0:0:
6,22,156077,1,0,0:0:0:0:
475,152,157015,6,0,P|369:136|278:156,1,186.666666666667
154,20,157483,2,0,P|195:117|205:221,1,210
85,80,157952,2,0,L|275:80,1,186.666666666667
23,205,158421,2,0,L|203:148,1,186.666666666667
183,344,158890,6,0,L|224:261,1,93.3333333333333
263,277,159124,2,0,L|267:223,1,46.6666666666667
438,102,159358,2,0,P|369:88|249:105,1,186.666666666667
73,196,159827,2,0,P|164:209|256:194,1,186.666666666667
431,325,160296,5,0,0:0:0:0:
404,235,160452,1,0,0:0:0:0:
376,145,160608,1,0,0:0:0:0:
499,55,160765,6,0,P|399:55|302:61,1,186.666666666667
119,45,161233,2,0,P|164:97|165:237,1,210
313,142,161702,2,0,L|256:322,1,186.666666666667
431,131,162171,2,0,L|334:293,1,186.666666666667
111,106,162640,5,0,0:0:0:0:
189,134,162796,1,0,0:0:0:0:
268,162,162952,1,0,0:0:0:0:
390,146,163108,5,0,0:0:0:0:
336,192,163264,1,0,0:0:0:0:
282,238,163420,1,0,0:0:0:0:
115,276,163577,5,0,0:0:0:0:
198,293,163733,1,0,0:0:0:0:
281,309,163890,1,0,0:0:0:0:
381,120,164046,5,0,0:0:0:0:
273,176,164202,1,0,0:0:0:0:
165,231,164358,1,0,0:0:0:0:
103,34,164515,6,0,P|90:79|106:122,1,93.3333333333333
276,263,164827,6,0,P|288:218|272:175,1,93.3333333333333
73,232,165140,1,0,0:0:0:0:
71,243,165218,1,0,0:0:0:0:
69,254,165296,1,0,0:0:0:0:
216,342,165452,6,0,L|271:335,1,46.6666666666667
314,268,165608,2,0,L|267:273,1,46.6666666666667
202,217,165765,2,0,L|248:211,1,46.6666666666667
237,126,165921,1,0,0:0:0:0:
223,128,165999,1,0,0:0:0:0:
209,130,166077,1,0,0:0:0:0:
195,132,166155,1,0,0:0:0:0:
181,134,166233,1,0,0:0:0:0:
167,136,166311,1,0,0:0:0:0:
97,143,166390,6,0,P|84:99|96:52,1,93.3333333333333
276,209,166702,2,0,P|289:253|278:298,1,93.3333333333333
153,263,167015,6,0,L|116:234,1,46.6666666666667
97,143,167171,2,0,L|134:172,1,46.6666666666667
201,170,167327,5,0,0:0:0:0:
214,153,167405,1,0,0:0:0:0:
227,137,167483,1,0,0:0:0:0:
240,120,167561,1,0,0:0:0:0:
253,104,167639,1,0,0:0:0:0:
266,88,167717,1,0,0:0:0:0:
265,24,167796,5,0,0:0:0:0:
296,28,167874,1,0,0:0:0:0:
327,33,167952,1,0,0:0:0:0:
358,37,168030,1,0,0:0:0:0:
389,42,168108,1,0,0:0:0:0:
420,46,168186,1,0,0:0:0:0:
501,15,168265,6,0,L|481:110,1,93.3333333333333
274,117,168577,2,0,L|293:208,1,93.3333333333333
485,286,168890,1,0,0:0:0:0:
483,272,168968,1,0,0:0:0:0:
481,258,169046,1,0,0:0:0:0:
277,328,169202,6,0,L|289:274,2,46.6666666666667
193,274,169515,1,0,0:0:0:0:
104,267,169671,6,0,L|89:209,2,46.6666666666667
193,192,169983,1,0,0:0:0:0:
278,155,170140,6,0,L|288:109,2,46.6666666666667
194,101,170453,1,0,0:0:0:0:
105,94,170609,6,0,L|93:48,2,46.6666666666667
195,19,170921,1,0,0:0:0:0:
317,46,171077,6,0,L|368:37,2,46.6666666666667
364,108,171390,2,0,L|414:96,2,46.6666666666667
415,168,171702,2,0,L|466:159,2,46.6666666666667
415,344,172015,6,0,L|456:308,3,46.6666666666667
376,286,172327,2,0,L|412:250,3,46.6666666666667
329,236,172640,2,0,L|368:189,3,46.6666666666667
275,193,172952,2,0,L|305:148,3,46.6666666666667
215,159,173265,2,0,L|244:102,3,46.6666666666667
150,135,173577,2,0,L|172:88,3,46.6666666666667
102,68,173890,6,0,L|120:20,3,46.6666666666667
173,87,174202,2,0,L|192:44,3,46.6666666666667
237,111,174515,2,0,L|257:69,3,46.6666666666667
296,144,174827,2,0,L|321:104,3,46.6666666666667
350,187,175139,2,0,L|379:150,3,46.6666666666667
397,238,175452,2,0,L|429:204,3,46.6666666666667
446,307,175765,6,0,L|428:362,1,46.6666666666667
376,307,175921,2,0,L|358:362,1,46.6666666666667
306,307,176077,2,0,L|288:362,1,46.6666666666667
236,307,176233,2,0,L|218:362,1,46.6666666666667
166,307,176389,2,0,L|148:362,1,46.6666666666667
96,307,176546,2,0,L|78:362,1,46.6666666666667
62,242,176702,6,0,L|80:187,1,46.6666666666667
132,242,176858,2,0,L|150:187,1,46.6666666666667
202,242,177014,2,0,L|220:187,1,46.6666666666667
272,242,177170,2,0,L|290:187,1,46.6666666666667
342,242,177326,2,0,L|360:187,1,46.6666666666667
412,242,177483,2,0,L|430:187,1,46.6666666666667
462,139,177640,6,0,L|444:84,1,46.6666666666667
392,139,177796,2,0,L|374:84,1,46.6666666666667
322,139,177952,2,0,L|304:84,1,46.6666666666667
252,139,178108,2,0,L|234:84,1,46.6666666666667
182,139,178264,2,0,L|164:84,1,46.6666666666667
112,139,178421,2,0,L|94:84,1,46.6666666666667
41,132,178577,5,0,0:0:0:0:
482,192,179046,1,0,0:0:0:0:
64,343,179515,6,0,L|7:343,2,46.6666666666667
118,292,179827,1,0,0:0:0:0:
85,225,179983,1,0,0:0:0:0:
152,192,180140,1,0,0:0:0:0:
185,259,180296,1,0,0:0:0:0:
236,313,180452,6,0,L|236:370,2,46.6666666666667
185,259,180764,1,0,0:0:0:0:
118,292,180920,1,0,0:0:0:0:
85,225,181077,1,0,0:0:0:0:
152,192,181233,1,0,0:0:0:0:
206,141,181390,6,0,L|263:141,2,46.6666666666667
152,192,181702,1,0,0:0:0:0:
185,259,181858,1,0,0:0:0:0:
118,292,182015,1,0,0:0:0:0:
85,225,182171,1,0,0:0:0:0:
34,171,182327,6,0,L|34:114,2,46.6666666666667
85,225,182639,1,0,0:0:0:0:
152,192,182795,1,0,0:0:0:0:
185,259,182952,1,0,0:0:0:0:
118,292,183108,1,0,0:0:0:0:
230,190,183265,6,0,L|248:127,2,46.6666666666667
285,239,183577,1,0,0:0:0:0:
354,211,183733,1,0,0:0:0:0:
428,215,183890,1,0,0:0:0:0:
495,245,184046,1,0,0:0:0:0:
492,159,184202,5,0,0:0:0:0:
448,99,184358,1,0,0:0:0:0:
386,59,184515,1,0,0:0:0:0:
313,48,184671,1,0,0:0:0:0:
240,67,184827,1,0,0:0:0:0:
186,118,184983,1,0,0:0:0:0:
79,113,185140,5,0,0:0:0:0:
126,234,185296,1,0,0:0:0:0:
186,118,185452,1,0,0:0:0:0:
233,239,185608,1,0,0:0:0:0:
293,123,185765,1,0,0:0:0:0:
340,244,185921,1,0,0:0:0:0:
510,37,186077,5,0,0:0:0:0:
463,158,186233,1,0,0:0:0:0:
403,42,186389,1,0,0:0:0:0:
356,163,186545,1,0,0:0:0:0:
296,47,186702,1,0,0:0:0:0:
249,168,186858,1,0,0:0:0:0:
153,80,187015,5,0,0:0:0:0:
256,192,187483,5,0,0:0:0:0:
256,192,187835,1,0,0:0:0:0:
256,192,187952,1,0,0:0:0:0:
256,192,188421,1,0,0:0:0:0:
256,192,188890,5,0,0:0:0:0:
256,192,189827,1,0,0:0:0:0:
256,192,190765,5,0,0:0:0:0:
256,192,191233,6,0,B|264:147|300:143|341:143|374:155|386:212|382:302|304:359|219:355|141:342|76:269|60:175|68:86|133:28|207:-3|268:-3|325:-3|382:-3|443:45|476:118|463:208|451:232|451:232,1,980,0|4,0:0|0:2,0:0:0:0:
