osu file format v14

[General]
AudioFilename: audio.mp3
AudioLeadIn: 0
PreviewTime: 142015
Countdown: 0
SampleSet: Soft
StackLeniency: 0.7
Mode: 0
LetterboxInBreaks: 0
WidescreenStoryboard: 1

[Editor]
Bookmarks: 29484,43546,44484,46359,53859,55734,58077,63312,69796,74484,80265,104484,111984,133546,140109,141359,173890
DistanceSpacing: 1
BeatDivisor: 6
GridSize: 4
TimelineZoom: 1.1

[Metadata]
Title:Op 25 no 11
TitleUnicode:Op 25 no 11
Artist:Frederic Francois Chopin
ArtistUnicode:Frédéric François Chopin
Creator:Louis Cyphre
Version:Normal
Source:
Tags:
BeatmapID:1146305
BeatmapSetID:529007

[Difficulty]
HPDrainRate:4.3
CircleSize:3.8
OverallDifficulty:4.3
ApproachRate:5
SliderMultiplier:1.4
SliderTickRate:1

[Events]
//Background and Video events
0,0,"wallpaper-16932771.png",0,0
//Break Periods
//Storyboard Layer 0 (Background)
//Storyboard Layer 1 (Fail)
//Storyboard Layer 2 (Pass)
//Storyboard Layer 3 (Foreground)
//Storyboard Layer 4 (Overlay)
//Storyboard Sound Samples
Sample,21984,0,"E4.wav",70

[TimingPoints]
17,1250,4,2,1,20,1,0
16267,1428.57142857143,4,2,1,15,1,0
19127,2857.14285714286,4,2,1,10,1,0
21954,652.173913043478,4,2,1,10,1,0
21984,468.75,4,2,1,36,1,0
22062,-100,4,2,1,50,0,0
25734,-100,4,2,1,36,0,0
25773,-100,4,2,1,40,0,0
26202,-100,4,2,1,37,0,0
26671,-100,4,2,1,34,0,0
27140,-100,4,2,1,31,0,0
27609,-100,4,2,1,28,0,0
28077,-100,4,2,1,25,0,0
28546,-100,4,2,1,22,0,0
29015,-100,4,2,1,19,0,0
29484,-100,4,2,1,36,0,0
29562,-100,4,2,1,22,0,0
29640,-100,4,2,1,24,0,0
29718,-100,4,2,1,26,0,0
29796,-100,4,2,1,28,0,0
29874,-100,4,2,1,30,0,0
29952,-100,4,2,1,32,0,0
30030,-100,4,2,1,34,0,0
30109,-100,4,2,1,36,0,0
30187,-100,4,2,1,38,0,0
30265,-100,4,2,1,40,0,0
30343,-100,4,2,1,42,0,0
30421,-100,4,2,1,44,0,0
30499,-100,4,2,1,42,0,0
30577,-100,4,2,1,40,0,0
30655,-100,4,2,1,38,0,0
30734,-100,4,2,1,36,0,0
30812,-100,4,2,1,34,0,0
30890,-100,4,2,1,32,0,0
30968,-100,4,2,1,30,0,0
31046,-100,4,2,1,28,0,0
31124,-100,4,2,1,26,0,0
31202,-100,4,2,1,24,0,0
31280,-100,4,2,1,22,0,0
31359,-100,4,2,1,20,0,0
31437,-100,4,2,1,22,0,0
31515,-100,4,2,1,24,0,0
31593,-100,4,2,1,26,0,0
31671,-100,4,2,1,28,0,0
31749,-100,4,2,1,30,0,0
31827,-100,4,2,1,32,0,0
31905,-100,4,2,1,34,0,0
31984,-100,4,2,1,36,0,0
32062,-100,4,2,1,38,0,0
32140,-100,4,2,1,40,0,0
32218,-100,4,2,1,42,0,0
32296,-100,4,2,1,44,0,0
32374,-100,4,2,1,42,0,0
32452,-100,4,2,1,40,0,0
32530,-100,4,2,1,38,0,0
32609,-100,4,2,1,36,0,0
32687,-100,4,2,1,34,0,0
32765,-100,4,2,1,35,0,0
32843,-100,4,2,1,30,0,0
32921,-100,4,2,1,28,0,0
32999,-100,4,2,1,26,0,0
33077,-100,4,2,1,24,0,0
33155,-100,4,2,1,22,0,0
33234,-100,4,2,1,35,0,0
33312,-100,4,2,1,23,0,0
33390,-100,4,2,1,26,0,0
33468,-100,4,2,1,29,0,0
33546,-100,4,2,1,32,0,0
33624,-100,4,2,1,35,0,0
33702,-100,4,2,1,38,0,0
33780,-100,4,2,1,41,0,0
33859,-100,4,2,1,44,0,0
33937,-100,4,2,1,47,0,0
34015,-100,4,2,1,50,0,0
34093,-100,4,2,1,53,0,0
34171,-100,4,2,1,56,0,0
34249,-100,4,2,1,53,0,0
34327,-100,4,2,1,50,0,0
34405,-100,4,2,1,47,0,0
34484,-100,4,2,1,44,0,0
34562,-100,4,2,1,41,0,0
34640,-100,4,2,1,32,0,0
34718,-100,4,2,1,35,0,0
34796,-100,4,2,1,32,0,0
34874,-100,4,2,1,29,0,0
34952,-100,4,2,1,26,0,0
35030,-100,4,2,1,23,0,0
35109,-100,4,2,1,36,0,0
35187,-100,4,2,1,24,0,0
35265,-100,4,2,1,28,0,0
35343,-100,4,2,1,32,0,0
35421,-100,4,2,1,36,0,0
35499,-100,4,2,1,40,0,0
35577,-100,4,2,1,44,0,0
35655,-100,4,2,1,48,0,0
35734,-100,4,2,1,52,0,0
35812,-100,4,2,1,56,0,0
35890,-100,4,2,1,60,0,0
35968,-100,4,2,1,64,0,0
36046,-100,4,2,1,68,0,0
36984,-100,4,2,1,36,0,0
37023,-100,4,2,1,50,0,0
40734,-100,4,2,1,36,0,0
40773,-100,4,2,1,40,0,0
41202,-100,4,2,1,37,0,0
41671,-100,4,2,1,34,0,0
42140,-100,4,2,1,31,0,0
42609,-100,4,2,1,28,0,0
43077,-100,4,2,1,25,0,0
43546,-100,4,2,1,22,0,0
44015,-100,4,2,1,19,0,0
44484,-100,4,2,1,36,0,0
44562,-100,4,2,1,22,0,0
44640,-100,4,2,1,24,0,0
44718,-100,4,2,1,26,0,0
44796,-100,4,2,1,28,0,0
44874,-100,4,2,1,30,0,0
44952,-100,4,2,1,32,0,0
45030,-100,4,2,1,34,0,0
45109,-100,4,2,1,36,0,0
45187,-100,4,2,1,38,0,0
45265,-100,4,2,1,40,0,0
45343,-100,4,2,1,42,0,0
45421,-100,4,2,1,30,0,0
45499,-100,4,2,1,42,0,0
45577,-100,4,2,1,40,0,0
45655,-100,4,2,1,38,0,0
45734,-100,4,2,1,36,0,0
45812,-100,4,2,1,34,0,0
45890,-100,4,2,1,36,0,0
45968,-100,4,2,1,30,0,0
46046,-100,4,2,1,28,0,0
46124,-100,4,2,1,26,0,0
46202,-100,4,2,1,24,0,0
46280,-100,4,2,1,22,0,0
46359,-100,4,2,1,36,0,0
46437,-100,4,2,1,22,0,0
46515,-100,4,2,1,24,0,0
46593,-100,4,2,1,26,0,0
46668,-100,4,2,1,28,0,0
46749,-100,4,2,1,30,0,0
46827,-100,4,2,1,32,0,0
46905,-100,4,2,1,34,0,0
46984,-100,4,2,1,36,0,0
47062,-100,4,2,1,38,0,0
47140,-100,4,2,1,40,0,0
47218,-100,4,2,1,42,0,0
47296,-100,4,2,1,44,0,0
47374,-100,4,2,1,42,0,0
47452,-100,4,2,1,40,0,0
47530,-100,4,2,1,38,0,0
47609,-100,4,2,1,36,0,0
47687,-100,4,2,1,34,0,0
47765,-100,4,2,1,36,0,0
47843,-100,4,2,1,30,0,0
47921,-100,4,2,1,28,0,0
47999,-100,4,2,1,26,0,0
48077,-100,4,2,1,24,0,0
48155,-100,4,2,1,22,0,0
48234,-100,4,2,1,36,0,0
48312,-100,4,2,1,22,0,0
48390,-100,4,2,1,24,0,0
48468,-100,4,2,1,26,0,0
48546,-100,4,2,1,28,0,0
48624,-100,4,2,1,30,0,0
48702,-100,4,2,1,32,0,0
48780,-100,4,2,1,34,0,0
48859,-100,4,2,1,36,0,0
48937,-100,4,2,1,38,0,0
49015,-100,4,2,1,40,0,0
49093,-100,4,2,1,42,0,0
49171,-100,4,2,1,44,0,0
49249,-100,4,2,1,46,0,0
49327,-100,4,2,1,48,0,0
49405,-100,4,2,1,50,0,0
49484,-100,4,2,1,52,0,0
49562,-100,4,2,1,54,0,0
49640,-100,4,2,1,36,0,0
49718,-100,4,2,1,58,0,0
49796,-100,4,2,1,60,0,0
49874,-100,4,2,1,62,0,0
49952,-100,4,2,1,64,0,0
50030,-100,4,2,1,66,0,0
50109,-100,4,2,1,36,0,0
50421,-100,4,2,1,36,0,0
51984,-100,4,2,1,36,0,0
52062,-100,4,2,1,23,0,0
52140,-100,4,2,1,26,0,0
52218,-100,4,2,1,29,0,0
52296,-100,4,2,1,32,0,0
52374,-100,4,2,1,35,0,0
52452,-100,4,2,1,38,0,0
52530,-100,4,2,1,41,0,0
52609,-100,4,2,1,44,0,0
52687,-100,4,2,1,47,0,0
52765,-100,4,2,1,50,0,0
52843,-100,4,2,1,53,0,0
52921,-100,4,2,1,56,0,0
52999,-100,4,2,1,53,0,0
53077,-100,4,2,1,50,0,0
53155,-100,4,2,1,47,0,0
53234,-100,4,2,1,44,0,0
53312,-100,4,2,1,41,0,0
53390,-100,4,2,1,36,0,0
53468,-100,4,2,1,35,0,0
53546,-100,4,2,1,32,0,0
53624,-100,4,2,1,29,0,0
53702,-100,4,2,1,26,0,0
53780,-100,4,2,1,23,0,0
53859,-100,4,2,1,36,0,0
53937,-100,4,2,1,22,0,0
54015,-100,4,2,1,24,0,0
54093,-100,4,2,1,26,0,0
54171,-100,4,2,1,28,0,0
54249,-100,4,2,1,30,0,0
54327,-100,4,2,1,32,0,0
54405,-100,4,2,1,34,0,0
54484,-100,4,2,1,36,0,0
54562,-100,4,2,1,38,0,0
54640,-100,4,2,1,40,0,0
54718,-100,4,2,1,42,0,0
54796,-100,4,2,1,44,0,0
54874,-100,4,2,1,46,0,0
54952,-100,4,2,1,48,0,0
55030,-100,4,2,1,50,0,0
55109,-100,4,2,1,52,0,0
55187,-100,4,2,1,54,0,0
55265,-100,4,2,1,56,0,0
55343,-100,4,2,1,58,0,0
55421,-100,4,2,1,60,0,0
55499,-100,4,2,1,62,0,0
55577,-100,4,2,1,64,0,0
55655,-100,4,2,1,66,0,0
55734,-100,4,2,1,36,0,0
55773,-100,4,2,1,50,0,0
59484,-100,4,2,1,40,0,0
59523,-100,4,2,1,36,0,0
59952,-100,4,2,1,37,0,0
60421,-100,4,2,1,34,0,0
60890,-100,4,2,1,31,0,0
61359,-100,4,2,1,28,0,0
61827,-100,4,2,1,25,0,0
62296,-100,4,2,1,22,0,0
62765,-100,4,2,1,19,0,0
63234,-100,4,2,1,36,0,0
63312,-100,4,2,1,22,0,0
63390,-100,4,2,1,24,0,0
63468,-100,4,2,1,26,0,0
63546,-100,4,2,1,28,0,0
63624,-100,4,2,1,30,0,0
63702,-100,4,2,1,32,0,0
63780,-100,4,2,1,34,0,0
63859,-100,4,2,1,36,0,0
63937,-100,4,2,1,38,0,0
64015,-100,4,2,1,40,0,0
64093,-100,4,2,1,42,0,0
64171,-100,4,2,1,44,0,0
64249,-100,4,2,1,42,0,0
64327,-100,4,2,1,40,0,0
64405,-100,4,2,1,38,0,0
64484,-100,4,2,1,36,0,0
64562,-100,4,2,1,34,0,0
64640,-100,4,2,1,36,0,0
64718,-100,4,2,1,30,0,0
64796,-100,4,2,1,28,0,0
64874,-100,4,2,1,26,0,0
64952,-100,4,2,1,24,0,0
65030,-100,4,2,1,22,0,0
65109,-100,4,2,1,36,0,0
65187,-100,4,2,1,22,0,0
65265,-100,4,2,1,24,0,0
65343,-100,4,2,1,26,0,0
65421,-100,4,2,1,28,0,0
65499,-100,4,2,1,30,0,0
65577,-100,4,2,1,32,0,0
65655,-100,4,2,1,34,0,0
65734,-100,4,2,1,36,0,0
65812,-100,4,2,1,38,0,0
65890,-100,4,2,1,40,0,0
65968,-100,4,2,1,42,0,0
66046,-100,4,2,1,44,0,0
66124,-100,4,2,1,42,0,0
66202,-100,4,2,1,40,0,0
66280,-100,4,2,1,38,0,0
66359,-100,4,2,1,36,0,0
66437,-100,4,2,1,34,0,0
66515,-100,4,2,1,36,0,0
66593,-100,4,2,1,30,0,0
66671,-100,4,2,1,28,0,0
66749,-100,4,2,1,26,0,0
66827,-100,4,2,1,24,0,0
66905,-100,4,2,1,22,0,0
66984,-100,4,2,1,36,0,0
67062,-100,4,2,1,23,0,0
67140,-100,4,2,1,26,0,0
67218,-100,4,2,1,29,0,0
67296,-100,4,2,1,32,0,0
67374,-100,4,2,1,35,0,0
67452,-100,4,2,1,38,0,0
67530,-100,4,2,1,41,0,0
67609,-100,4,2,1,44,0,0
67687,-100,4,2,1,47,0,0
67765,-100,4,2,1,50,0,0
67843,-100,4,2,1,53,0,0
67921,-100,4,2,1,56,0,0
67999,-100,4,2,1,53,0,0
68077,-100,4,2,1,50,0,0
68155,-100,4,2,1,47,0,0
68234,-100,4,2,1,44,0,0
68312,-100,4,2,1,41,0,0
68390,-100,4,2,1,36,0,0
68468,-100,4,2,1,35,0,0
68546,-100,4,2,1,32,0,0
68624,-100,4,2,1,29,0,0
68702,-100,4,2,1,26,0,0
68780,-100,4,2,1,23,0,0
68859,-100,4,2,1,36,0,0
68937,-100,4,2,1,24,0,0
69015,-100,4,2,1,28,0,0
69093,-100,4,2,1,32,0,0
69171,-100,4,2,1,36,0,0
69249,-100,4,2,1,40,0,0
69327,-100,4,2,1,44,0,0
69405,-100,4,2,1,48,0,0
69484,-100,4,2,1,52,0,0
69562,-100,4,2,1,56,0,0
69640,-100,4,2,1,60,0,0
69718,-100,4,2,1,64,0,0
69796,-100,4,2,1,68,0,0
70734,-100,4,2,1,30,0,0
70773,-100,4,2,1,50,0,0
74484,-100,4,2,1,36,0,0
74523,-100,4,2,1,40,0,0
74952,-100,4,2,1,37,0,0
75421,-100,4,2,1,34,0,0
75890,-100,4,2,1,31,0,0
76359,-100,4,2,1,28,0,0
76827,-100,4,2,1,25,0,0
77296,-100,4,2,1,21,0,0
77765,-100,4,2,1,18,0,0
78234,-100,4,2,1,36,0,0
78312,-100,4,2,1,22,0,0
78390,-100,4,2,1,24,0,0
78468,-100,4,2,1,26,0,0
78546,-100,4,2,1,28,0,0
78624,-100,4,2,1,30,0,0
78702,-100,4,2,1,32,0,0
78780,-100,4,2,1,34,0,0
78859,-100,4,2,1,36,0,0
78937,-100,4,2,1,38,0,0
79015,-100,4,2,1,40,0,0
79093,-100,4,2,1,42,0,0
79171,-100,4,2,1,44,0,0
79249,-100,4,2,1,42,0,0
79327,-100,4,2,1,40,0,0
79405,-100,4,2,1,38,0,0
79484,-100,4,2,1,36,0,0
79562,-100,4,2,1,34,0,0
79640,-100,4,2,1,32,0,0
79718,-100,4,2,1,30,0,0
79796,-100,4,2,1,28,0,0
79874,-100,4,2,1,26,0,0
79952,-100,4,2,1,24,0,0
80030,-100,4,2,1,22,0,0
80109,-100,4,2,1,36,0,0
80187,-100,4,2,1,22,0,0
80265,-100,4,2,1,24,0,0
80343,-100,4,2,1,26,0,0
80421,-100,4,2,1,28,0,0
80499,-100,4,2,1,30,0,0
80577,-100,4,2,1,32,0,0
80655,-100,4,2,1,34,0,0
80734,-100,4,2,1,36,0,0
80812,-100,4,2,1,38,0,0
80890,-100,4,2,1,40,0,0
80968,-100,4,2,1,42,0,0
81046,-100,4,2,1,44,0,0
81124,-100,4,2,1,42,0,0
81202,-100,4,2,1,40,0,0
81280,-100,4,2,1,38,0,0
81359,-100,4,2,1,36,0,0
81437,-100,4,2,1,34,0,0
81515,-100,4,2,1,36,0,0
81593,-100,4,2,1,30,0,0
81671,-100,4,2,1,28,0,0
81749,-100,4,2,1,26,0,0
81827,-100,4,2,1,24,0,0
81905,-100,4,2,1,22,0,0
81984,-100,4,2,1,36,0,0
82062,-100,4,2,1,22,0,0
82140,-100,4,2,1,24,0,0
82218,-100,4,2,1,26,0,0
82296,-100,4,2,1,28,0,0
82374,-100,4,2,1,30,0,0
82452,-100,4,2,1,32,0,0
82530,-100,4,2,1,34,0,0
82609,-100,4,2,1,36,0,0
82687,-100,4,2,1,38,0,0
82765,-100,4,2,1,40,0,0
82843,-100,4,2,1,42,0,0
82921,-100,4,2,1,44,0,0
82999,-100,4,2,1,46,0,0
83077,-100,4,2,1,48,0,0
83155,-100,4,2,1,50,0,0
83234,-100,4,2,1,52,0,0
83312,-100,4,2,1,54,0,0
83390,-100,4,2,1,36,0,0
83468,-100,4,2,1,58,0,0
83546,-100,4,2,1,60,0,0
83624,-100,4,2,1,62,0,0
83702,-100,4,2,1,64,0,0
83780,-100,4,2,1,66,0,0
83859,-100,4,2,1,36,0,0
83937,-100,4,2,1,40,0,0
84796,-100,4,2,1,36,0,0
84835,-100,4,2,1,38,0,0
85265,-100,4,2,1,36,0,0
85734,-100,4,2,1,34,0,0
85773,-100,4,2,1,25,0,0
86202,-100,4,2,1,25,0,0
86671,-100,4,2,1,25,0,0
87140,-100,4,2,1,25,0,0
87609,-100,4,2,1,20,0,0
88234,-100,4,2,1,20,0,0
88546,-100,4,2,1,20,0,0
88859,-100,4,2,1,20,0,0
89171,-100,4,2,1,20,0,0
89484,-100,4,2,1,36,0,0
89952,-100,4,2,1,36,0,0
90421,-100,4,2,1,36,0,0
90890,-100,4,2,1,36,0,0
93234,-100,4,2,1,36,0,0
93702,-100,4,2,1,36,0,0
94171,-100,4,2,1,36,0,0
94640,-100,4,2,1,36,0,0
96984,-200,4,2,1,20,0,0
104484,-100,4,2,1,36,0,0
104562,-100,4,2,1,24,0,0
104640,-100,4,2,1,28,0,0
104718,-100,4,2,1,36,0,0
104796,-100,4,2,1,36,0,0
104874,-100,4,2,1,40,0,0
104952,-100,4,2,1,44,0,0
105030,-100,4,2,1,48,0,0
105109,-100,4,2,1,52,0,0
105187,-100,4,2,1,56,0,0
105265,-100,4,2,1,60,0,0
105343,-100,4,2,1,64,0,0
105421,-100,4,2,1,68,0,0
105499,-100,4,2,1,64,0,0
105577,-100,4,2,1,60,0,0
105655,-100,4,2,1,56,0,0
105734,-100,4,2,1,52,0,0
105812,-100,4,2,1,48,0,0
105890,-100,4,2,1,44,0,0
105968,-100,4,2,1,40,0,0
106046,-100,4,2,1,36,0,0
106124,-100,4,2,1,30,0,0
106359,-100,4,2,1,30,0,0
106671,-100,4,2,1,32,0,0
106984,-100,4,2,1,34,0,0
107296,-100,4,2,1,36,0,0
107765,-100,4,2,1,40,0,0
107921,-100,4,2,1,44,0,0
108077,-100,4,2,1,48,0,0
108234,-100,4,2,1,52,0,0
108390,-100,4,2,1,30,0,0
108546,-100,4,2,1,30,0,0
108702,-100,4,2,1,40,0,0
108859,-100,4,2,1,44,0,0
109015,-100,4,2,1,48,0,0
109171,-100,4,2,1,36,0,0
109249,-100,4,2,1,30,0,0
109640,-100,4,2,1,30,0,0
110109,-100,4,2,1,32,0,0
110421,-100,4,2,1,34,0,0
110734,-100,4,2,1,36,0,0
111046,-100,4,2,1,38,0,0
111515,-100,4,2,1,40,0,0
111671,-100,4,2,1,44,0,0
111827,-100,4,2,1,48,0,0
111984,-100,4,2,1,36,0,0
112062,-100,4,2,1,30,0,0
112140,-100,4,2,1,30,0,0
112921,-100,4,2,1,36,0,0
112960,-100,4,2,1,30,0,0
113859,-100,4,2,1,36,0,0
113898,-100,4,2,1,30,0,0
114327,-100,4,2,1,28,0,0
114796,-100,4,2,1,36,0,0
114835,-100,4,2,1,26,0,0
115265,-100,4,2,1,24,0,0
115734,-100,4,2,1,22,0,0
116202,-100,4,2,1,23,0,0
116280,-100,4,2,1,25,0,0
116359,-100,4,2,1,28,0,0
116437,-100,4,2,1,31,0,0
116515,-100,4,2,1,34,0,0
116593,-100,4,2,1,37,0,0
116671,-100,4,2,1,40,0,0
116749,-100,4,2,1,38,0,0
116827,-100,4,2,1,36,0,0
116905,-100,4,2,1,34,0,0
116984,-100,4,2,1,32,0,0
117062,-100,4,2,1,30,0,0
117140,-100,4,2,1,28,0,0
117218,-100,4,2,1,26,0,0
117296,-100,4,2,1,24,0,0
117374,-100,4,2,1,22,0,0
117452,-100,4,2,1,20,0,0
117530,-100,4,2,1,18,0,0
117609,-100,4,2,1,20,0,0
117687,-100,4,2,1,22,0,0
117765,-100,4,2,1,24,0,0
117843,-100,4,2,1,26,0,0
117921,-100,4,2,1,28,0,0
117999,-100,4,2,1,30,0,0
118077,-100,4,2,1,32,0,0
118155,-100,4,2,1,34,0,0
118234,-100,4,2,1,36,0,0
118312,-100,4,2,1,38,0,0
118390,-100,4,2,1,40,0,0
118468,-100,4,2,1,42,0,0
118546,-100,4,2,1,44,0,0
118624,-100,4,2,1,46,0,0
118702,-100,4,2,1,44,0,0
118780,-100,4,2,1,42,0,0
118859,-100,4,2,1,40,0,0
118937,-100,4,2,1,38,0,0
119015,-100,4,2,1,36,0,0
119093,-100,4,2,1,34,0,0
119171,-100,4,2,1,32,0,0
119249,-100,4,2,1,30,0,0
119327,-100,4,2,1,28,0,0
119405,-100,4,2,1,26,0,0
119484,-100,4,2,1,20,0,0
119562,-100,4,2,1,22,0,0
119640,-100,4,2,1,24,0,0
119718,-100,4,2,1,26,0,0
119796,-100,4,2,1,28,0,0
119874,-100,4,2,1,30,0,0
119952,-100,4,2,1,32,0,0
120030,-100,4,2,1,34,0,0
120109,-100,4,2,1,36,0,0
120187,-100,4,2,1,38,0,0
120265,-100,4,2,1,40,0,0
120343,-100,4,2,1,42,0,0
120421,-100,4,2,1,44,0,0
120499,-100,4,2,1,42,0,0
120577,-100,4,2,1,40,0,0
120655,-100,4,2,1,38,0,0
120734,-100,4,2,1,36,0,0
120812,-100,4,2,1,34,0,0
120890,-100,4,2,1,32,0,0
120968,-100,4,2,1,30,0,0
121046,-100,4,2,1,28,0,0
121124,-100,4,2,1,26,0,0
121202,-100,4,2,1,24,0,0
121280,-100,4,2,1,22,0,0
121359,-100,4,2,1,20,0,0
121437,-100,4,2,1,21,0,0
121515,-100,4,2,1,22,0,0
121593,-100,4,2,1,23,0,0
121671,-100,4,2,1,24,0,0
121749,-100,4,2,1,25,0,0
121827,-100,4,2,1,26,0,0
121905,-100,4,2,1,27,0,0
121984,-100,4,2,1,28,0,0
122062,-100,4,2,1,29,0,0
122140,-100,4,2,1,30,0,0
122218,-100,4,2,1,31,0,0
122296,-100,4,2,1,32,0,0
122374,-100,4,2,1,31,0,0
122452,-100,4,2,1,30,0,0
122530,-100,4,2,1,29,0,0
122609,-100,4,2,1,28,0,0
122687,-100,4,2,1,27,0,0
122765,-100,4,2,1,26,0,0
122843,-100,4,2,1,25,0,0
122921,-100,4,2,1,24,0,0
122999,-100,4,2,1,23,0,0
123077,-100,4,2,1,22,0,0
123155,-100,4,2,1,21,0,0
123234,-100,4,2,1,20,0,0
123546,-100,4,2,1,22,0,0
123859,-100,4,2,1,24,0,0
124171,-100,4,2,1,26,0,0
124484,-100,4,2,1,28,0,0
124796,-100,4,2,1,30,0,0
125109,-100,4,2,1,32,0,0
125421,-100,4,2,1,34,0,0
125734,-100,4,2,1,36,0,0
126046,-100,4,2,1,38,0,0
126359,-100,4,2,1,40,0,0
126671,-100,4,2,1,42,0,0
126984,-100,4,2,1,20,0,0
127062,-100,4,2,1,21,0,0
127140,-100,4,2,1,22,0,0
127218,-100,4,2,1,23,0,0
127296,-100,4,2,1,24,0,0
127374,-100,4,2,1,25,0,0
127452,-100,4,2,1,26,0,0
127530,-100,4,2,1,27,0,0
127609,-100,4,2,1,28,0,0
127687,-100,4,2,1,29,0,0
127765,-100,4,2,1,30,0,0
127843,-100,4,2,1,31,0,0
127921,-100,4,2,1,32,0,0
127999,-100,4,2,1,33,0,0
128077,-100,4,2,1,34,0,0
128155,-100,4,2,1,35,0,0
128234,-100,4,2,1,36,0,0
128312,-100,4,2,1,37,0,0
128390,-100,4,2,1,38,0,0
128468,-100,4,2,1,39,0,0
128546,-100,4,2,1,40,0,0
128624,-100,4,2,1,41,0,0
128702,-100,4,2,1,42,0,0
128780,-100,4,2,1,43,0,0
128859,-100,4,2,1,44,0,0
128937,-100,4,2,1,45,0,0
129015,-100,4,2,1,46,0,0
129093,-100,4,2,1,47,0,0
129171,-100,4,2,1,48,0,0
129249,-100,4,2,1,49,0,0
129327,-100,4,2,1,50,0,0
129405,-100,4,2,1,51,0,0
129484,-100,4,2,1,52,0,0
129562,-100,4,2,1,53,0,0
129640,-100,4,2,1,54,0,0
129718,-100,4,2,1,55,0,0
129796,-100,4,2,1,56,0,0
130734,-100,4,2,1,20,0,0
130812,-100,4,2,1,21,0,0
130890,-100,4,2,1,22,0,0
130968,-100,4,2,1,23,0,0
131046,-100,4,2,1,24,0,0
131124,-100,4,2,1,25,0,0
131202,-100,4,2,1,26,0,0
131280,-100,4,2,1,27,0,0
131359,-100,4,2,1,28,0,0
131437,-100,4,2,1,29,0,0
131515,-100,4,2,1,30,0,0
131593,-100,4,2,1,31,0,0
131671,-100,4,2,1,32,0,0
131749,-100,4,2,1,33,0,0
131827,-100,4,2,1,34,0,0
131905,-100,4,2,1,35,0,0
131984,-100,4,2,1,36,0,0
132062,-100,4,2,1,37,0,0
132140,-100,4,2,1,38,0,0
132218,-100,4,2,1,39,0,0
132296,-100,4,2,1,40,0,0
132374,-100,4,2,1,41,0,0
132452,-100,4,2,1,42,0,0
132530,-100,4,2,1,43,0,0
132609,-100,4,2,1,44,0,0
132687,-100,4,2,1,45,0,0
132765,-100,4,2,1,46,0,0
132843,-100,4,2,1,47,0,0
132921,-100,4,2,1,48,0,0
132999,-100,4,2,1,49,0,0
133077,-100,4,2,1,50,0,0
133155,-100,4,2,1,51,0,0
133234,-100,4,2,1,52,0,0
133312,-100,4,2,1,53,0,0
133390,-100,4,2,1,54,0,0
133468,-100,4,2,1,55,0,0
133546,-100,4,2,1,56,0,0
134484,-100,4,2,1,10,0,0
140577,-100,4,2,1,15,0,0
140655,-100,4,2,1,20,0,0
140734,-100,4,2,1,25,0,0
140812,-100,4,2,1,30,0,0
140890,-100,4,2,1,35,0,0
140968,-100,4,2,1,40,0,0
141046,-100,4,2,1,45,0,0
141515,500,4,2,1,45,1,0
141515,-100,4,2,1,45,0,0
142015,468.75,4,2,1,36,1,0
142093,-100,4,2,1,50,0,0
145765,-105.263157894737,4,2,1,36,0,0
145804,-105.263157894737,4,2,1,40,0,0
146233,-111.111111111111,4,2,1,37,0,0
146702,-117.647058823529,4,2,1,34,0,0
147171,-125,4,2,1,31,0,0
147640,-133.333333333333,4,2,1,28,0,0
148108,-142.857142857143,4,2,1,25,0,0
148577,-153.846153846154,4,2,1,22,0,0
149046,-166.666666666667,4,2,1,19,0,0
149515,-142.857142857143,4,2,1,36,0,0
149593,-142.857142857143,4,2,1,22,0,0
149671,-125,4,2,1,24,0,0
149749,-125,4,2,1,26,0,0
149827,-111.111111111111,4,2,1,28,0,0
149905,-111.111111111111,4,2,1,30,0,0
149983,-100,4,2,1,32,0,0
150061,-100,4,2,1,34,0,0
150140,-90.9090909090909,4,2,1,36,0,0
150218,-90.9090909090909,4,2,1,38,0,0
150296,-83.3333333333333,4,2,1,40,0,0
150374,-83.3333333333333,4,2,1,42,0,0
150452,-83.3333333333333,4,2,1,44,0,0
150530,-83.3333333333333,4,2,1,42,0,0
150608,-83.3333333333333,4,2,1,40,0,0
150686,-83.3333333333333,4,2,1,38,0,0
150765,-100,4,2,1,36,0,0
150843,-100,4,2,1,34,0,0
150921,-100,4,2,1,32,0,0
150999,-100,4,2,1,30,0,0
151077,-100,4,2,1,28,0,0
151155,-100,4,2,1,26,0,0
151233,-100,4,2,1,24,0,0
151311,-100,4,2,1,22,0,0
151390,-142.857142857143,4,2,1,20,0,0
151468,-142.857142857143,4,2,1,22,0,0
151546,-125,4,2,1,24,0,0
151624,-125,4,2,1,26,0,0
151702,-111.111111111111,4,2,1,28,0,0
151780,-111.111111111111,4,2,1,30,0,0
151858,-100,4,2,1,32,0,0
151936,-100,4,2,1,34,0,0
152015,-90.9090909090909,4,2,1,36,0,0
152093,-90.9090909090909,4,2,1,38,0,0
152171,-83.3333333333333,4,2,1,40,0,0
152249,-83.3333333333333,4,2,1,42,0,0
152327,-83.3333333333333,4,2,1,44,0,0
152405,-83.3333333333333,4,2,1,42,0,0
152483,-83.3333333333333,4,2,1,40,0,0
152561,-83.3333333333333,4,2,1,38,0,0
152640,-100,4,2,1,36,0,0
152718,-100,4,2,1,34,0,0
152796,-100,4,2,1,36,0,0
152874,-100,4,2,1,30,0,0
152952,-100,4,2,1,28,0,0
153030,-100,4,2,1,26,0,0
153108,-100,4,2,1,24,0,0
153186,-100,4,2,1,22,0,0
153265,-133.333333333333,4,2,1,35,0,0
153343,-133.333333333333,4,2,1,23,0,0
153421,-117.647058823529,4,2,1,26,0,0
153499,-117.647058823529,4,2,1,29,0,0
153577,-105.263157894737,4,2,1,32,0,0
153655,-105.263157894737,4,2,1,35,0,0
153733,-95.2380952380951,4,2,1,38,0,0
153811,-95.2380952380951,4,2,1,41,0,0
153890,-86.9565217391304,4,2,1,44,0,0
153968,-86.9565217391304,4,2,1,47,0,0
154046,-80,4,2,1,50,0,0
154124,-80,4,2,1,53,0,0
154202,-80,4,2,1,56,0,0
154280,-80,4,2,1,53,0,0
154358,-80,4,2,1,50,0,0
154436,-80,4,2,1,47,0,0
154515,-100,4,2,1,44,0,0
154593,-100,4,2,1,41,0,0
154671,-100,4,2,1,32,0,0
154749,-100,4,2,1,35,0,0
154827,-100,4,2,1,32,0,0
154905,-100,4,2,1,29,0,0
154983,-100,4,2,1,26,0,0
155061,-100,4,2,1,23,0,0
155140,-125,4,2,1,36,0,0
155218,-125,4,2,1,24,0,0
155296,-111.111111111111,4,2,1,28,0,0
155374,-111.111111111111,4,2,1,32,0,0
155452,-100,4,2,1,36,0,0
155530,-100,4,2,1,40,0,0
155608,-90.9090909090909,4,2,1,44,0,0
155686,-90.9090909090909,4,2,1,48,0,0
155765,-83.3333333333333,4,2,1,52,0,0
155843,-83.3333333333333,4,2,1,56,0,0
155921,-76.9230769230769,4,2,1,60,0,0
155999,-76.9230769230769,4,2,1,64,0,0
156077,-76.9230769230769,4,2,1,68,0,0
157015,-100,4,2,1,30,0,0
157093,-100,4,2,1,50,0,0
160765,-105.263157894737,4,2,1,36,0,0
160804,-105.263157894737,4,2,1,40,0,0
161233,-111.111111111111,4,2,1,37,0,0
161702,-117.647058823529,4,2,1,34,0,0
162171,-125,4,2,1,31,0,0
162640,-133.333333333333,4,2,1,28,0,0
163108,-142.857142857143,4,2,1,25,0,0
163577,-153.846153846154,4,2,1,22,0,0
164046,-166.666666666667,4,2,1,19,0,0
164515,-142.857142857143,4,2,1,36,0,0
164593,-142.857142857143,4,2,1,23,0,0
164671,-125,4,2,1,26,0,0
164749,-125,4,2,1,29,0,0
164827,-111.111111111111,4,2,1,32,0,0
164905,-111.111111111111,4,2,1,35,0,0
164983,-100,4,2,1,38,0,0
165061,-100,4,2,1,41,0,0
165140,-90.909090909091,4,2,1,44,0,0
165218,-90.909090909091,4,2,1,47,0,0
165296,-83.3333333333333,4,2,1,50,0,0
165374,-83.3333333333333,4,2,1,53,0,0
165452,-76.9230769230769,4,2,1,56,0,0
165530,-76.9230769230769,4,2,1,53,0,0
165608,-76.9230769230769,4,2,1,50,0,0
165686,-76.9230769230769,4,2,1,47,0,0
165765,-76.9230769230769,4,2,1,44,0,0
165843,-76.9230769230769,4,2,1,41,0,0
165921,-76.9230769230769,4,2,1,36,0,0
165999,-76.9230769230769,4,2,1,35,0,0
166077,-76.9230769230769,4,2,1,32,0,0
166155,-76.9230769230769,4,2,1,29,0,0
166233,-76.9230769230769,4,2,1,26,0,0
166311,-76.9230769230769,4,2,1,23,0,0
166390,-125,4,2,1,36,0,0
166468,-125,4,2,1,23,0,0
166546,-111.111111111111,4,2,1,26,0,0
166624,-111.111111111111,4,2,1,29,0,0
166702,-100,4,2,1,32,0,0
166780,-100,4,2,1,35,0,0
166858,-90.9090909090909,4,2,1,38,0,0
166936,-90.9090909090909,4,2,1,41,0,0
167015,-83.3333333333333,4,2,1,44,0,0
167093,-83.3333333333333,4,2,1,47,0,0
167171,-83.3333333333333,4,2,1,50,0,0
167249,-83.3333333333333,4,2,1,53,0,0
167327,-83.3333333333333,4,2,1,56,0,0
167405,-83.3333333333333,4,2,1,53,0,0
167483,-83.3333333333333,4,2,1,50,0,0
167561,-83.3333333333333,4,2,1,47,0,0
167640,-83.3333333333333,4,2,1,44,0,0
167718,-83.3333333333333,4,2,1,41,0,0
167796,-83.3333333333333,4,2,1,36,0,0
167874,-83.3333333333333,4,2,1,35,0,0
167952,-83.3333333333333,4,2,1,32,0,0
168030,-83.3333333333333,4,2,1,29,0,0
168108,-83.3333333333333,4,2,1,26,0,0
168186,-83.3333333333333,4,2,1,23,0,0
168265,-111.111111111111,4,2,1,30,0,0
168343,-111.111111111111,4,2,1,33,0,0
168421,-100,4,2,1,36,0,0
168499,-100,4,2,1,39,0,0
168577,-90.9090909090909,4,2,1,42,0,0
168655,-90.9090909090909,4,2,1,45,0,0
168733,-83.3333333333333,4,2,1,48,0,0
168811,-83.3333333333333,4,2,1,51,0,0
168890,-76.9230769230769,4,2,1,54,0,0
168968,-76.9230769230769,4,2,1,57,0,0
169046,-71.4285714285714,4,2,1,60,0,0
169124,-71.4285714285714,4,2,1,63,0,0
169202,-66.6666666666667,4,2,1,66,0,0
169280,-66.6666666666667,4,2,1,69,0,0
169358,-66.6666666666667,4,2,1,66,0,0
169436,-66.6666666666667,4,2,1,63,0,0
169515,-66.6666666666667,4,2,1,60,0,0
169593,-66.6666666666667,4,2,1,57,0,0
169671,-66.6666666666667,4,2,1,54,0,0
169749,-66.6666666666667,4,2,1,56,0,0
169827,-66.6666666666667,4,2,1,58,0,0
169905,-66.6666666666667,4,2,1,60,0,0
169983,-66.6666666666667,4,2,1,62,0,0
170061,-66.6666666666667,4,2,1,64,0,0
170140,-66.6666666666667,4,2,1,66,0,0
170218,-66.6666666666667,4,2,1,69,0,0
170296,-66.6666666666667,4,2,1,66,0,0
170374,-66.6666666666667,4,2,1,63,0,0
170453,-66.6666666666667,4,2,1,60,0,0
170531,-66.6666666666667,4,2,1,57,0,0
170609,-66.6666666666667,4,2,1,54,0,0
170687,-66.6666666666667,4,2,1,56,0,0
170765,-66.6666666666667,4,2,1,58,0,0
170843,-66.6666666666667,4,2,1,60,0,0
170921,-66.6666666666667,4,2,1,62,0,0
170999,-66.6666666666667,4,2,1,64,0,0
171077,-200,4,2,1,24,0,0
171155,-200,4,2,1,23,0,0
171233,-200,4,2,1,22,0,0
171311,-200,4,2,1,21,0,0
171390,-200,4,2,1,20,0,0
171468,-200,4,2,1,19,0,0
171546,-200,4,2,1,18,0,0
171624,-200,4,2,1,17,0,0
171702,-200,4,2,1,16,0,0
171780,-200,4,2,1,15,0,0
171858,-200,4,2,1,14,0,0
171936,-200,4,2,1,13,0,0
172015,-200,4,2,1,12,0,0
172093,-200,4,2,1,13,0,0
172171,-200,4,2,1,14,0,0
172249,-200,4,2,1,15,0,0
172327,-200,4,2,1,16,0,0
172405,-200,4,2,1,17,0,0
172483,-200,4,2,1,18,0,0
172561,-200,4,2,1,19,0,0
172640,-200,4,2,1,20,0,0
172718,-200,4,2,1,21,0,0
172796,-200,4,2,1,22,0,0
172874,-200,4,2,1,23,0,0
172952,-200,4,2,1,24,0,0
173030,-200,4,2,1,25,0,0
173108,-200,4,2,1,26,0,0
173186,-200,4,2,1,27,0,0
173265,-200,4,2,1,28,0,0
173343,-200,4,2,1,29,0,0
173421,-200,4,2,1,30,0,0
173499,-200,4,2,1,31,0,0
173577,-200,4,2,1,32,0,0
173655,-200,4,2,1,33,0,0
173733,-200,4,2,1,34,0,0
173811,-200,4,2,1,35,0,0
173890,-200,4,2,1,36,0,0
173968,-200,4,2,1,37,0,0
174046,-200,4,2,1,38,0,0
174124,-200,4,2,1,39,0,0
174202,-200,4,2,1,40,0,0
174280,-200,4,2,1,41,0,0
174358,-200,4,2,1,42,0,0
174436,-200,4,2,1,43,0,0
174515,-200,4,2,1,44,0,0
174593,-200,4,2,1,45,0,0
174671,-200,4,2,1,46,0,0
174749,-200,4,2,1,47,0,0
174827,-200,4,2,1,48,0,0
174905,-200,4,2,1,49,0,0
174983,-200,4,2,1,50,0,0
175061,-200,4,2,1,51,0,0
175140,-200,4,2,1,52,0,0
175218,-200,4,2,1,53,0,0
175296,-200,4,2,1,54,0,0
175374,-200,4,2,1,55,0,0
175452,-200,4,2,1,56,0,0
175530,-200,4,2,1,57,0,0
175608,-200,4,2,1,58,0,0
175686,-200,4,2,1,59,0,0
175765,-200,4,2,1,36,0,0
176702,-133.333333333333,4,2,1,36,0,0
177640,-100,4,2,1,36,0,0
179515,-100,4,2,1,30,0,0
180452,-111.111111111111,4,2,1,30,0,0
181390,-125,4,2,1,30,0,0
182327,-142.857142857143,4,2,1,30,0,0
183265,-166.666666666667,4,2,1,30,0,0
185140,-166.666666666667,4,2,1,40,0,0
186077,-142.857142857143,4,2,1,40,0,0
187483,-142.857142857143,4,2,1,55,0,0
191233,402.684563758389,4,2,1,60,1,0

[Colours]
Combo1 : 0,128,255
Combo2 : 0,64,128
Combo3 : 1,145,186

[HitObjects]
56,192,21954,5,0,0:0:0:0:
128,64,22452,2,0,L|232:64,1,105
256,64,22921,1,0,0:0:0:0:
396,56,23390,2,0,L|372:160,1,93.3333333333333
444,204,23859,6,0,P|280:156|208:192,1,233.333333333333
216,188,24796,1,0,0:0:0:0:
108,276,25265,1,0,0:0:0:0:
32,160,25734,5,0,0:0:0:0:
124,56,26202,2,0,L|252:56,1,105
248,56,26671,1,0,0:0:0:0:
388,40,27140,2,0,P|380:124|400:148,1,93.3333333333333
428,132,27609,6,0,P|344:136|216:244,1,233.333333333333
220,240,28546,1,0,0:0:0:0:
84,208,29015,1,0,0:0:0:0:
44,72,29484,6,0,L|288:72,1,233.333333333333
300,72,30421,1,0,0:0:0:0:
432,32,30890,1,0,0:0:0:0:
464,168,31359,6,0,L|220:168,1,233.333333333333
208,168,32296,1,0,0:0:0:0:
76,208,32765,1,0,0:0:0:0:
188,292,33234,6,0,P|312:324|452:288,1,233.333333333333
436,292,34171,1,0,0:0:0:0:
504,168,34640,1,0,0:0:0:0:
380,104,35109,6,0,P|268:72|154:89,1,233.333333333333
132,104,36046,1,0,0:0:0:0:
352,276,36984,5,0,0:0:0:0:
219,327,37452,2,0,B|180:293|180:293|128:292,1,105
104,292,37921,1,0,0:0:0:0:
36,164,38390,2,0,L|148:164,1,93.3333333333333
144,184,38859,5,0,0:0:0:0:
268,116,39327,1,0,0:0:0:0:
308,252,39796,1,0,0:0:0:0:
448,228,40265,1,0,0:0:0:0:
452,240,40421,1,0,0:0:0:0:
456,252,40577,1,0,0:0:0:0:
460,264,40734,5,0,0:0:0:0:
468,124,41202,2,0,L|352:132,1,93.3333333333333
360,120,41671,1,0,0:0:0:0:
236,56,42140,1,0,0:0:0:0:
104,100,42609,5,0,0:0:0:0:
52,228,43077,1,0,0:0:0:0:
112,356,43546,1,0,0:0:0:0:
240,300,44015,2,0,L|344:316,1,93.3333333333333
356,340,44484,5,0,0:0:0:0:
476,272,44952,1,0,0:0:0:0:
468,252,45109,1,0,0:0:0:0:
460,236,45265,1,0,0:0:0:0:
452,220,45421,1,0,0:0:0:0:
332,148,45890,1,0,0:0:0:0:
228,260,46359,5,0,0:0:0:0:
88,264,46827,1,0,0:0:0:0:
80,248,46983,1,0,0:0:0:0:
72,232,47139,1,0,0:0:0:0:
64,212,47296,1,0,0:0:0:0:
92,76,47765,1,0,0:0:0:0:
184,180,48234,6,0,L|480:180,1,280
472,320,49640,1,0,0:0:0:0:
336,348,50109,5,0,0:0:0:0:
204,304,50577,2,0,P|158:295|120:269,1,93.3333333333333
96,240,51046,2,0,P|80:196|84:150,1,93.3333333333333
96,116,51515,1,0,0:0:0:0:
224,56,51984,5,0,0:0:0:0:
336,140,52452,1,0,0:0:0:0:
348,144,52609,1,0,0:0:0:0:
360,148,52765,1,0,0:0:0:0:
372,152,52921,1,0,0:0:0:0:
464,48,53390,1,0,0:0:0:0:
482,192,53859,6,0,B|367:302|256:192|256:192|146:81|31:192,1,513.333333333333
16,208,55734,5,0,0:0:0:0:
124,295,56202,2,0,P|176:294|225:312,1,105
236,320,56671,1,0,0:0:0:0:
376,344,57140,2,0,P|372:304|376:248,1,93.3333333333333
384,244,57609,6,0,P|248:224|164:160,1,233.333333333333
160,152,58546,1,0,0:0:0:0:
56,244,59015,1,0,0:0:0:0:
176,320,59484,5,0,0:0:0:0:
312,344,59952,2,0,L|356:239,1,105
360,232,60421,1,0,0:0:0:0:
500,236,60890,2,0,L|472:144,1,93.3333333333333
484,124,61359,6,0,P|364:156|252:124,1,233.333333333333
244,116,62296,1,0,0:0:0:0:
112,160,62765,1,0,0:0:0:0:
180,284,63234,6,0,P|304:312|416:288,1,233.333333333333
432,280,64171,1,0,0:0:0:0:
484,152,64640,1,0,0:0:0:0:
376,64,65109,6,0,P|263:36|149:56,1,233.333333333333
124,69,66046,1,0,0:0:0:0:
72,197,66515,1,0,0:0:0:0:
204,244,66984,6,0,L|444:304,1,233.333333333333
456,308,67921,1,0,0:0:0:0:
492,172,68390,1,0,0:0:0:0:
352,184,68859,6,0,L|112:124,1,233.333333333333
100,120,69796,1,0,0:0:0:0:
308,336,70734,5,0,0:0:0:0:
428,260,71202,2,0,L|476:164,1,105
484,148,71671,1,0,0:0:0:0:
348,108,72140,2,0,P|292:96|260:72,1,93.3333333333333
228,44,72609,6,0,P|244:136|192:272,1,233.333333333333
180,284,73546,1,0,0:0:0:0:
304,348,74015,1,0,0:0:0:0:
429,285,74484,5,0,0:0:0:0:
477,153,74952,2,0,P|445:104|435:57,1,105
435,30,75421,1,0,0:0:0:0:
356,146,75890,2,0,L|264:156,1,93.3333333333333
241,138,76359,6,0,P|176:222|57:248,1,233.333333333333
32,245,77296,1,0,0:0:0:0:
17,105,77765,1,0,0:0:0:0:
154,133,78234,6,0,L|373:133,1,210
388,132,79171,1,0,0:0:0:0:
472,244,79640,1,0,0:0:0:0:
352,316,80109,6,0,L|133:316,1,210
118,317,81046,1,0,0:0:0:0:
32,204,81515,1,0,0:0:0:0:
156,136,81984,6,0,B|168:67|240:47|284:79|309:144|256:192|256:192|204:240|228:305|272:337|345:317|357:248,1,513.333333333333
364,228,83859,1,0,0:0:0:0:
