osu file format v14

[General]
AudioFilename: audio.mp3
AudioLeadIn: 0
PreviewTime: 142015
Countdown: 0
SampleSet: Soft
StackLeniency: 0.7
Mode: 0
LetterboxInBreaks: 0
WidescreenStoryboard: 1

[Editor]
Bookmarks: 29484,43546,44484,46359,53859,55734,58077,63312,69796,74484,80265,104484,111984,133546,140109,141359,173890
DistanceSpacing: 0.7
BeatDivisor: 4
GridSize: 4
TimelineZoom: 1

[Metadata]
Title:Op 25 no 11
TitleUnicode:Op 25 no 11
Artist:Frederic Francois Chopin
ArtistUnicode:Frédéric François Chopin
Creator:Louis Cyphre
Version:Heavy
Source:
Tags:
BeatmapID:1146303
BeatmapSetID:529007

[Difficulty]
HPDrainRate:5.2
CircleSize:4.1
OverallDifficulty:5.6
ApproachRate:8
SliderMultiplier:1.55
SliderTickRate:1

[Events]
//Background and Video events
0,0,"wallpaper-16932771.png",0,0
//Break Periods
2,97184,103734
//Storyboard Layer 0 (Background)
//Storyboard Layer 1 (Fail)
//Storyboard Layer 2 (Pass)
//Storyboard Layer 3 (Foreground)
//Storyboard Layer 4 (Overlay)
//Storyboard Sound Samples
Sample,21984,0,"E4.wav",70

[TimingPoints]
17,1250,4,2,1,20,1,0
16267,1428.57142857143,4,2,1,15,1,0
19127,2857.14285714286,4,2,1,10,1,0
21954,652.173913043478,4,2,1,10,1,0
21984,468.75,4,2,1,36,1,0
22062,-100,4,2,1,50,0,0
25734,-100,4,2,1,36,0,0
25773,-100,4,2,1,40,0,0
26202,-100,4,2,1,37,0,0
26671,-100,4,2,1,34,0,0
27140,-100,4,2,1,31,0,0
27609,-100,4,2,1,28,0,0
28077,-100,4,2,1,25,0,0
28546,-100,4,2,1,22,0,0
29015,-100,4,2,1,19,0,0
29484,-100,4,2,1,36,0,0
29562,-100,4,2,1,22,0,0
29640,-100,4,2,1,24,0,0
29718,-100,4,2,1,26,0,0
29796,-100,4,2,1,28,0,0
29874,-100,4,2,1,30,0,0
29952,-100,4,2,1,32,0,0
30030,-100,4,2,1,34,0,0
30109,-100,4,2,1,36,0,0
30187,-100,4,2,1,38,0,0
30265,-100,4,2,1,40,0,0
30343,-100,4,2,1,42,0,0
30421,-100,4,2,1,44,0,0
30499,-100,4,2,1,42,0,0
30577,-100,4,2,1,40,0,0
30655,-100,4,2,1,38,0,0
30734,-100,4,2,1,36,0,0
30812,-100,4,2,1,34,0,0
30890,-100,4,2,1,32,0,0
30968,-100,4,2,1,30,0,0
31046,-100,4,2,1,28,0,0
31124,-100,4,2,1,26,0,0
31202,-100,4,2,1,24,0,0
31280,-100,4,2,1,22,0,0
31359,-100,4,2,1,20,0,0
31437,-100,4,2,1,22,0,0
31515,-100,4,2,1,24,0,0
31593,-100,4,2,1,26,0,0
31671,-100,4,2,1,28,0,0
31749,-100,4,2,1,30,0,0
31827,-100,4,2,1,32,0,0
31905,-100,4,2,1,34,0,0
31984,-100,4,2,1,36,0,0
32062,-100,4,2,1,38,0,0
32140,-100,4,2,1,40,0,0
32218,-100,4,2,1,42,0,0
32296,-100,4,2,1,44,0,0
32374,-100,4,2,1,42,0,0
32452,-100,4,2,1,40,0,0
32530,-100,4,2,1,38,0,0
32609,-100,4,2,1,36,0,0
32687,-100,4,2,1,34,0,0
32765,-100,4,2,1,35,0,0
32843,-100,4,2,1,30,0,0
32921,-100,4,2,1,28,0,0
32999,-100,4,2,1,26,0,0
33077,-100,4,2,1,24,0,0
33155,-100,4,2,1,22,0,0
33234,-100,4,2,1,35,0,0
33312,-100,4,2,1,23,0,0
33390,-100,4,2,1,26,0,0
33468,-100,4,2,1,29,0,0
33546,-100,4,2,1,32,0,0
33624,-100,4,2,1,35,0,0
33702,-100,4,2,1,38,0,0
33780,-100,4,2,1,41,0,0
33859,-100,4,2,1,44,0,0
33937,-100,4,2,1,47,0,0
34015,-100,4,2,1,50,0,0
34093,-100,4,2,1,53,0,0
34171,-100,4,2,1,56,0,0
34249,-100,4,2,1,53,0,0
34327,-100,4,2,1,50,0,0
34405,-100,4,2,1,47,0,0
34484,-100,4,2,1,44,0,0
34562,-100,4,2,1,41,0,0
34640,-100,4,2,1,32,0,0
34718,-100,4,2,1,35,0,0
34796,-100,4,2,1,32,0,0
34874,-100,4,2,1,29,0,0
34952,-100,4,2,1,26,0,0
35030,-100,4,2,1,23,0,0
35109,-100,4,2,1,36,0,0
35187,-100,4,2,1,24,0,0
35265,-100,4,2,1,28,0,0
35343,-100,4,2,1,32,0,0
35421,-100,4,2,1,36,0,0
35499,-100,4,2,1,40,0,0
35577,-100,4,2,1,44,0,0
35655,-100,4,2,1,48,0,0
35734,-100,4,2,1,52,0,0
35812,-100,4,2,1,56,0,0
35890,-100,4,2,1,60,0,0
35968,-100,4,2,1,64,0,0
36046,-100,4,2,1,68,0,0
36984,-100,4,2,1,36,0,0
37023,-100,4,2,1,50,0,0
40734,-100,4,2,1,36,0,0
40773,-100,4,2,1,40,0,0
41202,-100,4,2,1,37,0,0
41671,-100,4,2,1,34,0,0
42140,-100,4,2,1,31,0,0
42609,-100,4,2,1,28,0,0
43077,-100,4,2,1,25,0,0
43546,-100,4,2,1,22,0,0
44015,-100,4,2,1,19,0,0
44484,-100,4,2,1,36,0,0
44562,-100,4,2,1,22,0,0
44640,-100,4,2,1,24,0,0
44718,-100,4,2,1,26,0,0
44796,-100,4,2,1,28,0,0
44874,-100,4,2,1,30,0,0
44952,-100,4,2,1,32,0,0
45030,-100,4,2,1,34,0,0
45109,-100,4,2,1,36,0,0
45187,-100,4,2,1,38,0,0
45265,-100,4,2,1,40,0,0
45343,-100,4,2,1,42,0,0
45421,-100,4,2,1,30,0,0
45499,-100,4,2,1,42,0,0
45577,-100,4,2,1,40,0,0
45655,-100,4,2,1,38,0,0
45734,-100,4,2,1,36,0,0
45812,-100,4,2,1,34,0,0
45890,-100,4,2,1,36,0,0
45968,-100,4,2,1,30,0,0
46046,-100,4,2,1,28,0,0
46124,-100,4,2,1,26,0,0
46202,-100,4,2,1,24,0,0
46280,-100,4,2,1,22,0,0
46359,-100,4,2,1,36,0,0
46437,-100,4,2,1,22,0,0
46515,-100,4,2,1,24,0,0
46593,-100,4,2,1,26,0,0
46668,-100,4,2,1,28,0,0
46749,-100,4,2,1,30,0,0
46827,-100,4,2,1,32,0,0
46905,-100,4,2,1,34,0,0
46984,-100,4,2,1,36,0,0
47062,-100,4,2,1,38,0,0
47140,-100,4,2,1,40,0,0
47218,-100,4,2,1,42,0,0
47296,-100,4,2,1,44,0,0
47374,-100,4,2,1,42,0,0
47452,-100,4,2,1,40,0,0
47530,-100,4,2,1,38,0,0
47609,-100,4,2,1,36,0,0
47687,-100,4,2,1,34,0,0
47765,-100,4,2,1,36,0,0
47843,-100,4,2,1,30,0,0
47921,-100,4,2,1,28,0,0
47999,-100,4,2,1,26,0,0
48077,-100,4,2,1,24,0,0
48155,-100,4,2,1,22,0,0
48234,-100,4,2,1,36,0,0
48312,-100,4,2,1,22,0,0
48390,-100,4,2,1,24,0,0
48468,-100,4,2,1,26,0,0
48546,-100,4,2,1,28,0,0
48624,-100,4,2,1,30,0,0
48702,-100,4,2,1,32,0,0
48780,-100,4,2,1,34,0,0
48859,-100,4,2,1,36,0,0
48937,-100,4,2,1,38,0,0
49015,-100,4,2,1,40,0,0
49093,-100,4,2,1,42,0,0
49171,-100,4,2,1,44,0,0
49249,-100,4,2,1,46,0,0
49327,-100,4,2,1,48,0,0
49405,-100,4,2,1,50,0,0
49484,-100,4,2,1,52,0,0
49562,-100,4,2,1,54,0,0
49640,-100,4,2,1,36,0,0
49718,-100,4,2,1,58,0,0
49796,-100,4,2,1,60,0,0
49874,-100,4,2,1,62,0,0
49952,-100,4,2,1,64,0,0
50030,-100,4,2,1,66,0,0
50109,-100,4,2,1,36,0,0
50421,-100,4,2,1,36,0,0
51984,-100,4,2,1,36,0,0
52062,-100,4,2,1,23,0,0
52140,-100,4,2,1,26,0,0
52218,-100,4,2,1,29,0,0
52296,-100,4,2,1,32,0,0
52374,-100,4,2,1,35,0,0
52452,-100,4,2,1,38,0,0
52530,-100,4,2,1,41,0,0
52609,-100,4,2,1,44,0,0
52687,-100,4,2,1,47,0,0
52765,-100,4,2,1,50,0,0
52843,-100,4,2,1,53,0,0
52921,-100,4,2,1,56,0,0
52999,-100,4,2,1,53,0,0
53077,-100,4,2,1,50,0,0
53155,-100,4,2,1,47,0,0
53234,-100,4,2,1,44,0,0
53312,-100,4,2,1,41,0,0
53390,-100,4,2,1,36,0,0
53468,-100,4,2,1,35,0,0
53546,-100,4,2,1,32,0,0
53624,-100,4,2,1,29,0,0
53702,-100,4,2,1,26,0,0
53780,-100,4,2,1,23,0,0
53859,-100,4,2,1,36,0,0
53937,-100,4,2,1,22,0,0
54015,-100,4,2,1,24,0,0
54093,-100,4,2,1,26,0,0
54171,-100,4,2,1,28,0,0
54249,-100,4,2,1,30,0,0
54327,-100,4,2,1,32,0,0
54405,-100,4,2,1,34,0,0
54484,-100,4,2,1,36,0,0
54562,-100,4,2,1,38,0,0
54640,-100,4,2,1,40,0,0
54718,-100,4,2,1,42,0,0
54796,-100,4,2,1,44,0,0
54874,-100,4,2,1,46,0,0
54952,-100,4,2,1,48,0,0
55030,-100,4,2,1,50,0,0
55109,-100,4,2,1,52,0,0
55187,-100,4,2,1,54,0,0
55265,-100,4,2,1,56,0,0
55343,-100,4,2,1,58,0,0
55421,-100,4,2,1,60,0,0
55499,-100,4,2,1,62,0,0
55577,-100,4,2,1,64,0,0
55655,-100,4,2,1,66,0,0
55734,-100,4,2,1,36,0,0
55773,-100,4,2,1,50,0,0
59484,-100,4,2,1,40,0,0
59523,-100,4,2,1,36,0,0
59952,-100,4,2,1,37,0,0
60421,-100,4,2,1,34,0,0
60890,-100,4,2,1,31,0,0
61359,-100,4,2,1,28,0,0
61827,-100,4,2,1,25,0,0
62296,-100,4,2,1,22,0,0
62765,-100,4,2,1,19,0,0
63234,-100,4,2,1,36,0,0
63312,-100,4,2,1,22,0,0
63390,-100,4,2,1,24,0,0
63468,-100,4,2,1,26,0,0
63546,-100,4,2,1,28,0,0
63624,-100,4,2,1,30,0,0
63702,-100,4,2,1,32,0,0
63780,-100,4,2,1,34,0,0
63859,-100,4,2,1,36,0,0
63937,-100,4,2,1,38,0,0
64015,-100,4,2,1,40,0,0
64093,-100,4,2,1,42,0,0
64171,-100,4,2,1,44,0,0
64249,-100,4,2,1,42,0,0
64327,-100,4,2,1,40,0,0
64405,-100,4,2,1,38,0,0
64484,-100,4,2,1,36,0,0
64562,-100,4,2,1,34,0,0
64640,-100,4,2,1,36,0,0
64718,-100,4,2,1,30,0,0
64796,-100,4,2,1,28,0,0
64874,-100,4,2,1,26,0,0
64952,-100,4,2,1,24,0,0
65030,-100,4,2,1,22,0,0
65109,-100,4,2,1,36,0,0
65187,-100,4,2,1,22,0,0
65265,-100,4,2,1,24,0,0
65343,-100,4,2,1,26,0,0
65421,-100,4,2,1,28,0,0
65499,-100,4,2,1,30,0,0
65577,-100,4,2,1,32,0,0
65655,-100,4,2,1,34,0,0
65734,-100,4,2,1,36,0,0
65812,-100,4,2,1,38,0,0
65890,-100,4,2,1,40,0,0
65968,-100,4,2,1,42,0,0
66046,-100,4,2,1,44,0,0
66124,-100,4,2,1,42,0,0
66202,-100,4,2,1,40,0,0
66280,-100,4,2,1,38,0,0
66359,-100,4,2,1,36,0,0
66437,-100,4,2,1,34,0,0
66515,-100,4,2,1,36,0,0
66593,-100,4,2,1,30,0,0
66671,-100,4,2,1,28,0,0
66749,-100,4,2,1,26,0,0
66827,-100,4,2,1,24,0,0
66905,-100,4,2,1,22,0,0
66984,-100,4,2,1,36,0,0
67062,-100,4,2,1,23,0,0
67140,-100,4,2,1,26,0,0
67218,-100,4,2,1,29,0,0
67296,-100,4,2,1,32,0,0
67374,-100,4,2,1,35,0,0
67452,-100,4,2,1,38,0,0
67530,-100,4,2,1,41,0,0
67609,-100,4,2,1,44,0,0
67687,-100,4,2,1,47,0,0
67765,-100,4,2,1,50,0,0
67843,-100,4,2,1,53,0,0
67921,-100,4,2,1,56,0,0
67999,-100,4,2,1,53,0,0
68077,-100,4,2,1,50,0,0
68155,-100,4,2,1,47,0,0
68234,-100,4,2,1,44,0,0
68312,-100,4,2,1,41,0,0
68390,-100,4,2,1,36,0,0
68468,-100,4,2,1,35,0,0
68546,-100,4,2,1,32,0,0
68624,-100,4,2,1,29,0,0
68702,-100,4,2,1,26,0,0
68780,-100,4,2,1,23,0,0
68859,-100,4,2,1,36,0,0
68937,-100,4,2,1,24,0,0
69015,-100,4,2,1,28,0,0
69093,-100,4,2,1,32,0,0
69171,-100,4,2,1,36,0,0
69249,-100,4,2,1,40,0,0
69327,-100,4,2,1,44,0,0
69405,-100,4,2,1,48,0,0
69484,-100,4,2,1,52,0,0
69562,-100,4,2,1,56,0,0
69640,-100,4,2,1,60,0,0
69718,-100,4,2,1,64,0,0
69796,-100,4,2,1,68,0,0
70734,-100,4,2,1,30,0,0
70773,-100,4,2,1,50,0,0
74484,-100,4,2,1,36,0,0
74523,-100,4,2,1,40,0,0
74952,-100,4,2,1,37,0,0
75421,-100,4,2,1,34,0,0
75890,-100,4,2,1,31,0,0
76359,-100,4,2,1,28,0,0
76827,-100,4,2,1,25,0,0
77296,-100,4,2,1,21,0,0
77765,-100,4,2,1,18,0,0
78234,-100,4,2,1,36,0,0
78312,-100,4,2,1,22,0,0
78390,-100,4,2,1,24,0,0
78468,-100,4,2,1,26,0,0
78546,-100,4,2,1,28,0,0
78624,-100,4,2,1,30,0,0
78702,-100,4,2,1,32,0,0
78780,-100,4,2,1,34,0,0
78859,-100,4,2,1,36,0,0
78937,-100,4,2,1,38,0,0
79015,-100,4,2,1,40,0,0
79093,-100,4,2,1,42,0,0
79171,-100,4,2,1,44,0,0
79249,-100,4,2,1,42,0,0
79327,-100,4,2,1,40,0,0
79405,-100,4,2,1,38,0,0
79484,-100,4,2,1,36,0,0
79562,-100,4,2,1,34,0,0
79640,-100,4,2,1,32,0,0
79718,-100,4,2,1,30,0,0
79796,-100,4,2,1,28,0,0
79874,-100,4,2,1,26,0,0
79952,-100,4,2,1,24,0,0
80030,-100,4,2,1,22,0,0
80109,-100,4,2,1,36,0,0
80187,-100,4,2,1,22,0,0
80265,-100,4,2,1,24,0,0
80343,-100,4,2,1,26,0,0
80421,-100,4,2,1,28,0,0
80499,-100,4,2,1,30,0,0
80577,-100,4,2,1,32,0,0
80655,-100,4,2,1,34,0,0
80734,-100,4,2,1,36,0,0
80812,-100,4,2,1,38,0,0
80890,-100,4,2,1,40,0,0
80968,-100,4,2,1,42,0,0
81046,-100,4,2,1,44,0,0
81124,-100,4,2,1,42,0,0
81202,-100,4,2,1,40,0,0
81280,-100,4,2,1,38,0,0
81359,-100,4,2,1,36,0,0
81437,-100,4,2,1,34,0,0
81515,-100,4,2,1,36,0,0
81593,-100,4,2,1,30,0,0
81671,-100,4,2,1,28,0,0
81749,-100,4,2,1,26,0,0
81827,-100,4,2,1,24,0,0
81905,-100,4,2,1,22,0,0
81984,-100,4,2,1,36,0,0
82062,-100,4,2,1,22,0,0
82140,-100,4,2,1,24,0,0
82218,-100,4,2,1,26,0,0
82296,-100,4,2,1,28,0,0
82374,-100,4,2,1,30,0,0
82452,-100,4,2,1,32,0,0
82530,-100,4,2,1,34,0,0
82609,-100,4,2,1,36,0,0
82687,-100,4,2,1,38,0,0
82765,-100,4,2,1,40,0,0
82843,-100,4,2,1,42,0,0
82921,-100,4,2,1,44,0,0
82999,-100,4,2,1,46,0,0
83077,-100,4,2,1,48,0,0
83155,-100,4,2,1,50,0,0
83234,-100,4,2,1,52,0,0
83312,-100,4,2,1,54,0,0
83390,-100,4,2,1,36,0,0
83468,-100,4,2,1,58,0,0
83546,-100,4,2,1,60,0,0
83624,-100,4,2,1,62,0,0
83702,-100,4,2,1,64,0,0
83780,-100,4,2,1,66,0,0
83859,-100,4,2,1,36,0,0
83937,-100,4,2,1,40,0,0
84796,-100,4,2,1,36,0,0
84835,-100,4,2,1,38,0,0
85265,-100,4,2,1,36,0,0
85734,-100,4,2,1,34,0,0
85773,-100,4,2,1,25,0,0
86202,-100,4,2,1,25,0,0
86671,-100,4,2,1,25,0,0
87140,-100,4,2,1,25,0,0
87609,-100,4,2,1,20,0,0
88234,-100,4,2,1,20,0,0
88546,-100,4,2,1,20,0,0
88859,-100,4,2,1,20,0,0
89171,-100,4,2,1,20,0,0
89484,-100,4,2,1,36,0,0
89952,-100,4,2,1,36,0,0
90421,-100,4,2,1,36,0,0
90890,-100,4,2,1,36,0,0
93234,-100,4,2,1,36,0,0
93702,-100,4,2,1,36,0,0
94171,-100,4,2,1,36,0,0
94640,-100,4,2,1,36,0,0
96984,-200,4,2,1,20,0,0
104484,-100,4,2,1,36,0,0
104562,-100,4,2,1,24,0,0
104640,-100,4,2,1,28,0,0
104718,-100,4,2,1,36,0,0
104796,-100,4,2,1,36,0,0
104874,-100,4,2,1,40,0,0
104952,-100,4,2,1,44,0,0
105030,-100,4,2,1,48,0,0
105109,-100,4,2,1,52,0,0
105187,-100,4,2,1,56,0,0
105265,-100,4,2,1,60,0,0
105343,-100,4,2,1,64,0,0
105421,-100,4,2,1,68,0,0
105499,-100,4,2,1,64,0,0
105577,-100,4,2,1,60,0,0
105655,-100,4,2,1,56,0,0
105734,-100,4,2,1,52,0,0
105812,-100,4,2,1,48,0,0
105890,-100,4,2,1,44,0,0
105968,-100,4,2,1,40,0,0
106046,-100,4,2,1,36,0,0
106124,-100,4,2,1,30,0,0
106359,-100,4,2,1,30,0,0
106671,-100,4,2,1,32,0,0
106984,-100,4,2,1,34,0,0
107296,-100,4,2,1,36,0,0
107765,-100,4,2,1,40,0,0
107921,-100,4,2,1,44,0,0
108077,-100,4,2,1,48,0,0
108234,-100,4,2,1,52,0,0
108390,-100,4,2,1,30,0,0
108546,-100,4,2,1,30,0,0
108702,-100,4,2,1,40,0,0
108859,-100,4,2,1,44,0,0
109015,-100,4,2,1,48,0,0
109171,-100,4,2,1,36,0,0
109249,-100,4,2,1,30,0,0
109640,-100,4,2,1,30,0,0
110109,-100,4,2,1,32,0,0
110421,-100,4,2,1,34,0,0
110734,-100,4,2,1,36,0,0
111046,-100,4,2,1,38,0,0
111515,-100,4,2,1,40,0,0
111671,-100,4,2,1,44,0,0
111827,-100,4,2,1,48,0,0
111984,-100,4,2,1,36,0,0
112062,-100,4,2,1,30,0,0
112140,-100,4,2,1,30,0,0
112921,-100,4,2,1,36,0,0
112960,-100,4,2,1,30,0,0
113859,-100,4,2,1,36,0,0
113898,-100,4,2,1,30,0,0
114327,-100,4,2,1,28,0,0
114796,-100,4,2,1,36,0,0
114835,-100,4,2,1,26,0,0
115265,-100,4,2,1,24,0,0
115734,-100,4,2,1,22,0,0
116202,-100,4,2,1,23,0,0
116280,-100,4,2,1,25,0,0
116359,-100,4,2,1,28,0,0
116437,-100,4,2,1,31,0,0
116515,-100,4,2,1,34,0,0
116593,-100,4,2,1,37,0,0
116671,-100,4,2,1,40,0,0
116749,-100,4,2,1,38,0,0
116827,-100,4,2,1,36,0,0
116905,-100,4,2,1,34,0,0
116984,-100,4,2,1,32,0,0
117062,-100,4,2,1,30,0,0
117140,-100,4,2,1,28,0,0
117218,-100,4,2,1,26,0,0
117296,-100,4,2,1,24,0,0
117374,-100,4,2,1,22,0,0
117452,-100,4,2,1,20,0,0
117530,-100,4,2,1,18,0,0
117609,-100,4,2,1,20,0,0
117687,-100,4,2,1,22,0,0
117765,-100,4,2,1,24,0,0
117843,-100,4,2,1,26,0,0
117921,-100,4,2,1,28,0,0
117999,-100,4,2,1,30,0,0
118077,-100,4,2,1,32,0,0
118155,-100,4,2,1,34,0,0
118234,-100,4,2,1,36,0,0
118312,-100,4,2,1,38,0,0
118390,-100,4,2,1,40,0,0
118468,-100,4,2,1,42,0,0
118546,-100,4,2,1,44,0,0
118624,-100,4,2,1,46,0,0
118702,-100,4,2,1,44,0,0
118780,-100,4,2,1,42,0,0
118859,-100,4,2,1,40,0,0
118937,-100,4,2,1,38,0,0
119015,-100,4,2,1,36,0,0
119093,-100,4,2,1,34,0,0
119171,-100,4,2,1,32,0,0
119249,-100,4,2,1,30,0,0
119327,-100,4,2,1,28,0,0
119405,-100,4,2,1,26,0,0
119484,-100,4,2,1,20,0,0
119562,-100,4,2,1,22,0,0
119640,-100,4,2,1,24,0,0
119718,-100,4,2,1,26,0,0
119796,-100,4,2,1,28,0,0
119874,-100,4,2,1,30,0,0
119952,-100,4,2,1,32,0,0
120030,-100,4,2,1,34,0,0
120109,-100,4,2,1,36,0,0
120187,-100,4,2,1,38,0,0
120265,-100,4,2,1,40,0,0
120343,-100,4,2,1,42,0,0
120421,-100,4,2,1,44,0,0
120499,-100,4,2,1,42,0,0
120577,-100,4,2,1,40,0,0
120655,-100,4,2,1,38,0,0
120734,-100,4,2,1,36,0,0
120812,-100,4,2,1,34,0,0
120890,-100,4,2,1,32,0,0
120968,-100,4,2,1,30,0,0
121046,-100,4,2,1,28,0,0
121124,-100,4,2,1,26,0,0
121202,-100,4,2,1,24,0,0
121280,-100,4,2,1,22,0,0
121359,-100,4,2,1,20,0,0
121437,-100,4,2,1,21,0,0
121515,-100,4,2,1,22,0,0
121593,-100,4,2,1,23,0,0
121671,-100,4,2,1,24,0,0
121749,-100,4,2,1,25,0,0
121827,-100,4,2,1,26,0,0
121905,-100,4,2,1,27,0,0
121984,-100,4,2,1,28,0,0
122062,-100,4,2,1,29,0,0
122140,-100,4,2,1,30,0,0
122218,-100,4,2,1,31,0,0
122296,-100,4,2,1,32,0,0
122374,-100,4,2,1,31,0,0
122452,-100,4,2,1,30,0,0
122530,-100,4,2,1,29,0,0
122609,-100,4,2,1,28,0,0
122687,-100,4,2,1,27,0,0
122765,-100,4,2,1,26,0,0
122843,-100,4,2,1,25,0,0
122921,-100,4,2,1,24,0,0
122999,-100,4,2,1,23,0,0
123077,-100,4,2,1,22,0,0
123155,-100,4,2,1,21,0,0
123234,-100,4,2,1,20,0,0
123546,-100,4,2,1,22,0,0
123859,-100,4,2,1,24,0,0
124171,-100,4,2,1,26,0,0
124484,-100,4,2,1,28,0,0
124796,-100,4,2,1,30,0,0
125109,-100,4,2,1,32,0,0
125421,-100,4,2,1,34,0,0
125734,-100,4,2,1,36,0,0
126046,-100,4,2,1,38,0,0
126359,-100,4,2,1,40,0,0
126671,-100,4,2,1,42,0,0
126984,-100,4,2,1,20,0,0
127062,-100,4,2,1,21,0,0
127140,-100,4,2,1,22,0,0
127218,-100,4,2,1,23,0,0
127296,-100,4,2,1,24,0,0
127374,-100,4,2,1,25,0,0
127452,-100,4,2,1,26,0,0
127530,-100,4,2,1,27,0,0
127609,-100,4,2,1,28,0,0
127687,-100,4,2,1,29,0,0
127765,-100,4,2,1,30,0,0
127843,-100,4,2,1,31,0,0
127921,-100,4,2,1,32,0,0
127999,-100,4,2,1,33,0,0
128077,-100,4,2,1,34,0,0
128155,-100,4,2,1,35,0,0
128234,-100,4,2,1,36,0,0
128312,-100,4,2,1,37,0,0
128390,-100,4,2,1,38,0,0
128468,-100,4,2,1,39,0,0
128546,-100,4,2,1,40,0,0
128624,-100,4,2,1,41,0,0
128702,-100,4,2,1,42,0,0
128780,-100,4,2,1,43,0,0
128859,-100,4,2,1,44,0,0
128937,-100,4,2,1,45,0,0
129015,-100,4,2,1,46,0,0
129093,-100,4,2,1,47,0,0
129171,-100,4,2,1,48,0,0
129249,-100,4,2,1,49,0,0
129327,-100,4,2,1,50,0,0
129405,-100,4,2,1,51,0,0
129484,-100,4,2,1,52,0,0
129562,-100,4,2,1,53,0,0
129640,-100,4,2,1,54,0,0
129718,-100,4,2,1,55,0,0
129796,-100,4,2,1,56,0,0
130734,-100,4,2,1,20,0,0
130812,-100,4,2,1,21,0,0
130890,-100,4,2,1,22,0,0
130968,-100,4,2,1,23,0,0
131046,-100,4,2,1,24,0,0
131124,-100,4,2,1,25,0,0
131202,-100,4,2,1,26,0,0
131280,-100,4,2,1,27,0,0
131359,-100,4,2,1,28,0,0
131437,-100,4,2,1,29,0,0
131515,-100,4,2,1,30,0,0
131593,-100,4,2,1,31,0,0
131671,-100,4,2,1,32,0,0
131749,-100,4,2,1,33,0,0
131827,-100,4,2,1,34,0,0
131905,-100,4,2,1,35,0,0
131984,-100,4,2,1,36,0,0
132062,-100,4,2,1,37,0,0
132140,-100,4,2,1,38,0,0
132218,-100,4,2,1,39,0,0
132296,-100,4,2,1,40,0,0
132374,-100,4,2,1,41,0,0
132452,-100,4,2,1,42,0,0
132530,-100,4,2,1,43,0,0
132609,-100,4,2,1,44,0,0
132687,-100,4,2,1,45,0,0
132765,-100,4,2,1,46,0,0
132843,-100,4,2,1,47,0,0
132921,-100,4,2,1,48,0,0
132999,-100,4,2,1,49,0,0
133077,-100,4,2,1,50,0,0
133155,-100,4,2,1,51,0,0
133234,-100,4,2,1,52,0,0
133312,-100,4,2,1,53,0,0
133390,-100,4,2,1,54,0,0
133468,-100,4,2,1,55,0,0
133546,-100,4,2,1,56,0,0
134484,-100,4,2,1,10,0,0
140577,-100,4,2,1,15,0,0
140655,-100,4,2,1,20,0,0
140734,-100,4,2,1,25,0,0
140812,-100,4,2,1,30,0,0
140890,-100,4,2,1,35,0,0
140968,-100,4,2,1,40,0,0
141046,-100,4,2,1,45,0,0
141515,500,4,2,1,45,1,0
141515,-100,4,2,1,45,0,0
142015,468.75,4,2,1,36,1,0
142093,-100,4,2,1,50,0,0
145765,-100,4,2,1,36,0,0
145804,-100,4,2,1,40,0,0
146233,-100,4,2,1,37,0,0
146702,-100,4,2,1,34,0,0
147171,-100,4,2,1,31,0,0
147640,-100,4,2,1,28,0,0
148108,-100,4,2,1,25,0,0
148577,-100,4,2,1,22,0,0
149046,-100,4,2,1,19,0,0
149515,-100,4,2,1,36,0,0
149593,-100,4,2,1,22,0,0
149671,-100,4,2,1,24,0,0
149749,-100,4,2,1,26,0,0
149827,-100,4,2,1,28,0,0
149905,-100,4,2,1,30,0,0
149983,-100,4,2,1,32,0,0
150061,-100,4,2,1,34,0,0
150140,-100,4,2,1,36,0,0
150218,-100,4,2,1,38,0,0
150296,-100,4,2,1,40,0,0
150374,-100,4,2,1,42,0,0
150452,-100,4,2,1,44,0,0
150530,-100,4,2,1,42,0,0
150608,-100,4,2,1,40,0,0
150686,-100,4,2,1,38,0,0
150765,-100,4,2,1,36,0,0
150843,-100,4,2,1,34,0,0
150921,-100,4,2,1,32,0,0
150999,-100,4,2,1,30,0,0
151077,-100,4,2,1,28,0,0
151155,-100,4,2,1,26,0,0
151233,-100,4,2,1,24,0,0
151311,-100,4,2,1,22,0,0
151390,-100,4,2,1,20,0,0
151468,-100,4,2,1,22,0,0
151546,-100,4,2,1,24,0,0
151624,-100,4,2,1,26,0,0
151702,-100,4,2,1,28,0,0
151780,-100,4,2,1,30,0,0
151858,-100,4,2,1,32,0,0
151936,-100,4,2,1,34,0,0
152015,-100,4,2,1,36,0,0
152093,-100,4,2,1,38,0,0
152171,-100,4,2,1,40,0,0
152249,-100,4,2,1,42,0,0
152327,-100,4,2,1,44,0,0
152405,-100,4,2,1,42,0,0
152483,-100,4,2,1,40,0,0
152561,-100,4,2,1,38,0,0
152640,-100,4,2,1,36,0,0
152718,-100,4,2,1,34,0,0
152796,-100,4,2,1,36,0,0
152874,-100,4,2,1,30,0,0
152952,-100,4,2,1,28,0,0
153030,-100,4,2,1,26,0,0
153108,-100,4,2,1,24,0,0
153186,-100,4,2,1,22,0,0
153265,-100,4,2,1,35,0,0
153343,-100,4,2,1,23,0,0
153421,-100,4,2,1,26,0,0
153499,-100,4,2,1,29,0,0
153577,-100,4,2,1,32,0,0
153655,-100,4,2,1,35,0,0
153733,-100,4,2,1,38,0,0
153811,-100,4,2,1,41,0,0
153890,-100,4,2,1,44,0,0
153968,-100,4,2,1,47,0,0
154046,-100,4,2,1,50,0,0
154124,-100,4,2,1,53,0,0
154202,-100,4,2,1,56,0,0
154280,-100,4,2,1,53,0,0
154358,-100,4,2,1,50,0,0
154436,-100,4,2,1,47,0,0
154515,-100,4,2,1,44,0,0
154593,-100,4,2,1,41,0,0
154671,-100,4,2,1,32,0,0
154749,-100,4,2,1,35,0,0
154827,-100,4,2,1,32,0,0
154905,-100,4,2,1,29,0,0
154983,-100,4,2,1,26,0,0
155061,-100,4,2,1,23,0,0
155140,-100,4,2,1,36,0,0
155218,-100,4,2,1,24,0,0
155296,-100,4,2,1,28,0,0
155374,-100,4,2,1,32,0,0
155452,-100,4,2,1,36,0,0
155530,-100,4,2,1,40,0,0
155608,-100,4,2,1,44,0,0
155686,-100,4,2,1,48,0,0
155765,-100,4,2,1,52,0,0
155843,-100,4,2,1,56,0,0
155921,-100,4,2,1,60,0,0
155999,-100,4,2,1,64,0,0
156077,-100,4,2,1,68,0,0
157015,-100,4,2,1,30,0,0
157093,-100,4,2,1,50,0,0
160765,-100,4,2,1,36,0,0
160804,-100,4,2,1,40,0,0
161233,-100,4,2,1,37,0,0
161702,-100,4,2,1,34,0,0
162171,-100,4,2,1,31,0,0
162640,-100,4,2,1,28,0,0
163108,-100,4,2,1,25,0,0
163577,-100,4,2,1,22,0,0
164046,-100,4,2,1,19,0,0
164515,-100,4,2,1,36,0,0
164593,-100,4,2,1,23,0,0
164671,-100,4,2,1,26,0,0
164749,-100,4,2,1,29,0,0
164827,-100,4,2,1,32,0,0
164905,-100,4,2,1,35,0,0
164983,-100,4,2,1,38,0,0
165061,-100,4,2,1,41,0,0
165140,-100,4,2,1,44,0,0
165218,-100,4,2,1,47,0,0
165296,-100,4,2,1,50,0,0
165374,-100,4,2,1,53,0,0
165452,-100,4,2,1,56,0,0
165530,-100,4,2,1,53,0,0
165608,-100,4,2,1,50,0,0
165686,-100,4,2,1,47,0,0
165765,-100,4,2,1,44,0,0
165843,-100,4,2,1,41,0,0
165921,-100,4,2,1,36,0,0
165999,-100,4,2,1,35,0,0
166077,-100,4,2,1,32,0,0
166155,-100,4,2,1,29,0,0
166233,-100,4,2,1,26,0,0
166311,-100,4,2,1,23,0,0
166390,-100,4,2,1,36,0,0
166468,-100,4,2,1,23,0,0
166546,-100,4,2,1,26,0,0
166624,-100,4,2,1,29,0,0
166702,-100,4,2,1,32,0,0
166780,-100,4,2,1,35,0,0
166858,-100,4,2,1,38,0,0
166936,-100,4,2,1,41,0,0
167015,-100,4,2,1,44,0,0
167093,-100,4,2,1,47,0,0
167171,-100,4,2,1,50,0,0
167249,-100,4,2,1,53,0,0
167327,-100,4,2,1,56,0,0
167405,-100,4,2,1,53,0,0
167483,-100,4,2,1,50,0,0
167561,-100,4,2,1,47,0,0
167640,-100,4,2,1,44,0,0
167718,-100,4,2,1,41,0,0
167796,-100,4,2,1,36,0,0
167874,-100,4,2,1,35,0,0
167952,-100,4,2,1,32,0,0
168030,-100,4,2,1,29,0,0
168108,-100,4,2,1,26,0,0
168186,-100,4,2,1,23,0,0
168265,-100,4,2,1,30,0,0
168343,-100,4,2,1,33,0,0
168421,-100,4,2,1,36,0,0
168499,-100,4,2,1,39,0,0
168577,-100,4,2,1,42,0,0
168655,-100,4,2,1,45,0,0
168733,-100,4,2,1,48,0,0
168811,-100,4,2,1,51,0,0
168890,-100,4,2,1,54,0,0
168968,-100,4,2,1,57,0,0
169046,-100,4,2,1,60,0,0
169124,-100,4,2,1,63,0,0
169202,-100,4,2,1,66,0,0
169280,-100,4,2,1,69,0,0
169358,-100,4,2,1,66,0,0
169436,-100,4,2,1,63,0,0
169515,-100,4,2,1,60,0,0
169593,-100,4,2,1,57,0,0
169671,-100,4,2,1,54,0,0
169749,-100,4,2,1,56,0,0
169827,-100,4,2,1,58,0,0
169905,-100,4,2,1,60,0,0
169983,-100,4,2,1,62,0,0
170061,-100,4,2,1,64,0,0
170140,-100,4,2,1,66,0,0
170218,-100,4,2,1,69,0,0
170296,-100,4,2,1,66,0,0
170374,-100,4,2,1,63,0,0
170453,-100,4,2,1,60,0,0
170531,-100,4,2,1,57,0,0
170609,-100,4,2,1,54,0,0
170687,-100,4,2,1,56,0,0
170765,-100,4,2,1,58,0,0
170843,-100,4,2,1,60,0,0
170921,-100,4,2,1,62,0,0
170999,-100,4,2,1,64,0,0
171077,-100,4,2,1,24,0,0
171155,-100,4,2,1,23,0,0
171233,-100,4,2,1,22,0,0
171311,-100,4,2,1,21,0,0
171390,-100,4,2,1,20,0,0
171468,-100,4,2,1,19,0,0
171546,-100,4,2,1,18,0,0
171624,-100,4,2,1,17,0,0
171702,-100,4,2,1,16,0,0
171780,-100,4,2,1,15,0,0
171858,-100,4,2,1,14,0,0
171936,-100,4,2,1,13,0,0
172015,-100,4,2,1,12,0,0
172093,-100,4,2,1,13,0,0
172171,-100,4,2,1,14,0,0
172249,-100,4,2,1,15,0,0
172327,-100,4,2,1,16,0,0
172405,-100,4,2,1,17,0,0
172483,-100,4,2,1,18,0,0
172561,-100,4,2,1,19,0,0
172640,-100,4,2,1,20,0,0
172718,-100,4,2,1,21,0,0
172796,-100,4,2,1,22,0,0
172874,-100,4,2,1,23,0,0
172952,-100,4,2,1,24,0,0
173030,-100,4,2,1,25,0,0
173108,-100,4,2,1,26,0,0
173186,-100,4,2,1,27,0,0
173265,-100,4,2,1,28,0,0
173343,-100,4,2,1,29,0,0
173421,-100,4,2,1,30,0,0
173499,-100,4,2,1,31,0,0
173577,-100,4,2,1,32,0,0
173655,-100,4,2,1,33,0,0
173733,-100,4,2,1,34,0,0
173811,-100,4,2,1,35,0,0
173890,-100,4,2,1,36,0,0
173968,-100,4,2,1,37,0,0
174046,-100,4,2,1,38,0,0
174124,-100,4,2,1,39,0,0
174202,-100,4,2,1,40,0,0
174280,-100,4,2,1,41,0,0
174358,-100,4,2,1,42,0,0
174436,-100,4,2,1,43,0,0
174515,-100,4,2,1,44,0,0
174593,-100,4,2,1,45,0,0
174671,-100,4,2,1,46,0,0
174749,-100,4,2,1,47,0,0
174827,-100,4,2,1,48,0,0
174905,-100,4,2,1,49,0,0
174983,-100,4,2,1,50,0,0
175061,-100,4,2,1,51,0,0
175140,-100,4,2,1,52,0,0
175218,-100,4,2,1,53,0,0
175296,-100,4,2,1,54,0,0
175374,-100,4,2,1,55,0,0
175452,-100,4,2,1,56,0,0
175530,-100,4,2,1,57,0,0
175608,-100,4,2,1,58,0,0
175686,-100,4,2,1,59,0,0
175765,-100,4,2,1,36,0,0
176702,-100,4,2,1,36,0,0
177640,-100,4,2,1,36,0,0
179515,-100,4,2,1,30,0,0
180452,-100,4,2,1,30,0,0
181390,-100,4,2,1,30,0,0
182327,-100,4,2,1,30,0,0
183265,-100,4,2,1,30,0,0
185140,-100,4,2,1,40,0,0
186077,-100,4,2,1,40,0,0
187483,-100,4,2,1,55,0,0
191233,402.684563758389,4,2,1,60,1,0

[Colours]
Combo1 : 15,89,145
Combo2 : 0,64,128
Combo3 : 1,145,186

[HitObjects]
116,112,21954,5,0,0:0:0:0:
336,36,22452,2,0,P|336:108|364:160,1,116.25
374,159,22921,2,0,L|275:191,1,103.333333333333
209,159,23390,1,0,0:0:0:0:
81,231,23702,1,0,0:0:0:0:
102,301,23859,6,0,L|206:318,1,103.333333333333
267,352,24327,2,0,P|321:296|406:284,1,155
476,77,25265,2,0,L|339:91,1,103.333333333333
303,43,25734,5,0,0:0:0:0:
164,246,26202,2,0,P|217:221|275:221,1,116.25
293,234,26671,2,0,P|269:181|268:132,1,103.333333333333
318,71,27140,1,0,0:0:0:0:
161,23,27452,1,0,0:0:0:0:
96,74,27609,6,0,L|128:180,1,103.333333333333
45,186,28077,2,0,L|111:274,1,103.333333333333
36,308,28546,2,0,L|128:368,1,103.333333333333
200,340,29015,1,0,0:0:0:0:
193,330,29171,1,0,0:0:0:0:
187,321,29327,1,0,0:0:0:0:
180,312,29484,6,0,L|344:312,1,155
420,216,30109,2,0,L|368:228,1,51.6666666666667
431,116,30421,2,0,L|471:80,2,51.6666666666667
352,140,30890,2,0,L|236:124,1,103.333333333333
200,192,31359,6,0,P|140:176|48:204,1,155
8,80,31984,2,0,L|60:92,1,51.6666666666667
185,77,32296,2,0,L|220:40,2,51.6666666666667
136,143,32765,2,0,P|128:194|130:246,1,103.333333333333
116,327,33234,6,0,P|191:312|267:325,1,155
386,277,33859,2,0,L|336:248,1,51.6666666666667
313,127,34171,2,0,L|354:157,2,51.6666666666667
240,164,34640,2,0,L|120:156,1,103.333333333333
68,200,35109,6,0,P|52:288|64:352,1,155
220,320,35734,2,0,L|168:320,1,51.6666666666667
313,256,36046,1,0,0:0:0:0:
448,56,36984,5,4,0:1:0:0:
432,208,37452,2,0,P|375:210|327:243,1,116.25
312,264,37921,2,0,L|200:280,1,103.333333333333
148,324,38390,1,0,0:0:0:0:
56,272,38702,1,0,0:0:0:0:
92,204,38859,6,0,L|112:100,1,103.333333333333
72,44,39327,2,0,P|128:72|232:68,1,155
352,224,40265,2,0,L|464:192,1,103.333333333333
488,128,40734,5,0,0:0:0:0:
348,60,41202,2,0,L|228:92,1,116.25
224,104,41671,2,0,P|177:82|125:82,1,103.333333333333
60,52,42140,1,0,0:0:0:0:
28,152,42452,1,0,0:0:0:0:
84,204,42609,6,0,L|100:308,1,103.333333333333
164,252,43077,2,0,L|236:332,1,103.333333333333
257,248,43546,2,0,L|360:275,1,103.333333333333
408,328,44015,5,0,0:0:0:0:
416,316,44171,1,0,0:0:0:0:
424,304,44327,1,0,0:0:0:0:
431,292,44484,6,0,P|455:219|427:149,1,155
340,96,45109,2,0,L|380:56,1,51.6666666666667
236,64,45421,2,0,L|288:28,2,51.6666666666667
120,31,45890,6,0,P|127:83|139:133,1,103.333333333333
55,195,46359,2,0,P|130:217|198:253,1,155
276,320,46984,2,0,L|340:292,1,51.6666666666667
424,276,47296,2,0,L|472:300,2,51.6666666666667
368,188,47765,2,0,P|360:120|384:80,1,103.333333333333
292,28,48234,6,0,L|168:60,1,103.333333333333
92,76,48702,2,0,L|52:68,2,25.8333333333333
172,144,49015,1,0,0:0:0:0:
72,172,49171,2,0,L|32:164,2,25.8333333333333
152,240,49484,1,0,0:0:0:0:
52,264,49640,2,0,L|12:256,2,25.8333333333333
136,328,49953,1,0,0:0:0:0:
235,296,50109,6,0,P|286:287|337:297,1,103.333333333333
424,360,50577,2,0,L|412:256,1,103.333333333333
347,171,51046,2,0,L|463:187,1,103.333333333333
488,88,51515,1,0,0:0:0:0:
240,24,51984,6,0,P|224:76|240:128,1,103.333333333333
180,216,52452,1,0,0:0:0:0:
244,260,52609,1,0,0:0:0:0:
320,248,52765,1,0,0:0:0:0:
360,312,52921,2,0,L|476:296,1,103.333333333333
480,224,53390,1,0,0:0:0:0:
292,88,53859,6,0,L|220:96,1,51.6666666666667
176,52,54171,2,0,L|136:32,2,25.8333333333333
132,116,54484,2,0,L|96:112,2,25.8333333333333
120,192,54796,2,0,L|88:204,2,25.8333333333333
136,268,55109,2,0,L|100:292,2,25.8333333333333
184,328,55421,2,0,L|160:360,2,25.8333333333333
260,348,55734,5,0,0:0:0:0:
411,371,56202,2,0,P|412:314|431:259,1,116.25
444,252,56671,2,0,L|341:263,1,103.333333333333
280,304,57140,1,0,0:0:0:0:
148,332,57452,1,0,0:0:0:0:
172,264,57609,6,0,L|148:160,1,103.333333333333
184,100,58077,2,0,P|280:120|348:104,1,155
469,279,59015,2,0,L|347:252,1,103.333333333333
322,200,59484,5,0,0:0:0:0:
150,334,59952,2,0,P|178:290|180:240,1,103.333333333333
169,222,60421,2,0,L|169:109,1,103.333333333333
126,59,60890,1,0,0:0:0:0:
340,25,61359,6,0,L|298:133,1,103.333333333333
383,170,61827,2,0,L|301:245,1,103.333333333333
353,322,62296,2,0,L|225:351,1,103.333333333333
199,287,62765,1,0,0:0:0:0:
180,295,62921,1,0,0:0:0:0:
161,304,63077,1,0,0:0:0:0:
142,314,63234,6,0,P|103:255|107:171,1,155
61,89,63859,2,0,L|42:36,1,51.6666666666667
25,174,64171,2,0,L|2:220,2,51.6666666666667
160,122,64640,2,0,P|213:127|292:146,1,103.333333333333
315,24,65109,6,0,L|270:191,1,155
334,274,65734,2,0,L|386:267,1,51.6666666666667
224,273,66046,2,0,L|172:312,2,51.6666666666667
164,147,66515,2,0,L|135:255,1,103.333333333333
60,85,66984,6,0,L|60:251,1,155
159,349,67609,2,0,L|140:294,1,51.6666666666667
257,324,67921,2,0,L|282:256,2,51.6666666666667
377,327,68390,2,0,L|480:291,1,103.333333333333
478,167,68859,6,0,P|401:176|312:167,1,155
207,84,69484,2,0,L|234:157,1,51.6666666666667
85,41,69796,1,0,0:0:0:0:
474,247,70734,5,0,0:0:0:0:
233,337,71202,2,0,L|91:338,1,116.25
98,348,71671,2,0,P|108:296|98:248,1,103.333333333333
43,197,72140,1,0,0:0:0:0:
19,52,72452,1,0,0:0:0:0:
80,92,72609,6,0,L|200:114,1,103.333333333333
294,180,73077,2,0,L|174:202,1,103.333333333333
84,263,73546,2,0,L|248:295,1,155
445,316,74484,5,0,0:0:0:0:
508,105,74952,2,0,P|456:102|391:138,1,116.25
404,148,75421,2,0,L|292:118,1,103.333333333333
221,152,75890,1,0,0:0:0:0:
46,318,76359,6,0,L|179:356,1,103.333333333333
200,253,76827,2,0,L|275:327,1,103.333333333333
383,338,77296,1,0,0:0:0:0:
372,320,77452,1,0,0:0:0:0:
361,302,77609,1,0,0:0:0:0:
350,284,77765,1,0,0:0:0:0:
339,266,77921,1,0,0:0:0:0:
328,248,78077,1,0,0:0:0:0:
318,229,78234,6,0,P|302:182|318:127,1,103.333333333333
405,102,78702,2,0,L|461:125,2,51.6666666666667
322,43,79171,2,0,L|208:49,1,103.333333333333
153,97,79640,2,0,L|122:99,5,25.8333333333333
91,83,80109,6,0,L|131:196,1,103.333333333333
104,294,80577,2,0,L|76:344,2,51.6666666666667
193,343,81046,2,0,P|241:323|292:325,1,103.333333333333
376,252,81515,2,0,L|392:275,5,25.8333333333333
432,288,81984,6,0,L|432:333,2,25.8333333333333
466,197,82296,2,0,L|466:242,2,25.8333333333333
399,126,82609,2,0,L|399:171,2,25.8333333333333
312,144,82921,2,0,L|312:189,2,25.8333333333333
264,230,83234,2,0,L|264:262,2,25.8333333333333
178,302,83546,2,0,L|171:332,2,25.8333333333333
74,261,83859,6,0,L|48:299,2,25.8333333333333
38,198,84171,1,0,0:0:0:0:
18,168,84328,1,0,0:0:0:0:
12,134,84484,1,0,0:0:0:0:
21,100,84640,1,0,0:0:0:0:
42,73,84796,1,0,0:0:0:0:
206,25,85265,5,0,0:0:0:0:
212,59,85421,1,0,0:0:0:0:
203,93,85577,1,0,0:0:0:0:
182,120,85733,1,0,0:0:0:0:
122,280,86202,5,0,0:0:0:0:
98,254,86358,1,0,0:0:0:0:
87,221,86514,1,0,0:0:0:0:
90,187,86670,1,0,0:0:0:0:
228,287,87140,2,0,L|305:276,1,77.5
319,360,87609,6,0,P|306:278|345:219,1,155
421,255,88312,1,0,0:0:0:0:
412,170,88546,6,0,P|346:208|272:194,1,155
205,141,89249,1,0,0:0:0:0:
155,71,89484,6,0,L|66:56,1,77.5
110,143,89952,2,0,L|34:131,1,77.5
141,228,90421,2,0,L|65:216,1,77.5
96,300,90890,2,0,L|20:288,1,77.5
170,343,91359,5,0,0:0:0:0:
194,335,91515,1,0,0:0:0:0:
218,327,91671,1,0,0:0:0:0:
254,346,91827,5,0,0:0:0:0:
278,338,91984,1,0,0:0:0:0:
302,330,92140,1,0,0:0:0:0:
338,349,92296,5,0,0:0:0:0:
362,341,92453,1,0,0:0:0:0:
386,333,92609,1,0,0:0:0:0:
422,352,92765,5,0,0:0:0:0:
446,344,92922,1,0,0:0:0:0:
470,336,93078,1,0,0:0:0:0:
491,329,93234,6,0,L|499:251,1,77.5
421,274,93702,2,0,L|429:196,1,77.5
340,311,94171,2,0,L|348:233,1,77.5
270,256,94639,2,0,L|278:178,1,77.5
207,307,95109,5,0,0:0:0:0:
180,305,95265,1,0,0:0:0:0:
154,303,95421,1,0,0:0:0:0:
143,271,95577,5,0,0:0:0:0:
120,255,95733,1,0,0:0:0:0:
99,241,95889,1,0,0:0:0:0:
105,207,96046,5,0,0:0:0:0:
93,182,96202,1,0,0:0:0:0:
82,159,96358,1,0,0:0:0:0:
104,133,96515,5,0,0:0:0:0:
106,105,96671,1,0,0:0:0:0:
108,80,96827,1,0,0:0:0:0:
109,56,96984,5,0,0:0:0:0:
65,76,104484,6,0,L|151:94,1,77.5
249,193,104952,2,0,L|172:206,1,77.5
255,82,105421,2,0,L|344:93,1,77.5
465,29,105890,2,0,L|439:114,1,77.5
435,247,106359,6,0,L|426:224,2,25.8333333333333
332,292,106671,2,0,L|326:266,2,25.8333333333333
220,308,106984,2,0,L|219:283,2,25.8333333333333
105,298,107296,2,0,L|110:273,5,25.8333333333333
112,255,107765,5,0,0:0:0:0:
96,181,107921,1,0,0:0:0:0:
81,107,108077,1,0,0:0:0:0:
61,36,108234,2,0,L|53:5,4,25.8333333333333
139,57,108702,5,0,0:0:0:0:
168,134,108858,1,0,0:0:0:0:
197,211,109014,1,0,0:0:0:0:
231,285,109171,2,0,L|245:317,4,25.8333333333333
310,345,109640,6,0,L|387:308,1,77.5
439,160,110109,2,0,L|374:202,1,77.5
214,228,110577,2,0,L|291:191,1,77.5
360,51,111046,6,0,L|337:75,5,25.8333333333333
323,89,111515,1,0,0:0:0:0:
249,84,111671,1,0,0:0:0:0:
177,100,111827,1,0,0:0:0:0:
116,144,111984,6,0,P|110:221|184:312,1,155
256,192,112687,1,0,0:0:0:0:
364,97,112921,2,0,P|402:163|396:240,1,155
256,192,113624,1,0,0:0:0:0:
192,100,113859,6,0,L|132:112,2,51.6666666666667
320,160,114327,2,0,L|380:172,2,51.6666666666667
188,220,114796,2,0,L|128:232,2,51.6666666666667
316,280,115264,2,0,L|376:292,2,51.6666666666667
184,332,115734,6,0,L|92:344,1,77.5
44,252,116202,2,0,L|80:240,5,25.8333333333333
76,208,116671,2,0,P|176:220|248:196,1,155
324,152,117374,1,0,0:0:0:0:
324,264,117609,6,0,L|360:352,1,77.5
448,280,118077,2,0,L|464:236,5,25.8333333333333
484,244,118546,2,0,L|324:244,1,155
252,320,119249,1,0,0:0:0:0:
200,220,119484,6,0,L|124:232,1,77.5
0,108,119952,2,0,L|76:96,1,77.5
24,244,120421,2,0,L|16:284,5,25.8333333333333
36,292,120890,2,0,L|32:332,5,25.8333333333333
45,338,121359,6,0,L|139:322,1,77.5
233,209,121827,2,0,L|149:227,1,77.5
12,196,122296,2,0,L|44:189,5,29.0625
52,164,122765,2,0,L|84:157,5,25.8333333333333
98,135,123234,6,0,L|122:71,1,51.6666666666667
185,109,123546,2,0,L|209:45,1,51.6666666666667
272,84,123859,2,0,L|296:20,1,51.6666666666667
359,58,124171,2,0,L|383:-6,1,51.6666666666667
428,100,124484,6,0,L|401:170,1,51.6666666666667
332,128,124796,2,0,L|305:198,1,51.6666666666667
236,156,125109,2,0,L|209:226,1,51.6666666666667
140,184,125421,2,0,L|113:254,1,51.6666666666667
46,367,125734,6,0,L|64:318,1,51.6666666666667
151,336,126046,2,0,L|169:287,1,51.6666666666667
257,305,126359,2,0,L|275:256,1,51.6666666666667
362,274,126671,2,0,L|380:225,1,51.6666666666667
467,205,126984,5,0,0:0:0:0:
256,192,127140,12,0,129796,0:0:0:0:
256,192,130734,5,0,0:0:0:0:
256,192,130890,12,0,133546,0:0:0:0:
116,140,134484,5,0,0:0:0:0:
192,120,135421,1,0,0:0:0:0:
268,100,136359,6,0,L|292:88,23,25.8333333333333
316,68,138234,6,0,B|296:148|304:220|304:220|308:268|320:360|359:365|446:355|510:355|487:266|532:159|404:144|324:180|304:220|304:220|256:256|200:240,1,775
172,136,140812,1,0,0:0:0:0:
220,36,141046,2,0,L|224:4,2,25.8333333333333
244,64,141280,2,0,L|264:36,2,25.8333333333333
264,92,141515,6,0,L|304:72,2,25.8333333333333
276,128,141765,2,0,L|308:112,2,25.8333333333333
276,160,142015,5,0,0:0:0:0:
108,300,142483,2,0,P|165:302|224:308,1,116.25
232,320,142952,2,0,P|272:288|332:256,1,103.333333333333
392,304,143421,1,0,0:0:0:0:
440,120,143733,1,0,0:0:0:0:
360,140,143890,6,0,L|252:128,1,103.333333333333
160,224,144358,2,0,L|268:212,1,103.333333333333
364,300,144827,2,0,L|256:288,1,103.333333333333
152,348,145296,1,0,0:0:0:0:
144,336,145452,1,0,0:0:0:0:
136,324,145608,1,0,0:0:0:0:
128,312,145765,6,0,P|112:244|120:208,1,103.333333333333
40,144,146233,2,0,L|168:132,1,116.25
176,148,146702,2,0,P|216:120|276:116,1,103.333333333333
332,56,147171,1,0,0:0:0:0:
376,216,147483,1,0,0:0:0:0:
420,144,147640,6,0,L|384:244,1,103.333333333333
404,324,148108,2,0,L|300:304,1,103.333333333333
220,296,148577,1,0,0:0:0:0:
208,300,148733,1,0,0:0:0:0:
196,304,148890,1,0,0:0:0:0:
164,288,149046,5,0,0:0:0:0:
152,292,149202,1,0,0:0:0:0:
140,296,149359,1,0,0:0:0:0:
132,300,149515,6,0,P|104:248|116:152,1,155
36,29,150140,2,0,L|60:76,1,51.6666666666667
184,68,150452,2,0,L|208:20,2,51.6666666666667
344,152,150921,2,0,P|295:151|240:152,1,103.333333333333
140,272,151390,6,0,P|218:269|312:276,1,155
464,340,152015,2,0,L|404:320,1,51.6666666666667
428,220,152327,2,0,L|360:200,2,51.6666666666667
434,115,152796,2,0,L|332:88,1,103.333333333333
88,132,153265,6,0,P|163:117|237:138,1,155
416,168,153890,2,0,L|360:184,1,51.6666666666667
460,284,154202,2,0,L|448:336,2,51.6666666666667
428,148,154671,2,0,L|312:184,1,103.333333333333
280,280,155140,6,0,P|220:276|128:300,1,155
8,248,155765,2,0,L|28:192,1,51.6666666666667
8,88,156077,1,0,0:0:0:0:
440,56,157015,5,0,0:0:0:0:
480,204,157483,2,0,P|420:208|344:224,1,116.25
352,232,157952,2,0,L|248:220,1,103.333333333333
180,264,158421,1,0,0:0:0:0:
64,76,158733,1,0,0:0:0:0:
132,116,158890,6,0,L|234:126,1,103.333333333333
376,32,159358,2,0,P|344:80|340:128,1,103.333333333333
489,291,159827,2,0,L|371:302,1,103.333333333333
320,344,160296,1,0,0:0:0:0:
300,336,160452,1,0,0:0:0:0:
280,328,160608,1,0,0:0:0:0:
260,320,160765,5,0,0:0:0:0:
72,352,161233,2,0,L|47:221,1,116.25
12,112,161702,2,0,P|55:125|119:130,1,103.333333333333
176,93,162171,1,0,0:0:0:0:
359,55,162483,1,0,0:0:0:0:
391,123,162640,6,0,L|369:224,1,103.333333333333
293,156,163108,2,0,L|297:259,1,103.333333333333
206,213,163577,2,0,L|237:311,1,103.333333333333
175,351,164046,1,0,0:0:0:0:
147,337,164202,1,0,0:0:0:0:
119,323,164358,1,0,0:0:0:0:
44,338,164515,6,0,L|67:215,1,103.333333333333
17,179,164983,1,0,0:0:0:0:
26,149,165140,1,0,0:0:0:0:
34,119,165296,1,0,0:0:0:0:
95,34,165452,6,0,P|132:52|257:46,1,155
389,40,166233,1,0,0:0:0:0:
413,115,166390,6,0,P|383:164|386:211,1,103.333333333333
345,271,166858,1,0,0:0:0:0:
314,276,167015,1,0,0:0:0:0:
283,281,167171,1,0,0:0:0:0:
200,333,167327,6,0,P|143:296|46:301,1,155
13,237,167952,1,0,0:0:0:0:
20,207,168108,1,0,0:0:0:0:
22,117,168265,6,0,L|125:109,1,103.333333333333
141,38,168733,1,0,0:0:0:0:
271,132,169046,1,0,0:0:0:0:
282,59,169202,2,0,L|394:38,1,103.333333333333
465,134,169671,2,0,L|363:153,1,103.333333333333
300,260,170140,6,0,L|412:239,1,103.333333333333
504,312,170609,2,0,L|402:331,1,103.333333333333
264,354,171077,2,0,P|140:320|14:356,1,258.333333333333
23,260,172015,6,0,B|31:222|23:192|23:192|9:147|7:60|78:4|162:-2|256:-2|287:120|211:120|177:192|177:192|256:192|256:192|335:192|335:192|301:264|225:264|256:386|350:386|434:380|505:324|503:237|489:192|489:192|481:162|489:124,1,1240,0|4,0:0|0:1,0:0:0:0:
256,192,175921,12,4,176702,0:1:0:0:
256,192,176858,12,4,177640,0:1:0:0:
256,192,177796,12,4,178577,0:1:0:0:
256,191,179046,5,0,0:0:0:0:
476,36,179515,6,0,L|200:36,1,258.333333333333
168,112,180452,2,0,L|426:112,1,258.333333333333
476,188,181390,6,0,L|200:188,1,258.333333333333
168,264,182327,2,0,L|426:264,1,258.333333333333
476,340,183265,6,0,L|218:340,1,258.333333333333
144,312,184202,2,0,L|40:284,1,103.333333333333
128,232,184671,2,0,L|40:148,1,103.333333333333
84,80,185140,5,0,0:0:0:0:
110,103,185296,1,0,0:0:0:0:
144,116,185452,1,0,0:0:0:0:
181,118,185608,1,0,0:0:0:0:
216,107,185765,1,0,0:0:0:0:
244,81,185921,1,0,0:0:0:0:
260,48,186077,5,0,0:0:0:0:
287,22,186233,1,0,0:0:0:0:
322,11,186390,1,0,0:0:0:0:
359,13,186546,1,0,0:0:0:0:
393,26,186702,1,0,0:0:0:0:
420,50,186858,1,0,0:0:0:0:
432,84,187015,5,0,0:0:0:0:
256,192,187483,1,0,0:0:0:0:
256,192,187835,1,0,0:0:0:0:
256,192,187952,1,0,0:0:0:0:
256,192,188421,1,0,0:0:0:0:
256,192,188890,5,0,0:0:0:0:
256,192,189827,1,0,0:0:0:0:
256,192,190765,5,0,0:0:0:0:
256,192,191233,12,0,192642,0:0:0:0:
