osu file format v14

[General]
AudioFilename: audio.mp3
AudioLeadIn: 0
PreviewTime: 7806
Countdown: 0
SampleSet: Soft
StackLeniency: 0.7
Mode: 0
LetterboxInBreaks: 0
WidescreenStoryboard: 1

[Editor]
Bookmarks: 60565,80427
DistanceSpacing: 2
BeatDivisor: 4
GridSize: 4
TimelineZoom: 2.6

[Metadata]
Title:Revolutionary Etude (Shoji Meguro Arrangement)
TitleUnicode:Revolutionary Etude (目黒将司 Arrangement)
Artist:Frederic Chopin
ArtistUnicode:Frédéric Chopin
Creator:intiaz
Version:riffy's Presto
Source:Catherine
Tags:「革命」Étude Op. 10, No. 12 Étude on the Bombardment of Warsaw Fryderyk Franciszek Classical Frederic キャサリン SEGA Atlus Japanese Mature Adult Video Game Instrumental Piano Frédéric François Nyantiaz inti Xen Xenon- Xehn jas craezy riffy Bakari -Bakari-
BeatmapID:3614538
BeatmapSetID:1746423

[Difficulty]
HPDrainRate:5
CircleSize:3.4
OverallDifficulty:8.3
ApproachRate:9
SliderMultiplier:1.6
SliderTickRate:1

[Events]
//Background and Video events
0,0,"f.png",0,0
//Break Periods
//Storyboard Layer 0 (Background)
//Storyboard Layer 1 (Fail)
//Storyboard Layer 2 (Pass)
//Storyboard Layer 3 (Foreground)
//Storyboard Layer 4 (Overlay)
//Storyboard Sound Samples

[TimingPoints]
979,413.793103448276,4,2,1,80,1,0
1392,-100,4,2,1,70,0,0
1806,-100,4,2,1,60,0,0
2220,-100,4,2,1,50,0,0
2634,-100,4,2,1,40,0,0
3047,-100,4,2,1,50,0,0
3461,-100,4,2,1,60,0,0
3875,-62.5,4,2,1,80,0,0
4289,-100,4,2,1,80,0,0
4703,-100,4,2,1,70,0,0
5117,-100,4,2,1,60,0,0
5531,-100,4,2,1,50,0,0
5945,-100,4,2,1,40,0,0
6358,-100,4,2,1,50,0,0
6772,-100,4,2,1,60,0,0
7185,-62.5,4,2,1,80,0,0
7599,-100,4,2,1,80,0,0
8427,-100,4,2,1,70,0,0
9254,-100,4,2,1,60,0,0
10082,-100,4,2,1,50,0,0
10910,-100,4,2,1,40,0,0
11737,-100,4,2,1,50,0,0
12565,-100,4,2,1,60,0,0
13392,-100,4,2,1,70,0,0
14220,-62.5,4,2,1,70,0,0
17013,-45.4545454545455,4,2,1,70,0,0
23737,-62.5,4,2,1,70,0,0
24151,-45.4545454545455,4,2,1,70,0,0
29530,-62.5,4,2,1,70,0,0
30772,-45.4545454545455,4,2,1,70,0,0
32427,-62.5,4,2,1,70,0,0
33668,-45.4545454545455,4,2,1,70,0,0
40289,-62.5,4,2,1,70,0,0
40703,-100,4,2,1,70,0,0
45668,-45.4545454545455,4,2,1,70,0,0
46289,-62.5,4,2,1,70,0,0
47323,-45.4545454545455,4,2,1,70,0,0
67599,-45.4545454545455,4,2,1,70,0,0
68013,-45.4545454545455,4,2,1,60,0,0
68427,-45.4545454545455,4,2,1,50,0,0
68841,-45.4545454545455,4,2,1,40,0,0
69254,-45.4545454545455,4,2,1,50,0,0
69668,-45.4545454545455,4,2,1,60,0,0
70082,-45.4545454545455,4,2,1,80,0,0
70496,-45.4545454545455,4,2,1,80,0,0
70910,-45.4545454545455,4,2,1,70,0,0
71324,-45.4545454545455,4,2,1,60,0,0
71738,-45.4545454545455,4,2,1,50,0,0
72152,-45.4545454545455,4,2,1,40,0,0
72565,-45.4545454545455,4,2,1,50,0,0
72979,-45.4545454545455,4,2,1,60,0,0
73392,-45.4545454545455,4,2,1,80,0,0
73806,-45.4545454545455,4,2,1,80,0,0
74634,-45.4545454545455,4,2,1,70,0,0
75461,-45.4545454545455,4,2,1,60,0,0
76289,-45.4545454545455,4,2,1,50,0,0
77117,-45.4545454545455,4,2,1,40,0,0
77944,-45.4545454545455,4,2,1,50,0,0
78772,-45.4545454545455,4,2,1,60,0,0
79599,-45.4545454545455,4,2,1,70,0,0
80427,-45.4545454545455,4,2,1,70,0,0
80530,-45.4545454545455,4,2,1,10,0,0

[Colours]
Combo1 : 221,179,34
Combo2 : 253,2,58
Combo3 : 102,0,51
Combo4 : 244,122,0

[HitObjects]
82,56,978,5,4,1:0:0:0:
73,91,1082,1,0,0:0:0:0:
80,126,1185,1,2,0:0:0:0:
100,155,1289,1,0,0:0:0:0:
122,182,1392,1,0,3:2:0:0:
142,211,1496,1,0,0:0:0:0:
154,244,1599,1,2,0:0:0:0:
163,278,1703,1,0,0:0:0:0:
142,312,1806,1,0,3:2:0:0:
108,341,1910,1,0,0:0:0:0:
64,338,2013,1,2,0:0:0:0:
24,318,2116,1,0,0:0:0:0:
10,271,2220,1,0,3:2:0:0:
27,215,2323,1,0,0:0:0:0:
75,195,2427,1,2,0:0:0:0:
130,190,2530,1,0,0:0:0:0:
182,169,2634,5,0,3:2:0:0:
222,130,2737,1,0,0:0:0:0:
236,88,2841,1,0,0:0:0:0:
230,48,2944,1,0,0:0:0:0:
205,21,3047,1,0,3:2:0:0:
168,21,3151,1,0,0:0:0:0:
143,46,3254,1,0,0:0:0:0:
142,74,3358,1,0,0:0:0:0:
157,96,3461,1,0,3:2:0:0:
184,100,3565,1,0,0:0:0:0:
211,82,3668,1,0,0:2:0:0:
203,61,3772,1,0,0:0:0:0:
183,56,3875,6,0,P|165:158|158:201,1,128,0|0,1:0|0:0,0:0:0:0:
264,370,4185,1,0,0:0:0:0:
190,324,4289,6,0,P|139:340|91:361,1,80,4|2,1:0|0:0,0:0:0:0:
112,361,4599,1,0,0:0:0:0:
129,372,4703,1,0,3:0:0:0:
159,369,4806,1,0,0:0:0:0:
184,338,4910,1,2,0:0:0:0:
167,301,5013,1,0,0:0:0:0:
134,278,5116,1,0,3:0:0:0:
105,238,5220,1,0,0:0:0:0:
88,184,5323,1,2,0:0:0:0:
88,127,5427,1,0,0:0:0:0:
113,77,5530,1,0,3:0:0:0:
160,39,5634,1,0,0:0:0:0:
217,22,5737,1,2,0:0:0:0:
276,33,5841,1,0,0:0:0:0:
323,85,5944,5,0,3:0:0:0:
338,83,6047,1,0,0:0:0:0:
354,81,6151,1,0,0:0:0:0:
369,79,6254,1,0,0:0:0:0:
409,110,6358,1,0,3:0:0:0:
424,108,6461,1,0,0:0:0:0:
440,106,6565,1,0,0:0:0:0:
455,104,6668,1,0,0:0:0:0:
506,134,6772,2,0,P|515:174|510:184,1,40,0|0,3:3|0:0,0:0:0:0:
451,215,6979,2,0,P|442:255|447:265,1,40,0|0,0:0|0:0,0:0:0:0:
499,356,7185,6,0,P|453:334|428:338,3,64,0|0|0|0,1:0|0:0|0:0|0:0,0:0:0:0:
245,361,7599,6,0,L|193:369,1,40,4|0,1:0|0:0,0:0:0:0:
75,313,7806,1,2,0:0:0:0:
87,258,7910,1,0,0:0:0:0:
101,204,8013,1,0,3:2:0:0:
110,161,8116,1,0,0:0:0:0:
122,118,8220,1,2,0:0:0:0:
130,83,8323,1,0,0:0:0:0:
128,46,8427,1,0,3:2:0:0:
101,21,8530,1,0,0:0:0:0:
64,22,8634,1,2,0:0:0:0:
36,45,8737,1,0,0:0:0:0:
33,81,8841,1,0,3:2:0:0:
53,110,8944,1,0,0:0:0:0:
84,113,9047,1,2,0:0:0:0:
108,92,9151,1,0,0:0:0:0:
74,67,9254,5,0,3:2:0:0:
76,82,9358,1,0,0:2:0:0:
77,100,9461,1,2,0:2:0:0:
79,115,9565,1,0,0:2:0:0:
82,130,9668,1,0,3:2:0:0:
84,145,9772,1,0,0:2:0:0:
85,160,9875,1,2,0:2:0:0:
88,175,9979,1,0,0:2:0:0:
57,220,10082,5,0,3:2:0:0:
50,243,10185,1,0,0:0:0:0:
43,266,10289,1,2,0:0:0:0:
34,288,10392,1,0,0:0:0:0:
0,328,10496,2,0,P|19:364|41:368,1,40,0|0,3:2|0:0,0:0:0:0:
99,338,10703,2,0,P|121:334|140:320,1,40,2|0,0:0|0:0,0:0:0:0:
254,308,10910,6,0,P|302:331|350:389,1,120,0|0,3:2|0:0,0:0:0:0:
442,351,11323,2,0,P|474:339|492:339,3,40,0|0|2|0,3:0|0:0|0:0|0:0,0:0:0:0:
374,254,11737,2,0,P|362:221|362:194,1,40,0|0,3:2|0:0,0:0:0:0:
482,162,11944,2,0,P|491:138|501:111,1,40,2|0,0:2|0:0,0:0:0:0:
391,31,12151,1,0,3:2:0:0:
353,18,12254,1,0,0:0:0:0:
308,14,12358,1,2,0:2:0:0:
266,28,12461,1,0,0:0:0:0:
237,70,12565,5,0,3:2:0:0:
226,120,12668,1,0,0:0:0:0:
210,169,12772,1,2,0:0:0:0:
177,209,12875,1,0,0:0:0:0:
129,230,12979,1,0,3:2:0:0:
77,233,13082,1,0,0:0:0:0:
30,209,13185,1,2,0:0:0:0:
11,160,13289,1,0,0:0:0:0:
6,100,13392,1,0,3:2:0:0:
28,44,13496,1,0,0:0:0:0:
80,16,13599,1,2,0:0:0:0:
140,15,13703,1,0,0:0:0:0:
183,55,13806,1,0,3:2:0:0:
189,106,13910,1,2,0:0:0:0:
166,152,14013,1,2,0:0:0:0:
123,164,14116,1,2,0:0:0:0:
72,146,14220,6,0,B|45:67|114:41|125:76,1,128,4|0,1:0|0:0,0:0:0:0:
156,202,14530,5,0,0:0:0:0:
152,235,14634,1,0,3:2:0:0:
138,282,14737,1,2,0:0:0:0:
97,325,14841,1,2,0:2:0:0:
47,326,14944,1,2,0:2:0:0:
17,278,15047,1,0,3:2:0:0:
72,283,15151,1,2,0:0:0:0:
107,329,15254,1,2,0:0:0:0:
135,365,15358,1,2,0:0:0:0:
173,373,15461,1,0,3:2:0:0:
207,364,15565,1,0,0:0:0:0:
225,349,15668,1,0,0:0:0:0:
238,328,15772,1,0,0:0:0:0:
243,304,15875,5,0,3:2:0:0:
244,279,15979,1,0,0:0:0:0:
236,248,16082,1,0,0:0:0:0:
209,212,16185,1,0,0:0:0:0:
171,176,16289,1,0,3:2:0:0:
159,125,16392,1,0,0:0:0:0:
171,74,16496,1,0,0:0:0:0:
196,43,16599,1,0,0:0:0:0:
233,27,16703,1,0,3:2:0:0:
263,34,16806,1,0,0:0:0:0:
284,58,16910,1,0,0:0:0:0:
243,102,17013,5,2,0:0:0:0:
196,43,17116,1,0,1:0:0:0:
263,359,17427,1,2,0:0:0:0:
336,309,17530,2,0,P|380:298|477:381,1,176.000005371094,4|0,1:0|0:0,0:0:0:0:
30,174,17944,5,0,3:2:0:0:
12,222,18047,1,0,0:0:0:0:
21,266,18151,1,0,0:0:0:0:
49,306,18254,1,0,0:0:0:0:
95,331,18358,1,0,3:2:0:0:
129,336,18461,1,0,0:0:0:0:
162,331,18565,1,0,0:2:0:0:
219,282,18668,5,2,0:0:0:0:
313,291,18772,1,0,1:2:0:0:
290,39,19082,5,2,0:0:0:0:
192,21,19185,2,0,P|164:61|279:104,1,176.000005371094,4|0,1:0|0:2,0:0:0:0:
476,133,19599,5,0,3:2:0:0:
487,184,19703,1,0,0:0:0:0:
490,231,19806,1,0,0:0:0:0:
479,272,19910,1,0,0:0:0:0:
456,302,20013,1,0,3:0:0:0:
426,319,20116,1,0,0:0:0:0:
404,345,20220,1,0,0:0:0:0:
339,319,20323,5,2,0:0:0:0:
253,374,20427,1,0,1:0:0:0:
216,83,20737,1,2,0:0:0:0:
287,15,20841,2,0,P|373:4|442:71,1,176.000005371094,4|0,1:0|0:0,0:0:0:0:
136,159,21254,5,0,3:2:0:0:
100,150,21358,1,0,0:0:0:0:
54,137,21461,1,0,0:0:0:0:
0,123,21565,1,0,0:0:0:0:
16,104,21668,1,0,3:1:0:0:
22,78,21772,1,0,0:0:0:0:
21,42,21875,1,0,0:0:0:0:
40,19,21979,1,2,0:0:0:0:
80,18,22082,1,0,1:2:0:0:
99,43,22185,1,0,0:0:0:0:
126,79,22289,1,0,0:0:0:0:
202,65,22392,5,2,0:0:0:0:
283,93,22496,2,0,P|387:62|458:98,1,176.000005371094,4|2,1:0|0:0,0:0:0:0:
500,254,22910,5,0,3:2:0:0:
448,285,23013,1,2,0:0:0:0:
416,322,23116,1,2,0:0:0:0:
385,357,23220,1,0,0:0:0:0:
343,370,23323,1,0,3:2:0:0:
308,353,23427,1,0,0:0:0:0:
290,322,23530,1,0,0:0:0:0:
304,289,23634,1,0,0:0:0:0:
334,281,23737,2,0,P|351:297|350:339,3,64,0|0|0|0,3:2|0:0|0:0|0:0,0:0:0:0:
223,224,24151,6,0,P|122:286|1:358,1,176.000005371094,0|0,1:0|0:0,0:0:0:0:
21,131,24461,1,0,0:0:0:0:
0,102,24565,2,0,P|79:121|185:150,1,176.000005371094,0|0,3:2|0:0,0:0:0:0:
291,103,24875,1,0,0:0:0:0:
323,58,24979,1,0,3:2:0:0:
308,14,25082,1,0,0:0:0:0:
261,8,25185,1,0,0:0:0:0:
215,64,25289,5,2,0:0:0:0:
126,44,25392,2,0,P|37:25|0:107,1,176.000005371094,0|0,3:2|0:0,0:0:0:0:
59,193,25703,1,2,0:0:0:0:
144,247,25806,2,0,P|155:323|141:348,1,88.000002685547,0|0,1:2|0:0,0:0:0:0:
25,379,26013,2,0,P|14:303|28:278,1,88.000002685547,2|0,0:0|0:0,0:0:0:0:
156,132,26220,2,0,P|225:176|241:291,1,176.000005371094,0|0,3:2|0:0,0:0:0:0:
441,328,26634,5,0,3:2:0:0:
398,339,26737,1,0,0:0:0:0:
356,354,26841,1,0,0:0:0:0:
292,377,26944,5,2,0:0:0:0:
195,349,27047,2,0,P|104:305|55:359,1,176.000005371094,0|0,3:2|0:0,0:0:0:0:
20,238,27358,1,2,0:0:0:0:
88,157,27461,2,0,P|119:94|44:11,1,176.000005371094,4|0,1:0|0:0,0:0:0:0:
241,223,27875,5,0,3:0:0:0:
276,249,27979,1,0,0:0:0:0:
302,283,28082,1,0,0:0:0:0:
322,321,28185,1,0,0:0:0:0:
355,349,28289,1,0,3:0:0:0:
404,365,28392,1,0,0:0:0:0:
455,352,28496,1,0,0:0:0:0:
495,318,28599,1,0,0:0:0:0:
508,266,28703,1,0,3:2:0:0:
492,206,28806,1,0,0:0:0:0:
441,170,28910,1,0,0:0:0:0:
388,113,29013,5,2,0:0:0:0:
413,18,29116,2,0,P|474:10|506:114,1,176.000005371094,0|0,1:0|0:0,0:0:0:0:
293,153,29530,1,0,3:2:0:0:
224,125,29634,1,0,0:0:0:0:
164,111,29737,1,0,0:0:0:0:
108,119,29841,1,0,0:0:0:0:
75,160,29944,1,0,3:2:0:0:
75,209,30047,1,0,0:0:0:0:
105,254,30151,1,0,0:0:0:0:
154,262,30254,1,0,0:0:0:0:
188,240,30358,2,0,P|173:197|141:191,3,64,0|0|0|0,3:2|0:0|0:0|0:0,0:0:0:0:
248,303,30772,5,0,3:2:0:0:
269,330,30875,1,0,0:0:0:0:
303,346,30979,1,0,0:0:0:0:
354,345,31082,1,0,0:0:0:0:
400,318,31185,1,0,3:2:0:0:
430,265,31289,1,2,0:0:0:0:
432,201,31392,1,2,0:0:0:0:
401,137,31496,1,2,0:0:0:0:
367,75,31599,1,0,3:2:0:0:
393,21,31703,1,2,0:0:0:0:
447,8,31806,1,2,0:0:0:0:
495,34,31910,1,2,0:0:0:0:
510,73,32013,1,0,3:2:0:0:
501,114,32116,1,0,0:0:0:0:
463,133,32220,1,0,0:0:0:0:
426,118,32323,1,0,0:0:0:0:
411,82,32427,6,0,P|439:62|467:73,3,64,0|0|0|0,3:2|0:0|0:0|0:0,0:0:0:0:
346,134,32841,1,0,3:2:0:0:
307,136,32944,1,0,0:0:0:0:
270,124,33047,1,0,0:0:0:0:
244,95,33151,1,0,0:0:0:0:
223,62,33254,1,0,3:2:0:0:
191,39,33358,1,0,0:0:0:0:
144,21,33461,1,0,0:0:0:0:
76,62,33565,5,2,0:0:0:0:
136,158,33668,2,0,P|80:216|-3:184,1,176.000005371094,0|0,1:0|0:0,0:0:0:0:
163,280,33979,1,2,0:0:0:0:
225,210,34082,2,0,P|311:201|348:282,1,176.000005371094,4|0,1:0|0:0,0:0:0:0:
177,375,34496,5,0,3:2:0:0:
135,360,34599,1,0,0:0:0:0:
90,364,34703,1,0,0:0:0:0:
37,376,34806,1,0,0:0:0:0:
0,324,34910,1,0,3:2:0:0:
6,267,35013,1,0,0:0:0:0:
54,230,35116,1,0,0:2:0:0:
118,190,35220,5,2,0:0:0:0:
93,106,35323,1,0,1:2:0:0:
349,192,35634,1,2,0:2:0:0:
384,285,35737,2,0,P|450:309|506:225,1,176.000005371094,4|0,1:0|0:0,0:0:0:0:
257,121,36151,5,0,3:2:0:0:
253,155,36254,1,0,0:0:0:0:
250,190,36358,1,0,0:0:0:0:
246,224,36461,1,0,0:0:0:0:
234,291,36565,1,0,3:2:0:0:
203,47,36875,5,2,0:0:0:0:
292,31,36979,1,0,1:2:0:0:
318,344,37289,1,2,0:0:0:0:
214,376,37392,2,0,P|137:337|51:379,1,176.000005371094,4|0,1:0|0:0,0:0:0:0:
21,224,37806,5,0,3:2:0:0:
51,206,37910,1,0,0:0:0:0:
84,195,38013,1,0,0:0:0:0:
119,193,38116,1,0,0:0:0:0:
151,207,38220,1,0,3:2:0:0:
186,245,38323,1,0,0:0:0:0:
214,289,38427,1,0,0:0:0:0:
267,336,38530,5,2,0:0:0:0:
340,309,38634,1,0,1:2:0:0:
314,21,38944,1,2,0:0:0:0:
224,75,39047,2,0,P|146:90|101:9,1,176.000005371094,4|0,1:0|0:0,0:0:0:0:
389,98,39461,5,0,3:2:0:0:
414,104,39565,1,0,0:0:0:0:
439,108,39668,1,0,0:0:0:0:
464,114,39772,1,0,0:0:0:0:
483,156,39875,1,0,3:2:0:0:
478,182,39979,1,0,0:0:0:0:
473,207,40082,1,0,0:0:0:0:
467,232,40185,1,0,0:0:0:0:
431,274,40289,2,0,P|419:313|452:353,3,64,0|0|0|0,3:2|0:0|0:0|0:0,0:0:0:0:
362,197,40703,5,0,3:2:0:0:
110,294,41116,2,0,P|151:251|186:246,1,80,0|0,3:2|0:0,0:0:0:0:
194,349,41530,2,0,P|173:365|154:378,3,40,0|0|0|0,3:2|0:0|0:0|0:0,0:0:0:0:
78,372,41944,2,0,P|55:355|39:342,1,40,0|0,3:2|0:0,0:0:0:0:
21,263,42151,1,0,0:0:0:0:
27,251,42254,1,0,0:0:0:0:
35,238,42358,1,0,3:2:0:0:
16,111,42565,6,0,L|2:17,1,80,0|0,0:0|3:2,0:0:0:0:
120,175,42979,1,0,0:0:0:0:
199,120,43185,1,0,3:2:0:0:
263,221,43392,1,0,0:0:0:0:
370,80,43599,1,0,3:2:0:0:
421,287,43806,1,0,0:0:0:0:
512,56,44013,6,0,P|513:77|509:109,3,40,4|0|0|0,1:0|0:0|0:0|0:0,0:0:0:0:
477,124,44427,5,0,3:2:0:0:
485,162,44530,1,2,0:0:0:0:
477,213,44634,1,2,0:0:0:0:
433,251,44737,1,0,0:0:0:0:
363,248,44841,1,0,3:2:0:0:
305,192,44944,1,0,0:0:0:0:
226,206,45047,1,0,0:0:0:0:
169,149,45151,1,0,0:0:0:0:
93,123,45254,1,0,1:2:0:0:
184,271,45565,1,2,0:0:0:0:
226,206,45668,6,0,B|201:131|280:139|247:31,1,176.000005371094,0|0,1:0|0:0,0:0:0:0:
374,154,46082,5,0,3:2:0:0:
345,161,46185,1,0,0:0:0:0:
329,181,46289,2,0,P|338:201|319:244,3,64,0|0|0|0,0:0|0:0|3:2|0:0,0:0:0:0:
304,168,46703,1,0,0:0:0:0:
269,158,46806,1,0,0:0:0:0:
236,142,46910,1,0,3:2:0:0:
202,129,47013,1,0,0:0:0:0:
180,100,47116,1,0,0:0:0:0:
177,63,47220,1,0,0:0:0:0:
202,20,47323,6,0,P|285:14|312:99,1,176.000005371094,4|0,1:0|0:0,0:0:0:0:
168,200,47737,1,0,3:2:0:0:
133,193,47841,1,0,0:0:0:0:
98,185,47944,1,0,0:0:0:0:
63,176,48047,1,0,0:0:0:0:
42,132,48151,1,0,3:2:0:0:
64,98,48254,1,0,0:0:0:0:
103,94,48358,1,0,0:0:0:0:
139,81,48461,1,0,0:0:0:0:
144,24,48565,6,0,P|34:18|-6:67,1,176.000005371094,0|0,1:0|0:0,0:0:0:0:
12,209,48875,1,0,0:0:0:0:
42,300,48979,2,0,B|178:246|152:367|316:296,1,264.000008056641,4|0,1:0|0:0,0:0:0:0:
341,233,49392,5,0,3:2:0:0:
319,194,49496,1,0,0:0:0:0:
281,171,49599,1,0,0:0:0:0:
242,181,49703,1,0,0:0:0:0:
224,217,49806,1,0,3:2:0:0:
238,254,49910,1,0,0:0:0:0:
268,266,50013,1,0,0:0:0:0:
299,248,50116,1,0,0:0:0:0:
270,220,50220,6,0,B|174:178|223:278|88:227,1,176.000005371094,0|0,1:0|0:0,0:0:0:0:
50,180,50530,1,0,0:0:0:0:
115,138,50634,2,0,B|263:185|130:278|302:311,1,264.000008056641,4|0,1:0|0:0,0:0:0:0:
360,276,51047,5,0,3:2:0:0:
386,252,51151,1,0,0:0:0:0:
400,219,51254,1,0,0:0:0:0:
397,183,51358,1,0,0:0:0:0:
372,157,51461,1,0,3:2:0:0:
348,130,51565,1,0,0:0:0:0:
340,95,51668,1,0,0:0:0:0:
349,60,51772,1,0,0:0:0:0:
377,39,51875,6,0,P|456:67|452:187,1,176.000005371094,0|0,1:2|0:0,0:0:0:0:
308,219,52185,1,0,0:0:0:0:
199,159,52289,2,0,P|85:165|104:309,1,264.000008056641,4|0,1:0|0:0,0:0:0:0:
140,361,52703,5,0,3:2:0:0:
182,348,52806,1,0,0:0:0:0:
225,339,52910,1,0,0:0:0:0:
268,343,53013,1,0,0:0:0:0:
304,366,53116,1,0,3:2:0:0:
346,378,53220,1,0,0:0:0:0:
388,367,53323,1,0,0:0:0:0:
424,342,53427,1,0,0:0:0:0:
435,264,53530,6,0,P|374:200|302:265,1,176.000005371094,0|0,1:2|0:0,0:0:0:0:
234,280,53841,1,0,0:0:0:0:
158,323,53944,2,0,P|68:363|22:228,1,264.000008056641,4|0,1:0|0:0,0:0:0:0:
80,162,54358,5,0,3:2:0:0:
139,175,54461,1,0,0:0:0:0:
197,195,54565,1,2,0:0:0:0:
252,222,54668,1,0,0:0:0:0:
308,248,54772,1,0,3:2:0:0:
362,276,54875,1,0,0:0:0:0:
423,281,54979,1,2,0:2:0:0:
473,246,55082,1,0,0:0:0:0:
495,154,55185,6,0,P|479:104|363:78,1,176.000005371094,0|0,1:0|0:0,0:0:0:0:
280,144,55496,1,0,0:0:0:0:
219,232,55599,2,0,P|164:299|10:240,1,264.000008056641,4|0,1:0|0:0,0:0:0:0:
138,21,56013,2,0,L|112:217,1,176.000005371094,0|2,3:2|0:0,0:0:0:0:
375,324,56427,5,0,3:2:0:0:
381,271,56530,1,0,0:0:0:0:
389,218,56634,1,2,0:2:0:0:
396,165,56737,1,0,0:0:0:0:
408,81,56841,1,0,1:2:0:0:
228,257,57151,5,2,0:0:0:0:
251,138,57254,2,0,P|194:55|111:69,1,176.000005371094,4|2,1:0|0:0,0:0:0:0:
129,314,57668,2,0,L|164:129,1,176.000005371094,0|2,3:2|0:0,0:0:0:0:
12,48,58082,5,0,3:2:0:0:
25,80,58185,1,0,0:0:0:0:
34,114,58289,1,2,0:0:0:0:
39,148,58392,1,0,0:0:0:0:
40,183,58496,1,0,3:2:0:0:
31,216,58599,1,0,0:0:0:0:
19,249,58703,1,2,0:0:0:0:
6,281,58806,1,0,0:0:0:0:
5,316,58910,5,0,3:2:0:0:
18,338,59013,1,0,0:0:0:0:
35,357,59116,1,0,0:0:0:0:
60,365,59220,1,0,0:0:0:0:
86,361,59323,1,0,3:2:0:0:
108,346,59427,1,0,0:0:0:0:
119,322,59530,1,0,0:0:0:0:
118,295,59634,1,0,0:0:0:0:
99,276,59737,1,0,3:2:0:0:
83,254,59841,1,0,0:0:0:0:
77,228,59944,1,0,0:0:0:0:
87,203,60047,1,0,0:0:0:0:
108,187,60151,1,0,3:2:0:0:
127,169,60254,1,0,0:0:0:0:
141,146,60358,1,0,0:0:0:0:
146,120,60461,1,0,0:0:0:0:
139,94,60565,6,0,P|66:55|39:126,1,176.000005371094,4|0,1:0|0:0,0:0:0:0:
105,190,60875,1,0,0:0:0:0:
115,214,60979,1,0,3:2:0:0:
122,239,61082,1,0,0:0:0:0:
124,265,61185,1,0,0:0:0:0:
118,291,61289,1,0,0:0:0:0:
103,312,61392,1,2,3:2:0:0:
80,326,61496,1,0,0:0:0:0:
53,327,61599,1,0,0:0:0:0:
30,312,61703,1,0,0:0:0:0:
19,287,61806,1,2,3:2:0:0:
32,263,61910,1,0,0:0:0:0:
54,249,62013,1,0,0:0:0:0:
78,259,62116,1,0,0:0:0:0:
53,296,62220,6,0,L|18:19,1,264.000008056641,2|0,3:2|0:0,0:0:0:0:
185,25,62634,1,0,3:2:0:0:
179,50,62737,1,0,0:0:0:0:
172,75,62841,1,0,0:0:0:0:
164,100,62944,1,0,0:0:0:0:
128,145,63047,6,0,P|165:215|243:157,1,176.000005371094,2|0,3:2|0:0,0:0:0:0:
322,127,63358,1,0,0:0:0:0:
315,117,63461,2,0,P|387:83|425:153,1,176.000005371094,0|0,3:0|0:0,0:0:0:0:
454,232,63772,1,0,0:0:0:0:
355,229,63875,6,0,P|278:282|266:376,2,176.000005371094,2|0|0,3:2|0:0|3:0,0:0:0:0:
459,278,64392,1,0,0:0:0:0:
439,297,64496,1,0,0:0:0:0:
417,312,64599,1,0,0:0:0:0:
396,329,64703,2,0,L|224:276,1,176.000005371094,2|0,3:2|0:0,0:0:0:0:
1,313,65116,2,0,L|183:376,1,176.000005371094,2|0,3:2|0:0,0:0:0:0:
247,151,65530,6,0,P|171:139|106:223,1,176.000005371094,2|0,3:2|0:0,0:0:0:0:
166,371,65944,1,0,3:0:0:0:
185,353,66047,1,0,0:0:0:0:
202,332,66151,1,0,0:0:0:0:
213,308,66254,1,0,0:0:0:0:
205,267,66358,1,0,3:2:0:0:
217,243,66461,1,0,0:0:0:0:
234,222,66565,1,0,0:0:0:0:
251,202,66668,1,0,0:0:0:0:
300,186,66772,6,0,P|382:162|356:71,1,176.000005371094,2|0,3:2|0:0,0:0:0:0:
272,92,67082,1,0,0:0:0:0:
189,140,67185,2,0,P|107:164|133:255,1,176.000005371094,4|2,1:0|0:0,0:0:0:0:
163,315,67496,1,0,0:0:0:0:
222,328,67599,1,0,3:2:0:0:
283,321,67703,1,0,0:0:0:0:
333,297,67806,1,2,0:0:0:0:
381,274,67910,1,0,0:0:0:0:
427,268,68013,1,0,3:2:0:0:
465,288,68116,1,0,0:0:0:0:
481,322,68220,1,2,0:0:0:0:
474,361,68323,1,0,0:0:0:0:
445,378,68427,1,0,3:2:0:0:
411,370,68530,1,0,0:0:0:0:
396,341,68634,1,2,0:0:0:0:
412,310,68737,1,0,0:0:0:0:
440,334,68841,6,0,P|352:371|309:308,1,176.000005371094,0|0,3:2|0:2,0:0:0:0:
312,245,69151,1,0,0:0:0:0:
355,195,69254,1,0,3:2:0:0:
411,181,69358,1,0,0:0:0:0:
462,167,69461,1,0,0:2:0:0:
500,135,69565,1,0,0:0:0:0:
510,88,69668,1,0,3:2:0:0:
493,47,69772,1,0,0:0:0:0:
458,20,69875,1,0,0:0:0:0:
415,31,69979,1,0,0:0:0:0:
431,96,70082,5,0,1:0:0:0:
293,291,70392,1,0,0:0:0:0:
317,374,70496,2,0,P|415:345|426:262,1,176.000005371094,4|2,1:0|0:0,0:0:0:0:
377,214,70806,5,0,0:0:0:0:
338,191,70910,1,0,3:2:0:0:
294,187,71013,1,0,0:0:0:0:
254,206,71116,1,2,0:0:0:0:
224,232,71220,1,0,0:0:0:0:
190,253,71323,1,0,3:2:0:0:
137,258,71427,1,0,0:0:0:0:
95,226,71530,1,2,0:0:0:0:
62,173,71634,1,0,0:0:0:0:
65,111,71737,1,0,3:2:0:0:
105,63,71841,1,0,0:0:0:0:
173,45,71944,1,2,0:2:0:0:
228,87,72047,1,0,0:0:0:0:
232,149,72151,5,0,3:2:0:0:
211,189,72254,1,0,0:0:0:0:
168,206,72358,1,0,0:0:0:0:
120,198,72461,1,0,0:0:0:0:
81,227,72565,1,0,3:2:0:0:
37,219,72668,1,0,0:0:0:0:
1,245,72772,1,0,0:0:0:0:
0,288,72875,1,0,0:0:0:0:
24,325,72979,1,0,3:2:0:0:
65,339,73082,1,0,0:0:0:0:
108,337,73185,1,0,0:0:0:0:
151,329,73289,1,0,0:0:0:0:
210,376,73392,5,0,1:0:0:0:
390,132,73703,1,0,0:0:0:0:
334,42,73806,1,4,1:0:0:0:
49,33,74013,5,2,0:0:0:0:
50,76,74116,1,0,0:0:0:0:
61,118,74220,1,0,3:2:0:0:
82,155,74323,1,0,0:0:0:0:
127,182,74427,1,2,0:0:0:0:
178,190,74530,1,0,0:0:0:0:
239,184,74634,1,0,3:2:0:0:
293,156,74737,1,0,0:0:0:0:
326,104,74841,1,2,0:0:0:0:
372,51,74944,1,0,0:0:0:0:
442,49,75047,1,0,3:2:0:0:
499,90,75151,1,0,0:0:0:0:
506,159,75254,1,2,0:0:0:0:
475,222,75358,1,0,0:0:0:0:
398,242,75461,5,0,3:2:0:0:
330,199,75565,1,0,0:0:0:0:
270,161,75668,1,2,0:2:0:0:
199,162,75772,1,0,0:0:0:0:
149,198,75875,1,0,3:2:0:0:
141,250,75979,1,0,0:0:0:0:
164,297,76082,1,2,0:2:0:0:
199,335,76185,1,0,0:0:0:0:
243,337,76289,1,0,3:2:0:0:
279,312,76392,1,0,0:0:0:0:
293,270,76496,1,2,0:0:0:0:
263,237,76599,1,0,0:0:0:0:
229,265,76703,1,0,3:2:0:0:
232,308,76806,1,0,0:0:0:0:
275,317,76910,1,2,0:0:0:0:
318,311,77013,5,0,0:0:0:0:
361,317,77116,1,0,3:2:0:0:
398,340,77220,1,0,0:0:0:0:
438,356,77323,1,2,0:0:0:0:
481,350,77427,1,0,0:0:0:0:
501,311,77530,1,0,3:2:0:0:
497,266,77634,1,0,0:0:0:0:
461,239,77737,1,2,0:0:0:0:
442,208,77841,1,0,0:0:0:0:
440,172,77944,1,0,3:2:0:0:
462,145,78047,1,0,0:0:0:0:
485,118,78151,5,2,0:0:0:0:
485,82,78254,1,0,0:0:0:0:
458,46,78358,1,0,3:2:0:0:
418,27,78461,1,0,0:0:0:0:
366,39,78565,1,2,0:0:0:0:
341,95,78668,1,0,0:0:0:0:
302,154,78772,5,0,3:2:0:0:
317,194,78875,1,0,0:0:0:0:
326,246,78979,1,2,0:0:0:0:
312,296,79082,1,0,0:0:0:0:
271,329,79185,1,0,3:2:0:0:
211,346,79289,1,0,0:0:0:0:
155,320,79392,1,2,0:0:0:0:
135,261,79496,1,0,0:0:0:0:
158,194,79599,1,0,3:2:0:0:
222,164,79703,1,0,0:0:0:0:
274,118,79806,1,2,0:0:0:0:
285,48,79910,1,0,0:0:0:0:
237,0,80013,1,0,3:2:0:0:
167,10,80116,1,2,0:0:0:0:
133,72,80220,1,2,0:0:0:0:
89,127,80323,1,2,0:0:0:0:
3,130,80427,6,0,P|11:55|97:0,1,176.000005371094,4|0,1:0|0:0,0:0:0:0:
