osu file format v14

[General]
AudioFilename: audio.mp3
AudioLeadIn: 0
PreviewTime: 7806
Countdown: 0
SampleSet: Soft
StackLeniency: 0.7
Mode: 0
LetterboxInBreaks: 0
WidescreenStoryboard: 1

[Editor]
Bookmarks: 978,7599,14220,20841,27461,34082,40703,47323,53944,60565,67185,73806,80427
DistanceSpacing: 1.1
BeatDivisor: 4
GridSize: 16
TimelineZoom: 2.2

[Metadata]
Title:Revolutionary Etude (Shoji Meguro Arrangement)
TitleUnicode:Revolutionary Etude (目黒将司 Arrangement)
Artist:Frederic Chopin
ArtistUnicode:Frédéric Chopin
Creator:intiaz
Version:Xenon's Allegro
Source:Catherine
Tags:「革命」Étude Op. 10, No. 12 Étude on the Bombardment of Warsaw Fryderyk Franciszek Classical Frederic キャサリン SEGA Atlus Japanese Mature Adult Video Game Instrumental Piano Frédéric François Nyantiaz inti Xen Xenon- Xehn jas craezy riffy Bakari -Bakari-
BeatmapID:3590276
BeatmapSetID:1746423

[Difficulty]
HPDrainRate:5
CircleSize:4.2
OverallDifficulty:7.4
ApproachRate:8.5
SliderMultiplier:0.999999999999999
SliderTickRate:1

[Events]
//Background and Video events
0,0,"f.png",0,0
//Break Periods
//Storyboard Layer 0 (Background)
//Storyboard Layer 1 (Fail)
//Storyboard Layer 2 (Pass)
//Storyboard Layer 3 (Foreground)
//Storyboard Layer 4 (Overlay)
//Storyboard Sound Samples

[TimingPoints]
979,413.793103448276,4,2,1,80,1,0
979,-71.4285714285714,4,2,1,80,0,0
1392,-71.4285714285714,4,2,1,70,0,0
1806,-71.4285714285714,4,2,1,60,0,0
2220,-71.4285714285714,4,2,1,50,0,0
2634,-71.4285714285714,4,2,1,40,0,0
3047,-71.4285714285714,4,2,1,50,0,0
3461,-71.4285714285714,4,2,1,60,0,0
3875,-50,4,2,1,80,0,0
4289,-71.4285714285714,4,2,1,80,0,0
4703,-71.4285714285714,4,2,1,70,0,0
5117,-71.4285714285714,4,2,1,60,0,0
5531,-71.4285714285714,4,2,1,50,0,0
5945,-71.4285714285714,4,2,1,40,0,0
6358,-71.4285714285714,4,2,1,50,0,0
6772,-71.4285714285714,4,2,1,60,0,0
7185,-51.2820512820513,4,2,1,80,0,0
8013,-71.4285714285714,4,2,1,80,0,0
8427,-71.4285714285714,4,2,1,70,0,0
9254,-71.4285714285714,4,2,1,60,0,0
10082,-83.3333333333333,4,2,1,50,0,0
10496,-60.6060606060606,4,2,1,50,0,0
10910,-71.4285714285714,4,2,1,40,0,0
11737,-71.4285714285714,4,2,1,50,0,0
12565,-71.4285714285714,4,2,1,60,0,0
13392,-71.4285714285714,4,2,1,70,0,0
13806,-95.2380952380952,4,2,1,70,0,0
14220,-58.8235294117647,4,2,1,70,0,0
40703,-58.8235294117647,4,2,1,60,0,0
41323,-71.4285714285714,4,2,1,60,0,0
42151,-55.5555555555556,4,2,1,60,0,0
42979,-47.6190476190476,4,2,1,60,0,0
44013,-58.8235294117647,4,2,1,70,0,0
47323,-58.8235294117647,4,2,1,60,0,0
53944,-58.8235294117647,4,2,1,70,0,0
55599,-52.6315789473684,4,2,1,70,0,0
56427,-58.8235294117647,4,2,1,70,0,0
57254,-52.6315789473684,4,2,1,70,0,0
58082,-58.8235294117647,4,2,1,70,0,0
58910,-111.111111111111,4,2,1,70,0,0
59737,-58.8235294117647,4,2,1,70,0,0
60565,-58.8235294117647,4,2,1,60,0,0
67185,-58.8235294117647,4,2,1,80,0,0
67599,-58.8235294117647,4,2,1,70,0,0
68013,-58.8235294117647,4,2,1,60,0,0
68427,-58.8235294117647,4,2,1,50,0,0
68841,-58.8235294117647,4,2,1,40,0,0
69254,-58.8235294117647,4,2,1,50,0,0
69668,-58.8235294117647,4,2,1,60,0,0
70082,-50,4,2,1,80,0,0
70496,-58.8235294117647,4,2,1,80,0,0
70910,-58.8235294117647,4,2,1,70,0,0
71324,-58.8235294117647,4,2,1,60,0,0
71738,-58.8235294117647,4,2,1,50,0,0
72152,-58.8235294117647,4,2,1,40,0,0
72565,-58.8235294117647,4,2,1,50,0,0
72979,-58.8235294117647,4,2,1,60,0,0
73392,-50,4,2,1,80,0,0
73806,-58.8235294117647,4,2,1,80,0,0
74634,-58.8235294117647,4,2,1,70,0,0
75461,-58.8235294117647,4,2,1,60,0,0
76289,-58.8235294117647,4,2,1,50,0,0
77116,-47.6190476190476,4,2,1,40,0,0
77323,-58.8235294117647,4,2,1,40,0,0
77944,-47.6190476190476,4,2,1,50,0,0
78151,-58.8235294117647,4,2,1,50,0,0
78772,-47.6190476190476,4,2,1,60,0,0
78979,-58.8235294117647,4,2,1,60,0,0
79599,-58.8235294117647,4,2,1,70,0,0
80013,-71.4285714285714,4,2,1,70,0,0
80427,-40,4,2,1,70,0,0
80530,-40,4,2,1,10,0,0

[Colours]
Combo1 : 221,179,34
Combo2 : 253,2,58
Combo3 : 102,0,51
Combo4 : 244,122,0

[HitObjects]
61,98,978,5,4,1:0:0:0:
130,136,1185,1,2,0:0:0:0:
150,121,1289,1,0,0:0:0:0:
174,126,1392,2,0,L|180:91,3,34.9999989318848,0|0|2|0,3:2|0:0|0:0|0:0,0:0:0:0:
253,45,1806,5,0,3:2:0:0:
255,58,1910,1,0,0:0:0:0:
257,71,2013,1,2,0:0:0:0:
260,84,2116,1,0,0:0:0:0:
262,98,2220,2,0,L|296:104,3,34.9999989318848,0|0|2|0,3:2|0:0|0:0|0:0,0:0:0:0:
307,106,2634,5,0,3:2:0:0:
459,76,2841,1,0,0:0:0:0:
390,130,3047,6,0,L|384:96,1,34.9999989318848,0|0,3:2|0:0,0:0:0:0:
382,84,3254,2,0,L|376:50,1,34.9999989318848,0|0,0:0|0:0,0:0:0:0:
461,168,3461,5,0,3:2:0:0:
444,245,3668,1,0,0:2:0:0:
343,332,3875,2,0,P|303:301|254:296,1,99.9999999999999,0|0,1:0|0:0,0:0:0:0:
184,245,4185,1,0,0:0:0:0:
244,297,4289,5,4,1:0:0:0:
141,384,4496,1,2,0:0:0:0:
121,369,4600,1,0,0:0:0:0:
97,374,4703,2,0,L|91:339,3,34.9999989318848,0|0|2|0,3:0|0:0|0:0|0:0,0:0:0:0:
30,289,5117,5,0,3:0:0:0:
32,276,5221,1,0,0:0:0:0:
34,263,5324,1,2,0:0:0:0:
37,250,5427,1,0,0:0:0:0:
39,236,5531,2,0,L|73:230,3,34.9999989318848,0|0|2|0,3:0|0:0|0:0|0:0,0:0:0:0:
86,227,5944,5,0,3:0:0:0:
116,75,6151,1,0,0:0:0:0:
62,144,6357,6,0,L|96:150,1,34.9999989318848,0|0,3:0|0:0,0:0:0:0:
108,152,6564,2,0,L|142:158,1,34.9999989318848,0|0,0:0|0:0,0:0:0:0:
270,80,6771,5,0,3:3:0:0:
193,97,6978,1,0,0:0:0:0:
166,232,7185,6,0,P|211:288|220:360,1,146.250000557899,0|0,1:0|0:0,0:0:0:0:
220,373,7599,5,4,1:0:0:0:
289,273,7806,1,2,0:0:0:0:
309,288,7910,1,0,0:0:0:0:
333,283,8013,2,0,L|339:318,1,34.9999989318848,0|0,3:2|0:0,0:0:0:0:
416,307,8220,2,0,L|410:272,1,34.9999989318848,2|0,0:0|0:0,0:0:0:0:
462,212,8427,5,0,3:2:0:0:
462,189,8530,1,0,0:0:0:0:
467,167,8634,1,2,0:0:0:0:
479,149,8737,1,0,0:0:0:0:
495,133,8841,2,0,L|460:127,3,34.9999989318848,0|0|2|0,3:2|0:0|0:0|0:0,0:0:0:0:
415,64,9254,5,0,3:2:0:0:
413,51,9358,1,0,0:2:0:0:
411,38,9461,1,2,0:2:0:0:
408,25,9564,1,0,0:2:0:0:
406,11,9668,2,0,L|372:5,1,34.9999989318848,0|0,3:2|0:2,0:0:0:0:
317,61,9875,2,0,L|283:67,1,34.9999989318848,2|0,0:2|0:2,0:0:0:0:
212,9,10082,6,0,L|197:97,1,89.999997253418,0|0,3:2|0:0,0:0:0:0:
196,112,10496,2,0,B|145:101|135:162|85:152,1,123.750001180172,0|0,3:2|0:0,0:0:0:0:
74,150,10910,6,0,L|85:219,1,69.9999978637695,0|2,3:2|0:0,0:0:0:0:
87,230,11220,1,0,0:0:0:0:
89,241,11323,2,0,P|116:219|149:216,1,69.9999978637695,0|2,3:0|0:0,0:0:0:0:
273,92,11737,6,0,L|261:22,1,69.9999978637695,0|2,3:2|0:2,0:0:0:0:
258,12,12047,1,0,0:0:0:0:
256,1,12151,2,0,L|319:12,3,34.9999989318848,0|0|2|0,3:2|0:0|0:2|0:0,0:0:0:0:
346,61,12565,6,0,P|373:39|406:36,1,69.9999978637695,0|2,3:2|0:0,0:0:0:0:
418,41,12875,1,0,0:0:0:0:
428,46,12979,2,0,L|421:80,1,34.9999989318848,0|0,3:2|0:0,0:0:0:0:
472,138,13186,2,0,L|483:201,1,34.9999989318848,2|0,0:0|0:0,0:0:0:0:
398,302,13392,5,0,3:2:0:0:
400,289,13496,1,0,0:0:0:0:
402,276,13599,1,2,0:0:0:0:
405,263,13702,1,0,0:0:0:0:
407,249,13806,2,0,B|426:235|412:215|412:215|393:229|407:249,1,78.7499975967407,0|2,3:2|0:0,0:0:0:0:
481,284,14220,6,0,P|398:276|332:326,1,170.000003242493,4|0,1:0|3:2,0:0:0:0:
208,314,14841,1,2,0:2:0:0:
228,329,14945,1,2,0:0:0:0:
252,323,15048,6,0,L|259:370,1,42.5000008106231,0|0,3:2|0:0,0:0:0:0:
237,247,15254,2,0,L|229:205,1,42.5000008106231,2|2,0:0|0:0,0:0:0:0:
129,184,15461,2,0,P|163:159|179:120,1,85.0000016212463,0|0,3:2|0:0,0:0:0:0:
302,166,15875,6,0,P|314:126|303:85,1,85.0000016212463,0|0,3:2|0:0,0:0:0:0:
296,77,16185,1,0,0:0:0:0:
288,69,16289,2,0,L|234:79,2,42.5000008106231,0|0|0,3:2|0:0|0:0,0:0:0:0:
344,233,16703,6,0,L|427:247,1,85.0000016212463,0|0,3:2|0:0,0:0:0:0:
487,198,17013,1,2,0:0:0:0:
471,123,17116,2,0,B|492:91|461:70|439:101|471:123,1,85.0000016212463,0|0,1:0|0:0,0:0:0:0:
497,199,17427,1,2,0:0:0:0:
427,247,17530,6,0,B|345:261|345:261|341:258|341:258|260:272,1,170.000003242493,4|0,1:0|3:2,0:0:0:0:
132,314,18151,1,0,0:0:0:0:
152,299,18255,1,0,0:0:0:0:
176,305,18358,6,0,L|192:210,1,85.0000016212463,0|0,3:2|0:2,0:0:0:0:
266,157,18668,1,2,0:0:0:0:
270,169,18772,2,0,P|230:154|204:121,1,85.0000016212463,0|0,1:2|0:0,0:0:0:0:
133,87,19082,1,2,0:0:0:0:
125,97,19185,6,0,P|114:56|126:16,1,85.0000016212463,4|0,1:0|0:2,0:0:0:0:
71,158,19599,2,0,L|8:147,2,42.5000008106231,0|0|0,3:2|0:0|0:0,0:0:0:0:
187,269,20013,6,0,L|270:255,1,85.0000016212463,0|0,3:0|0:0,0:0:0:0:
337,296,20323,1,2,0:0:0:0:
387,235,20426,2,0,B|365:203|396:182|418:213|387:235,1,85.0000016212463,0|0,1:0|0:0,0:0:0:0:
338,306,20737,1,2,0:0:0:0:
270,255,20840,6,0,B|188:240|188:240|184:243|184:243|103:229,1,170.000003242493,4|0,1:0|3:2,0:0:0:0:
118,108,21461,1,0,0:0:0:0:
94,100,21565,1,0,0:0:0:0:
73,114,21668,6,0,L|82:160,1,42.5000008106231,0|0,3:1|0:0,0:0:0:0:
6,170,21874,2,0,L|0:127,1,42.5000008106231,0|2,0:0|0:0,0:0:0:0:
98,19,22081,2,0,P|122:52|161:68,1,85.0000016212463,0|0,1:2|0:0,0:0:0:0:
236,42,22392,1,2,0:0:0:0:
294,92,22495,6,0,L|278:187,1,85.0000016212463,4|2,1:0|0:0,0:0:0:0:
278,188,22806,1,2,0:0:0:0:
276,200,22909,2,0,L|234:207,2,42.5000008106231,0|2|2,3:2|0:0|0:0,0:0:0:0:
410,272,23323,5,0,3:2:0:0:
396,351,23530,1,0,0:0:0:0:
318,337,23737,1,0,3:2:0:0:
331,258,23944,1,0,0:0:0:0:
512,239,24151,6,0,P|457:207|427:152,1,127.500002431869,0|0,1:0|0:0,0:0:0:0:
426,140,24565,2,0,B|370:149|365:93|309:103,1,127.500002431869,0|0,3:2|0:0,0:0:0:0:
298,105,24979,6,0,L|283:188,1,85.0000016212463,0|0,3:2|0:0,0:0:0:0:
217,227,25288,1,2,0:0:0:0:
150,188,25392,2,0,L|135:104,1,85.0000016212463,0|0,3:2|0:0,0:0:0:0:
69,66,25703,1,2,0:0:0:0:
116,7,25806,5,0,1:2:0:0:
22,125,26013,1,2,0:0:0:0:
185,44,26220,2,0,L|226:51,2,42.5000008106231,0|0|0,3:2|0:0|0:0,0:0:0:0:
169,225,26634,6,0,L|252:210,1,85.0000016212463,0|0,3:2|0:0,0:0:0:0:
301,135,26944,1,2,0:0:0:0:
288,138,27048,2,0,P|323:162|365:164,1,85.0000016212463,0|0,3:2|0:0,0:0:0:0:
434,204,27358,1,2,0:0:0:0:
431,217,27461,6,0,P|495:163|506:81,1,170.000003242493,4|0,1:0|3:0,0:0:0:0:
397,10,28082,1,0,0:0:0:0:
421,2,28186,1,0,0:0:0:0:
442,16,28289,6,0,L|433:62,3,42.5000008106231,0|0|0|0,3:0|0:0|0:0|0:0,0:0:0:0:
376,109,28703,2,0,L|292:123,1,85.0000016212463,0|0,3:2|0:0,0:0:0:0:
224,88,29013,1,2,0:0:0:0:
173,145,29116,6,0,P|135:195|130:258,1,127.500002431869,0|0,1:0|0:0,0:0:0:0:
133,270,29530,2,0,L|227:287,1,85.0000016212463,0|0,3:2|0:0,0:0:0:0:
358,219,29944,5,0,3:2:0:0:
344,140,30151,1,0,0:0:0:0:
266,154,30358,1,0,3:2:0:0:
279,233,30565,1,0,0:0:0:0:
158,306,30772,5,0,3:2:0:0:
89,266,30979,1,0,0:0:0:0:
65,274,31083,1,0,0:0:0:0:
44,260,31186,2,0,L|53:214,3,42.5000008106231,0|2|2|2,3:2|0:0|0:0|0:0,0:0:0:0:
114,168,31599,5,0,3:2:0:0:
98,152,31703,1,2,0:0:0:0:
86,134,31806,1,2,0:0:0:0:
81,112,31910,1,2,0:0:0:0:
81,89,32013,2,0,L|144:77,1,42.5000008106231,0|0,3:2|0:0,0:0:0:0:
158,11,32220,2,0,L|199:18,1,42.5000008106231,0|0,0:0|0:0,0:0:0:0:
363,48,32427,5,0,3:2:0:0:
289,76,32634,1,0,0:0:0:0:
265,68,32738,1,0,0:0:0:0:
244,82,32841,2,0,L|253:128,3,42.5000008106231,0|0|0|0,3:2|0:0|0:0|0:0,0:0:0:0:
325,147,33254,6,0,L|309:242,1,85.0000016212463,0|0,3:2|0:0,0:0:0:0:
346,300,33565,1,2,0:0:0:0:
306,366,33668,2,0,B|274:345|253:376|284:398|306:366,1,85.0000016212463,0|0,1:0|0:0,0:0:0:0:
354,303,33979,1,2,0:0:0:0:
311,230,34082,6,0,P|227:232|164:178,1,170.000003242493,4|0,1:0|3:2,0:0:0:0:
79,24,34703,1,0,0:0:0:0:
104,20,34807,1,0,0:0:0:0:
122,37,34910,6,0,L|106:132,1,85.0000016212463,0|0,3:2|0:2,0:0:0:0:
32,185,35220,1,2,0:0:0:0:
28,173,35324,2,0,P|68:188|94:221,1,85.0000016212463,0|0,1:2|0:0,0:0:0:0:
165,255,35634,1,2,0:2:0:0:
173,245,35737,6,0,P|184:286|172:326,1,85.0000016212463,4|0,1:0|0:0,0:0:0:0:
366,383,36151,2,0,L|358:342,2,42.5000008106231,0|0|0,3:2|0:0|0:0,0:0:0:0:
260,251,36565,6,0,L|344:266,1,85.0000016212463,0|0,3:2|0:0,0:0:0:0:
412,229,36875,1,2,0:0:0:0:
465,285,36979,2,0,B|497:307|518:276|487:254|465:285,1,85.0000016212463,0|0,1:2|0:0,0:0:0:0:
413,220,37289,1,2,0:0:0:0:
343,265,37392,6,0,B|262:279|262:279|258:276|258:276|176:291,1,170.000003242493,4|0,1:0|3:2,0:0:0:0:
119,195,38013,1,0,0:0:0:0:
127,219,38117,1,0,0:0:0:0:
113,240,38220,6,0,L|67:231,1,42.5000008106231,0|0,3:2|0:0,0:0:0:0:
56,306,38427,2,0,L|98:315,1,42.5000008106231,0|2,0:0|0:0,0:0:0:0:
14,178,38634,2,0,L|0:94,1,85.0000016212463,0|0,1:2|0:0,0:0:0:0:
51,37,38944,1,2,0:0:0:0:
123,60,39047,6,0,P|158:36|200:35,1,85.0000016212463,4|0,1:0|0:0,0:0:0:0:
212,41,39357,1,0,0:0:0:0:
224,47,39461,2,0,L|214:102,2,42.5000008106231,0|0|0,3:2|0:0|0:0,0:0:0:0:
372,202,39875,5,0,3:2:0:0:
358,123,40082,1,0,0:0:0:0:
280,137,40289,1,0,3:2:0:0:
293,216,40496,1,0,0:0:0:0:
293,349,40703,6,0,P|255:288|217:349,1,170.000003242493,0|0,3:2|3:2,0:0:0:0:
358,267,41323,6,0,B|378:259|370:239|370:239|350:246|358:267,1,69.9999978637695,0|0,0:0|3:2,0:0:0:0:
154,267,41737,2,0,B|133:259|141:239|141:239|161:246|154:267,1,69.9999978637695,0|0,0:0|3:2,0:0:0:0:
376,159,42151,6,0,P|331:160|297:133,1,89.999997253418,0|0,0:0|3:2,0:0:0:0:
136,159,42565,2,0,P|180:160|214:133,1,89.999997253418,0|0,0:0|3:2,0:0:0:0:
256,21,42979,2,0,B|256:63|223:31|256:127|288:31|256:63|256:21,1,104.999996795654,0|0,0:0|3:2,0:0:0:0:
376,159,43392,5,0,0:0:0:0:
447,191,43599,1,0,3:2:0:0:
415,262,43806,1,0,0:0:0:0:
359,384,44013,5,4,1:0:0:0:
282,369,44220,1,0,0:0:0:0:
262,384,44324,1,0,0:0:0:0:
237,378,44427,2,0,L|229:331,3,42.5000008106231,0|2|2|0,3:2|0:0|0:0|0:0,0:0:0:0:
178,280,44841,6,0,B|137:272|137:272|135:274|135:274|94:267,1,85.0000016212463,0|0,3:2|0:0,0:0:0:0:
150,85,45254,2,0,B|191:77|191:77|193:79|193:79|233:72,1,85.0000016212463,0|0,1:2|0:0,0:0:0:0:
296,27,45565,1,2,0:0:0:0:
355,75,45668,6,0,L|347:116,3,42.5000008106231,0|0|0|0,1:0|0:0|0:0|0:0,0:0:0:0:
326,235,46082,2,0,L|337:172,3,42.5000008106231,0|0|0|0,3:2|0:0|0:0|0:0,0:0:0:0:
275,142,46496,6,0,L|212:131,1,42.5000008106231,0|0,3:2|0:0,0:0:0:0:
406,168,46703,2,0,L|469:179,1,42.5000008106231,0|0,0:0|0:0,0:0:0:0:
277,136,46910,2,0,L|214:125,1,42.5000008106231,0|0,3:2|0:0,0:0:0:0:
408,162,47117,2,0,L|471:173,1,42.5000008106231,0|0,0:0|0:0,0:0:0:0:
414,356,47323,6,0,P|439:276|511:235,1,170.000003242493,4|0,1:0|3:2,0:0:0:0:
347,215,47944,1,0,0:0:0:0:
362,235,48048,1,0,0:0:0:0:
356,260,48151,6,0,L|309:268,3,42.5000008106231,0|0|0|0,3:2|0:0|0:0|0:0,0:0:0:0:
283,338,48565,2,0,L|188:321,1,85.0000016212463,0|0,1:0|0:0,0:0:0:0:
133,362,48875,1,0,0:0:0:0:
80,307,48979,6,0,B|91:254|28:244|38:192,1,127.500002431869,4|0,1:0|0:0,0:0:0:0:
41,179,49392,2,0,L|-22:168,2,42.5000008106231,0|0|0,3:2|0:0|0:0,0:0:0:0:
135,82,49806,6,0,L|93:89,1,42.5000008106231,0|0,3:2|0:0,0:0:0:0:
83,91,50013,2,0,L|41:98,1,42.5000008106231,0|0,0:0|0:0,0:0:0:0:
224,42,50220,2,0,L|207:137,1,85.0000016212463,0|0,1:0|0:0,0:0:0:0:
245,193,50530,1,0,0:0:0:0:
191,248,50634,6,0,P|269:220|346:253,1,170.000003242493,4|0,1:0|3:2,0:0:0:0:
471,253,51255,1,0,0:0:0:0:
451,268,51359,1,0,0:0:0:0:
426,262,51462,2,0,L|418:215,3,42.5000008106231,0|0|0|0,3:2|0:0|0:0|0:0,0:0:0:0:
353,183,51875,2,0,L|370:88,1,85.0000016212463,0|0,1:2|0:0,0:0:0:0:
324,37,52185,1,0,0:0:0:0:
259,78,52289,6,0,B|206:66|196:129|144:119,1,127.500002431869,4|0,1:0|0:0,0:0:0:0:
131,117,52702,2,0,L|120:180,2,42.5000008106231,0|0|0,3:2|0:0|0:0,0:0:0:0:
33,32,53116,6,0,L|40:73,1,42.5000008106231,0|0,3:2|0:0,0:0:0:0:
42,84,53323,2,0,L|49:125,1,42.5000008106231,0|0,0:0|0:0,0:0:0:0:
212,112,53531,2,0,L|195:207,1,85.0000016212463,0|0,1:2|0:0,0:0:0:0:
138,245,53841,1,0,0:0:0:0:
177,311,53944,6,0,P|258:325|329:281,1,170.000003242493,4|0,1:0|3:2,0:0:0:0:
450,322,54565,1,2,0:0:0:0:
426,329,54669,1,0,0:0:0:0:
404,315,54772,6,0,L|412:268,3,42.5000008106231,0|0|2|0,3:2|0:0|0:2|0:0,0:0:0:0:
475,231,55186,2,0,L|458:136,1,85.0000016212463,0|0,1:0|0:0,0:0:0:0:
392,112,55496,1,0,0:0:0:0:
329,157,55599,6,0,B|293:180|270:145|304:121|329:157,1,94.9999974632263,4|2,1:0|0:0,0:0:0:0:
414,14,56013,2,0,B|427:32|447:38|447:38|426:49|410:45|407:20,1,94.9999974632263,0|2,3:2|0:0,0:0:0:0:
210,122,56427,6,0,L|217:164,1,42.5000008106231,0|0,3:2|0:0,0:0:0:0:
219,174,56634,2,0,L|226:216,1,42.5000008106231,2|0,0:2|0:0,0:0:0:0:
273,302,56841,2,0,L|178:285,1,85.0000016212463,0|2,1:2|0:0,0:0:0:0:
125,329,57151,1,0,0:0:0:0:
64,281,57254,6,0,B|28:256|52:222|87:245|64:281,1,94.9999974632263,4|2,1:0|0:0,0:0:0:0:
293,192,57668,2,0,B|274:205|268:225|268:225|257:204|261:188|286:185,1,94.9999974632263,0|2,3:2|0:0,0:0:0:0:
113,186,58082,5,0,3:2:0:0:
99,107,58289,1,2,0:0:0:0:
178,93,58496,1,0,3:2:0:0:
191,172,58703,1,2,0:0:0:0:
246,298,58910,6,0,L|240:329,3,22.4999993133545,0|0|0|0,3:2|0:0|0:0|0:0,0:0:0:0:
259,224,59323,2,0,L|262:201,3,22.4999993133545,0|0|0|0,3:2|0:0|0:0|0:0,0:0:0:0:
326,157,59737,6,0,L|367:149,1,42.5000008106231,0|0,3:2|0:0,0:0:0:0:
325,150,59944,2,0,L|366:142,1,42.5000008106231,0|0,0:0|0:0,0:0:0:0:
192,179,60151,6,0,L|150:186,1,42.5000008106231,0|0,3:2|0:0,0:0:0:0:
191,172,60358,2,0,L|149:179,1,42.5000008106231,0|0,0:0|0:0,0:0:0:0:
26,198,60565,6,0,P|72:155|87:94,1,127.500002431869,4|0,1:0|0:0,0:0:0:0:
88,83,60979,2,0,L|-6:66,1,85.0000016212463,0|0,3:2|0:0,0:0:0:0:
153,42,61392,5,2,3:2:0:0:
218,0,61599,1,0,0:0:0:0:
244,13,61702,1,0,0:0:0:0:
272,6,61806,1,2,3:2:0:0:
325,64,62013,1,0,0:0:0:0:
503,87,62220,6,0,B|450:75|440:138|388:128,1,127.500002431869,2|0,3:2|0:0,0:0:0:0:
375,126,62633,2,0,L|364:189,2,42.5000008106231,0|0|0,3:2|0:0|0:0,0:0:0:0:
316,296,63047,6,0,L|309:254,1,42.5000008106231,2|0,3:2|0:0,0:0:0:0:
307,244,63254,2,0,L|300:202,1,42.5000008106231,0|0,0:0|0:0,0:0:0:0:
240,156,63461,5,0,3:0:0:0:
261,83,63668,1,0,0:0:0:0:
136,0,63875,6,0,P|93:46|32:61,1,127.500002431869,2|0,3:2|0:0,0:0:0:0:
20,58,64289,2,0,L|37:152,1,85.0000016212463,0|0,3:0|0:0,0:0:0:0:
176,219,64702,5,2,3:2:0:0:
206,290,64909,1,0,0:0:0:0:
188,313,65012,1,0,0:0:0:0:
190,342,65116,1,2,3:2:0:0:
124,384,65323,1,0,0:0:0:0:
270,338,65530,6,0,B|323:350|333:287|385:297,1,127.500002431869,2|0,3:2|0:0,0:0:0:0:
398,299,65943,2,0,L|409:236,2,42.5000008106231,0|0|0,3:0|0:0|0:0,0:0:0:0:
270,338,66358,6,0,L|263:296,1,42.5000008106231,0|0,3:2|0:0,0:0:0:0:
261,286,66564,2,0,L|254:244,1,42.5000008106231,0|0,0:0|0:0,0:0:0:0:
172,182,66772,2,0,P|213:177|246:152,1,85.0000016212463,2|0,3:2|0:0,0:0:0:0:
313,193,67082,1,0,0:0:0:0:
254,140,67185,5,4,1:0:0:0:
370,248,67392,1,2,0:0:0:0:
390,233,67496,1,0,0:0:0:0:
414,238,67599,2,0,L|421:196,3,42.5000008106231,0|0|2|0,3:2|0:0|0:0|0:0,0:0:0:0:
494,176,68013,5,0,3:2:0:0:
499,144,68117,1,0,0:0:0:0:
494,113,68221,1,2,0:0:0:0:
478,86,68324,1,0,0:0:0:0:
454,64,68427,2,0,L|412:71,1,42.5000008106231,0|0,3:2|0:0,0:0:0:0:
356,20,68634,2,0,L|314:13,1,42.5000008106231,2|0,0:0|0:0,0:0:0:0:
251,150,68841,5,0,3:2:0:0:
253,137,68945,1,0,0:0:0:0:
255,124,69048,1,0,0:2:0:0:
258,111,69151,1,0,0:0:0:0:
259,97,69255,2,0,L|307:88,3,42.5000008106231,0|0|0|0,3:2|0:0|0:2|0:0,0:0:0:0:
356,20,69668,6,0,L|315:12,1,42.5000008106231,0|0,3:2|0:0,0:0:0:0:
357,13,69875,2,0,L|316:5,1,42.5000008106231,0|0,0:0|0:0,0:0:0:0:
156,80,70082,2,0,P|187:120|192:169,1,99.9999999999999,0|0,1:0|0:0,0:0:0:0:
243,239,70392,1,0,0:0:0:0:
191,179,70496,5,4,1:0:0:0:
70,262,70703,1,2,0:0:0:0:
49,249,70807,1,0,0:0:0:0:
26,257,70910,2,0,L|19:215,1,42.5000008106231,0|0,3:2|0:0,0:0:0:0:
39,333,71116,2,0,L|46:375,1,42.5000008106231,2|0,0:0|0:0,0:0:0:0:
146,241,71323,5,0,3:2:0:0:
168,265,71426,1,0,0:0:0:0:
195,281,71529,1,2,0:0:0:0:
226,286,71633,1,0,0:0:0:0:
258,281,71737,2,0,L|265:323,1,42.5000008106231,0|0,3:2|0:0,0:0:0:0:
342,313,71944,2,0,L|335:271,1,42.5000008106231,2|0,0:2|0:0,0:0:0:0:
186,331,72151,5,0,3:2:0:0:
184,318,72255,1,0,0:0:0:0:
182,305,72358,1,0,0:0:0:0:
179,292,72461,1,0,0:0:0:0:
178,278,72565,2,0,L|136:270,3,42.5000008106231,0|0|0|0,3:2|0:0|0:0|0:0,0:0:0:0:
83,323,72979,6,0,L|42:331,1,42.5000008106231,0|0,3:2|0:0,0:0:0:0:
84,330,73186,2,0,L|43:338,1,42.5000008106231,0|0,0:0|0:0,0:0:0:0:
114,196,73392,2,0,P|145:156|150:107,1,99.9999999999999,0|0,1:0|0:0,0:0:0:0:
201,37,73702,1,0,0:0:0:0:
149,97,73806,5,4,1:0:0:0:
212,195,74013,1,2,0:0:0:0:
239,176,74116,1,0,0:0:0:0:
273,177,74219,1,0,3:2:0:0:
298,195,74323,1,0,0:0:0:0:
331,204,74427,1,2,0:0:0:0:
361,193,74530,1,0,0:0:0:0:
381,167,74634,6,0,L|369:103,1,42.5000008106231,0|0,3:2|0:0,0:0:0:0:
400,277,74841,2,0,L|407:318,1,42.5000008106231,2|0,0:0|0:0,0:0:0:0:
489,205,75047,6,0,L|447:212,1,42.5000008106231,0|0,3:2|0:0,0:0:0:0:
293,236,75254,2,0,L|335:229,1,42.5000008106231,2|0,0:0|0:0,0:0:0:0:
235,290,75461,5,0,3:2:0:0:
219,274,75564,1,0,0:0:0:0:
200,263,75667,1,2,0:2:0:0:
179,259,75771,1,0,0:0:0:0:
156,263,75875,2,0,L|149:221,3,42.5000008106231,0|0|2|0,3:2|0:0|0:2|0:0,0:0:0:0:
90,171,76289,5,0,3:2:0:0:
92,158,76393,1,0,0:0:0:0:
94,145,76496,1,2,0:0:0:0:
97,132,76599,1,0,0:0:0:0:
98,118,76703,2,0,L|146:109,3,42.5000008106231,0|0|2|0,3:2|0:0|0:0|0:0,0:0:0:0:
177,43,77116,6,0,B|164:20|164:20|183:3,1,52.4999983978271,0|0,3:2|0:0,0:0:0:0:
258,21,77323,2,0,B|268:39|268:39|252:52,1,42.5000008106231,2|0,0:0|0:0,0:0:0:0:
388,56,77530,2,0,L|346:49,3,42.5000008106231,0|0|2|0,3:2|0:0|0:0|0:0,0:0:0:0:
301,114,77944,6,0,B|320:130|320:130|307:153,1,52.4999983978271,0|0,3:2|0:0,0:0:0:0:
195,199,78151,1,2,0:0:0:0:
182,178,78255,1,0,0:0:0:0:
190,155,78358,2,0,L|232:148,1,42.5000008106231,0|0,3:2|0:0,0:0:0:0:
114,168,78565,2,0,L|72:175,1,42.5000008106231,2|0,0:0|0:0,0:0:0:0:
0,240,78772,6,0,B|16:259|16:259|39:246,1,52.4999983978271,0|0,3:2|0:0,0:0:0:0:
127,339,78979,1,2,0:0:0:0:
109,310,79082,1,0,0:0:0:0:
114,276,79185,1,0,3:2:0:0:
134,253,79289,1,0,0:0:0:0:
146,220,79393,1,2,0:0:0:0:
137,190,79496,1,0,0:0:0:0:
114,168,79599,6,0,L|72:175,1,42.5000008106231,0|0,3:2|0:0,0:0:0:0:
41,105,79806,2,0,L|-1:98,1,42.5000008106231,2|0,0:0|0:0,0:0:0:0:
189,154,80013,6,0,L|230:146,1,34.9999989318848,0|2,3:2|0:0,0:0:0:0:
299,134,80220,2,0,L|340:126,1,34.9999989318848,2|2,0:0|0:0,0:0:0:0:
458,104,80427,6,0,B|507:95|476:141|583:81|463:63|507:95|458:104,1,125,4|0,1:0|0:0,0:0:0:0:
