osu file format v14

[General]
AudioFilename: audio.mp3
AudioLeadIn: 0
PreviewTime: 7806
Countdown: 0
SampleSet: Soft
StackLeniency: 0.7
Mode: 0
LetterboxInBreaks: 0
WidescreenStoryboard: 0

[Editor]
DistanceSpacing: 1.1
BeatDivisor: 8
GridSize: 4
TimelineZoom: 3.399999

[Metadata]
Title:Revolutionary Etude (Shoji Meguro Arrangement)
TitleUnicode:Revolutionary Etude (目黒将司 Arrangement)
Artist:Frederic Chopin
ArtistUnicode:Frédéric Chopin
Creator:intiaz
Version:Prestissimo
Source:Catherine
Tags:「革命」Étude Op. 10, No. 12 Étude on the Bombardment of Warsaw Fryderyk Franciszek Classical Frederic キャサリン SEGA Atlus Japanese Mature Adult Video Game Instrumental Piano Frédéric François Nyantiaz inti Xen Xenon- Xehn jas craezy riffy Bakari -Bakari-
BeatmapID:3572269
BeatmapSetID:1746423

[Difficulty]
HPDrainRate:7
CircleSize:4
OverallDifficulty:8
ApproachRate:9
SliderMultiplier:1.9
SliderTickRate:1

[Events]
//Background and Video events
0,0,"e.png",0,0
//Break Periods
//Storyboard Layer 0 (Background)
//Storyboard Layer 1 (Fail)
//Storyboard Layer 2 (Pass)
//Storyboard Layer 3 (Foreground)
//Storyboard Layer 4 (Overlay)
//Storyboard Sound Samples

[TimingPoints]
979,413.793103448276,4,2,1,80,1,0
1392,-100,4,2,1,70,0,0
1806,-100,4,2,1,60,0,0
2220,-100,4,2,1,50,0,0
2634,-100,4,2,1,40,0,0
3047,-100,4,2,1,50,0,0
3461,-100,4,2,1,60,0,0
3875,-66.6666666666667,4,2,1,80,0,0
4289,-100,4,2,1,80,0,0
4703,-100,4,2,1,70,0,0
5116,-100,4,2,1,60,0,0
5530,-100,4,2,1,50,0,0
5944,-100,4,2,1,40,0,0
6358,-100,4,2,1,50,0,0
6772,-100,4,2,1,60,0,0
7185,-100,4,2,1,80,0,0
7599,-66.6666666666667,4,2,1,80,0,0
8427,-100,4,2,1,70,0,0
9254,-100,4,2,1,60,0,0
10082,-100,4,2,1,50,0,0
10910,-100,4,2,1,40,0,0
11737,-100,4,2,1,50,0,0
12565,-100,4,2,1,60,0,0
13392,-100,4,2,1,70,0,0
14220,-111.111111111111,4,2,1,70,0,0
17116,-76.9230769230769,4,2,1,70,0,0
17737,-111.111111111111,4,2,1,70,0,0
20427,-76.9230769230769,4,2,1,70,0,0
20634,-111.111111111111,4,2,1,70,0,0
33668,-76.9230769230769,4,2,1,70,0,0
34082,-111.111111111111,4,2,1,70,0,0
40703,-133.333333333333,4,2,1,60,0,0
43392,-100,4,2,1,70,0,0
47323,-125,4,2,1,60,0,0
48565,-100,4,2,1,70,0,0
48979,-125,4,2,1,60,0,0
50220,-100,4,2,1,70,0,0
50634,-125,4,2,1,60,0,0
51875,-100,4,2,1,70,0,0
52289,-125,4,2,1,60,0,0
53530,-100,4,2,1,70,0,0
53944,-100,4,2,1,70,0,0
55599,-100,4,2,1,80,0,0
55806,-100,4,2,1,70,0,0
56841,-66.6666666666667,4,2,1,80,0,0
57461,-100,4,2,1,70,0,0
60565,-133.333333333333,4,2,1,70,0,0
67185,-100,4,2,1,80,0,0
67599,-100,4,2,1,70,0,0
68013,-100,4,2,1,60,0,0
68427,-100,4,2,1,50,0,0
68841,-100,4,2,1,40,0,0
69254,-100,4,2,1,50,0,0
69668,-100,4,2,1,60,0,0
70082,-66.6666666666667,4,2,1,80,0,0
70496,-100,4,2,1,80,0,0
70910,-100,4,2,1,70,0,0
71323,-100,4,2,1,60,0,0
71737,-100,4,2,1,50,0,0
72151,-100,4,2,1,40,0,0
72565,-100,4,2,1,50,0,0
72979,-100,4,2,1,60,0,0
73392,-100,4,2,1,80,0,0
73806,-66.6666666666667,4,2,1,80,0,0
74634,-100,4,2,1,70,0,0
75461,-100,4,2,1,60,0,0
76289,-100,4,2,1,50,0,0
77116,-100,4,2,1,40,0,0
77944,-100,4,2,1,50,0,0
78772,-100,4,2,1,60,0,0
79599,-100,4,2,1,70,0,0
80427,-100,4,2,1,70,0,0

[Colours]
Combo1 : 0,85,170
Combo2 : 213,0,0
Combo3 : 132,0,66
Combo4 : 232,116,0

[HitObjects]
128,88,978,5,4,1:0:0:0:
408,325,1185,1,2,0:0:0:0:
461,298,1288,1,0,0:0:0:0:
476,240,1392,1,0,3:2:0:0:
437,193,1495,1,0,0:0:0:0:
377,194,1598,1,2,0:0:0:0:
342,242,1703,1,0,0:0:0:0:
301,265,1806,5,0,3:2:0:0:
256,255,1909,1,0,0:0:0:0:
229,218,2013,1,2,0:0:0:0:
233,171,2116,1,0,0:0:0:0:
267,140,2220,2,0,L|320:120,1,47.5,0|0,3:2|0:0,0:0:0:0:
172,71,2427,2,0,L|128:88,1,47.5,2|0,0:0|0:0,0:0:0:0:
80,200,2634,5,0,3:2:0:0:
84,228,2737,1,0,0:0:0:0:
89,256,2840,1,0,0:0:0:0:
94,284,2944,1,0,0:0:0:0:
100,312,3047,1,0,3:2:0:0:
97,326,3150,1,0,0:0:0:0:
95,340,3253,1,0,0:0:0:0:
92,354,3357,1,0,0:0:0:0:
88,368,3461,2,0,L|20:360,1,47.5,0|0,3:2|0:0,0:0:0:0:
176,344,3668,2,0,L|244:352,1,47.5,0|0,0:2|0:0,0:0:0:0:
288,192,3875,6,0,P|200:220|212:276,1,142.500005435944,0|0,1:0|0:0,0:0:0:0:
276,280,4185,1,0,0:0:0:0:
352,256,4289,5,4,1:0:0:0:
332,68,4496,1,2,0:0:0:0:
284,37,4599,1,0,0:0:0:0:
229,47,4702,1,0,3:0:0:0:
193,89,4806,1,0,0:0:0:0:
194,145,4909,1,2,0:0:0:0:
232,186,5013,1,0,0:0:0:0:
288,192,5116,6,0,L|277:129,1,47.5,0|0,3:0|0:0,0:0:0:0:
376,240,5323,1,2,0:0:0:0:
388,232,5427,1,0,0:0:0:0:
400,224,5530,2,0,L|389:161,1,47.5,0|0,3:0|0:0,0:0:0:0:
311,350,5737,1,2,0:0:0:0:
299,342,5841,1,0,0:0:0:0:
287,334,5944,6,0,L|298:271,1,47.5,0|0,3:0|0:0,0:0:0:0:
412,216,6151,2,0,L|401:153,1,47.5
252,180,6358,2,0,L|263:117,1,47.5,0|0,3:0|0:0,0:0:0:0:
424,64,6565,2,0,L|413:1,1,47.5
236,48,6772,1,0,3:3:0:0:
197,45,6875,1,0,0:0:0:0:
160,44,6978,1,0,0:0:0:0:
121,42,7082,1,0,0:0:0:0:
84,40,7185,5,0,1:0:0:0:
135,279,7496,1,0,0:0:0:0:
209,270,7599,6,0,P|245:280|299:261,1,71.2500027179719,4|0,1:0|0:0,0:0:0:0:
481,86,7806,1,2,0:0:0:0:
426,47,7910,1,0,0:0:0:0:
359,56,8012,1,0,3:2:0:0:
317,108,8116,1,0,0:0:0:0:
319,175,8219,1,2,0:0:0:0:
366,222,8323,1,0,0:0:0:0:
433,225,8427,5,0,3:2:0:0:
409,174,8530,1,0,0:0:0:0:
367,136,8633,1,2,0:0:0:0:
313,120,8737,1,0,0:0:0:0:
257,127,8840,1,0,3:2:0:0:
213,154,8944,1,0,0:0:0:0:
176,188,9047,1,2,0:0:0:0:
127,201,9150,1,0,0:0:0:0:
77,191,9254,6,0,L|74:137,1,47.5,0|0,3:2|0:2,0:2:0:0:
144,316,9461,2,0,L|166:270,1,47.5,2|0,0:2|0:2,0:2:0:0:
148,108,9668,2,0,L|164:59,1,47.5,0|0,3:2|0:2,0:2:0:0:
252,232,9875,2,0,L|290:199,1,47.5,2|0,0:2|0:2,0:2:0:0:
400,96,10082,5,0,3:2:0:0:
396,98,10185,1,0,0:0:0:0:
391,98,10289,1,2,0:0:0:0:
387,96,10392,1,0,0:0:0:0:
386,91,10496,1,0,3:2:0:0:
387,86,10599,1,0,0:0:0:0:
391,84,10703,2,0,L|387:176,1,47.5,2|0,0:0|0:0,0:0:0:0:
360,304,10910,6,0,L|356:212,1,47.5,0|0,3:2|0:0,0:0:0:0:
510,259,11116,1,2,0:0:0:0:
500,260,11220,1,0,0:0:0:0:
490,260,11323,1,0,3:0:0:0:
481,261,11426,1,0,0:0:0:0:
471,262,11530,1,2,0:0:0:0:
462,263,11633,1,0,0:0:0:0:
452,264,11737,6,0,L|456:172,1,47.5,0|0,3:2|0:0,0:0:0:0:
388,72,11944,2,0,L|390:119,1,47.5,2|0,0:2|0:0,0:0:0:0:
300,280,12151,2,0,L|304:188,1,47.5,0|0,3:2|0:0,0:0:0:0:
248,40,12358,2,0,L|250:87,1,47.5,2|0,0:2|0:0,0:0:0:0:
184,272,12565,5,0,3:2:0:0:
146,311,12668,1,0,0:0:0:0:
92,325,12771,1,2,0:0:0:0:
41,308,12875,1,0,0:0:0:0:
4,258,12978,1,0,3:2:0:0:
0,197,13082,1,0,0:0:0:0:
32,144,13185,1,2,0:0:0:0:
88,119,13289,1,0,0:0:0:0:
144,122,13392,2,0,L|168:194,1,47.5,0|0,3:2|0:0,0:0:0:0:
300,280,13599,5,2,0:0:0:0:
378,297,13703,1,0,0:0:0:0:
441,247,13806,1,0,3:2:0:0:
441,167,13910,1,2,0:0:0:0:
378,117,14013,1,2,0:0:0:0:
300,135,14116,1,2,0:0:0:0:
264,208,14220,5,4,1:0:0:0:
488,68,14427,2,0,L|492:4,1,42.7499986953736
378,117,14634,2,0,L|365:54,1,42.7499986953736,0|2,3:2|0:0,0:0:0:0:
248,68,14841,2,0,L|260:5,1,42.7499986953736,2|2,0:2|0:0,0:0:0:0:
168,152,15047,5,0,3:2:0:0:
140,177,15150,1,2,0:0:0:0:
102,178,15253,1,2,0:0:0:0:
72,154,15357,1,2,0:0:0:0:
66,117,15461,2,0,P|66:96|80:63,1,42.7499986953736,0|0,3:2|0:0,0:0:0:0:
35,228,15668,2,0,P|19:243|-18:257,1,42.7499986953736
127,260,15875,6,0,L|199:272,2,42.7499986953736,0|0|0,3:2|0:0|0:0,0:0:0:0:
236,336,16185,1,0,0:0:0:0:
265,333,16288,1,0,3:2:0:0:
295,330,16391,1,0,0:0:0:0:
324,327,16496,2,0,L|374:335,1,42.7499986953736
296,240,16703,5,0,3:2:0:0:
493,148,16910,1,0,0:0:0:0:
448,128,17013,1,2,0:0:0:0:
400,128,17116,2,0,L|260:117,1,123.499994346619,0|0,1:0|0:0,0:0:0:0:
208,16,17426,1,2,0:0:0:0:
252,36,17530,5,4,1:0:0:0:
136,176,17737,1,0,0:0:0:0:
131,176,17841,1,0,0:0:0:0:
128,174,17944,1,0,3:2:0:0:
128,170,18047,1,0,0:0:0:0:
131,167,18151,1,0,0:0:0:0:
136,168,18254,1,0,0:0:0:0:
137,172,18358,6,0,L|128:256,1,42.7499986953736,0|0,3:2|0:0,0:0:0:0:
244,264,18565,2,0,L|253:348,1,42.7499986953736,0|2,0:2|0:0,0:0:0:0:
348,204,18772,1,0,1:2:0:0:
444,344,18978,1,0,0:0:0:0:
465,344,19082,1,2,0:0:0:0:
486,345,19185,5,4,1:0:0:0:
432,148,19392,2,0,L|441:232,1,42.7499986953736,0|0,0:2|0:0,0:0:0:0:
340,332,19599,2,0,L|349:248,1,42.7499986953736,0|0,3:2|0:0,0:0:0:0:
260,144,19806,1,0,0:0:0:0:
262,163,19910,1,0,0:0:0:0:
264,185,20013,5,0,3:0:0:0:
376,60,20220,1,0,0:0:0:0:
332,48,20323,1,2,0:0:0:0:
287,39,20427,2,0,L|131:17,1,123.499994346619,0|0,1:0|0:0,0:0:0:0:
96,56,20737,1,2,0:0:0:0:
56,32,20840,5,4,1:0:0:0:
48,200,21047,2,0,L|64:260,1,42.7499986953736
156,336,21254,2,0,L|172:276,1,42.7499986953736,0|0,3:2|0:0,0:0:0:0:
232,176,21461,1,0,0:0:0:0:
260,216,21565,1,0,0:0:0:0:
288,256,21668,6,0,L|304:316,1,42.7499986953736,0|0,3:1|0:0,0:0:0:0:
400,212,21875,2,0,L|416:152,1,42.7499986953736,0|2,0:0|0:0,0:0:0:0:
488,284,22082,1,0,1:2:0:0:
328,160,22289,2,0,L|344:100,1,42.7499986953736,0|2,0:0|0:0,0:0:0:0:
504,204,22496,5,4,1:0:0:0:
400,28,22703,1,2,0:0:0:0:
378,31,22806,1,2,0:0:0:0:
357,35,22909,1,0,3:2:0:0:
336,38,23013,1,2,0:0:0:0:
315,42,23116,2,0,L|236:56,1,42.7499986953736,2|0,0:0|0:0,0:0:0:0:
112,32,23323,6,0,L|154:24,1,42.7499986953736,0|0,3:2|0:0,0:0:0:0:
272,132,23530,2,0,L|193:146,1,42.7499986953736
69,122,23737,2,0,L|111:114,1,42.7499986953736,0|0,3:2|0:0,0:0:0:0:
164,208,23944,1,0,0:0:0:0:
161,194,24047,1,0,0:0:0:0:
160,179,24151,5,0,1:0:0:0:
140,368,24565,2,0,L|276:344,1,128.249996086121,0|0,3:2|0:0,0:0:0:0:
321,278,24979,6,0,L|304:240,1,42.7499986953736,0|0,3:2|0:0,0:0:0:0:
229,139,25185,2,0,L|246:100,1,42.7499986953736,0|2,0:0|0:0,0:0:0:0:
356,32,25392,2,0,L|460:21,1,85.4999973907472,0|0,3:2|0:0,0:0:0:0:
512,56,25703,1,2,0:0:0:0:
500,96,25806,5,0,1:2:0:0:
404,192,26013,1,2,0:0:0:0:
229,139,26220,2,0,B|157:127|157:127|105:179,1,128.249996086121,0|0,3:2|0:0,0:0:0:0:
259,258,26634,5,0,3:2:0:0:
270,253,26737,1,0,0:0:0:0:
282,248,26840,1,0,0:0:0:0:
294,244,26944,1,2,0:0:0:0:
304,239,27047,2,0,L|405:262,1,85.4999973907472,0|0,3:2|0:0,0:0:0:0:
436,312,27358,1,2,0:0:0:0:
472,248,27461,5,4,1:0:0:0:
252,344,27668,2,0,L|204:328,1,42.7499986953736
227,140,27875,2,0,L|262:163,1,42.7499986953736,0|0,3:0|0:0,0:0:0:0:
176,240,28082,2,0,L|133:212,1,42.7499986953736
136,32,28289,6,0,L|164:63,1,42.7499986953736,0|0,3:0|0:0,0:0:0:0:
80,136,28496,1,0,0:0:0:0:
70,139,28599,1,0,0:0:0:0:
60,139,28702,1,0,3:2:0:0:
50,136,28806,1,0,0:0:0:0:
43,128,28909,1,0,0:0:0:0:
39,119,29013,1,2,0:0:0:0:
38,109,29116,5,0,1:0:0:0:
227,140,29323,2,0,L|295:129,1,42.7499986953736
344,40,29530,2,0,L|412:29,1,42.7499986953736,0|0,3:2|0:0,0:0:0:0:
352,164,29737,2,0,L|420:153,1,42.7499986953736
469,64,29944,6,0,L|537:53,1,42.7499986953736,0|0,3:2|0:0,0:0:0:0:
476,192,30151,1,0,0:0:0:0:
473,213,30254,1,0,0:0:0:0:
470,234,30357,1,0,3:2:0:0:
468,255,30461,1,0,0:0:0:0:
465,276,30565,2,0,L|455:356,1,42.7499986953736
280,272,30772,6,0,L|384:264,1,85.4999973907472,0|0,3:2|0:0,0:0:0:0:
316,348,31082,1,0,0:0:0:0:
296,360,31185,2,0,L|220:356,1,42.7499986953736,0|2,3:2|0:0,0:0:0:0:
108,304,31392,2,0,L|184:300,1,42.7499986953736,2|2,0:0|0:0,0:0:0:0:
280,272,31599,6,0,L|204:268,1,42.7499986953736,0|2,3:2|0:0,0:0:0:0:
92,216,31806,2,0,L|168:212,1,42.7499986953736,2|2,0:0|0:0,0:0:0:0:
269,181,32013,2,0,L|193:177,1,42.7499986953736,0|0,3:2|0:0,0:0:0:0:
81,125,32220,2,0,L|157:121,1,42.7499986953736
260,89,32427,5,0,3:2:0:0:
452,184,32634,2,0,L|448:232,1,42.7499986953736
364,104,32841,1,0,3:2:0:0:
365,125,32944,1,0,0:0:0:0:
367,146,33047,2,0,L|371:194,1,42.7499986953736
484,104,33254,5,0,3:2:0:0:
259,132,33461,2,0,L|263:90,1,42.7499986953736,0|2,0:0|0:0,0:0:0:0:
370,188,33668,2,0,L|358:344,1,123.499994346619,0|0,1:0|0:0,0:0:0:0:
288,280,33979,1,2,0:0:0:0:
240,304,34082,5,4,1:0:0:0:
64,136,34289,1,0,0:0:0:0:
73,112,34392,1,0,0:0:0:0:
91,95,34495,1,0,3:2:0:0:
116,87,34599,1,0,0:0:0:0:
141,91,34703,1,0,0:0:0:0:
165,120,34806,1,0,0:0:0:0:
174,157,34910,6,0,P|164:216|156:227,1,42.7499986953736,0|0,3:2|0:0,0:0:0:0:
340,199,35116,2,0,P|336:178|337:157,1,42.7499986953736,0|2,0:2|0:0,0:0:0:0:
256,96,35323,1,0,1:2:0:0:
220,236,35529,1,0,0:0:0:0:
237,273,35634,1,2,0:2:0:0:
256,308,35737,6,0,L|362:335,1,85.4999973907472,4|0,1:0|0:0,0:0:0:0:
489,182,36151,1,0,3:2:0:0:
451,175,36254,1,0,0:0:0:0:
413,169,36357,1,0,0:0:0:0:
375,162,36461,1,0,0:0:0:0:
337,156,36564,5,0,3:2:0:0:
128,28,36772,1,0,0:0:0:0:
170,25,36875,1,2,0:0:0:0:
213,23,36980,1,0,1:2:0:0:
115,183,37185,1,0,0:0:0:0:
68,179,37288,1,2,0:0:0:0:
21,177,37391,5,4,1:0:0:0:
232,112,37599,2,0,L|268:168,1,42.7499986953736
180,280,37806,2,0,L|216:224,1,42.7499986953736,0|0,3:2|0:0,0:0:0:0:
337,156,38013,2,0,L|322:221,1,42.7499986953736
260,340,38220,5,0,3:2:0:0:
283,321,38323,1,0,0:0:0:0:
311,312,38426,1,0,0:0:0:0:
341,314,38530,1,2,0:0:0:0:
368,326,38634,1,0,1:2:0:0:
475,158,38841,1,0,0:0:0:0:
472,202,38944,1,2,0:0:0:0:
469,247,39047,5,4,1:0:0:0:
392,60,39254,2,0,L|406:125,2,42.7499986953736,0|0|0,0:0|0:0|3:2,0:0:0:0:
192,36,39668,2,0,L|177:101,1,42.7499986953736
120,224,39875,5,0,3:2:0:0:
115,222,39979,1,0,0:0:0:0:
115,218,40082,1,0,0:0:0:0:
120,217,40185,1,0,0:0:0:0:
122,220,40289,1,0,3:2:0:0:
116,264,40392,1,0,0:0:0:0:
100,300,40496,1,0,0:0:0:0:
72,324,40599,1,0,0:0:0:0:
36,332,40703,6,0,P|120:336|176:368,1,142.500005435944,0|0,3:2|3:2,0:0:0:0:
312,260,41323,2,0,L|304:356,1,71.2500027179719,0|0,0:0|3:2,0:0:0:0:
204,160,41737,2,0,L|212:256,1,71.2500027179719,0|0,0:0|3:2,0:0:0:0:
376,124,42151,2,0,L|368:220,1,71.2500027179719,0|0,0:0|3:2,0:0:0:0:
140,24,42565,2,0,L|148:120,1,71.2500027179719,0|0,0:0|3:2,0:0:0:0:
364,24,42979,2,0,L|448:40,1,71.2500027179719,0|0,0:0|3:2,0:0:0:0:
268,264,43392,6,0,P|276:228|296:208,1,47.5
401,165,43599,2,0,P|375:190|347:196,1,47.5,0|0,3:2|0:0,0:0:0:0:
280,104,43806,2,0,P|295:121|302:144,1,47.5
192,208,44013,5,4,1:0:0:0:
36,80,44220,2,0,L|28:12,1,47.5
156,92,44427,2,0,L|153:23,1,47.5,0|2,3:2|0:0,0:0:0:0:
280,104,44634,2,0,L|283:35,1,47.5,2|0,0:0|0:0,0:0:0:0:
453,86,44841,5,0,3:2:0:0:
467,118,44944,1,0,0:0:0:0:
450,152,45047,1,0,0:0:0:0:
414,163,45151,1,0,0:0:0:0:
384,144,45254,5,0,1:2:0:0:
268,264,45461,1,0,0:0:0:0:
315,267,45564,1,2,0:0:0:0:
362,270,45668,6,0,L|416:272,1,47.5,0|0,1:0|0:0,0:0:0:0:
256,176,45875,1,0,0:0:0:0:
223,181,45978,1,0,0:0:0:0:
190,186,46081,1,0,3:2:0:0:
157,191,46185,1,0,0:0:0:0:
124,196,46289,2,0,L|62:209,1,47.5
160,56,46496,6,0,L|169:102,1,47.5,0|0,3:2|0:0,0:0:0:0:
216,308,46703,1,0,0:0:0:0:
202,311,46806,1,0,0:0:0:0:
190,302,46910,1,0,3:2:0:0:
190,288,47013,1,0,0:0:0:0:
202,279,47116,1,0,0:0:0:0:
216,282,47220,1,0,0:0:0:0:
222,295,47323,6,0,P|284:324|376:292,1,152,4|0,1:0|3:2,0:0:0:0:
464,200,47944,1,0,0:0:0:0:
352,96,48151,2,0,P|296:112|284:140,1,76,0|0,3:2|0:0,0:0:0:0:
32,144,48565,6,0,P|120:156|176:96,1,142.5,0|0,1:0|0:0,0:0:0:0:
112,64,48979,6,0,P|86:128|120:232,1,152,4|0,1:0|3:2,0:0:0:0:
248,308,49599,1,0,0:0:0:0:
288,124,49806,1,0,3:2:0:0:
196,200,50013,1,0,0:0:0:0:
360,280,50220,6,0,L|488:216,1,142.5,0|0,1:0|0:0,0:0:0:0:
438,141,50634,6,0,L|288:124,1,152,4|0,1:0|3:2,0:0:0:0:
96,140,51254,1,0,0:0:0:0:
236,232,51461,2,0,L|232:317,1,76,0|0,3:2|0:0,0:0:0:0:
96,140,51875,6,0,P|120:56|172:64,1,142.5,0|0,1:2|0:0,0:0:0:0:
212,124,52289,6,0,L|28:140,1,152,4|0,1:0|3:2,0:0:0:0:
64,276,52910,1,0,0:0:0:0:
216,232,53116,2,0,L|313:220,1,76,0|0,3:2|0:0,0:0:0:0:
465,75,53530,6,0,L|318:58,1,142.5,0|0,1:2|0:0,0:0:0:0:
232,16,53944,5,4,1:0:0:0:
392,208,54151,1,2,0:0:0:0:
409,241,54254,1,0,0:0:0:0:
406,278,54357,1,0,3:2:0:0:
383,307,54461,1,0,0:0:0:0:
348,320,54565,1,2,0:0:0:0:
310,326,54668,1,0,0:0:0:0:
273,319,54772,6,0,L|224:280,1,47.5,0|0,3:2|0:0,0:0:0:0:
166,176,54979,2,0,L|204:208,1,47.5,2|0,0:2|0:0,0:0:0:0:
148,350,55185,1,0,1:0:0:0:
110,341,55288,1,0,0:0:0:0:
73,333,55391,1,0,0:0:0:0:
36,325,55495,1,0,0:0:0:0:
0,317,55598,5,4,1:0:0:0:
40,108,55806,1,2,0:0:0:0:
76,64,55909,1,0,0:0:0:0:
127,39,56012,1,0,3:2:0:0:
183,35,56116,1,0,0:0:0:0:
237,53,56220,1,2,0:0:0:0:
282,81,56323,1,0,0:0:0:0:
333,95,56427,2,0,L|384:48,1,47.5,0|0,3:2|0:0,0:0:0:0:
248,176,56634,2,0,L|213:143,1,47.5,2|0,0:2|0:0,0:0:0:0:
356,196,56841,5,0,1:2:0:0:
427,190,56944,1,0,0:0:0:0:
498,184,57047,2,0,L|500:272,1,71.2500027179719,2|0,0:0|0:0,0:0:0:0:
384,368,57254,6,0,L|385:296,1,71.2500027179719,4|0,1:0|0:0,0:0:0:0:
384,96,57461,1,2,0:0:0:0:
389,94,57565,1,0,0:0:0:0:
393,97,57668,1,0,3:2:0:0:
393,102,57772,1,0,0:0:0:0:
389,105,57875,1,2,0:0:0:0:
384,104,57979,1,0,0:0:0:0:
382,100,58082,5,0,3:2:0:0:
337,83,58185,1,0,0:0:0:0:
290,86,58288,1,2,0:0:0:0:
249,108,58392,1,0,0:0:0:0:
221,146,58496,1,0,3:2:0:0:
188,192,58599,1,0,0:0:0:0:
135,210,58702,1,2,0:0:0:0:
81,196,58806,1,0,0:0:0:0:
45,153,58910,6,0,L|55:89,1,47.5,0|0,3:2|0:0,0:0:0:0:
152,116,59116,2,0,L|161:51,1,47.5
22,295,59323,2,0,L|31:230,1,47.5,0|0,3:2|0:0,0:0:0:0:
128,257,59529,2,0,L|137:192,1,47.5
205,335,59737,5,0,3:2:0:0:
218,334,59840,1,0,0:0:0:0:
230,333,59943,1,0,0:0:0:0:
243,333,60047,1,0,0:0:0:0:
256,333,60150,1,0,3:2:0:0:
269,332,60254,1,0,0:0:0:0:
282,332,60357,1,0,0:0:0:0:
294,331,60461,1,0,0:0:0:0:
307,330,60564,5,4,1:0:0:0:
256,48,60979,2,0,P|240:100|248:140,1,71.2500027179719,0|0,3:2|0:0,0:0:0:0:
396,162,61392,2,0,P|342:157|305:173,1,71.2500027179719,2|0,3:2|0:0,0:0:0:0:
285,332,61806,2,0,P|290:278|274:241,1,71.2500027179719,2|0,3:2|0:0,0:0:0:0:
115,221,62220,6,0,P|169:226|264:184,1,142.500005435944,2|0,3:2|3:2,0:0:0:0:
112,100,62841,1,0,0:0:0:0:
32,236,63047,2,0,L|20:328,1,71.2500027179719,2|0,3:2|0:0,0:0:0:0:
112,320,63358,1,0,0:0:0:0:
124,291,63461,2,0,L|114:220,1,71.2500027179719,0|0,3:0|0:0,0:0:0:0:
8,84,63875,6,0,L|161:57,1,142.500005435944,2|0,3:2|3:0,0:0:0:0:
420,192,64703,2,0,L|328:184,1,71.2500027179719,2|0,3:2|0:0,0:0:0:0:
248,92,65116,2,0,L|318:98,1,71.2500027179719,2|0,3:2|0:0,0:0:0:0:
248,288,65530,6,0,P|224:228|284:168,1,142.500005435944,2|0,3:2|3:0,0:0:0:0:
336,328,66151,1,0,0:0:0:0:
148,312,66358,2,0,L|132:228,1,71.2500027179719,0|0,3:2|0:0,0:0:0:0:
168,24,66772,2,0,L|136:64,1,35.625001358986,2|0,3:2|0:0,0:0:0:0:
48,120,66979,2,0,L|83:116,1,35.625001358986,0|0,0:0|0:2,0:0:0:0:
8,44,67185,5,4,1:0:0:0:
178,156,67392,1,2,0:0:0:0:
216,189,67495,1,0,0:0:0:0:
267,195,67598,1,0,3:2:0:0:
313,173,67702,1,0,0:0:0:0:
339,129,67805,1,2,0:0:0:0:
337,77,67909,1,0,0:0:0:0:
309,39,68013,6,0,L|261:70,1,47.5,0|0,3:2|0:0,0:0:0:0:
188,264,68220,1,2,0:0:0:0:
221,290,68323,1,0,0:0:0:0:
261,303,68426,1,0,3:2:0:0:
303,301,68530,1,0,0:0:0:0:
342,282,68633,1,2,0:0:0:0:
384,282,68736,1,0,0:0:0:0:
422,300,68841,6,0,L|476:244,1,47.5,0|0,3:2|0:0,0:0:0:0:
420,128,69047,2,0,L|473:184,1,47.5,0|0,0:2|0:0,0:0:0:0:
309,39,69254,2,0,L|335:111,1,47.5,0|0,3:2|0:0,0:0:0:0:
168,0,69461,2,0,L|186:75,1,47.5,0|0,0:2|0:0,0:0:0:0:
4,16,69668,5,0,3:2:0:0:
9,63,69771,1,0,0:0:0:0:
14,110,69874,1,0,0:0:0:0:
19,157,69978,1,0,0:0:0:0:
24,204,70082,6,0,L|204:188,1,142.500005435944,0|0,1:0|0:0,0:0:0:0:
204,120,70392,1,0,0:0:0:0:
179,46,70496,5,4,1:0:0:0:
129,299,70703,1,2,0:0:0:0:
167,332,70806,1,0,0:0:0:0:
216,347,70909,1,0,3:2:0:0:
268,341,71013,1,0,0:0:0:0:
313,315,71116,1,2,0:0:0:0:
343,272,71220,1,0,0:0:0:0:
352,226,71323,5,0,3:2:0:0:
364,191,71426,1,0,0:0:0:0:
394,168,71529,1,2,0:0:0:0:
431,165,71633,1,0,0:0:0:0:
464,184,71737,2,0,L|464:237,1,47.5,0|0,3:2|0:0,0:0:0:0:
268,228,71944,2,0,L|268:180,1,47.5,2|0,0:2|0:0,0:0:0:0:
372,40,72151,5,0,3:2:0:0:
377,41,72254,1,0,0:0:0:0:
377,46,72358,1,0,0:0:0:0:
372,47,72461,1,0,0:0:0:0:
370,43,72565,1,0,3:2:0:0:
328,21,72668,1,0,0:0:0:0:
281,26,72771,1,0,0:0:0:0:
244,54,72875,1,0,0:0:0:0:
228,98,72979,5,0,3:2:0:0:
200,153,73082,1,0,0:0:0:0:
151,189,73185,1,0,0:0:0:0:
90,201,73289,1,0,0:0:0:0:
35,177,73392,5,0,1:0:0:0:
284,296,73703,1,0,0:0:0:0:
308,216,73806,6,0,L|188:232,1,71.2500027179719,4|0,1:0|0:0,0:0:0:0:
364,48,74013,5,2,0:0:0:0:
430,23,74116,1,0,0:0:0:0:
484,68,74220,2,0,L|493:159,1,71.2500027179719,0|0,3:2|0:0,0:0:0:0:
316,128,74427,5,2,0:0:0:0:
244,104,74530,1,0,0:0:0:0:
192,160,74634,2,0,L|184:241,1,47.5,0|0,3:2|0:0,0:0:0:0:
328,268,74841,5,2,0:0:0:0:
392,232,74944,1,0,0:0:0:0:
452,272,75047,1,0,3:2:0:0:
456,292,75150,1,0,0:0:0:0:
462,315,75253,1,2,0:0:0:0:
468,338,75357,1,0,0:0:0:0:
472,356,75461,6,0,L|385:355,1,47.5,0|0,3:2|0:0,0:0:0:0:
283,281,75668,2,0,L|328:268,1,47.5,2|0,0:2|0:0,0:0:0:0:
152,344,75875,2,0,L|196:357,1,47.5,0|0,3:2|0:0,0:0:0:0:
28,264,76082,2,0,L|72:250,1,47.5,2|0,0:2|0:0,0:0:0:0:
216,55,76289,5,0,3:2:0:0:
208,107,76392,1,0,0:0:0:0:
202,159,76495,1,2,0:0:0:0:
194,210,76599,1,0,0:0:0:0:
187,262,76703,2,0,L|130:200,1,47.5,0|0,3:2|0:0,0:0:0:0:
317,127,76910,2,0,L|370:184,1,47.5,2|0,0:0|0:0,0:0:0:0:
328,272,77116,5,0,3:2:0:0:
324,270,77220,1,0,0:0:0:0:
324,266,77323,1,2,0:0:0:0:
328,265,77427,1,0,0:0:0:0:
330,268,77530,1,0,3:2:0:0:
325,291,77634,1,0,0:0:0:0:
313,311,77737,1,2,0:0:0:0:
296,327,77841,1,0,0:0:0:0:
274,337,77944,5,0,3:2:0:0:
237,347,78047,1,0,0:0:0:0:
199,345,78150,1,2,0:0:0:0:
164,331,78254,1,0,0:0:0:0:
135,307,78358,1,0,3:2:0:0:
111,266,78461,1,0,0:0:0:0:
103,219,78564,1,2,0:0:0:0:
112,173,78668,1,0,0:0:0:0:
137,133,78772,5,0,3:2:0:0:
186,96,78875,1,0,0:0:0:0:
247,86,78978,1,2,0:0:0:0:
305,105,79082,1,0,0:0:0:0:
348,147,79185,1,0,3:2:0:0:
370,210,79289,1,0,0:0:0:0:
363,276,79392,1,2,0:0:0:0:
323,331,79496,1,0,0:0:0:0:
263,360,79599,2,0,L|198:342,1,47.5,0|0,3:2|0:0,0:0:0:0:
103,219,79806,5,2,0:0:0:0:
35,175,79910,1,0,0:0:0:0:
26,95,80013,1,0,3:2:0:0:
83,38,80117,1,2,0:0:0:0:
163,47,80220,1,2,0:0:0:0:
206,115,80323,1,2,0:0:0:0:
180,192,80427,5,4,1:0:0:0:
