osu file format v14

[General]
AudioFilename: audio.mp3
AudioLeadIn: 0
PreviewTime: 7806
Countdown: 0
SampleSet: Soft
StackLeniency: 0.7
Mode: 0
LetterboxInBreaks: 0
WidescreenStoryboard: 1

[Editor]
DistanceSpacing: 1.2
BeatDivisor: 4
GridSize: 4
TimelineZoom: 3.399999

[Metadata]
Title:Revolutionary Etude (Shoji Meguro Arrangement)
TitleUnicode:Revolutionary Etude (目黒将司 Arrangement)
Artist:Frederic Chopin
ArtistUnicode:Frédéric Chopin
Creator:intiaz
Version:Moderato
Source:Catherine
Tags:「革命」Étude Op. 10, No. 12 Étude on the Bombardment of Warsaw Fryderyk Franciszek Classical Frederic キャサリン SEGA Atlus Japanese Mature Adult Video Game Instrumental Piano Frédéric François Nyantiaz inti Xen Xenon- Xehn jas craezy riffy Bakari -Bakari-
BeatmapID:3572396
BeatmapSetID:1746423

[Difficulty]
HPDrainRate:5
CircleSize:3.6
OverallDifficulty:6
ApproachRate:7.5
SliderMultiplier:1.5
SliderTickRate:1

[Events]
//Background and Video events
0,0,"f.png",0,0
//Break Periods
//Storyboard Layer 0 (Background)
//Storyboard Layer 1 (Fail)
//Storyboard Layer 2 (Pass)
//Storyboard Layer 3 (Foreground)
//Storyboard Layer 4 (Overlay)
//Storyboard Sound Samples

[TimingPoints]
979,413.793103448276,4,2,1,80,1,0
979,-90.9090909090909,4,2,1,80,0,0
1392,-90.9090909090909,4,2,1,70,0,0
1806,-90.9090909090909,4,2,1,60,0,0
2220,-90.9090909090909,4,2,1,50,0,0
2634,-90.9090909090909,4,2,1,40,0,0
3047,-90.9090909090909,4,2,1,50,0,0
3461,-90.9090909090909,4,2,1,60,0,0
3875,-90.9090909090909,4,2,1,80,0,0
4703,-90.9090909090909,4,2,1,70,0,0
5117,-90.9090909090909,4,2,1,60,0,0
5531,-90.9090909090909,4,2,1,50,0,0
5945,-90.9090909090909,4,2,1,40,0,0
6358,-90.9090909090909,4,2,1,50,0,0
6772,-90.9090909090909,4,2,1,60,0,0
7185,-90.9090909090909,4,2,1,80,0,0
8427,-90.9090909090909,4,2,1,70,0,0
9254,-90.9090909090909,4,2,1,60,0,0
10082,-90.9090909090909,4,2,1,50,0,0
10910,-90.9090909090909,4,2,1,40,0,0
11737,-90.9090909090909,4,2,1,50,0,0
12565,-90.9090909090909,4,2,1,60,0,0
13392,-90.9090909090909,4,2,1,70,0,0
14220,-100,4,2,1,70,0,0
40703,-133.333333333333,4,2,1,60,0,0
43392,-100,4,2,1,70,0,0
47323,-111.111111111111,4,2,1,60,0,0
60565,-125,4,2,1,70,0,0
67185,-90.9090909090909,4,2,1,80,0,0
67599,-90.9090909090909,4,2,1,70,0,0
68013,-90.9090909090909,4,2,1,60,0,0
68427,-90.9090909090909,4,2,1,50,0,0
68841,-90.9090909090909,4,2,1,40,0,0
69254,-90.9090909090909,4,2,1,50,0,0
69668,-90.9090909090909,4,2,1,60,0,0
70082,-90.9090909090909,4,2,1,80,0,0
70910,-90.9090909090909,4,2,1,70,0,0
71324,-90.9090909090909,4,2,1,60,0,0
71738,-90.9090909090909,4,2,1,50,0,0
72152,-90.9090909090909,4,2,1,40,0,0
72565,-90.9090909090909,4,2,1,50,0,0
72979,-90.9090909090909,4,2,1,60,0,0
73392,-90.9090909090909,4,2,1,80,0,0
74634,-90.9090909090909,4,2,1,70,0,0
75461,-90.9090909090909,4,2,1,60,0,0
76289,-90.9090909090909,4,2,1,50,0,0
77117,-90.9090909090909,4,2,1,40,0,0
77944,-90.9090909090909,4,2,1,50,0,0
78772,-90.9090909090909,4,2,1,60,0,0
79599,-90.9090909090909,4,2,1,70,0,0
80427,-100,4,2,1,70,0,0

[Colours]
Combo1 : 221,179,34
Combo2 : 253,2,58
Combo3 : 102,0,51
Combo4 : 244,122,0

[HitObjects]
52,96,978,5,4,1:0:0:0:
148,192,1185,1,2,0:0:0:0:
148,192,1289,1,0,0:0:0:0:
148,192,1392,2,0,L|232:196,1,82.5000025177003,0|2,3:2|0:0,0:0:0:0:
296,104,1806,2,0,L|212:108,1,82.5000025177003,0|2,3:2|0:0,0:0:0:0:
160,16,2220,2,0,L|244:20,1,82.5000025177003,0|2,3:2|0:0,0:0:0:0:
380,48,2634,6,0,P|396:112|380:152,1,82.5000025177003,0|0,3:2|0:0,0:0:0:0:
337,198,3047,1,0,3:2:0:0:
348,288,3254,1,0,0:0:0:0:
424,236,3461,2,0,L|506:239,1,82.5000025177003,0|0,3:2|0:2,0:0:0:0:
348,288,3875,2,0,P|300:308|218:282,1,123.75000377655,0|0,1:0|0:0,0:0:0:0:
199,260,4289,5,4,1:0:0:0:
80,300,4496,2,0,L|32:296,2,41.2500012588501,2|0|0,0:0|0:0|3:0,0:0:0:0:
106,212,4910,1,2,0:0:0:0:
44,145,5116,2,0,P|37:96|47:58,1,82.5000025177003,0|2,3:0|0:0,0:0:0:0:
79,34,5427,1,0,0:0:0:0:
79,34,5530,2,0,L|169:42,1,82.5000025177003,0|2,3:0|0:0,0:0:0:0:
256,128,5944,6,0,L|173:135,1,82.5000025177003,0|0,3:0|0:0,0:0:0:0:
288,40,6358,2,0,P|332:64|348:108,1,82.5000025177003,0|0,3:0|0:0,0:0:0:0:
440,136,6772,1,0,3:3:0:0:
440,136,6875,1,0,0:0:0:0:
440,136,6978,1,0,0:0:0:0:
355,177,7185,2,0,L|384:255,1,82.5000025177003,0|0,1:0|0:0,0:0:0:0:
406,300,7496,1,0,0:0:0:0:
406,300,7599,6,0,P|362:328|310:324,1,82.5000025177003,4|2,1:0|0:0,0:0:0:0:
273,260,8013,2,0,L|217:265,3,41.2500012588501,0|0|2|0,3:2|0:0|0:0|0:0,0:0:0:0:
197,293,8427,2,0,L|86:287,1,82.5000025177003,0|2,3:2|0:0,0:0:0:0:
33,246,8841,2,0,P|26:197|42:153,1,82.5000025177003,0|2,3:2|0:0,0:0:0:0:
182,161,9254,6,0,P|145:194|100:206,1,82.5000025177003,0|2,3:2|0:2,0:0:0:0:
104,113,9668,2,0,L|96:61,3,41.2500012588501,0|0|2|0,3:2|0:2|0:2|0:2,0:0:0:0:
135,46,10082,2,0,L|245:57,1,82.5000025177003,0|2,3:2|0:0,0:0:0:0:
304,136,10496,1,0,3:2:0:0:
196,168,10703,1,2,0:0:0:0:
288,248,10910,6,0,L|278:358,1,82.5000025177003,0|2,3:2|0:0,0:0:0:0:
192,288,11323,2,0,L|201:398,1,82.5000025177003,0|2,3:0|0:0,0:0:0:0:
364,372,11737,2,0,L|370:289,1,82.5000025177003,0|2,3:2|0:2,0:0:0:0:
376,244,12047,1,0,0:0:0:0:
376,244,12151,1,0,3:2:0:0:
461,274,12358,1,2,0:2:0:0:
444,184,12565,6,0,L|440:128,3,41.2500012588501,0|0|2|0,3:2|0:0|0:0|0:0,0:0:0:0:
402,117,12979,2,0,L|406:61,3,41.2500012588501,0|0|2|0,3:2|0:0|0:0|0:0,0:0:0:0:
371,45,13392,2,0,L|280:51,1,82.5000025177003,0|2,3:2|0:0,0:0:0:0:
210,97,13806,1,0,3:2:0:0:
189,95,13909,1,2,0:0:0:0:
168,94,14012,1,2,0:0:0:0:
148,92,14116,1,2,0:0:0:0:
127,91,14219,5,4,1:0:0:0:
38,230,14634,2,0,P|83:263|115:267,1,75,0|2,3:2|0:2,0:0:0:0:
142,263,14944,1,2,0:0:0:0:
142,263,15047,1,0,3:2:0:0:
218,231,15254,1,2,0:0:0:0:
286,276,15461,2,0,L|281:355,1,75,0|0,3:2|0:0,0:0:0:0:
384,304,15875,6,0,L|379:229,1,75,0|0,3:2|0:0,0:0:0:0:
314,177,16289,2,0,P|352:152|432:164,1,112.5,0|0,3:2|0:0,0:0:0:0:
453,174,16703,2,0,L|455:82,1,75,0|0,3:2|0:0,0:0:0:0:
454,57,17013,1,2,0:0:0:0:
454,57,17116,1,0,1:0:0:0:
352,8,17323,1,0,0:0:0:0:
352,8,17427,1,2,0:0:0:0:
352,8,17530,6,0,P|312:56|224:64,1,150,4|0,1:0|3:2,0:0:0:0:
154,28,18151,1,0,0:0:0:0:
81,67,18358,2,0,L|68:155,1,75,0|0,3:2|0:2,0:0:0:0:
64,182,18668,1,2,0:0:0:0:
64,182,18772,1,0,1:2:0:0:
160,264,18979,1,0,0:0:0:0:
160,264,19082,1,2,0:0:0:0:
160,264,19185,6,0,L|176:128,1,112.5,4|0,1:0|0:0,0:0:0:0:
210,134,19599,2,0,P|265:140|289:164,1,75,0|0,3:2|0:0,0:0:0:0:
343,202,20013,1,0,3:0:0:0:
417,166,20220,2,0,L|412:107,2,37.5,0|2|0,0:0|0:0|1:0,0:0:0:0:
483,215,20634,2,0,L|478:274,1,37.5,0|2,0:0|0:0,0:0:0:0:
449,280,20841,6,0,L|450:361,1,75,4|0,1:0|0:0,0:0:0:0:
369,338,21254,2,0,P|310:328|269:332,1,75,0|0,3:2|0:0,0:0:0:0:
260,304,21565,1,0,0:0:0:0:
260,304,21668,2,0,P|222:305|186:313,1,75,0|0,3:1|0:0,0:0:0:0:
122,260,22082,2,0,L|154:235,3,37.5,0|0|0|2,1:2|0:0|0:0|0:0,0:0:0:0:
153,195,22496,6,0,L|322:201,1,150,4|0,1:0|3:2,0:0:0:0:
380,172,23116,1,2,0:0:0:0:
459,200,23323,2,0,P|464:156|442:121,1,75,0|0,3:2|0:0,0:0:0:0:
422,98,23634,1,0,0:0:0:0:
422,98,23737,2,0,P|379:86|341:102,1,75,0|0,3:2|0:0,0:0:0:0:
240,128,24151,6,0,B|192:120|192:120|168:132|168:132|76:120,2,150,0|0|0,1:0|3:2|3:2,0:0:0:0:
301,182,25185,2,0,L|343:191,2,37.5,0|2|0,0:0|0:0|3:2,0:0:0:0:
250,247,25599,2,0,L|208:256,1,37.5,0|2,0:0|0:0,0:0:0:0:
173,265,25806,5,0,1:2:0:0:
113,322,26013,1,2,0:0:0:0:
47,272,26220,2,0,P|30:217|72:126,1,150,0|0,3:2|3:2,0:0:0:0:
34,56,26841,2,0,L|27:6,2,37.5,0|2|0,0:0|0:0|3:2,0:0:0:0:
152,80,27254,1,0,0:0:0:0:
152,80,27358,1,2,0:0:0:0:
152,80,27461,6,0,L|244:84,1,75,4|0,1:0|0:0,0:0:0:0:
293,132,27875,2,0,L|299:181,3,37.5,0|0|0|0,3:0|0:0|0:0|0:0,0:0:0:0:
330,194,28289,2,0,L|324:243,3,37.5,0|0|0|0,3:0|0:0|0:0|0:0,0:0:0:0:
345,267,28703,2,0,L|437:263,1,75,0|0,3:2|0:0,0:0:0:0:
451,237,29013,1,2,0:0:0:0:
451,237,29116,5,0,1:0:0:0:
485,75,29530,2,0,P|426:56|383:72,1,75,0|0,3:2|0:0,0:0:0:0:
349,6,29944,2,0,P|293:34|274:76,1,75,0|0,3:2|0:0,0:0:0:0:
262,76,30254,1,0,0:0:0:0:
262,76,30358,1,0,3:2:0:0:
246,157,30565,1,0,0:0:0:0:
104,112,30772,6,0,L|208:104,1,75,0|0,3:2|0:0,0:0:0:0:
170,188,31185,2,0,L|95:193,1,75,0|2,3:2|0:0,0:0:0:0:
62,220,31496,1,2,0:0:0:0:
62,220,31599,2,0,L|60:269,3,37.5,0|2|2|2,3:2|0:0|0:0|0:0,0:0:0:0:
89,287,32013,2,0,L|91:336,3,37.5,0|0|0|0,3:2|0:0|0:0|0:0,0:0:0:0:
127,343,32427,5,0,3:2:0:0:
204,313,32634,1,0,0:0:0:0:
283,336,32841,2,0,L|293:256,1,75,0|0,3:2|0:0,0:0:0:0:
272,225,33151,1,0,0:0:0:0:
272,225,33254,2,0,L|262:145,1,75,0|0,3:2|0:0,0:0:0:0:
284,114,33565,1,2,0:0:0:0:
284,114,33668,1,0,1:0:0:0:
357,151,33875,2,0,L|422:151,1,37.5,0|2,0:0|0:0,0:0:0:0:
434,163,34082,6,0,P|472:236|421:291,1,150,4|0,1:0|3:2,0:0:0:0:
367,329,34703,1,0,0:0:0:0:
287,306,34910,2,0,L|202:309,1,75,0|0,3:2|0:2,0:0:0:0:
172,321,35220,1,2,0:0:0:0:
172,321,35323,1,0,1:2:0:0:
92,298,35530,2,0,L|90:240,1,37.5,0|2,0:0|0:2,0:0:0:0:
70,224,35737,6,0,P|64:156|131:140,1,150,4|0,1:0|3:2,0:0:0:0:
191,197,36358,1,0,0:0:0:0:
265,161,36565,2,0,L|344:158,1,75,0|0,3:2|0:0,0:0:0:0:
378,172,36875,1,2,0:0:0:0:
378,172,36979,1,0,1:2:0:0:
435,113,37185,2,0,P|460:69|466:57,1,37.5,0|2,0:0|0:0,0:0:0:0:
474,44,37392,6,0,L|396:17,1,75,4|0,1:0|0:0,0:0:0:0:
331,60,37806,2,0,L|260:35,1,75,0|0,3:2|0:0,0:0:0:0:
219,42,38116,1,0,0:0:0:0:
219,42,38220,1,0,3:2:0:0:
172,112,38427,2,0,L|160:151,2,37.5,0|2|0,0:0|0:0|1:2,0:0:0:0:
256,148,38841,2,0,L|268:187,1,37.5,0|2,0:0|0:0,0:0:0:0:
281,222,39047,6,0,P|337:233|382:211,1,75,4|0,1:0|0:0,0:0:0:0:
432,205,39461,2,0,L|437:278,3,37.5,0|0|0|0,3:2|0:0|0:0|0:0,0:0:0:0:
467,267,39875,2,0,L|462:359,1,75,0|0,3:2|0:0,0:0:0:0:
426,335,40185,1,0,0:0:0:0:
426,335,40289,1,0,3:2:0:0:
348,362,40496,1,0,0:0:0:0:
256,304,40703,5,0,3:2:0:0:
40,356,41116,1,0,3:2:0:0:
80,288,41323,2,0,L|72:152,1,112.500004291535,0|0,0:0|0:0,0:0:0:0:
24,116,41944,1,0,3:2:0:0:
84,64,42151,6,0,L|144:72,1,56.2500021457673,0|0,0:0|3:2,0:0:0:0:
204,160,42565,2,0,L|148:152,1,56.2500021457673,0|0,0:0|3:2,0:0:0:0:
220,76,42979,2,0,L|228:8,1,56.2500021457673,0|0,0:0|3:2,0:0:0:0:
312,64,43392,5,0,0:0:0:0:
404,32,43599,1,0,3:2:0:0:
488,80,43806,1,0,0:0:0:0:
392,152,44013,6,0,L|383:235,1,75,4|0,1:0|0:0,0:0:0:0:
445,292,44427,2,0,P|436:334|424:349,3,37.5,0|2|2|0,3:2|0:0|0:0|0:0,0:0:0:0:
397,346,44841,1,0,3:2:0:0:
284,336,45047,1,0,0:0:0:0:
284,336,45151,1,0,0:0:0:0:
284,336,45254,1,0,1:2:0:0:
240,228,45461,1,0,0:0:0:0:
240,228,45565,1,2,0:0:0:0:
240,228,45668,6,0,L|240:142,1,75,0|0,1:0|0:0,0:0:0:0:
325,122,46082,2,0,L|325:36,1,75,0|0,3:2|0:0,0:0:0:0:
237,24,46496,1,0,3:2:0:0:
166,79,46703,1,0,0:0:0:0:
85,38,46910,2,0,L|28:41,2,37.5,0|0|0,3:2|0:0|0:0,0:0:0:0:
168,160,47323,6,0,B|124:157|100:128|100:128|28:160,1,134.999995880127,4|0,1:0|3:2,0:0:0:0:
14,225,47944,1,0,0:0:0:0:
51,297,48151,2,0,P|102:308|136:304,1,67.4999979400635,0|0,3:2|0:0,0:0:0:0:
193,279,48565,2,0,L|306:286,1,101.249996910095,0|0,1:0|0:0,0:0:0:0:
327,308,48979,6,0,P|311:238|336:156,1,134.999995880127,4|0,1:0|3:2,0:0:0:0:
388,127,49599,1,0,0:0:0:0:
461,160,49806,2,0,L|456:247,1,67.4999979400635,0|0,3:2|0:0,0:0:0:0:
388,127,50220,2,0,L|285:112,1,101.249996910095,0|0,1:0|0:0,0:0:0:0:
269,75,50634,6,0,L|131:95,1,134.999995880127,4|0,1:0|3:2,0:0:0:0:
63,132,51254,1,0,0:0:0:0:
11,194,51461,2,0,P|47:214|89:212,1,67.4999979400635,0|0,3:2|0:0,0:0:0:0:
140,170,51875,2,0,L|245:183,1,101.249996910095,0|0,1:2|0:0,0:0:0:0:
274,205,52289,6,0,B|293:149|293:149|279:69,1,134.999995880127,4|0,1:0|3:2,0:0:0:0:
208,35,52910,1,0,0:0:0:0:
131,61,53116,2,0,L|37:79,1,67.4999979400635,0|0,3:2|0:0,0:0:0:0:
34,149,53530,2,0,P|26:223|42:258,1,101.249996910095,0|0,1:2|0:0,0:0:0:0:
63,275,53944,5,4,1:0:0:0:
131,318,54151,2,0,L|126:356,2,33.7499989700318,2|0|0,0:0|0:0|3:2,0:0:0:0:
207,290,54565,1,2,0:0:0:0:
272,240,54772,2,0,P|264:188|244:156,1,67.4999979400635,0|2,3:2|0:2,0:0:0:0:
312,56,55185,2,0,P|320:108|372:148,1,101.249996910095,0|0,1:0|0:0,0:0:0:0:
393,135,55599,5,4,1:0:0:0:
460,179,55806,2,0,L|500:187,2,33.7499989700318,2|0|0,0:0|0:0|3:2,0:0:0:0:
389,220,56220,1,2,0:0:0:0:
450,273,56427,2,0,L|439:346,1,67.4999979400635,0|2,3:2|0:2,0:0:0:0:
328,292,56841,2,0,P|244:268|203:271,1,101.249996910095,0|0,1:2|0:0,0:0:0:0:
193,282,57254,5,4,1:0:0:0:
113,268,57461,1,2,0:0:0:0:
113,268,57565,1,0,0:0:0:0:
113,268,57668,2,0,L|104:217,3,33.7499989700318,0|0|2|0,3:2|0:0|0:0|0:0,0:0:0:0:
81,203,58082,2,0,L|85:151,3,33.7499989700318,0|0|2|0,3:2|0:0|0:0|0:0,0:0:0:0:
58,137,58496,2,0,L|80:53,1,67.4999979400635,0|2,3:2|0:0,0:0:0:0:
180,0,58910,6,0,L|200:156,2,134.999995880127,0|0|0,3:2|3:2|3:2,0:0:0:0:
272,40,59944,1,0,0:0:0:0:
272,40,60047,1,0,0:0:0:0:
272,40,60151,1,0,3:2:0:0:
352,4,60358,1,0,0:0:0:0:
464,68,60565,6,0,B|344:100|344:100|400:116,1,180,4|0,1:0|0:0,0:0:0:0:
462,158,61392,2,0,L|469:296,1,120,2|2,3:2|3:2,0:0:0:0:
304,328,62220,6,0,L|310:208,1,120,2|0,3:2|3:2,0:0:0:0:
388,232,62841,1,0,0:0:0:0:
232,216,63047,2,0,P|236:180|264:144,1,60,2|0,3:2|0:0,0:0:0:0:
275,132,63358,1,0,0:0:0:0:
275,132,63461,2,0,P|271:96|243:60,1,60,0|0,3:0|0:0,0:0:0:0:
153,24,63875,6,0,B|84:12|36:64|36:64|71:51|96:56,1,180,2|0,3:2|0:0,0:0:0:0:
77,132,64703,2,0,L|88:206,1,60,2|0,3:2|0:0,0:0:0:0:
122,260,65116,2,0,L|111:334,1,60,2|0,3:2|0:0,0:0:0:0:
232,272,65530,6,0,P|284:272|372:300,1,120,2|0,3:2|3:0,0:0:0:0:
407,236,66151,1,0,0:0:0:0:
345,188,66358,2,0,L|345:125,1,60,0|0,3:2|0:0,0:0:0:0:
392,65,66772,1,2,3:2:0:0:
300,7,66979,1,0,0:0:0:0:
300,7,67082,1,0,0:0:0:0:
300,7,67185,5,4,1:0:0:0:
202,98,67392,1,2,0:0:0:0:
202,98,67496,1,0,0:0:0:0:
202,98,67599,2,0,L|216:192,1,82.5000025177003,0|2,3:2|0:0,0:0:0:0:
115,190,68013,2,0,L|101:283,1,82.5000025177003,0|2,3:2|0:0,0:0:0:0:
145,361,68427,2,0,P|189:320|197:292,1,82.5000025177003,0|2,3:2|0:0,0:0:0:0:
235,269,68737,1,0,0:0:0:0:
235,269,68841,5,0,3:2:0:0:
325,307,69047,1,0,0:2:0:0:
415,266,69254,2,0,L|419:172,1,82.5000025177003,0|0,3:2|0:2,0:0:0:0:
332,48,69668,2,0,L|335:130,1,82.5000025177003,0|0,3:2|0:0,0:0:0:0:
424,88,70082,1,0,1:0:0:0:
252,88,70289,6,0,L|192:96,2,41.2500012588501,0|0|4,0:0|0:0|1:0,0:0:0:0:
264,186,70703,2,0,L|257:246,1,41.2500012588501,2|0,0:0|0:0,0:0:0:0:
222,260,70910,2,0,P|177:266|121:249,1,82.5000025177003,0|2,3:2|0:0,0:0:0:0:
51,300,71323,2,0,P|42:252|48:233,3,41.2500012588501,0|0|2|0,3:2|0:0|0:0|0:0,0:0:0:0:
56,213,71737,2,0,L|54:124,1,82.5000025177003,0|2,3:2|0:2,0:0:0:0:
184,36,72151,6,0,P|216:88|208:132,1,82.5000025177003,0|0,3:2|0:0,0:0:0:0:
54,130,72565,2,0,P|86:105|127:101,1,82.5000025177003,0|0,3:2|0:0,0:0:0:0:
150,151,72875,1,0,0:0:0:0:
150,151,72979,5,0,3:2:0:0:
226,213,73185,1,0,0:0:0:0:
312,164,73392,2,0,L|415:157,1,82.5000025177003,0|0,1:0|0:0,0:0:0:0:
429,122,73703,1,0,0:0:0:0:
429,122,73806,5,4,1:0:0:0:
416,256,74013,1,2,0:0:0:0:
416,256,74116,1,0,0:0:0:0:
416,256,74221,2,0,L|360:261,3,41.2500012588501,0|0|2|0,3:2|0:0|0:0|0:0,0:0:0:0:
340,292,74635,2,0,L|229:286,1,82.5000025177003,0|2,3:2|0:0,0:0:0:0:
160,364,75047,2,0,P|153:315|169:271,1,82.5000025177003,0|2,3:2|0:0,0:0:0:0:
182,161,75462,6,0,P|145:194|100:206,1,82.5000025177003,0|2,3:2|0:2,0:0:0:0:
52,112,75876,2,0,L|44:60,3,41.2500012588501,0|0|2|0,3:2|0:0|0:2|0:0,0:0:0:0:
76,32,76290,2,0,L|186:43,1,82.5000025177003,0|0,3:2|0:0,0:0:0:0:
248,100,76704,1,0,3:2:0:0:
320,36,76910,1,2,0:0:0:0:
428,104,77116,6,0,L|418:214,1,82.5000025177003,0|2,3:2|0:0,0:0:0:0:
358,263,77530,2,0,P|303:254|285:246,3,41.2500012588501,0|0|2|0,3:2|0:0|0:0|0:0,0:0:0:0:
272,235,77944,2,0,L|165:243,1,82.5000025177003,0|2,3:2|0:0,0:0:0:0:
98,280,78358,2,0,L|83:222,3,41.2500012588501,0|0|2|0,3:2|0:0|0:0|0:0,0:0:0:0:
52,204,78772,6,0,L|58:90,1,82.5000025177003,0|2,3:2|0:0,0:0:0:0:
149,87,79185,2,0,L|143:-27,1,82.5000025177003,0|2,3:2|0:0,0:0:0:0:
256,80,79599,2,0,L|324:80,3,41.2500012588501,0|0|2|0,3:2|0:0|0:0|0:0,0:0:0:0:
340,104,80013,1,0,3:2:0:0:
373,104,80116,1,2,0:0:0:0:
406,104,80219,1,2,0:0:0:0:
439,104,80323,1,2,0:0:0:0:
472,104,80426,5,4,1:0:0:0:
