osu file format v14

[General]
AudioFilename: audio.mp3
AudioLeadIn: 0
PreviewTime: 7806
Countdown: 0
SampleSet: Soft
StackLeniency: 0.7
Mode: 0
LetterboxInBreaks: 0
WidescreenStoryboard: 1

[Editor]
DistanceSpacing: 1
BeatDivisor: 4
GridSize: 4
TimelineZoom: 3.399999

[Metadata]
Title:Revolutionary Etude (Shoji Meguro Arrangement)
TitleUnicode:Revolutionary Etude (目黒将司 Arrangement)
Artist:Frederic Chopin
ArtistUnicode:Frédéric Chopin
Creator:intiaz
Version:Lento
Source:Catherine
Tags:「革命」Étude Op. 10, No. 12 Étude on the Bombardment of Warsaw Fryderyk Franciszek Classical Frederic キャサリン SEGA Atlus Japanese Mature Adult Video Game Instrumental Piano Frédéric François Nyantiaz inti Xen Xenon- Xehn jas craezy riffy Bakari -Bakari-
BeatmapID:3588211
BeatmapSetID:1746423

[Difficulty]
HPDrainRate:2
CircleSize:2.8
OverallDifficulty:2.5
ApproachRate:3.5
SliderMultiplier:0.95
SliderTickRate:1

[Events]
//Background and Video events
0,0,"f.png",0,0
//Break Periods
//Storyboard Layer 0 (Background)
//Storyboard Layer 1 (Fail)
//Storyboard Layer 2 (Pass)
//Storyboard Layer 3 (Foreground)
//Storyboard Layer 4 (Overlay)
//Storyboard Sound Samples

[TimingPoints]
979,413.793103448276,4,2,1,80,1,0
979,-100,4,2,1,80,0,0
1392,-100,4,2,1,70,0,0
1806,-100,4,2,1,60,0,0
2220,-100,4,2,1,50,0,0
2634,-100,4,2,1,40,0,0
3047,-100,4,2,1,50,0,0
3461,-100,4,2,1,60,0,0
3875,-100,4,2,1,80,0,0
4289,-100,4,2,1,80,0,0
4703,-100,4,2,1,70,0,0
5116,-100,4,2,1,60,0,0
5530,-100,4,2,1,50,0,0
5944,-100,4,2,1,40,0,0
6358,-100,4,2,1,50,0,0
6772,-100,4,2,1,60,0,0
7185,-100,4,2,1,80,0,0
7599,-100,4,2,1,80,0,0
8427,-100,4,2,1,70,0,0
9254,-100,4,2,1,60,0,0
10082,-100,4,2,1,50,0,0
10910,-100,4,2,1,40,0,0
11737,-100,4,2,1,50,0,0
12565,-100,4,2,1,60,0,0
13392,-100,4,2,1,70,0,0
14220,-100,4,2,1,70,0,0
40703,-100,4,2,1,60,0,0
43392,-100,4,2,1,70,0,0
47323,-100,4,2,1,60,0,0
60565,-100,4,2,1,70,0,0
67185,-100,4,2,1,80,0,0
67599,-100,4,2,1,70,0,0
68013,-100,4,2,1,60,0,0
68427,-100,4,2,1,50,0,0
68841,-100,4,2,1,40,0,0
69254,-100,4,2,1,50,0,0
69668,-100,4,2,1,60,0,0
70082,-100,4,2,1,80,0,0
70496,-100,4,2,1,80,0,0
70910,-100,4,2,1,70,0,0
71323,-100,4,2,1,60,0,0
71737,-100,4,2,1,50,0,0
72151,-100,4,2,1,40,0,0
72565,-100,4,2,1,50,0,0
72979,-100,4,2,1,60,0,0
73392,-100,4,2,1,80,0,0
73806,-100,4,2,1,80,0,0
74634,-100,4,2,1,70,0,0
75461,-100,4,2,1,60,0,0
76289,-100,4,2,1,50,0,0
77117,-100,4,2,1,40,0,0
77944,-100,4,2,1,50,0,0
78772,-100,4,2,1,60,0,0
79599,-100,4,2,1,70,0,0
80427,-100,4,2,1,70,0,0

[Colours]
Combo1 : 221,179,34
Combo2 : 253,2,58
Combo3 : 102,0,51
Combo4 : 244,122,0

[HitObjects]
308,76,978,6,0,P|388:28|488:56,2,190,4|0|0,1:0|3:2|3:2,0:0:0:0:
256,156,3047,1,0,3:2:0:0:
176,108,3461,2,0,L|80:96,1,95,0|0,3:2|1:0,0:0:0:0:
24,172,4289,6,0,B|4:264|4:264|24:368,2,190,4|0|0,1:0|3:0|3:0,0:0:0:0:
118,182,6358,1,0,3:0:0:0:
179,254,6772,2,0,B|225:238|225:238|286:247,1,95,0|0,3:3|1:0,0:0:0:0:
337,316,7599,6,0,P|365:258|302:156,1,190,4|0,1:0|3:2,0:0:0:0:
217,1,9254,2,0,P|163:36|167:156,1,190,0|0,3:2|3:2,0:0:0:0:
22,279,10910,6,0,P|57:332|177:328,2,190,0|0|0,3:2|3:2|3:2,0:0:0:0:
64,192,12979,1,0,3:2:0:0:
22,105,13392,1,0,3:2:0:0:
192,20,14220,6,0,B|312:20|248:80|368:80,1,190,4|0,1:0|3:2,0:0:0:0:
501,211,15875,2,0,P|464:253|339:236,1,190,0|0,3:2|3:2,0:0:0:0:
198,361,17530,6,0,B|80:361|144:301|24:301,1,190,4|0,1:0|3:2,0:0:0:0:
51,209,18772,1,0,1:2:0:0:
14,121,19185,2,0,P|70:117|146:217,1,190,4|0,1:0|3:0,0:0:0:0:
275,353,20841,6,0,P|243:306|292:190,1,190,4|0,1:0|3:1,0:0:0:0:
364,132,22082,1,0,1:2:0:0:
444,180,22496,2,0,L|452:276,2,95,4|0|0,1:0|3:2|3:2,0:0:0:0:
304,52,24151,6,0,B|228:44|228:44|200:64|200:64|108:56,1,190,0|0,1:0|3:2,0:0:0:0:
32,88,25392,1,0,3:2:0:0:
108,148,25806,2,0,P|136:208|64:296,1,190,0|0,1:2|3:2,0:0:0:0:
140,356,27047,6,0,P|220:344|248:344,1,95,0|4,3:2|1:0,0:0:0:0:
407,265,28289,2,0,P|327:253|299:253,1,95,0|0,3:0|3:2,0:0:0:0:
236,197,29116,2,0,L|228:4,1,190,0|0,1:0|3:2,0:0:0:0:
414,75,30772,6,0,L|406:264,2,190,0|0|0,3:2|3:2|3:2,0:0:0:0:
228,7,33254,1,0,3:2:0:0:
64,103,34082,6,0,P|47:167|96:281,1,190,4|0,1:0|3:2,0:0:0:0:
174,324,35323,1,0,1:2:0:0:
264,356,35737,2,0,P|307:273|292:181,1,190,4|0,1:0|3:2,0:0:0:0:
136,76,37392,6,0,B|188:44|188:44|324:52,1,190,4|0,1:0|3:2,0:0:0:0:
394,106,38634,1,0,1:2:0:0:
481,68,39047,2,0,L|485:272,1,190,4|0,1:0|3:2,0:0:0:0:
298,299,40703,6,0,B|274:237|274:237|294:164,2,142.5,0|0|0,3:2|0:0|3:2,0:0:0:0:
220,356,42358,2,0,L|64:352,2,142.5,0|0|0,3:2|0:0|3:2,0:0:0:0:
316,348,44013,6,0,P|416:308|432:232,1,190,4|0,1:0|3:2,0:0:0:0:
348,192,45254,1,0,1:2:0:0:
432,148,45668,2,0,P|403:61|316:36,1,190,0|0,1:0|3:2,0:0:0:0:
128,56,47323,6,0,B|104:216|104:216|176:324,1,285,4|0,1:0|1:0,0:0:0:0:
256,272,48979,2,0,L|256:80,1,190,4|0,1:0|3:2,0:0:0:0:
340,36,50220,1,0,1:0:0:0:
420,88,50634,6,0,P|480:212|424:348,1,285,4|0,1:0|1:2,0:0:0:0:
336,328,52289,2,0,L|140:332,1,190,4|0,1:0|3:2,0:0:0:0:
64,284,53530,1,0,1:2:0:0:
129,215,53944,6,0,P|149:136|116:36,1,190,4|0,1:0|3:2,0:0:0:0:
276,136,55599,2,0,P|324:140|376:128,2,95,4|0|0,1:0|3:2|3:2,0:0:0:0:
205,71,56841,1,0,1:2:0:0:
115,35,57254,6,0,P|19:59|27:151,1,190,4|0,1:0|3:2,0:0:0:0:
164,256,58910,2,0,B|212:248|256:272|256:272|300:248|352:256,1,190,0|0,3:2|3:2,0:0:0:0:
495,136,60565,6,0,P|484:48|397:35,1,190,4|2,1:0|3:2,0:0:0:0:
319,89,61806,1,2,3:2:0:0:
244,28,62220,2,0,B|192:88|192:88|212:208,1,190,2|2,3:2|3:2,0:0:0:0:
312,356,63875,5,2,3:2:0:0:
460,236,64703,2,0,L|452:132,1,95,2|2,3:2|3:2,0:0:0:0:
368,184,65530,2,0,P|272:200|176:216,1,190,2|0,3:2|3:2,0:0:0:0:
112,284,66772,1,2,3:2:0:0:
52,212,67185,6,0,P|16:280|76:372,2,190,4|0|0,1:0|3:2|3:2,0:0:0:0:
112,284,69254,1,0,3:2:0:0:
178,215,69668,2,0,B|166:170|166:170|179:107,1,95,0|0,3:2|1:0,0:0:0:0:
266,91,70496,6,0,L|62:75,2,190,4|0|0,1:0|3:2|3:2,0:0:0:0:
348,40,72565,1,0,3:2:0:0:
432,88,72979,2,0,P|456:140|456:184,1,95,0|0,3:2|1:0,0:0:0:0:
432,268,73806,6,0,B|360:264|360:264|332:296|332:296|256:296,1,190,4|0,1:0|3:2,0:0:0:0:
188,228,75047,1,0,3:2:0:0:
268,176,75461,2,0,B|272:32|272:32|224:64,1,190,0|0,3:2|3:2,0:0:0:0:
144,88,76703,1,0,3:2:0:0:
56,128,77116,6,0,L|76:320,1,190,0|0,3:2|3:2,0:0:0:0:
256,260,78772,1,0,3:2:0:0:
332,316,79185,1,0,3:2:0:0:
408,260,79599,1,0,3:2:0:0:
332,85,80427,5,4,1:0:0:0:
