osu file format v14

[General]
AudioFilename: audio.mp3
AudioLeadIn: 0
PreviewTime: 51662
Countdown: 0
SampleSet: Soft
StackLeniency: 0.2
Mode: 0
LetterboxInBreaks: 0
WidescreenStoryboard: 0

[Editor]
Bookmarks: 69981
DistanceSpacing: 1.5
BeatDivisor: 6
GridSize: 8
TimelineZoom: 2.799999

[Metadata]
Title:Etude Op. 10, No. 5
TitleUnicode:Étude Op. 10, No. 5
Artist:Frederic Chopin
ArtistUnicode:Frédéric Chopin
Creator:Riana
Version:Vivace
Source:
Tags:black keys classic classical instrumental piano g-flat major len fast
BeatmapID:1816315
BeatmapSetID:869054

[Difficulty]
HPDrainRate:6
CircleSize:4.5
OverallDifficulty:9
ApproachRate:9.4
SliderMultiplier:1.8
SliderTickRate:1

[Events]
//Background and Video events
0,0,"www.pexels.comphotogray-and-black-piano-keys-734918.jpg",0,0
//Break Periods
//Storyboard Layer 0 (Background)
//Storyboard Layer 1 (Fail)
//Storyboard Layer 2 (Pass)
//Storyboard Layer 3 (Foreground)
//Storyboard Layer 4 (Overlay)
//Storyboard Sound Samples

[TimingPoints]
2050,517.241379310345,4,2,1,70,1,0
2050,-66.6666666666667,4,2,1,70,0,0
2394,-55.5555555555556,4,2,1,70,0,0
3084,-100,4,2,1,70,0,0
4636,-66.6666666666667,4,2,1,70,0,0
5670,-100,4,2,1,70,0,0
6187,-66.6666666666667,4,2,1,70,0,0
7222,-100,4,2,1,70,0,0
9808,-83.3333333333333,4,2,1,70,0,0
10325,-66.6666666666667,4,2,1,70,0,0
11360,-100,4,2,1,70,0,0
12912,-66.6666666666667,4,2,1,70,0,0
14463,-55.5555555555556,4,2,1,70,0,0
14550,-66.6666666666667,4,2,1,70,0,0
14808,-55.5555555555556,4,2,1,70,0,0
15498,-100,4,2,1,70,0,0
18343,-66.6666666666667,4,2,1,70,0,0
18601,-100,4,2,1,50,0,0
19463,-66.6666666666667,4,2,1,50,0,0
19551,-100,4,2,1,50,0,0
22567,-66.6666666666667,4,2,1,50,0,0
22907,-100,4,2,1,50,0,0
22998,-66.6666666666667,4,2,1,50,0,0
23433,-100,4,2,1,50,0,0
23601,-66.6666666666667,4,2,1,50,0,0
24726,-100,4,2,1,50,0,0
26877,-76.9230769230769,4,2,1,60,0,0
27136,-71.4285714285714,4,2,1,60,0,0
27912,-76.9230769230769,4,2,1,60,0,0
28171,-71.4285714285714,4,2,1,60,0,0
28774,-60.6060606060606,4,2,1,60,0,0
29032,-66.6666666666667,4,2,1,60,0,0
29186,-100,4,2,1,60,0,0
29550,-44.4444444444445,4,2,1,60,0,0
29717,-100,4,2,1,60,0,0
29981,-66.6666666666667,4,2,1,60,0,0
30498,-44.4444444444445,4,2,1,60,0,0
31015,-44.4444444444445,4,2,1,70,0,0
31877,-66.6666666666667,4,2,1,70,0,0
33385,-100,4,2,1,70,0,0
35153,-100,4,2,1,50,0,0
36705,-66.6666666666667,4,2,1,50,0,0
38256,-66.6666666666667,4,2,1,40,0,0
39291,-100,4,2,1,40,0,0
39808,-125,4,2,1,30,0,0
40325,-166.666666666667,4,2,1,30,0,0
43429,-100,4,2,1,40,0,0
47567,-100,4,2,1,50,0,0
51705,-66.6666666666667,4,2,1,70,0,0
52050,-55.5555555555556,4,2,1,70,0,0
52739,-100,4,2,1,70,0,0
55670,-66.6666666666667,4,2,1,70,0,0
56187,-55.5555555555556,4,2,1,70,0,0
56877,-100,4,2,1,70,0,0
64118,-100,4,2,1,70,0,0
66187,-66.6666666666667,4,2,1,80,0,0
67739,-66.6666666666667,4,2,1,80,0,0
68256,-100,4,2,1,50,0,0
69808,-100,4,2,1,40,0,0
70843,-100,4,2,1,70,0,0
76532,-100,4,2,1,70,0,0
77769,-100,4,2,1,70,0,0
78601,-50,4,2,1,70,0,0
79118,-66.6666666666667,4,2,1,70,0,0
79636,-55.5555555555556,4,2,1,60,0,0
80670,-55.5555555555556,4,2,1,50,0,0
83256,-66.6666666666667,4,2,1,40,0,0
84808,-100,4,2,1,60,0,0
87050,-100,4,2,1,80,0,0
87912,-333.333333333333,4,2,1,70,0,0
88429,-66.6666666666667,4,2,1,70,0,0
88946,-100,4,2,1,60,0,0
93084,-100,4,2,1,5,0,0

[Colours]
Combo1 : 127,127,127
Combo2 : 212,212,212

[HitObjects]
171,251,2050,5,2,0:0:0:0:
144,296,2136,2,0,P|123:311|90:319,1,45.0000017166138,0|0,0:0|0:0,0:0:0:0:
56,212,2308,5,2,0:0:0:0:
30,170,2394,2,0,P|25:128|42:104,1,53.9999983520508,0|0,0:0|0:0,0:0:0:0:
145,71,2567,5,2,0:0:0:0:
205,22,2653,1,0,0:0:0:0:
277,32,2739,1,0,0:0:0:0:
317,82,2825,1,0,0:0:0:0:
326,136,2912,1,0,0:0:0:0:
310,184,2998,1,0,0:0:0:0:
269,212,3084,6,0,P|260:224|259:242,2,30,2|0|0,0:0|0:0|0:0,0:0:0:0:
338,320,3343,2,0,P|332:306|317:296,2,30,2|0|0,0:0|0:0|0:0,0:0:0:0:
244,318,3601,1,2,0:0:0:0:
223,313,3687,1,0,0:0:0:0:
209,305,3774,1,0,0:0:0:0:
200,297,3860,1,0,0:0:0:0:
192,294,3946,2,0,L|154:294,1,30,0|0,0:0|0:0,0:0:0:0:
56,303,4118,5,2,0:0:0:0:
27,295,4205,1,0,0:0:0:0:
6,269,4291,1,0,0:0:0:0:
1,226,4377,1,0,0:0:0:0:
25,186,4463,1,0,0:0:0:0:
87,167,4550,1,0,0:0:0:0:
147,197,4636,1,2,0:0:0:0:
205,169,4722,2,0,L|234:131,1,45.0000017166138,0|0,0:0|0:0,0:0:0:0:
233,37,4894,5,0,0:0:0:0:
222,72,4981,1,0,0:0:0:0:
244,107,5067,1,0,0:0:0:0:
273,121,5153,1,2,0:0:0:0:
311,109,5239,1,0,0:0:0:0:
345,69,5325,1,0,0:0:0:0:
396,56,5412,1,0,0:0:0:0:
443,89,5498,1,0,0:0:0:0:
453,145,5584,1,0,0:0:0:0:
412,192,5670,6,0,P|410:210|419:238,1,30,2|0,0:0|0:0,0:0:0:0:
429,308,5843,1,2,0:0:0:0:
423,323,5929,1,0,0:0:0:0:
367,326,6015,2,0,P|380:316|389:302,1,30,0|0,0:0|0:0,0:0:0:0:
330,183,6187,5,2,0:0:0:0:
285,210,6274,2,0,P|270:231|262:264,1,45.0000017166138,0|0,0:0|0:0,0:0:0:0:
143,363,6446,5,2,0:0:0:0:
117,321,6532,2,0,P|112:279|120:263,1,45.0000017166138,0|0,0:0|0:0,0:0:0:0:
200,194,6705,5,2,0:0:0:0:
255,148,6791,1,0,0:0:0:0:
263,81,6877,1,0,0:0:0:0:
240,29,6963,1,0,0:0:0:0:
203,9,7050,1,0,0:0:0:0:
168,9,7136,1,0,0:0:0:0:
148,23,7222,6,0,P|131:35|124:48,2,30,2|0|0,0:0|0:0|0:0,0:0:0:0:
155,153,7481,2,0,P|153:132|145:119,2,30,2|0|0,0:0|0:0|0:0,0:0:0:0:
64,110,7739,1,2,0:0:0:0:
25,126,7825,1,0,0:0:0:0:
44,148,7912,1,0,0:0:0:0:
32,158,7998,1,0,0:0:0:0:
32,171,8084,2,0,L|26:210,1,30,0|0,0:0|0:0,0:0:0:0:
145,244,8256,5,2,0:0:0:0:
209,233,8343,1,0,0:0:0:0:
263,265,8429,1,0,0:0:0:0:
300,315,8515,1,0,0:0:0:0:
360,315,8601,1,0,0:0:0:0:
400,282,8687,1,0,0:0:0:0:
411,240,8774,5,2,0:0:0:0:
443,245,8860,1,0,0:0:0:0:
474,230,8946,1,0,0:0:0:0:
473,179,9032,5,0,0:0:0:0:
429,166,9118,1,0,0:0:0:0:
394,192,9205,1,0,0:0:0:0:
344,144,9291,5,2,0:0:0:0:
347,95,9377,1,0,0:0:0:0:
390,126,9463,1,0,0:0:0:0:
338,133,9550,5,2,0:0:0:0:
366,94,9636,1,0,0:0:0:0:
387,138,9722,1,0,0:0:0:0:
358,126,9808,6,0,L|368:170,1,35.9999989013672,2|0,0:0|0:0,0:0:0:0:
285,206,9981,6,0,L|279:251,1,35.9999989013672,0|0,0:0|0:0,0:0:0:0:
359,288,10153,6,0,L|370:338,1,35.9999989013672,0|0,0:0|0:0,0:0:0:0:
216,301,10325,5,2,0:0:0:0:
179,330,10412,2,0,P|169:355|167:381,1,45.0000017166138,0|0,0:0|0:0,0:0:0:0:
158,222,10584,5,2,0:0:0:0:
160,173,10670,2,0,P|146:148|101:130,1,45.0000017166138,0|0,0:0|0:0,0:0:0:0:
78,270,10843,5,2,0:0:0:0:
131,316,10929,1,0,0:0:0:0:
194,309,11015,1,0,0:0:0:0:
239,266,11101,1,0,0:0:0:0:
251,215,11187,1,0,0:0:0:0:
279,180,11274,1,0,0:0:0:0:
319,172,11360,6,0,P|328:171|352:190,2,30,2|0|0,0:0|0:0|0:0,0:0:0:0:
407,287,11618,2,0,P|416:279|434:273,2,30,2|0|0,0:0|0:0|0:0,0:0:0:0:
431,195,11877,1,2,0:0:0:0:
460,178,11963,2,0,L|468:138,1,30,0|0,0:0|0:0,0:0:0:0:
503,90,12136,1,0,0:0:0:0:
487,56,12222,2,0,L|444:43,1,30,0|0,0:0|0:0,0:0:0:0:
396,99,12394,5,2,0:0:0:0:
366,89,12481,1,0,0:0:0:0:
334,101,12567,1,0,0:0:0:0:
308,136,12653,1,0,0:0:0:0:
309,183,12739,1,0,0:0:0:0:
350,233,12825,1,0,0:0:0:0:
369,297,12912,1,2,0:0:0:0:
335,357,12998,2,0,L|289:362,1,45.0000017166138,0|0,0:0|0:0,0:0:0:0:
277,359,13170,5,0,0:0:0:0:
294,325,13256,1,0,0:0:0:0:
283,287,13343,1,0,0:0:0:0:
251,266,13429,1,2,0:0:0:0:
215,278,13515,1,0,0:0:0:0:
182,320,13601,1,0,0:0:0:0:
121,333,13687,1,0,0:0:0:0:
76,289,13774,1,0,0:0:0:0:
91,223,13860,1,0,0:0:0:0:
154,195,13946,6,0,P|171:173|183:141,1,45.0000017166138,2|0,0:0|0:0,0:0:0:0:
173,60,14118,1,0,0:0:0:0:
178,70,14205,1,0,0:0:0:0:
241,112,14291,1,0,0:0:0:0:
294,96,14377,1,0,0:0:0:0:
332,123,14463,6,0,P|353:138|389:148,1,53.9999983520508,2|0,0:0|0:0,0:0:0:0:
406,238,14636,1,0,0:0:0:0:
406,254,14722,1,2,0:0:0:0:
375,283,14808,2,0,P|333:288|317:280,1,53.9999983520508,0|0,0:0|0:0,0:0:0:0:
245,276,14981,5,2,0:0:0:0:
202,220,15067,1,0,0:0:0:0:
135,212,15153,1,0,0:0:0:0:
83,235,15239,1,0,0:0:0:0:
63,272,15325,1,0,0:0:0:0:
63,307,15412,1,0,0:0:0:0:
83,342,15498,6,0,P|100:353|114:356,2,30,2|0|0,0:0|0:0|0:0,0:0:0:0:
168,301,15756,2,0,P|169:279|164:265,2,30,2|0|0,0:0|0:0|0:0,0:0:0:0:
156,191,16015,5,2,0:0:0:0:
203,198,16101,1,0,0:0:0:0:
229,219,16187,1,0,0:0:0:0:
240,241,16274,1,0,0:0:0:0:
246,259,16360,2,0,P|248:285|253:302,1,30
338,171,16532,5,2,0:0:0:0:
378,196,16618,1,0,0:0:0:0:
391,242,16705,1,0,0:0:0:0:
360,278,16791,1,0,0:0:0:0:
349,329,16877,1,0,0:0:0:0:
380,371,16963,1,0,0:0:0:0:
418,370,17050,1,0,0:0:0:0:
439,354,17136,2,0,L|444:318,1,30,0|0,0:0|0:0,0:0:0:0:
443,192,17308,5,2,0:0:0:0:
384,234,17394,1,0,0:0:0:0:
325,214,17481,1,0,0:0:0:0:
304,183,17567,5,0,0:0:0:0:
306,205,17653,1,0,0:0:0:0:
299,225,17739,1,0,0:0:0:0:
282,188,17825,5,0,0:0:0:0:
271,218,17912,1,0,0:0:0:0:
244,236,17998,1,0,0:0:0:0:
216,210,18084,5,2,0:0:0:0:
181,254,18170,1,0,0:0:0:0:
127,247,18256,1,0,0:0:0:0:
107,260,18343,2,0,P|92:265|50:271,2,45.0000017166138,2|0|0,0:0|0:0|0:0,0:0:0:0:
202,354,18601,5,2,0:0:0:0:
270,365,18687,1,0,0:0:0:0:
312,354,18774,1,0,0:0:0:0:
336,328,18860,1,0,0:0:0:0:
302,312,18946,1,0,0:0:0:0:
455,260,19118,5,2,0:0:0:0:
407,279,19205,1,0,0:0:0:0:
392,233,19291,1,0,0:0:0:0:
432,185,19377,1,0,0:0:0:0:
478,135,19463,2,0,P|476:108|462:86,1,45.0000017166138,0|0,0:0|0:0,0:0:0:0:
353,63,19636,5,2,0:0:0:0:
317,90,19722,1,0,0:0:0:0:
287,97,19808,1,0,0:0:0:0:
263,95,19894,1,0,0:0:0:0:
246,86,19981,1,0,0:0:0:0:
237,76,20067,1,0,0:0:0:0:
230,47,20153,5,2,0:0:0:0:
281,28,20239,1,0,0:0:0:0:
327,52,20325,1,0,0:0:0:0:
344,101,20412,1,0,0:0:0:0:
474,115,20670,5,2,0:0:0:0:
432,114,20756,1,0,0:0:0:0:
399,146,20843,1,0,0:0:0:0:
397,164,20929,1,0,0:0:0:0:
413,166,21015,1,0,0:0:0:0:
428,154,21101,1,0,0:0:0:0:
466,180,21187,5,2,0:0:0:0:
466,231,21274,1,0,0:0:0:0:
433,283,21360,1,0,0:0:0:0:
369,304,21446,1,0,0:0:0:0:
345,240,21532,1,0,0:0:0:0:
286,207,21618,1,0,0:0:0:0:
221,222,21705,5,2,0:0:0:0:
218,209,21791,1,0,0:0:0:0:
208,203,21877,1,0,0:0:0:0:
201,209,21963,1,0,0:0:0:0:
202,221,22050,1,0,0:0:0:0:
213,226,22136,1,0,0:0:0:0:
259,227,22222,5,2,0:0:0:0:
300,186,22308,1,0,0:0:0:0:
311,125,22394,1,0,0:0:0:0:
365,158,22481,1,2,0:0:0:0:
424,147,22567,2,0,P|454:133|463:126,1,45.0000017166138,0|0,0:0|0:0,0:0:0:0:
308,0,22739,5,2,0:0:0:0:
305,18,22825,1,0,0:0:0:0:
258,23,22912,1,0,0:0:0:0:
226,56,22998,5,2,0:0:0:0:
229,102,23084,2,0,L|221:153,1,45.0000017166138,0|0,0:0|0:0,0:0:0:0:
20,274,23256,5,2,0:0:0:0:
37,236,23343,1,0,0:0:0:0:
77,218,23429,1,0,0:0:0:0:
127,231,23515,1,0,0:0:0:0:
183,276,23601,2,0,P|210:274|232:260,1,45.0000017166138,0|0,0:0|0:0,0:0:0:0:
338,270,23774,5,2,0:0:0:0:
305,229,23860,1,0,0:0:0:0:
318,170,23946,1,0,0:0:0:0:
373,152,24032,1,0,0:0:0:0:
416,187,24118,2,0,L|479:194,1,45.0000017166138,0|0,0:0|0:0,0:0:0:0:
339,66,24291,5,2,0:0:0:0:
324,33,24377,1,0,0:0:0:0:
349,10,24463,1,0,0:0:0:0:
371,11,24550,1,0,0:0:0:0:
137,194,24808,5,2,0:0:0:0:
140,202,24894,1,0,0:0:0:0:
143,212,24981,1,0,0:0:0:0:
157,200,25067,2,0,L|151:237,2,30,2|0|0,0:0|0:0|0:0,0:0:0:0:
224,316,25325,5,2,0:0:0:0:
218,329,25412,1,0,0:0:0:0:
213,346,25498,1,0,0:0:0:0:
193,335,25584,2,0,L|199:372,2,30,2|0|0,0:0|0:0|0:0,0:0:0:0:
287,250,25843,5,2,0:0:0:0:
290,258,25929,1,0,0:0:0:0:
293,268,26015,1,0,0:0:0:0:
312,257,26101,2,0,L|306:294,2,30,2|0|0,0:0|0:0|0:0,0:0:0:0:
384,324,26360,5,2,0:0:0:0:
378,337,26446,1,0,0:0:0:0:
373,354,26532,1,0,0:0:0:0:
351,346,26618,2,0,L|357:383,2,30,2|0|0,0:0|0:0|0:0,0:0:0:0:
379,214,26877,5,2,0:0:0:0:
372,175,26963,2,0,P|379:158|399:140,1,38.9999982147218,0|0,0:0|0:0,0:0:0:0:
375,220,27136,5,2,0:0:0:0:
355,185,27222,2,0,P|355:166|368:142,1,41.9999987182618,0|0,0:0|0:0,0:0:0:0:
293,239,27394,5,2,0:0:0:0:
254,217,27481,1,0,0:0:0:0:
236,183,27567,1,0,0:0:0:0:
260,175,27653,5,0,0:0:0:0:
248,135,27739,2,0,L|259:93,1,41.9999987182618
166,104,27912,5,2,0:0:0:0:
140,72,27998,2,0,P|137:53|145:28,1,38.9999982147218
165,110,28171,5,2,0:0:0:0:
130,90,28256,2,0,P|120:73|119:46,1,41.9999987182618
163,194,28429,5,2,0:0:0:0:
119,194,28515,1,0,0:0:0:0:
87,174,28601,1,0,0:0:0:0:
96,156,28687,5,0,0:0:0:0:
57,135,28774,2,0,P|37:122|18:102,1,49.5000004720688,0|0,0:0|0:0,0:0:0:0:
290,120,28946,5,2,0:0:0:0:
302,76,29032,2,0,P|297:49|278:28,1,45.0000017166138,0|0,0:0|0:0,0:0:0:0:
156,115,29205,5,2,0:0:0:0:
190,114,29291,2,0,P|209:103|217:93,1,30,0|0,0:0|0:0,0:0:0:0:
428,219,29463,5,2,0:0:0:0:
428,162,29550,2,0,P|403:132|371:119,1,67.5000025749207,0|0,0:0|0:0,0:0:0:0:
232,190,29722,5,2,0:0:0:0:
281,219,29808,2,0,P|302:221|325:211,1,30,0|0,0:0|0:0,0:0:0:0:
371,357,29981,5,2,0:0:0:0:
330,371,30067,2,0,P|307:367|289:351,1,45.0000017166138,0|0,0:0|0:0,0:0:0:0:
380,312,30239,5,2,0:0:0:0:
411,270,30325,2,0,P|430:259|454:259,1,45.0000017166138,0|0,0:0|0:0,0:0:0:0:
151,308,30498,5,2,0:0:0:0:
100,348,30584,2,0,P|66:359|26:352,1,67.5000025749208,0|0,0:0|0:0,0:0:0:0:
154,241,30756,5,2,0:0:0:0:
186,183,30843,2,0,P|199:173|258:165,1,67.5000025749208,0|0,0:0|0:0,0:0:0:0:
403,345,31015,5,2,0:0:0:0:
425,284,31101,1,0,0:0:0:0:
402,245,31187,1,0,0:0:0:0:
380,231,31274,1,0,0:0:0:0:
381,209,31360,1,0,0:0:0:0:
399,193,31446,1,0,0:0:0:0:
380,171,31532,5,2,0:0:0:0:
416,173,31618,1,0,0:0:0:0:
396,150,31705,1,0,0:0:0:0:
422,152,31791,5,0,0:0:0:0:
408,127,31877,2,0,L|402:71,1,45.0000017166138,0|0,0:0|0:0,0:0:0:0:
456,22,32050,5,2,0:0:0:0:
388,1,32136,1,0,0:0:0:0:
330,35,32222,1,0,0:0:0:0:
310,66,32308,1,0,0:0:0:0:
276,67,32394,1,0,0:0:0:0:
252,40,32481,1,0,0:0:0:0:
233,15,32567,5,2,0:0:0:0:
235,51,32653,1,0,0:0:0:0:
212,31,32739,1,0,0:0:0:0:
214,57,32825,1,0,0:0:0:0:
190,48,32912,2,0,L|119:66,1,45.0000017166138,0|0,0:0|0:0,0:0:0:0:
109,155,33084,5,2,0:0:0:0:
122,226,33170,1,0,0:0:0:0:
176,266,33256,1,0,0:0:0:0:
223,277,33343,1,0,0:0:0:0:
258,306,33429,1,0,0:0:0:0:
265,346,33515,1,0,0:0:0:0:
250,322,33601,5,2,0:0:0:0:
277,307,33687,1,0,0:0:0:0:
293,334,33774,1,0,0:0:0:0:
316,325,33860,5,0,0:0:0:0:
346,337,33946,1,0,0:0:0:0:
377,327,34032,1,0,0:0:0:0:
408,341,34118,5,2,0:0:0:0:
444,313,34205,2,0,L|449:259,1,30,0|0,0:0|0:0,0:0:0:0:
363,240,34377,5,2,0:0:0:0:
325,214,34463,2,0,L|319:164,1,30,0|0,0:0|0:0,0:0:0:0:
231,187,34636,5,2,0:0:0:0:
185,246,34722,1,0,0:0:0:0:
208,283,34808,1,0,0:0:0:0:
196,305,34894,2,0,L|190:372,1,60,2|0,0:0|0:0,0:0:0:0:
75,285,35153,5,2,0:0:0:0:
85,283,35239,2,0,L|115:289,1,30,0|0,0:0|0:0,0:0:0:0:
73,210,35412,1,2,0:0:0:0:
82,207,35498,2,0,L|111:214,1,30,0|0,0:0|0:0,0:0:0:0:
190,151,35670,5,2,0:0:0:0:
198,154,35756,2,0,L|228:160,1,30,0|0,0:0|0:0,0:0:0:0:
209,79,35929,1,2,0:0:0:0:
218,82,36015,2,0,L|247:88,1,30
338,104,36187,5,2,0:0:0:0:
348,102,36273,2,0,L|378:108,1,30
336,29,36446,1,2,0:0:0:0:
345,26,36532,2,0,L|374:33,1,30,0|0,0:0|0:0,0:0:0:0:
509,168,36705,6,0,P|472:176|422:216,1,90.0000034332277,2|0,0:0|0:0,0:0:0:0:
346,225,36963,2,0,L|349:278,1,45.0000017166138,0|0,0:0|0:0,0:0:0:0:
309,109,37136,5,2,0:0:0:0:
276,151,37222,1,2,0:0:0:0:
226,146,37308,2,0,P|207:136|189:100,1,45.0000017166138,0|0,0:0|0:0,0:0:0:0:
91,125,37481,5,0,0:0:0:0:
98,146,37567,1,0,0:0:0:0:
104,165,37653,1,0,0:0:0:0:
143,171,37739,5,2,0:0:0:0:
148,189,37825,1,0,0:0:0:0:
153,204,37912,1,0,0:0:0:0:
169,207,37998,5,0,0:0:0:0:
175,223,38084,1,0,0:0:0:0:
179,236,38170,1,0,0:0:0:0:
168,259,38256,5,2,0:0:0:0:
174,268,38343,1,0,0:0:0:0:
179,277,38429,1,0,0:0:0:0:
184,314,38515,5,0,0:0:0:0:
194,306,38601,2,0,P|205:285|205:258,1,45.0000017166138,0|0,0:0|0:0,0:0:0:0:
282,296,38774,5,2,0:0:0:0:
285,288,38860,2,0,P|288:264|280:236,1,45.0000017166138,0|0,0:0|0:0,0:0:0:0:
365,252,39032,5,0,0:0:0:0:
363,241,39118,1,0,0:0:0:0:
361,230,39205,1,0,0:0:0:0:
381,202,39291,6,0,L|378:171,2,30,2|0|0,0:0|0:0|0:0,0:0:0:0:
301,170,39550,2,0,L|305:121,2,30,0|0|0,0:0|0:0|0:0,0:0:0:0:
434,116,39808,6,0,L|438:156,2,24,2|0|0,0:0|0:0|0:0,0:0:0:0:
512,132,40067,2,0,L|509:155,2,24,0|0|0,0:0|0:0|0:0,0:0:0:0:
392,52,40325,5,2,0:0:0:0:
384,40,40412,2,0,L|380:17,4,17.9999994506836,0|0|0|0|0,0:0|0:0|0:0|0:0|0:0,0:0:0:0:
348,119,40843,6,0,L|353:149,2,17.9999994506836,2|0|0,0:0|0:0|0:0,0:0:0:0:
290,186,41101,2,0,L|295:216,1,17.9999994506836,2|0,0:0|0:0,0:0:0:0:
232,129,41274,5,2,0:0:0:0:
251,114,41360,2,0,L|274:111,5,17.9999994506836,2|0|0|0|0|0,0:0|0:0|0:0|0:0|0:0|0:0,0:0:0:0:
349,130,41877,2,0,L|340:151,5,17.9999994506836,0|0|0|0|0|0,0:0|0:0|0:0|0:0|0:0|0:0,0:0:0:0:
294,215,42394,2,0,L|279:196,5,17.9999994506836,2|0|0|0|0|0,0:0|0:0|0:0|0:0|0:0|0:0,0:0:0:0:
247,125,42912,2,0,L|270:122,5,17.9999994506836,0|0|0|0|0|0,0:0|0:0|0:0|0:0|0:0|0:0,0:0:0:0:
244,266,43429,6,0,P|224:281|218:293,2,30,2|0|0,0:0|0:0|0:0,0:0:0:0:
205,286,43687,2,0,P|202:301|202:316,2,30,2|0|0,0:0|0:0|0:0,0:0:0:0:
141,257,43946,5,2,0:0:0:0:
152,221,44032,1,0,0:0:0:0:
144,194,44118,1,0,0:0:0:0:
126,178,44205,1,0,0:0:0:0:
109,171,44291,1,0,0:0:0:0:
97,172,44377,1,0,0:0:0:0:
90,174,44463,6,0,P|116:164|130:165,2,30,2|0|0,0:0|0:0|0:0,0:0:0:0:
126,150,44722,2,0,P|137:154|154:169,2,30,2|0|0,0:0|0:0|0:0,0:0:0:0:
222,158,44981,5,2,0:0:0:0:
211,122,45067,1,0,0:0:0:0:
219,95,45153,1,0,0:0:0:0:
237,79,45239,1,0,0:0:0:0:
254,72,45325,1,0,0:0:0:0:
266,73,45412,1,0,0:0:0:0:
278,80,45498,2,0,L|286:122,1,30,0|0,0:0|0:0,0:0:0:0:
412,31,45670,5,2,0:0:0:0:
410,9,45756,1,0,0:0:0:0:
277,81,45929,1,2,0:0:0:0:
346,85,46015,5,2,0:0:0:0:
363,141,46101,1,0,0:0:0:0:
347,188,46187,1,0,0:0:0:0:
310,211,46274,1,0,0:0:0:0:
287,242,46360,2,0,P|290:263|297:283,1,30,0|0,0:0|0:0,0:0:0:0:
325,355,46532,5,2,0:0:0:0:
330,336,46618,1,0,0:0:0:0:
447,291,46791,5,2,0:0:0:0:
467,272,46877,1,0,0:0:0:0:
442,264,46963,1,0,0:0:0:0:
394,214,47050,5,2,0:0:0:0:
358,234,47136,1,0,0:0:0:0:
323,232,47222,1,0,0:0:0:0:
299,214,47308,1,0,0:0:0:0:
286,188,47394,2,0,P|291:168|294:155,1,30,0|0,0:0|0:0,0:0:0:0:
316,78,47567,5,2,0:0:0:0:
291,71,47653,1,0,0:0:0:0:
273,84,47739,1,0,0:0:0:0:
261,58,47825,5,2,0:0:0:0:
231,57,47912,1,0,0:0:0:0:
199,79,47998,1,0,0:0:0:0:
162,138,48084,5,2,0:0:0:0:
149,85,48170,1,0,0:0:0:0:
107,46,48256,1,0,0:0:0:0:
93,67,48343,5,2,0:0:0:0:
81,42,48429,2,0,P|59:33|44:37,1,30,0|0,0:0|0:0,0:0:0:0:
78,197,48601,5,2,0:0:0:0:
71,209,48687,1,0,0:0:0:0:
57,221,48774,1,0,0:0:0:0:
0,227,48860,5,2,0:0:0:0:
33,236,48946,1,0,0:0:0:0:
52,266,49032,1,0,0:0:0:0:
58,308,49118,5,2,0:0:0:0:
83,252,49205,1,0,0:0:0:0:
139,229,49291,1,0,0:0:0:0:
190,248,49377,5,2,0:0:0:0:
202,246,49463,2,0,P|224:249|236:260,1,30,0|0,0:0|0:0,0:0:0:0:
298,234,49636,5,2,0:0:0:0:
298,280,49722,1,0,0:0:0:0:
331,310,49808,1,0,0:0:0:0:
395,316,49894,5,2,0:0:0:0:
386,323,49981,2,0,P|372:334|368:347,1,30,0|0,0:0|0:0,0:0:0:0:
434,258,50153,5,2,0:0:0:0:
434,212,50239,1,0,0:0:0:0:
401,182,50325,1,0,0:0:0:0:
356,181,50412,5,2,0:0:0:0:
349,174,50498,2,0,L|360:146,1,30,0|0,0:0|0:0,0:0:0:0:
353,17,50670,5,2,0:0:0:0:
303,9,50756,1,0,0:0:0:0:
270,45,50843,1,0,0:0:0:0:
279,80,50929,5,2,0:0:0:0:
273,90,51015,2,0,L|266:127,1,30,0|0,0:0|0:0,0:0:0:0:
156,181,51187,5,2,0:0:0:0:
179,225,51274,1,0,0:0:0:0:
220,224,51360,1,0,0:0:0:0:
242,235,51446,5,2,0:0:0:0:
246,227,51532,2,0,L|243:194,1,30,0|0,0:0|0:0,0:0:0:0:
114,330,51705,5,2,0:0:0:0:
107,282,51791,2,0,P|117:253|135:239,1,45.0000017166138,0|0,0:0|0:0,0:0:0:0:
312,372,51963,5,2,0:0:0:0:
251,352,52050,2,0,P|231:328|230:300,1,53.9999983520508,0|0,0:0|0:0,0:0:0:0:
366,257,52222,5,2,0:0:0:0:
430,228,52308,1,0,0:0:0:0:
449,164,52394,1,0,0:0:0:0:
432,104,52481,1,0,0:0:0:0:
394,78,52567,1,0,0:0:0:0:
354,74,52653,1,0,0:0:0:0:
330,87,52739,6,0,P|316:102|311:117,2,30,2|0|0,0:0|0:0|0:0,0:0:0:0:
203,149,52998,2,0,P|209:167|219:179,2,30,2|0|0,0:0|0:0|0:0,0:0:0:0:
190,281,53256,5,2,0:0:0:0:
204,298,53343,1,0,0:0:0:0:
219,306,53429,1,0,0:0:0:0:
230,312,53515,1,0,0:0:0:0:
240,313,53601,1,0,0:0:0:0:
247,308,53687,1,0,0:0:0:0:
226,287,53774,5,2,0:0:0:0:
190,318,53860,1,0,0:0:0:0:
203,369,53946,1,0,0:0:0:0:
263,384,54032,1,0,0:0:0:0:
315,342,54118,1,0,0:0:0:0:
321,272,54205,1,0,0:0:0:0:
289,213,54291,5,2,0:0:0:0:
304,259,54377,1,0,0:0:0:0:
338,281,54463,1,0,0:0:0:0:
372,284,54550,1,0,0:0:0:0:
397,265,54636,1,0,0:0:0:0:
401,236,54722,1,0,0:0:0:0:
453,233,54808,5,2,0:0:0:0:
421,185,54894,1,0,0:0:0:0:
425,140,54981,1,0,0:0:0:0:
451,110,55067,1,0,0:0:0:0:
483,98,55153,1,0,0:0:0:0:
512,105,55239,1,0,0:0:0:0:
506,147,55325,5,2,0:0:0:0:
475,175,55412,1,0,0:0:0:0:
423,171,55498,1,0,0:0:0:0:
372,131,55584,1,0,0:0:0:0:
362,60,55670,2,0,P|364:52|392:2,1,45.0000017166138,0|0,0:0|0:0,0:0:0:0:
428,116,55843,5,2,0:0:0:0:
402,156,55929,2,0,P|375:170|352:169,1,45.0000017166138,0|0,0:0|0:0,0:0:0:0:
244,37,56101,5,2,0:0:0:0:
276,91,56187,2,0,P|276:121|258:143,1,53.9999983520508,0|0,0:0|0:0,0:0:0:0:
168,225,56360,5,2,0:0:0:0:
161,297,56446,1,0,0:0:0:0:
202,354,56532,1,0,0:0:0:0:
264,371,56618,1,0,0:0:0:0:
306,355,56705,1,0,0:0:0:0:
329,327,56791,1,0,0:0:0:0:
340,287,56877,6,0,P|333:268|322:256,2,30,2|0|0,0:0|0:0|0:0,0:0:0:0:
397,226,57136,2,0,P|403:245|413:257,2,30,2|0|0,0:0|0:0|0:0,0:0:0:0:
445,171,57394,5,2,0:0:0:0:
462,157,57481,1,0,0:0:0:0:
470,142,57567,1,0,0:0:0:0:
470,129,57653,1,0,0:0:0:0:
468,121,57739,1,0,0:0:0:0:
463,114,57825,1,0,0:0:0:0:
492,90,57912,5,2,0:0:0:0:
454,76,57998,1,0,0:0:0:0:
415,92,58084,1,0,0:0:0:0:
386,133,58170,1,0,0:0:0:0:
389,186,58256,2,0,P|398:210|403:223,1,30,0|0,0:0|0:0,0:0:0:0:
466,324,58429,5,2,0:0:0:0:
432,303,58515,1,0,0:0:0:0:
387,313,58601,1,0,0:0:0:0:
350,348,58687,1,0,0:0:0:0:
295,343,58774,2,0,P|264:333|257:330,1,30,0|0,0:0|0:0,0:0:0:0:
185,337,58946,5,2,0:0:0:0:
168,324,59032,1,0,0:0:0:0:
143,318,59118,1,0,0:0:0:0:
118,329,59205,1,0,0:0:0:0:
97,350,59291,2,0,P|82:355|61:357,1,30
0,230,59463,5,2,0:0:0:0:
24,209,59550,1,0,0:0:0:0:
58,201,59636,1,0,0:0:0:0:
94,214,59722,1,0,0:0:0:0:
120,241,59808,2,0,P|140:243|156:248,1,30,0|0,0:0|0:0,0:0:0:0:
12,85,59981,5,2,0:0:0:0:
51,121,60067,1,0,0:0:0:0:
87,103,60153,1,0,0:0:0:0:
113,115,60239,2,0,L|146:120,2,30,2|0|0,0:0|0:0|0:0,0:0:0:0:
235,145,60498,5,2,0:0:0:0:
275,112,60584,1,0,0:0:0:0:
310,128,60670,1,0,0:0:0:0:
336,111,60756,2,0,L|371:108,2,30,2|0|0,0:0|0:0|0:0,0:0:0:0:
317,35,61015,5,2,0:0:0:0:
292,60,61101,1,0,0:0:0:0:
281,104,61187,1,0,0:0:0:0:
305,150,61274,1,2,0:0:0:0:
347,183,61360,2,0,L|339:226,1,30,0|0,0:0|0:0,0:0:0:0:
413,251,61532,5,2,0:0:0:0:
474,241,61618,1,0,0:0:0:0:
512,287,61705,1,0,0:0:0:0:
497,343,61791,1,2,0:0:0:0:
438,359,61877,2,0,L|401:363,1,30,0|0,0:0|0:0,0:0:0:0:
326,378,62050,5,2,0:0:0:0:
279,343,62136,1,0,0:0:0:0:
241,378,62222,1,0,0:0:0:0:
205,365,62308,2,0,L|171:369,2,30,2|0|0,0:0|0:0|0:0,0:0:0:0:
111,319,62567,5,2,0:0:0:0:
83,270,62653,1,0,0:0:0:0:
121,234,62739,1,0,0:0:0:0:
112,192,62825,2,0,L|119:153,2,30,2|0|0,0:0|0:0|0:0,0:0:0:0:
19,241,63084,5,2,0:0:0:0:
43,266,63170,1,0,0:0:0:0:
78,271,63256,1,0,0:0:0:0:
117,257,63343,1,2,0:0:0:0:
164,241,63429,1,0,0:0:0:0:
217,265,63515,1,0,0:0:0:0:
178,330,63601,5,2,0:0:0:0:
216,340,63687,1,0,0:0:0:0:
263,323,63774,1,0,0:0:0:0:
285,273,63860,1,2,0:0:0:0:
338,246,63946,2,0,L|377:248,1,30,0|0,0:0|0:0,0:0:0:0:
482,264,64118,5,2,0:0:0:0:
443,270,64205,1,0,0:0:0:0:
458,249,64291,1,0,0:0:0:0:
461,228,64377,5,2,0:0:0:0:
464,239,64463,2,0,L|467:278,1,30
377,220,64636,5,2,0:0:0:0:
339,229,64722,1,0,0:0:0:0:
353,205,64808,1,0,0:0:0:0:
357,182,64894,5,2,0:0:0:0:
359,193,64981,2,0,L|362:232,1,30
260,334,65153,5,2,0:0:0:0:
290,352,65239,1,0,0:0:0:0:
287,325,65325,1,0,0:0:0:0:
276,310,65412,5,2,0:0:0:0:
279,321,65498,2,0,L|276:360,1,30,0|0,0:0|0:0,0:0:0:0:
363,337,65670,5,2,0:0:0:0:
392,356,65756,1,0,0:0:0:0:
387,331,65843,1,0,0:0:0:0:
373,313,65929,5,2,0:0:0:0:
376,324,66015,2,0,L|373:363,1,30,0|0,0:0|0:0,0:0:0:0:
499,195,66187,6,0,P|473:197|449:192,1,45.0000017166138,2|0,0:0|0:0,0:0:0:0:
412,178,66360,1,0,0:0:0:0:
371,194,66446,1,0,0:0:0:0:
348,231,66532,2,0,P|331:239|298:241,1,45.0000017166138,2|0,0:0|0:0,0:0:0:0:
271,318,66705,6,0,P|247:306|229:290,1,45.0000017166138,2|0,0:0|0:0,0:0:0:0:
204,259,66878,1,0,0:0:0:0:
160,253,66964,1,0,0:0:0:0:
122,273,67050,2,0,P|103:271|73:256,1,45.0000017166138,2|0,0:0|0:0,0:0:0:0:
93,143,67222,6,0,P|119:141|143:146,1,45.0000017166138,2|0,0:0|0:0,0:0:0:0:
180,160,67395,1,0,0:0:0:0:
221,144,67481,1,0,0:0:0:0:
244,107,67567,2,0,P|261:99|294:97,1,45.0000017166138,2|0,0:0|0:0,0:0:0:0:
321,20,67740,6,0,P|344:31|362:47,1,45.0000017166138,2|0,0:0|0:0,0:0:0:0:
388,79,67913,1,0,0:0:0:0:
432,85,67999,1,0,0:0:0:0:
470,65,68085,2,0,P|488:66|518:81,1,45.0000017166138,2|0,0:0|0:0,0:0:0:0:
307,130,68256,5,2,0:0:0:0:
279,187,68343,1,0,0:0:0:0:
229,214,68429,1,0,0:0:0:0:
219,264,68515,1,0,0:0:0:0:
251,294,68601,1,0,0:0:0:0:
271,315,68687,1,0,0:0:0:0:
276,340,68774,1,0,0:0:0:0:
266,357,68860,1,0,0:0:0:0:
256,360,68946,1,0,0:0:0:0:
244,361,69032,1,0,0:0:0:0:
238,367,69119,1,0,0:0:0:0:
237,375,69205,1,0,0:0:0:0:
241,382,69291,1,2,0:0:0:0:
114,71,69808,6,0,L|135:201,1,90,2|0,0:0|0:0,0:0:0:0:
104,240,70196,1,0,0:0:0:0:
80,264,70325,1,2,0:0:0:0:
205,343,70584,1,0,0:0:0:0:
205,343,70843,5,2,0:0:0:0:
236,328,70929,1,0,0:0:0:0:
264,351,71015,1,0,0:0:0:0:
296,339,71102,1,0,0:0:0:0:
321,362,71187,2,0,L|347:350,1,30,0|0,0:0|0:0,0:0:0:0:
406,217,71360,5,2,0:0:0:0:
374,202,71446,1,0,0:0:0:0:
346,225,71532,1,0,0:0:0:0:
314,213,71619,1,0,0:0:0:0:
285,233,71705,2,0,L|258:221,1,30,0|0,0:0|0:0,0:0:0:0:
361,56,71877,5,2,0:0:0:0:
396,22,71964,1,0,0:0:0:0:
434,57,72050,1,0,0:0:0:0:
398,94,72136,1,0,0:0:0:0:
370,203,72395,5,2,0:0:0:0:
360,163,72481,1,0,0:0:0:0:
323,143,72567,1,0,0:0:0:0:
278,150,72653,1,0,0:0:0:0:
235,132,72739,1,0,0:0:0:0:
219,83,72826,1,0,0:0:0:0:
241,27,72912,5,2,0:0:0:0:
252,35,72998,1,0,0:0:0:0:
246,47,73084,1,0,0:0:0:0:
241,17,73170,2,0,L|206:12,2,30,0|0|0,0:0|0:0|0:0,0:0:0:0:
204,128,73429,5,2,0:0:0:0:
162,102,73515,2,0,L|133:99,1,30,0|0,0:0|0:0,0:0:0:0:
68,150,73688,5,0,0:0:0:0:
32,176,73774,2,0,L|3:179,1,30,0|0,0:0|0:0,0:0:0:0:
113,214,73946,5,2,0:0:0:0:
145,245,74032,1,0,0:0:0:0:
191,248,74119,1,0,0:0:0:0:
237,218,74205,1,2,0:0:0:0:
292,188,74291,1,0,0:0:0:0:
352,206,74377,1,0,0:0:0:0:
418,182,74464,5,2,0:0:0:0:
433,195,74550,2,0,L|436:224,1,30,0|0,0:0|0:0,0:0:0:0:
410,299,74722,5,2,0:0:0:0:
381,331,74808,2,0,L|378:360,1,30,0|0,0:0|0:0,0:0:0:0:
253,318,74981,5,2,0:0:0:0:
222,303,75067,1,0,0:0:0:0:
194,326,75153,1,0,0:0:0:0:
162,314,75240,1,0,0:0:0:0:
137,337,75325,2,0,L|109:329,1,30
199,211,75498,5,2,0:0:0:0:
231,196,75584,1,0,0:0:0:0:
259,219,75670,1,0,0:0:0:0:
291,207,75757,1,0,0:0:0:0:
320,227,75843,2,0,L|351:215,1,30
28,334,76015,6,0,L|34:270,1,60,2|0,0:0|0:0,0:0:0:0:
42,195,76274,2,0,L|48:131,1,60,0|0,0:0|0:0,0:0:0:0:
265,199,76532,5,2,0:0:0:0:
296,208,76619,1,0,0:0:0:0:
312,240,76705,1,0,0:0:0:0:
302,276,76791,1,0,0:0:0:0:
315,312,76877,1,0,0:0:0:0:
353,323,76964,1,0,0:0:0:0:
380,275,77050,5,2,0:0:0:0:
385,239,77136,1,0,0:0:0:0:
389,275,77222,1,0,0:0:0:0:
399,321,77308,5,2,0:0:0:0:
406,368,77395,1,0,0:0:0:0:
411,322,77481,1,0,0:0:0:0:
360,298,77567,5,2,0:0:0:0:
312,304,77653,1,0,0:0:0:0:
270,290,77739,1,0,0:0:0:0:
228,298,77826,1,2,0:0:0:0:
186,278,77912,1,0,0:0:0:0:
142,287,77998,1,0,0:0:0:0:
102,339,78084,5,2,0:0:0:0:
72,284,78170,1,0,0:0:0:0:
101,229,78257,1,0,0:0:0:0:
156,201,78343,1,2,0:0:0:0:
185,145,78429,1,0,0:0:0:0:
167,87,78515,1,0,0:0:0:0:
124,34,78601,5,2,0:0:0:0:
201,17,78687,2,0,L|184:98,1,60,0|0,0:0|0:0,0:0:0:0:
100,143,78860,5,2,0:0:0:0:
18,128,78946,2,0,L|26:190,1,60,0|0,0:0|0:0,0:0:0:0:
93,298,79118,6,0,P|120:257|194:247,1,90.0000034332277,2|0,0:0|0:0,0:0:0:0:
272,287,79377,5,2,0:0:0:0:
311,228,79464,2,0,P|289:239|270:259,1,45.0000017166138,0|0,0:0|0:0,0:0:0:0:
239,164,79636,6,0,P|220:161|173:122,1,53.9999983520508,2|0,0:0|0:0,0:0:0:0:
227,23,79808,1,0,0:0:0:0:
214,67,79895,1,0,0:0:0:0:
169,63,79981,2,0,P|151:69|90:59,1,53.9999983520508,0|0,0:0|0:0,0:0:0:0:
84,262,80153,6,0,P|97:273|158:284,1,53.9999983520508,2|0,0:0|0:0,0:0:0:0:
204,213,80326,1,0,0:0:0:0:
242,242,80412,1,0,0:0:0:0:
221,284,80498,2,0,P|227:301|273:341,1,53.9999983520508,0|0,0:0|0:0,0:0:0:0:
452,323,80670,5,2,0:0:0:0:
465,316,80757,1,0,0:0:0:0:
455,282,80843,5,2,0:0:0:0:
468,275,80929,1,0,0:0:0:0:
459,247,81015,5,2,0:0:0:0:
472,240,81101,1,0,0:0:0:0:
499,199,81188,5,2,0:0:0:0:
484,192,81274,1,0,0:0:0:0:
452,209,81360,5,2,0:0:0:0:
437,202,81446,1,0,0:0:0:0:
401,214,81532,5,2,0:0:0:0:
386,207,81619,1,0,0:0:0:0:
340,218,81705,6,0,P|327:181|318:168,1,53.9999983520508,2|0,0:0|0:0,0:0:0:0:
399,294,81877,1,0,0:0:0:0:
391,295,81964,1,0,0:0:0:0:
382,297,82050,2,0,P|355:325|350:339,1,53.9999983520508,0|0,0:0|0:0,0:0:0:0:
179,254,82222,6,0,P|149:227|135:222,1,53.9999983520508,2|0,0:0|0:0,0:0:0:0:
267,293,82395,1,0,0:0:0:0:
260,298,82481,1,0,0:0:0:0:
254,302,82567,2,0,P|244:339|247:354,1,53.9999983520508,0|0,0:0|0:0,0:0:0:0:
234,186,82739,6,0,P|234:156|127:69,1,161.999995056153,2|0,0:0|0:0,0:0:0:0:
146,69,83084,1,0,0:0:0:0:
83,156,83257,5,2,0:0:0:0:
114,194,83343,2,0,L|168:200,1,45.0000017166138,0|0,0:0|0:0,0:0:0:0:
110,156,83515,5,2,0:0:0:0:
123,202,83601,2,0,L|177:208,1,45.0000017166138,0|0,0:0|0:0,0:0:0:0:
144,165,83774,5,2,0:0:0:0:
131,210,83860,2,0,L|185:216,1,45.0000017166138,0|0,0:0|0:0,0:0:0:0:
231,249,84032,5,2,0:0:0:0:
262,287,84119,2,0,L|316:293,1,45.0000017166138,0|0,0:0|0:0,0:0:0:0:
393,313,84291,5,2,0:0:0:0:
340,365,84377,2,0,L|286:371,1,45.0000017166138,0|0,0:0|0:0,0:0:0:0:
399,232,84550,5,2,0:0:0:0:
392,222,84636,1,0,0:0:0:0:
386,209,84722,1,0,0:0:0:0:
454,190,84808,5,2,0:0:0:0:
420,151,84895,1,0,0:0:0:0:
437,202,84981,1,0,0:0:0:0:
413,247,85067,1,2,0:0:0:0:
418,264,85153,2,0,L|425:294,1,30,0|0,0:0|0:0,0:0:0:0:
302,279,85326,5,2,0:0:0:0:
335,237,85412,1,0,0:0:0:0:
320,291,85498,1,0,0:0:0:0:
303,337,85584,1,0,0:0:0:0:
305,354,85670,2,0,L|311:388,1,30,0|0,0:0|0:0,0:0:0:0:
223,335,85843,5,2,0:0:0:0:
262,293,85929,1,0,0:0:0:0:
208,311,86015,1,0,0:0:0:0:
149,280,86101,1,2,0:0:0:0:
117,282,86188,2,0,L|82:287,1,30,0|0,0:0|0:0,0:0:0:0:
130,212,86360,5,2,0:0:0:0:
84,163,86446,1,0,0:0:0:0:
150,183,86532,1,0,0:0:0:0:
222,145,86619,1,2,0:0:0:0:
274,156,86705,1,0,0:0:0:0:
329,167,86791,1,0,0:0:0:0:
393,106,86877,5,0,0:0:0:0:
307,44,87050,5,2,0:0:0:0:
253,127,87136,5,0,0:0:0:0:
296,197,87222,5,0,0:0:0:0:
265,263,87308,5,2,0:0:0:0:
300,321,87395,5,0,0:0:0:0:
272,382,87481,5,0,0:0:0:0:
324,336,87567,5,2,0:0:0:0:
365,365,87653,5,0,0:0:0:0:
407,349,87739,5,0,0:0:0:0:
438,372,87826,5,2,0:0:0:0:
468,362,87912,6,0,L|478:364,1,8.99999972534181,2|0,0:0|0:0,0:0:0:0:
219,182,88429,6,0,L|223:153,1,22.5000008583069,2|0,0:0|0:0,0:0:0:0:
199,193,88515,6,0,L|212:382,1,180.000006866455,0|0,0:0|0:0,0:0:0:0:
211,372,88946,5,2,0:0:0:0:
256,192,89032,12,0,93084,0:0:0:0:
