osu file format v14

[General]
AudioFilename: audio.mp3
AudioLeadIn: 0
PreviewTime: 51662
Countdown: 0
SampleSet: Soft
StackLeniency: 0.5
Mode: 0
LetterboxInBreaks: 0
WidescreenStoryboard: 1

[Editor]
DistanceSpacing: 1.5
BeatDivisor: 6
GridSize: 8
TimelineZoom: 2

[Metadata]
Title:Etude Op. 10, No. 5
TitleUnicode:Étude Op. 10, No. 5
Artist:Frederic Chopin
ArtistUnicode:Frédéric Chopin
Creator:Riana
Version:Insane
Source:
Tags:black keys classic classical instrumental piano g-flat major len fast
BeatmapID:3337398
BeatmapSetID:869054

[Difficulty]
HPDrainRate:5
CircleSize:4
OverallDifficulty:7
ApproachRate:8
SliderMultiplier:1.94
SliderTickRate:1

[Events]
//Background and Video events
0,0,"www.pexels.comphotogray-and-black-piano-keys-734918.jpg",0,0
//Break Periods
2,39291,42679
//Storyboard Layer 0 (Background)
//Storyboard Layer 1 (Fail)
//Storyboard Layer 2 (Pass)
//Storyboard Layer 3 (Foreground)
//Storyboard Layer 4 (Overlay)
//Storyboard Sound Samples

[TimingPoints]
2050,517.241379310345,4,2,1,70,1,0
18601,-100,4,2,1,50,0,0
26877,-100,4,2,1,60,0,0
31015,-100,4,2,1,70,0,0
35153,-100,4,2,1,50,0,0
38256,-100,4,2,1,40,0,0
39808,-100,4,2,1,30,0,0
43429,-100,4,2,1,40,0,0
47567,-100,4,2,1,50,0,0
51705,-100,4,2,1,70,0,0
66187,-100,4,2,1,80,0,0
68256,-100,4,2,1,50,0,0
69808,-100,4,2,1,40,0,0
70843,-100,4,2,1,70,0,0
79636,-100,4,2,1,60,0,0
80670,-100,4,2,1,50,0,0
83256,-100,4,2,1,40,0,0
84808,-100,4,2,1,60,0,0
87050,-100,4,2,1,80,0,0
87912,-100,4,2,1,70,0,0
88946,-100,4,2,1,60,0,0
93084,-100,4,2,1,5,0,0

[Colours]
Combo1 : 127,127,127
Combo2 : 212,212,212

[HitObjects]
145,57,2050,6,0,B|114:16|114:16|158:-1,1,97,2|2,0:0|0:0,0:0:0:0:
338,89,2567,1,2,0:0:0:0:
338,89,2653,1,0,0:0:0:0:
338,89,2739,1,0,0:0:0:0:
338,89,2825,2,0,P|329:144|315:204,1,97,0|2,0:0|0:0,0:0:0:0:
218,212,3256,1,0,0:0:0:0:
218,212,3343,1,2,0:0:0:0:
277,352,3601,2,0,L|283:394,4,32.3333333333333,2|0|0|0|0,0:0|0:0|0:0|0:0|0:0,0:0:0:0:
364,300,4118,6,0,L|490:312,1,97,2|0,0:0|0:0,0:0:0:0:
477,136,4550,1,0,0:0:0:0:
477,136,4636,2,0,L|536:122,1,32.3333333333333,2|0,0:0|0:0,0:0:0:0:
443,41,4894,2,0,B|394:26|394:26|355:56,1,97,0|2,0:0|0:0,0:0:0:0:
322,141,5325,1,0,0:0:0:0:
322,141,5412,2,0,L|330:191,1,32.3333333333333
390,261,5670,2,0,L|442:266,4,32.3333333333333,2|0|2|0|0,0:0|0:0|0:0|0:0|0:0,0:0:0:0:
279,265,6187,6,0,B|258:296|258:296|279:376,1,97,2|2,0:0|0:0,0:0:0:0:
168,186,6705,1,2,0:0:0:0:
168,186,6791,1,0,0:0:0:0:
168,186,6877,1,0,0:0:0:0:
168,186,6963,2,0,P|113:195|53:209,1,97,0|2,0:0|0:0,0:0:0:0:
0,105,7394,1,0,0:0:0:0:
0,105,7481,1,2,0:0:0:0:
160,32,7739,2,0,L|154:-10,4,32.3333333333333,2|0|0|0|0,0:0|0:0|0:0|0:0|0:0,0:0:0:0:
229,96,8256,6,0,B|276:81|276:81|340:116,1,97,2|0,0:0|0:0,0:0:0:0:
298,277,8774,2,0,B|344:292|344:292|409:257,1,97,2|0,0:0|0:0,0:0:0:0:
502,183,9291,5,2,0:0:0:0:
481,89,9463,5,0,0:0:0:0:
391,52,9636,5,0,0:0:0:0:
397,166,9808,5,2,0:0:0:0:
376,260,9981,5,0,0:0:0:0:
286,297,10153,5,0,0:0:0:0:
171,250,10325,6,0,B|201:209|201:209|157:192,1,97,2|2,0:0|0:0,0:0:0:0:
0,126,10843,1,2,0:0:0:0:
0,126,10929,1,0,0:0:0:0:
0,126,11015,1,0,0:0:0:0:
0,126,11101,2,0,P|9:71|23:11,1,97,0|2,0:0|0:0,0:0:0:0:
121,0,11532,1,0,0:0:0:0:
121,0,11618,1,2,0:0:0:0:
278,113,11877,2,0,L|332:102,4,32.3333333333333,2|0|0|0|0,0:0|0:0|0:0|0:0|0:0,0:0:0:0:
244,209,12394,6,0,L|370:197,1,97,2|0,0:0|0:0,0:0:0:0:
427,156,12825,1,0,0:0:0:0:
427,156,12912,1,2,0:0:0:0:
368,292,13084,1,0,0:0:0:0:
368,292,13170,2,0,B|361:341|361:341|383:383,1,97,0|2,0:0|0:0,0:0:0:0:
480,384,13601,1,0,0:0:0:0:
480,384,13687,1,0,0:0:0:0:
321,184,13946,2,0,L|279:181,4,32.3333333333333,2|0|0|0|0,0:0|0:0|0:0|0:0|0:0,0:0:0:0:
409,147,14463,6,0,B|439:106|439:106|395:89,1,97,2|2,0:0|0:0,0:0:0:0:
234,84,14981,1,2,0:0:0:0:
234,84,15067,1,0,0:0:0:0:
234,84,15153,1,0,0:0:0:0:
234,84,15239,2,0,P|243:139|257:199,1,97,0|2,0:0|0:0,0:0:0:0:
196,315,15670,1,0,0:0:0:0:
196,315,15756,1,2,0:0:0:0:
33,132,16015,2,0,L|-11:140,4,32.3333333333333,2|0|0|0|0,0:0|0:0|0:0|0:0|0:0,0:0:0:0:
138,124,16532,6,0,L|150:-2,1,97,2|0,0:0|0:0,0:0:0:0:
328,129,17050,2,0,B|373:148|373:148|423:121,1,97,0|2,0:0|0:0,0:0:0:0:
369,45,17481,1,0,0:0:0:0:
369,45,17567,2,0,L|315:40,1,32.3333333333333
237,0,17825,1,0,0:0:0:0:
151,60,17998,1,0,0:0:0:0:
151,60,18084,2,0,L|109:57,4,32.3333333333333,2|0|0|2|0,0:0|0:0|0:0|0:0|0:0,0:0:0:0:
152,159,18601,6,0,P|182:217|172:272,1,97,2|0,0:0|0:0,0:0:0:0:
250,351,19118,2,0,L|244:399,2,32.3333333333333,2|0|0,0:0|0:0|0:0,0:0:0:0:
288,322,19377,1,0,0:0:0:0:
446,302,19636,2,0,L|458:356,2,32.3333333333333,2|0|0,0:0|0:0|0:0,0:0:0:0:
475,260,19894,1,0,0:0:0:0:
401,145,20153,1,2,0:0:0:0:
401,145,20239,1,0,0:0:0:0:
401,145,20325,1,0,0:0:0:0:
401,145,20412,1,0,0:0:0:0:
258,186,20670,6,0,L|148:194,1,97,2|0,0:0|0:0,0:0:0:0:
16,220,21187,2,0,B|66:231|66:231|98:329|98:329|156:344,1,194,2|2,0:0|0:0,0:0:0:0:
280,363,21963,1,0,0:0:0:0:
442,214,22222,5,2,0:0:0:0:
442,214,22308,1,0,0:0:0:0:
442,214,22394,1,0,0:0:0:0:
442,214,22481,2,0,L|454:164,1,32.3333333333333,2|0,0:0|0:0,0:0:0:0:
355,117,22739,1,2,0:0:0:0:
355,117,22825,2,0,L|339:-1,1,97
253,64,23256,6,0,L|259:112,2,32.3333333333333,2|0|0,0:0|0:0|0:0,0:0:0:0:
217,25,23515,1,0,0:0:0:0:
174,179,23774,2,0,L|162:233,2,32.3333333333333,2|0|0,0:0|0:0|0:0,0:0:0:0:
143,135,24032,1,0,0:0:0:0:
287,198,24291,1,2,0:0:0:0:
287,198,24377,1,0,0:0:0:0:
287,198,24463,1,0,0:0:0:0:
287,198,24550,1,0,0:0:0:0:
339,337,24808,6,0,L|233:368,1,97,2|2,0:0|0:0,0:0:0:0:
98,366,25325,2,0,B|83:331|83:331|124:271,1,97,2|2,0:0|0:0,0:0:0:0:
249,232,25843,2,0,L|228:159,1,64.6666666666667,2|0,0:0|0:0,0:0:0:0:
203,136,26101,1,2,0:0:0:0:
342,83,26360,2,0,B|357:48|357:48|316:-12,1,97,2|2,0:0|0:0,0:0:0:0:
181,8,26877,5,2,0:0:0:0:
181,8,26963,2,0,L|95:-3,1,64.6666666666667,0|2,0:0|0:0,0:0:0:0:
0,133,27394,1,2,0:0:0:0:
168,193,27653,1,0,0:0:0:0:
84,342,27912,5,2,0:0:0:0:
84,342,27998,2,0,L|170:331,1,64.6666666666667,0|2,0:0|0:0,0:0:0:0:
261,224,28429,1,2,0:0:0:0:
101,134,28687,1,0,0:0:0:0:
244,40,28946,6,0,L|328:46,1,64.6666666666667,2|0,0:0|0:0,0:0:0:0:
352,22,29205,1,2,0:0:0:0:
438,93,29377,1,0,0:0:0:0:
438,93,29463,2,0,B|459:142|459:142|449:203,1,97,2|2,0:0|0:0,0:0:0:0:
322,361,29981,6,0,L|237:354,1,64.6666666666667,2|0,0:0|0:0,0:0:0:0:
219,318,30239,1,2,0:0:0:0:
119,365,30412,1,0,0:0:0:0:
119,365,30498,2,0,B|96:321|96:321|117:252,1,97,2|2,0:0|0:0,0:0:0:0:
141,100,31015,5,2,0:0:0:0:
236,132,31187,1,0,0:0:0:0:
236,132,31274,1,0,0:0:0:0:
333,165,31446,1,0,0:0:0:0:
333,165,31532,2,0,L|438:143,1,97,2|0,0:0|0:0,0:0:0:0:
285,262,32050,5,2,0:0:0:0:
190,302,32222,1,0,0:0:0:0:
190,302,32308,1,0,0:0:0:0:
94,338,32481,1,0,0:0:0:0:
94,338,32567,2,0,L|-20:312,1,97,2|0,0:0|0:0,0:0:0:0:
98,121,33084,5,2,0:0:0:0:
193,81,33256,1,0,0:0:0:0:
193,81,33343,1,0,0:0:0:0:
289,45,33515,1,0,0:0:0:0:
289,45,33601,2,0,L|394:67,1,97,2|0,0:0|0:0,0:0:0:0:
512,180,34118,5,2,0:0:0:0:
348,228,34377,1,0,0:0:0:0:
204,272,34636,1,2,0:0:0:0:
204,272,34722,1,0,0:0:0:0:
204,272,34808,1,0,0:0:0:0:
204,272,34894,1,2,0:0:0:0:
256,192,35153,12,2,36705,0:0:0:0:
256,192,37222,12,2,38774,0:0:0:0:
178,303,43429,6,0,P|231:268|300:280,1,129.333333333333,2|0,0:0|0:0,0:0:0:0:
389,230,43860,1,0,0:0:0:0:
389,230,43946,2,0,L|411:104,1,97,2|0,0:0|0:0,0:0:0:0:
269,185,44463,6,0,P|233:161|143:180,1,129.333333333333,2|0,0:0|0:0,0:0:0:0:
70,123,44894,1,0,0:0:0:0:
70,123,44981,2,0,L|48:-3,1,97,2|0,0:0|0:0,0:0:0:0:
226,70,45498,6,0,B|277:57|277:57|329:81,1,97
384,224,46015,1,2,0:0:0:0:
384,224,46101,1,0,0:0:0:0:
384,224,46187,1,0,0:0:0:0:
384,224,46274,1,0,0:0:0:0:
221,384,46532,1,2,0:0:0:0:
221,384,46618,1,0,0:0:0:0:
116,349,46791,1,2,0:0:0:0:
116,349,46877,1,0,0:0:0:0:
116,349,46963,1,0,0:0:0:0:
116,349,47050,2,0,L|88:239,1,97,2|0,0:0|0:0,0:0:0:0:
56,232,47394,1,0,0:0:0:0:
118,143,47567,6,0,L|108:107,3,32.3333333333333,2|0|0|2,0:0|0:0|0:0|0:0,0:0:0:0:
249,32,48084,1,2,0:0:0:0:
249,32,48170,1,0,0:0:0:0:
249,32,48256,1,0,0:0:0:0:
249,32,48343,1,2,0:0:0:0:
306,186,48601,6,0,L|296:222,3,32.3333333333333,2|0|0|2,0:0|0:0|0:0|0:0,0:0:0:0:
476,136,49118,1,2,0:0:0:0:
476,136,49205,1,0,0:0:0:0:
476,136,49291,1,0,0:0:0:0:
476,136,49377,1,2,0:0:0:0:
453,296,49636,5,2,0:0:0:0:
453,296,49722,1,0,0:0:0:0:
453,296,49808,1,0,0:0:0:0:
453,296,49894,1,2,0:0:0:0:
299,356,50153,5,2,0:0:0:0:
299,356,50239,1,0,0:0:0:0:
299,356,50325,1,0,0:0:0:0:
299,356,50412,1,2,0:0:0:0:
148,280,50670,5,2,0:0:0:0:
148,280,50756,1,0,0:0:0:0:
148,280,50843,1,0,0:0:0:0:
148,280,50929,1,2,0:0:0:0:
0,208,51187,2,0,P|33:159|87:144,1,97,2|2,0:0|0:0,0:0:0:0:
271,101,51705,6,0,B|312:70|312:70|329:114,1,97,2|2,0:0|0:0,0:0:0:0:
411,291,52222,1,2,0:0:0:0:
411,291,52308,1,0,0:0:0:0:
411,291,52394,1,0,0:0:0:0:
411,291,52481,2,0,P|356:282|296:268,1,97,0|2,0:0|0:0,0:0:0:0:
241,310,52912,1,0,0:0:0:0:
241,310,52998,1,2,0:0:0:0:
67,206,53256,2,0,L|25:212,4,32.3333333333333,2|0|0|0|0,0:0|0:0|0:0|0:0|0:0,0:0:0:0:
103,124,53774,6,0,L|-23:112,1,97,2|0,0:0|0:0,0:0:0:0:
132,38,54205,1,0,0:0:0:0:
132,38,54291,2,0,L|191:24,1,32.3333333333333,2|0,0:0|0:0,0:0:0:0:
237,89,54550,2,0,B|286:74|286:74|325:104,1,97,0|2,0:0|0:0,0:0:0:0:
277,187,54981,1,0,0:0:0:0:
277,187,55067,2,0,L|285:237,1,32.3333333333333
411,149,55325,2,0,L|416:97,4,32.3333333333333,2|0|0|0|0,0:0|0:0|0:0|0:0|0:0,0:0:0:0:
464,280,55843,6,0,B|433:259|433:259|353:280,1,97,2|2,0:0|0:0,0:0:0:0:
180,230,56360,1,2,0:0:0:0:
180,230,56446,1,0,0:0:0:0:
180,230,56532,1,0,0:0:0:0:
180,230,56618,2,0,P|189:175|203:115,1,97,0|2,0:0|0:0,0:0:0:0:
273,45,57050,1,0,0:0:0:0:
273,45,57136,1,2,0:0:0:0:
444,183,57394,2,0,L|486:189,4,32.3333333333333,2|0|0|0|0,0:0|0:0|0:0|0:0|0:0,0:0:0:0:
353,220,57912,6,0,P|311:277|307:322,1,97,2|0,0:0|0:0,0:0:0:0:
142,274,58429,1,2,0:0:0:0:
142,274,58515,2,0,P|100:217|96:197,1,64.6666666666667
205,124,58946,6,0,P|213:55|203:9,1,97,2|0,0:0|0:0,0:0:0:0:
355,71,59463,1,2,0:0:0:0:
355,71,59550,2,0,P|347:140|351:158,1,64.6666666666667
372,274,59981,5,2,0:0:0:0:
296,336,60153,1,0,0:0:0:0:
296,336,60239,2,0,L|247:341,1,32.3333333333333,2|0,0:0|0:0,0:0:0:0:
176,297,60498,2,0,B|133:268|133:268|169:225,1,97,2|2,0:0|0:0,0:0:0:0:
175,65,61015,6,0,L|257:39,1,64.6666666666667,2|0,0:0|0:0,0:0:0:0:
335,35,61274,1,2,0:0:0:0:
335,35,61360,1,0,0:0:0:0:
335,35,61446,1,0,0:0:0:0:
335,35,61532,2,0,B|377:63|377:63|341:106,1,97,2|2,0:0|0:0,0:0:0:0:
392,238,62050,5,2,0:0:0:0:
331,317,62222,1,0,0:0:0:0:
331,317,62308,2,0,L|285:321,1,32.3333333333333,2|0,0:0|0:0,0:0:0:0:
229,275,62567,1,2,0:0:0:0:
29,357,62825,1,2,0:0:0:0:
229,275,63084,6,0,L|237:195,1,64.6666666666667,2|0,0:0|0:0,0:0:0:0:
196,141,63343,1,2,0:0:0:0:
196,141,63429,1,0,0:0:0:0:
196,141,63515,1,0,0:0:0:0:
196,141,63601,1,2,0:0:0:0:
379,45,63860,1,2,0:0:0:0:
193,136,64118,5,2,0:0:0:0:
193,136,64205,2,0,L|117:130,1,64.6666666666667,0|2,0:0|0:0,0:0:0:0:
0,291,64636,2,0,P|52:288|107:323,1,97,2|2,0:0|0:0,0:0:0:0:
290,384,65153,5,2,0:0:0:0:
290,384,65239,2,0,L|284:307,1,64.6666666666667,0|2,0:0|0:0,0:0:0:0:
400,138,65670,2,0,P|452:140|507:105,1,97,2|2,0:0|0:0,0:0:0:0:
306,76,66187,5,2,0:0:0:0:
234,10,66360,5,0,0:0:0:0:
144,45,66532,5,0,0:0:0:0:
123,152,66705,5,2,0:0:0:0:
213,117,66877,5,0,0:0:0:0:
285,183,67050,5,0,0:0:0:0:
267,288,67222,5,2,0:0:0:0:
195,222,67394,5,0,0:0:0:0:
105,257,67567,5,0,0:0:0:0:
65,343,67739,6,0,L|-7:333,2,64.6666666666667,2|2|0,0:0|0:0|0:0,0:0:0:0:
195,384,68256,6,0,P|257:377|329:344,1,129.333333333333,2|0,0:0|0:0,0:0:0:0:
384,259,68774,2,0,P|324:234|249:173,1,129.333333333333
224,113,69291,5,2,0:0:0:0:
5,19,69808,6,0,B|37:139,1,97,2|0,0:0|0:0,0:0:0:0:
105,158,70196,1,0,0:0:0:0:
132,166,70325,2,0,L|185:152,1,48.5,2|0,0:0|0:0,0:0:0:0:
250,76,70584,1,0,0:0:0:0:
474,241,70843,6,0,L|460:125,1,97,2|0,0:0|0:0,0:0:0:0:
294,348,71360,6,0,L|304:295,3,32.3333333333333,2|0|0|0,0:0|0:0|0:0|0:0,0:0:0:0:
268,154,71878,1,2,2:0:0:0:
268,154,71964,1,0,2:0:0:0:
268,154,72050,1,0,2:0:0:0:
268,154,72136,1,0,2:0:0:0:
453,186,72395,6,0,L|442:65,1,97,2|0,0:0|0:0,0:0:0:0:
354,19,72826,1,0,0:0:0:0:
354,19,72912,2,0,L|244:27,1,97,2|0,0:0|0:0,0:0:0:0:
79,35,73429,6,0,L|69:131,1,97,2|0,0:0|0:0,0:0:0:0:
163,190,73860,1,0,0:0:0:0:
163,190,73947,1,2,0:0:0:0:
260,236,74119,5,0,0:0:0:0:
260,236,74205,2,0,B|257:241|263:233|267:196,2,32.3333333333333,2|0|0,0:0|0:0|0:0,0:0:0:0:
228,257,74464,2,0,P|198:315|208:370,1,97,2|2,0:0|0:0,0:0:0:0:
445,346,74981,2,0,L|451:306,3,32.3333333333333,2|0|0|0,0:0|0:0|0:0|0:0,0:0:0:0:
358,166,75498,1,2,0:0:0:0:
358,166,75585,1,0,0:0:0:0:
358,166,75671,1,0,0:0:0:0:
358,166,75757,1,0,0:0:0:0:
186,225,76016,6,0,L|197:346,1,97,2|0,0:0|0:0,0:0:0:0:
416,349,76533,2,0,L|526:341,1,97,2|0,0:0|0:0,0:0:0:0:
338,307,76964,1,0,0:0:0:0:
338,307,77050,2,0,L|289:207,1,97,2|2,0:0|0:0,0:0:0:0:
193,48,77567,6,0,L|303:56,1,97,2|2,0:0|0:0,0:0:0:0:
396,12,77998,1,0,0:0:0:0:
396,12,78085,1,2,0:0:0:0:
396,12,78171,1,0,0:0:0:0:
396,12,78257,1,0,0:0:0:0:
396,12,78343,1,2,0:0:0:0:
508,187,78602,1,2,0:0:0:0:
423,202,78774,5,0,0:0:0:0:
337,216,78947,5,0,0:0:0:0:
392,289,79119,5,2,0:0:0:0:
307,304,79292,5,0,0:0:0:0:
307,304,79378,1,2,0:0:0:0:
307,304,79464,1,0,0:0:0:0:
225,311,79636,6,0,P|206:315|161:325,2,64.6666666666667,2|0|0,0:0|0:0|0:3,0:0:0:0:
125,230,80154,2,0,P|106:226|61:216,2,64.6666666666667,2|0|0,0:0|0:0|0:3,0:0:0:0:
126,101,80671,5,2,0:0:0:0:
213,77,80843,5,2,0:0:0:0:
291,119,81016,5,2,0:0:0:0:
373,77,81188,6,0,P|379:46|388:15,2,64.6666666666667,2|2|2,0:0|0:0|0:0,0:0:0:0:
457,130,81705,5,2,0:0:0:0:
380,173,81878,5,0,0:0:0:0:
286,147,82050,5,0,0:0:0:0:
209,197,82223,5,2,0:0:0:0:
120,160,82395,5,0,0:0:0:0:
41,210,82567,5,0,0:0:0:0:
41,210,82740,5,2,0:0:0:0:
439,72,83257,6,0,B|405:36|405:36|332:44,1,97,2|2,0:0|0:0,0:0:0:0:
298,200,83774,2,0,B|332:236|332:236|405:228,1,97,2|2,0:0|0:0,0:0:0:0:
273,383,84292,2,0,L|382:354,1,97,2|2,0:0|0:0,0:0:0:0:
476,241,84809,6,0,P|503:204|488:134,1,97,2|2,0:0|0:0,0:0:0:0:
367,33,85326,1,2,0:0:0:0:
367,33,85412,1,0,0:0:0:0:
367,33,85498,1,0,0:0:0:0:
367,33,85585,1,0,0:0:0:0:
265,192,85843,6,0,P|292:229|277:299,1,97,2|2,0:0|0:0,0:0:0:0:
73,384,86360,1,2,0:0:0:0:
73,384,86447,1,0,0:0:0:0:
73,384,86533,1,0,0:0:0:0:
73,384,86619,1,2,0:0:0:0:
130,181,86878,5,0,0:0:0:0:
286,103,87050,5,2,0:0:0:0:
286,103,87136,1,0,0:0:0:0:
286,103,87223,1,0,0:0:0:0:
286,103,87309,2,0,L|298:48,2,32.3333333333333,2|0|0,0:0|0:0|0:0,0:0:0:0:
373,135,87567,5,2,0:0:0:0:
373,135,87654,1,0,0:0:0:0:
373,135,87740,1,0,0:0:0:0:
373,135,87826,2,0,L|381:172,1,32.3333333333333,2|2,0:0|0:0,0:0:0:0:
164,346,88429,5,2,0:0:0:0:
164,346,88515,2,0,P|289:371|324:380,1,161.666666666667,0|2,0:0|0:0,0:0:0:0:
256,192,89032,12,0,93084,0:0:0:0:
