osu file format v14

[General]
AudioFilename: audio.mp3
AudioLeadIn: 0
PreviewTime: 51662
Countdown: 0
SampleSet: Soft
StackLeniency: 0.2
Mode: 0
LetterboxInBreaks: 0
WidescreenStoryboard: 1

[Editor]
DistanceSpacing: 1.5
BeatDivisor: 6
GridSize: 8
TimelineZoom: 2

[Metadata]
Title:Etude Op. 10, No. 5
TitleUnicode:Étude Op. 10, No. 5
Artist:Frederic Chopin
ArtistUnicode:Frédéric Chopin
Creator:Riana
Version:Hard
Source:
Tags:black keys classic classical instrumental piano g-flat major len fast
BeatmapID:3318328
BeatmapSetID:869054

[Difficulty]
HPDrainRate:5
CircleSize:4
OverallDifficulty:6
ApproachRate:7
SliderMultiplier:1.64
SliderTickRate:1

[Events]
//Background and Video events
0,0,"www.pexels.comphotogray-and-black-piano-keys-734918.jpg",0,0
//Break Periods
2,39291,42529
//Storyboard Layer 0 (Background)
//Storyboard Layer 1 (Fail)
//Storyboard Layer 2 (Pass)
//Storyboard Layer 3 (Foreground)
//Storyboard Layer 4 (Overlay)
//Storyboard Sound Samples

[TimingPoints]
2050,517.241379310345,4,2,1,70,1,0
18601,-100,4,2,1,50,0,0
26877,-100,4,2,1,60,0,0
31015,-100,4,2,1,70,0,0
35153,-100,4,2,1,50,0,0
38256,-100,4,2,1,40,0,0
39808,-100,4,2,1,30,0,0
43429,-100,4,2,1,40,0,0
47567,-100,4,2,1,50,0,0
51705,-100,4,2,1,70,0,0
66187,-100,4,2,1,80,0,0
68256,-100,4,2,1,50,0,0
69808,-100,4,2,1,40,0,0
70843,-100,4,2,1,70,0,0
79636,-100,4,2,1,60,0,0
80670,-100,4,2,1,50,0,0
83256,-100,4,2,1,40,0,0
84808,-100,4,2,1,60,0,0
87050,-100,4,2,1,80,0,0
87912,-100,4,2,1,70,0,0
88946,-100,4,2,1,60,0,0
93084,-100,4,2,1,5,0,0

[Colours]
Combo1 : 127,127,127
Combo2 : 212,212,212

[HitObjects]
199,300,2050,6,0,B|173:334|173:334|210:349,1,82,2|2,0:0|0:0,0:0:0:0:
330,324,2567,2,0,L|323:367,2,27.3333333333333,2|0|0,0:0|0:0|0:0,0:0:0:0:
360,296,2825,2,0,P|352:249|340:198,1,82,0|2,0:0|0:0,0:0:0:0:
255,133,3343,1,2,0:0:0:0:
343,49,3601,2,0,L|348:14,3,27.3333333333333,2|0|0|0,0:0|0:0|0:0|0:0,0:0:0:0:
458,74,4118,6,0,L|437:171,1,82,2|0,0:0|0:0,0:0:0:0:
338,224,4636,1,2,0:0:0:0:
231,282,4894,2,0,B|189:295|189:295|156:270,1,82,0|2,0:0|0:0,0:0:0:0:
74,184,5412,1,0,0:0:0:0:
121,73,5670,2,0,L|113:42,5,27.3333333333333,2|0|2|0|0|0,0:0|0:0|0:0|0:0|0:0|0:0,0:0:0:0:
139,15,6187,6,0,B|165:33|165:33|233:15,1,82,2|2,0:0|0:0,0:0:0:0:
328,82,6705,2,0,L|319:107,2,27.3333333333333,2|0|0,0:0|0:0|0:0,0:0:0:0:
362,61,6963,2,0,P|408:68|459:80,1,82,0|2,0:0|0:0,0:0:0:0:
484,190,7481,1,2,0:0:0:0:
390,269,7739,2,0,L|385:304,3,27.3333333333333,2|0|0|0,0:0|0:0|0:0|0:0,0:0:0:0:
287,222,8256,6,0,B|247:234|247:234|193:205,1,82,2|0,0:0|0:0,0:0:0:0:
88,200,8774,2,0,B|49:188|49:188|-6:217,1,82,2|0,0:0|0:0,0:0:0:0:
114,278,9291,6,0,L|175:289,2,54.6666666666667,2|0|0,0:0|0:0|0:0,0:0:0:0:
167,208,9808,6,0,L|228:197,2,54.6666666666667,2|0|0,0:0|0:0|0:0,0:0:0:0:
136,134,10325,6,0,B|172:114|172:114|232:124,1,82,2|2,0:0|0:0,0:0:0:0:
335,154,10843,2,0,L|379:149,2,27.3333333333333,2|0|0,0:0|0:0|0:0,0:0:0:0:
316,190,11101,2,0,P|308:236|297:287,1,82,0|2,0:0|0:0,0:0:0:0:
423,293,11618,1,2,0:0:0:0:
443,179,11877,2,0,L|488:170,3,27.3333333333333,2|0|0|0,0:0|0:0|0:0|0:0,0:0:0:0:
377,93,12394,6,0,L|271:103,1,82,2|0,0:0|0:0,0:0:0:0:
288,227,12912,1,2,0:0:0:0:
404,270,13170,2,0,B|398:312|398:312|417:347,1,82,0|2,0:0|0:0,0:0:0:0:
298,379,13687,1,0,0:0:0:0:
196,307,13946,2,0,L|160:309,3,27.3333333333333,2|0|0|0,0:0|0:0|0:0|0:0,0:0:0:0:
260,226,14463,6,0,B|285:192|285:192|248:177,1,82,2|2,0:0|0:0,0:0:0:0:
128,205,14981,2,0,L|91:217,2,27.3333333333333,2|0|0,0:0|0:0|0:0,0:0:0:0:
146,168,15239,2,0,P|154:121|165:70,1,82,0|2,0:0|0:0,0:0:0:0:
255,12,15756,1,2,0:0:0:0:
372,49,16015,2,0,L|409:42,3,27.3333333333333,2|0|0|0,0:0|0:0|0:0|0:0,0:0:0:0:
364,164,16532,6,0,L|467:174,1,82,2|0,0:0|0:0,0:0:0:0:
466,293,17050,2,0,B|428:277|428:277|385:299,1,82,0|2,0:0|0:0,0:0:0:0:
282,356,17567,1,0,0:0:0:0:
216,251,17825,1,0,0:0:0:0:
295,157,18084,2,0,L|330:159,3,27.3333333333333,2|0|0|2,0:0|0:0|0:0|0:0,0:0:0:0:
231,72,18601,6,0,P|182:47|136:55,1,82,2|0,0:0|0:0,0:0:0:0:
82,145,19118,2,0,L|49:154,3,27.3333333333333,2|0|0|0,0:0|0:0|0:0|0:0,0:0:0:0:
127,256,19636,1,2,0:0:0:0:
230,320,19894,1,0,0:0:0:0:
349,325,20153,2,0,L|347:372,3,27.3333333333333,2|0|0|0,0:0|0:0|0:0|0:0,0:0:0:0:
293,224,20670,6,0,L|200:217,1,82,2|0,0:0|0:0,0:0:0:0:
90,190,21187,2,0,B|132:181|132:181|159:98|159:98|208:85,1,164,2|2,0:0|0:0,0:0:0:0:
295,14,21963,1,0,0:0:0:0:
400,76,22222,2,0,L|449:93,2,27.3333333333333,2|0|0,0:0|0:0|0:0,0:0:0:0:
365,98,22481,1,2,0:0:0:0:
390,220,22739,1,2,0:0:0:0:
390,220,22825,2,0,L|377:320,1,82
309,346,23256,6,0,P|238:318|218:326,1,82,2|0,0:0|0:0,0:0:0:0:
123,270,23774,2,0,P|170:211|192:208,1,82,2|0,0:0|0:0,0:0:0:0:
155,81,24291,1,2,0:0:0:0:
155,81,24377,1,0,0:0:0:0:
155,81,24463,1,0,0:0:0:0:
155,81,24550,1,0,0:0:0:0:
272,36,24808,6,0,L|362:10,1,82,2|2,0:0|0:0,0:0:0:0:
476,11,25325,2,0,B|489:41|489:41|454:92,1,82,2|2,0:0|0:0,0:0:0:0:
348,125,25843,2,0,L|366:186,1,54.6666666666667,2|0,0:0|0:0,0:0:0:0:
387,212,26101,1,2,0:0:0:0:
319,314,26360,2,0,B|332:343|332:343|297:394,1,82,2|2,0:0|0:0,0:0:0:0:
192,348,26877,5,2,0:0:0:0:
192,348,26963,2,0,L|119:357,1,54.6666666666667,0|2,0:0|0:0,0:0:0:0:
54,264,27394,1,2,0:0:0:0:
163,209,27653,1,0,0:0:0:0:
100,103,27912,5,2,0:0:0:0:
100,103,27998,2,0,L|173:112,1,54.6666666666667,0|2,0:0|0:0,0:0:0:0:
269,67,28429,1,2,0:0:0:0:
365,143,28687,1,0,0:0:0:0:
381,263,28946,6,0,L|473:274,1,82,2|2,0:0|0:0,0:0:0:0:
491,151,29463,2,0,B|508:110|508:110|500:58,1,82,2|2,0:0|0:0,0:0:0:0:
382,99,29981,6,0,L|279:110,1,82,2|2,0:0|0:0,0:0:0:0:
187,59,30498,2,0,B|168:96|168:96|175:158,1,82,2|2,0:0|0:0,0:0:0:0:
202,255,31015,6,0,B|175:264|175:264|146:253,2,54.6666666666667,2|0|0,0:0|0:0|0:0,0:0:0:0:
240,232,31446,1,0,0:0:0:0:
240,232,31532,2,0,L|329:250,1,82,2|0,0:0|0:0,0:0:0:0:
394,354,32050,6,0,B|421:361|421:361|448:353,2,54.6666666666667,2|0|0,0:0|0:0|0:0,0:0:0:0:
347,345,32481,1,0,0:0:0:0:
347,345,32567,2,0,L|258:364,1,82,2|0,0:0|0:0,0:0:0:0:
176,278,33084,6,0,B|203:270|203:270|231:281,2,54.6666666666667,2|0|0,0:0|0:0|0:0,0:0:0:0:
143,285,33515,1,0,0:0:0:0:
143,285,33601,2,0,L|54:266,1,82,2|0,0:0|0:0,0:0:0:0:
51,153,34118,6,0,B|24:161|24:161|-5:150,2,54.6666666666667,2|0|0,0:0|0:0|0:0,0:0:0:0:
100,87,34636,1,2,0:0:0:0:
208,45,34894,1,2,0:0:0:0:
256,192,35153,12,2,36705,0:0:0:0:
256,192,37222,12,2,38774,0:0:0:0:
174,65,43429,6,0,P|218:94|277:84,1,109.333333333333,2|0,0:0|0:0,0:0:0:0:
343,141,43946,2,0,L|361:248,1,82,2|0,0:0|0:0,0:0:0:0:
273,312,44463,6,0,P|243:333|167:317,1,109.333333333333,2|0,0:0|0:0,0:0:0:0:
100,289,44981,2,0,L|82:395,1,82,2|0,0:0|0:0,0:0:0:0:
14,274,45498,6,0,B|3:231|3:231|23:187,1,82
128,128,46015,1,2,0:0:0:0:
239,180,46274,1,0,0:0:0:0:
347,237,46532,2,0,B|390:226|390:226|434:247,1,82,2|2,0:0|0:0,0:0:0:0:
499,335,47050,2,0,L|515:235,1,82,2|0,0:0|0:0,0:0:0:0:
502,214,47394,1,0,0:0:0:0:
450,152,47567,6,0,L|436:57,1,82,2|2,0:0|0:0,0:0:0:0:
332,13,48084,2,0,L|376:29,3,27.3333333333333,2|0|0|2,0:0|0:0|0:0|0:0,0:0:0:0:
242,74,48601,6,0,B|217:106|217:106|232:145,1,82,2|2,0:0|0:0,0:0:0:0:
147,155,49032,1,0,0:0:0:0:
147,155,49118,2,0,L|109:146,3,27.3333333333333,2|0|0|2,0:0|0:0|0:0|0:0,0:0:0:0:
161,262,49636,6,0,L|170:300,3,27.3333333333333,2|0|0|2,0:0|0:0|0:0|0:0,0:0:0:0:
286,273,50153,2,0,L|278:311,3,27.3333333333333,2|0|0|2,0:0|0:0|0:0|0:0,0:0:0:0:
383,233,50670,2,0,L|391:195,3,27.3333333333333,2|0|0|2,0:0|0:0|0:0|0:0,0:0:0:0:
306,115,51187,2,0,P|278:74|232:61,1,82,2|2,0:0|0:0,0:0:0:0:
124,128,51705,6,0,B|89:101|89:101|75:139,1,82,2|2,0:0|0:0,0:0:0:0:
46,255,52222,2,0,L|13:260,2,27.3333333333333,2|0|0,0:0|0:0|0:0,0:0:0:0:
77,282,52481,2,0,P|124:290|174:301,1,82,0|2,0:0|0:0,0:0:0:0:
268,243,52998,1,2,0:0:0:0:
276,124,53256,2,0,L|269:87,3,27.3333333333333,2|0|0|0,0:0|0:0|0:0|0:0,0:0:0:0:
370,173,53774,6,0,L|476:183,1,82,2|0,0:0|0:0,0:0:0:0:
491,297,54291,1,2,0:0:0:0:
373,335,54550,2,0,B|332:322|332:322|299:347,1,82,0|2,0:0|0:0,0:0:0:0:
186,299,55067,1,0,0:0:0:0:
89,370,55325,2,0,L|45:366,3,27.3333333333333,2|0|0|0,0:0|0:0|0:0|0:0,0:0:0:0:
62,244,55843,6,0,B|44:218|44:218|62:150,1,82,2|2,0:0|0:0,0:0:0:0:
180,157,56360,2,0,L|189:122,2,27.3333333333333,2|0|0,0:0|0:0|0:0,0:0:0:0:
210,184,56618,2,0,P|218:230|230:281,1,82,0|2,0:0|0:0,0:0:0:0:
318,348,57136,1,2,0:0:0:0:
440,328,57394,2,0,L|475:323,3,27.3333333333333,2|0|0|0,0:0|0:0|0:0|0:0,0:0:0:0:
385,232,57912,6,0,P|350:184|346:146,1,82,2|0,0:0|0:0,0:0:0:0:
246,90,58429,2,0,P|211:138|208:176,1,82,2|0,0:0|0:0,0:0:0:0:
106,226,58946,6,0,P|113:284|105:323,1,82,2|0,0:0|0:0,0:0:0:0:
221,357,59463,2,0,P|214:299|222:260,1,82,2|0,0:0|0:0,0:0:0:0:
328,216,59981,5,2,0:0:0:0:
312,93,60239,1,2,0:0:0:0:
193,39,60498,2,0,B|157:63|157:63|187:99,1,82,2|2,0:0|0:0,0:0:0:0:
117,198,61015,2,0,L|213:219,1,82,2|2,0:0|0:0,0:0:0:0:
271,261,61446,1,0,0:0:0:0:
271,261,61532,2,0,B|307:237|307:237|277:201,1,82,2|2,0:0|0:0,0:0:0:0:
352,109,62050,5,2,0:0:0:0:
456,179,62308,1,2,0:0:0:0:
458,301,62567,1,2,0:0:0:0:
350,360,62825,1,2,0:0:0:0:
239,307,63084,2,0,L|137:317,1,82,2|2,0:0|0:0,0:0:0:0:
84,288,63515,1,0,0:0:0:0:
84,288,63601,2,0,L|63:194,1,82,2|2,0:0|0:0,0:0:0:0:
184,188,64118,5,2,0:0:0:0:
184,188,64205,2,0,L|179:124,1,54.6666666666667,0|2,0:0|0:0,0:0:0:0:
88,50,64636,2,0,P|132:52|179:23,1,82,2|2,0:0|0:0,0:0:0:0:
286,14,65153,5,2,0:0:0:0:
286,14,65239,2,0,L|281:79,1,54.6666666666667,0|2,0:0|0:0,0:0:0:0:
346,173,65670,2,0,P|389:171|436:201,1,82,2|2,0:0|0:0,0:0:0:0:
433,309,66187,5,2,0:0:0:0:
372,365,66360,5,0,0:0:0:0:
296,335,66532,5,0,0:0:0:0:
269,259,66705,6,0,L|208:251,2,54.6666666666667,2|0|0,0:0|0:0|0:0,0:0:0:0:
341,221,67222,5,2,0:0:0:0:
296,155,67394,5,0,0:0:0:0:
216,142,67567,5,0,0:0:0:0:
157,196,67739,6,0,L|96:204,2,54.6666666666667,2|2|0,0:0|0:0|0:0,0:0:0:0:
148,280,68256,6,0,P|201:286|272:305,1,109.333333333333,2|0,0:0|0:0,0:0:0:0:
331,326,68774,2,0,P|280:347|223:393,1,109.333333333333
158,361,69291,1,2,0:0:0:0:
28,204,69808,6,0,B|11:164|11:164|41:101,1,82,2|0,0:0|0:0,0:0:0:0:
99,162,70196,2,0,L|146:155,1,41,0|2,0:0|0:0,0:0:0:0:
262,202,70584,1,0,0:0:0:0:
384,249,70843,6,0,P|410:200|401:154,1,82,2|0,0:0|0:0,0:0:0:0:
326,81,71360,1,2,0:0:0:0:
216,138,71619,1,0,0:0:0:0:
215,252,71878,2,0,L|196:292,3,27.3333333333333,2|0|0|0,2:0|2:0|2:0|2:0,0:0:0:0:
327,295,72395,6,0,L|318:397,1,82,2|0,0:0|0:0,0:0:0:0:
195,381,72912,2,0,L|102:374,1,82,2|0,0:0|0:0,0:0:0:0:
148,257,73429,2,0,L|241:250,1,82,2|0,0:0|0:0,0:0:0:0:
236,127,73947,2,0,L|249:58,1,54.6666666666667,2|0,0:0|0:0,0:0:0:0:
285,47,74205,1,2,0:0:0:0:
378,126,74464,6,0,P|353:175|361:221,1,82,2|2,0:0|0:0,0:0:0:0:
243,255,74981,1,2,0:0:0:0:
148,176,75240,1,0,0:0:0:0:
40,225,75498,2,0,L|7:241,3,27.3333333333333,2|0|0|0,0:0|0:0|0:0|0:0,0:0:0:0:
108,321,76016,6,0,L|202:330,1,82,2|0,0:0|0:0,0:0:0:0:
305,285,76533,2,0,L|319:184,1,82,2|0,0:0|0:0,0:0:0:0:
415,123,77050,2,0,L|516:137,1,82,2|2,0:0|0:0,0:0:0:0:
488,260,77567,2,0,L|413:252,1,54.6666666666667,2|0,0:0|0:0,0:0:0:0:
393,248,77826,1,2,0:0:0:0:
274,209,78085,2,0,L|270:170,3,27.3333333333333,2|0|0|2,0:0|0:0|0:0|0:0,0:0:0:0:
155,151,78602,6,0,L|139:99,2,54.6666666666667,2|0|0,0:0|0:0|0:0,0:0:0:0:
84,185,79119,2,0,L|69:132,1,54.6666666666667,2|0,0:0|0:0,0:0:0:0:
56,90,79378,5,2,0:0:0:0:
156,18,79636,2,0,P|140:15|102:6,2,54.6666666666667,2|0|0,0:0|0:0|0:3,0:0:0:0:
238,10,80154,2,0,L|290:26,1,54.6666666666667,2|0,0:0|0:0,0:0:0:0:
330,14,80412,1,0,0:0:0:0:
320,136,80671,6,0,P|316:151|307:189,2,54.6666666666667,2|2|2,0:0|0:0|0:0,0:0:0:0:
401,144,81188,2,0,P|397:128|389:90,2,54.6666666666667,2|2|2,0:0|0:0|0:0,0:0:0:0:
434,215,81705,5,2,0:0:0:0:
379,276,81878,5,0,0:0:0:0:
307,247,82050,5,0,0:0:0:0:
251,304,82223,6,0,L|176:295,2,54.6666666666667,2|0|0,0:0|0:0|0:0,0:0:0:0:
277,376,82740,5,2,0:0:0:0:
118,335,83257,6,0,B|89:365|89:365|28:359,1,82,2|2,0:0|0:0,0:0:0:0:
65,239,83774,2,0,B|94:209|94:209|155:216,1,82,2|2,0:0|0:0,0:0:0:0:
264,224,84292,2,0,L|240:132,1,82,2|2,0:0|0:0,0:0:0:0:
366,157,84809,6,0,P|398:134|457:147,1,82,2|2,0:0|0:0,0:0:0:0:
474,253,85326,2,0,L|486:289,2,27.3333333333333,2|0|0,0:0|0:0|0:0,0:0:0:0:
435,237,85585,1,0,0:0:0:0:
335,165,85843,2,0,P|358:134|345:75,1,82,2|2,0:0|0:0,0:0:0:0:
235,67,86360,2,0,L|229:33,2,27.3333333333333,2|0|0,0:0|0:0|0:0,0:0:0:0:
203,95,86619,1,2,0:0:0:0:
106,46,86878,1,0,0:0:0:0:
57,111,87050,6,0,L|48:145,10,27.3333333333333,2|0|0|2|0|0|2|0|0|2|2,0:0|0:0|0:0|0:0|0:0|0:0|0:0|0:0|0:0|0:0|0:0,0:0:0:0:
216,304,88429,5,2,0:0:0:0:
216,304,88515,2,0,P|321:325|367:333,1,136.666666666667,0|2,0:0|0:0,0:0:0:0:
256,192,89032,12,0,93084,0:0:0:0:
