osu file format v14

[General]
AudioFilename: audio.mp3
AudioLeadIn: 0
PreviewTime: 51662
Countdown: 0
SampleSet: Soft
StackLeniency: 0.5
Mode: 0
LetterboxInBreaks: 0
WidescreenStoryboard: 1

[Editor]
DistanceSpacing: 1.5
BeatDivisor: 6
GridSize: 8
TimelineZoom: 2.599999

[Metadata]
Title:Etude Op. 10, No. 5
TitleUnicode:Étude Op. 10, No. 5
Artist:Frederic Chopin
ArtistUnicode:Frédéric Chopin
Creator:Riana
Version:Another
Source:
Tags:black keys classic classical instrumental piano g-flat major len fast
BeatmapID:3338851
BeatmapSetID:869054

[Difficulty]
HPDrainRate:6
CircleSize:4
OverallDifficulty:8
ApproachRate:9
SliderMultiplier:1.94
SliderTickRate:1

[Events]
//Background and Video events
0,0,"www.pexels.comphotogray-and-black-piano-keys-734918.jpg",0,0
//Break Periods
2,39291,42829
//Storyboard Layer 0 (Background)
//Storyboard Layer 1 (Fail)
//Storyboard Layer 2 (Pass)
//Storyboard Layer 3 (Foreground)
//Storyboard Layer 4 (Overlay)
//Storyboard Sound Samples

[TimingPoints]
2050,517.241379310345,4,2,1,70,1,0
18601,-100,4,2,1,50,0,0
26877,-100,4,2,1,60,0,0
31015,-100,4,2,1,70,0,0
35153,-100,4,2,1,50,0,0
38256,-100,4,2,1,40,0,0
39808,-100,4,2,1,30,0,0
43429,-100,4,2,1,40,0,0
47567,-100,4,2,1,50,0,0
51705,-100,4,2,1,70,0,0
66187,-100,4,2,1,80,0,0
68256,-100,4,2,1,50,0,0
69808,-100,4,2,1,40,0,0
70843,-100,4,2,1,70,0,0
79636,-100,4,2,1,60,0,0
80670,-100,4,2,1,50,0,0
83256,-100,4,2,1,40,0,0
84808,-100,4,2,1,60,0,0
87050,-100,4,2,1,80,0,0
87912,-100,4,2,1,70,0,0
88946,-100,4,2,1,60,0,0
93084,-100,4,2,1,5,0,0

[Colours]
Combo1 : 127,127,127
Combo2 : 212,212,212

[HitObjects]
211,125,2050,5,2,0:0:0:0:
245,117,2136,1,0,0:0:0:0:
282,109,2222,1,0,0:0:0:0:
316,102,2308,1,2,0:0:0:0:
351,94,2394,1,0,0:0:0:0:
37,58,2567,5,2,0:0:0:0:
37,58,2653,1,0,0:0:0:0:
37,58,2739,1,0,0:0:0:0:
37,58,2825,2,0,P|28:113|14:173,1,97,0|2,0:0|0:0,0:0:0:0:
117,255,3256,1,0,0:0:0:0:
117,255,3343,1,2,0:0:0:0:
123,286,3429,1,0,0:0:0:0:
129,318,3515,1,0,0:0:0:0:
139,352,3601,2,0,L|145:394,5,32.3333333333333,2|0|0|0|0|0,0:0|0:0|0:0|0:0|0:0|0:0,0:0:0:0:
213,315,4118,5,2,0:0:0:0:
221,291,4205,1,0,0:0:0:0:
358,384,4377,1,0,0:0:0:0:
367,345,4463,1,0,0:0:0:0:
396,318,4550,1,0,0:0:0:0:
433,306,4636,2,0,L|443:233,1,64.6666666666667,2|0,0:0|0:0,0:0:0:0:
476,157,4894,2,0,B|427:142|427:142|388:172,1,97,0|2,0:0|0:0,0:0:0:0:
103,139,5325,1,0,0:0:0:0:
103,139,5412,2,0,L|111:189,1,32.3333333333333
203,137,5584,2,0,L|195:187,1,32.3333333333333,0|2,0:0|0:0,0:0:0:0:
117,301,5756,5,0,0:0:0:0:
148,292,5843,1,2,0:0:0:0:
179,283,5929,1,0,0:0:0:0:
210,274,6015,1,0,0:0:0:0:
241,263,6101,1,0,0:0:0:0:
279,265,6187,6,0,B|258:296|258:296|271:334,1,64.6666666666667,2|0,0:0|0:0,0:0:0:0:
353,358,6446,1,2,0:0:0:0:
353,358,6532,2,0,L|406:351,1,32.3333333333333
468,228,6705,1,2,0:0:0:0:
468,228,6791,1,0,0:0:0:0:
468,228,6877,1,0,0:0:0:0:
468,228,6963,2,0,P|413:237|353:251,1,97,0|2,0:0|0:0,0:0:0:0:
213,151,7394,5,0,0:0:0:0:
254,153,7481,1,2,0:0:0:0:
291,136,7567,1,0,0:0:0:0:
317,103,7653,1,0,0:0:0:0:
316,62,7739,2,0,L|310:20,4,32.3333333333333,2|0|0|0|0,0:0|0:0|0:0|0:0|0:0,0:0:0:0:
152,72,8256,1,2,0:0:0:0:
148,56,8343,1,0,0:0:0:0:
86,206,8515,1,0,0:0:0:0:
82,222,8601,1,0,0:0:0:0:
78,239,8687,1,0,0:0:0:0:
74,253,8774,2,0,B|120:268|120:268|185:233,1,97,2|0,0:0|0:0,0:0:0:0:
248,240,9118,5,0,0:0:0:0:
248,240,9205,1,0,0:0:0:0:
248,240,9291,1,2,0:0:0:0:
362,199,9463,1,0,0:0:0:0:
451,294,9636,1,0,0:0:0:0:
489,279,9808,5,2,0:0:0:0:
373,155,9981,1,0,0:0:0:0:
233,202,10153,1,0,0:0:0:0:
80,365,10325,5,2,0:0:0:0:
75,332,10412,1,0,0:0:0:0:
71,300,10498,1,0,0:0:0:0:
66,268,10584,1,2,0:0:0:0:
62,236,10670,1,0,0:0:0:0:
0,145,10843,5,2,0:0:0:0:
0,145,10929,1,0,0:0:0:0:
0,145,11015,1,0,0:0:0:0:
0,145,11101,2,0,P|9:90|23:30,1,97,0|2,0:0|0:0,0:0:0:0:
152,11,11532,1,0,0:0:0:0:
152,11,11618,1,2,0:0:0:0:
181,21,11705,1,0,0:0:0:0:
212,32,11791,1,0,0:0:0:0:
247,40,11877,2,0,L|286:55,5,32.3333333333333,2|0|0|0|0|0,0:0|0:0|0:0|0:0|0:0|0:0,0:0:0:0:
364,16,12394,5,2,0:0:0:0:
372,40,12481,1,0,0:0:0:0:
469,66,12653,1,0,0:0:0:0:
460,105,12739,1,0,0:0:0:0:
431,132,12825,1,0,0:0:0:0:
394,144,12912,2,0,L|384:217,1,64.6666666666667,2|0,0:0|0:0,0:0:0:0:
325,264,13170,2,0,B|276:249|276:249|237:279,1,97,0|2,0:0|0:0,0:0:0:0:
100,123,13601,1,0,0:0:0:0:
100,123,13687,2,0,L|60:154,1,32.3333333333333
151,208,13860,2,0,L|103:226,1,32.3333333333333,0|2,0:0|0:0,0:0:0:0:
0,286,14032,5,0,0:0:0:0:
31,295,14118,1,0,0:0:0:0:
62,304,14205,1,0,0:0:0:0:
93,313,14291,1,0,0:0:0:0:
124,324,14377,1,0,0:0:0:0:
156,334,14463,6,0,B|183:356|183:356|171:393,1,64.6666666666667,2|0,0:0|0:0,0:0:0:0:
260,333,14722,1,2,0:0:0:0:
260,333,14808,1,0,0:0:0:0:
351,139,14981,1,2,0:0:0:0:
351,139,15067,1,0,0:0:0:0:
351,139,15153,1,0,0:0:0:0:
351,139,15239,2,0,P|360:194|374:254,1,97,0|2,0:0|0:0,0:0:0:0:
437,83,15670,5,0,0:0:0:0:
437,83,15756,1,2,0:0:0:0:
275,70,15929,1,0,0:0:0:0:
257,78,16015,1,2,0:0:0:0:
240,86,16101,1,0,0:0:0:0:
222,95,16187,1,0,0:0:0:0:
205,103,16274,1,0,0:0:0:0:
187,112,16360,1,0,0:0:0:0:
75,103,16532,5,2,0:0:0:0:
75,103,16618,1,0,0:0:0:0:
0,243,16791,1,0,0:0:0:0:
15,239,16877,1,0,0:0:0:0:
31,236,16963,1,0,0:0:0:0:
47,233,17050,2,0,B|92:252|92:252|142:225,1,97,0|2,0:0|0:0,0:0:0:0:
298,322,17481,5,0,0:0:0:0:
298,322,17567,1,0,0:0:0:0:
298,322,17653,2,0,L|244:317,1,32.3333333333333
328,229,17825,1,0,0:0:0:0:
328,229,17912,1,0,0:0:0:0:
328,229,17998,2,0,L|286:226,1,32.3333333333333,0|2,0:0|0:0,0:0:0:0:
401,350,18170,6,0,L|400:307,1,32.3333333333333
486,349,18343,2,0,L|487:306,1,32.3333333333333,2|0,0:0|0:0,0:0:0:0:
323,128,18601,5,2,0:0:0:0:
323,128,18687,1,0,0:0:0:0:
344,47,18860,1,0,0:0:0:0:
344,47,18946,1,0,0:0:0:0:
243,180,19118,1,2,0:0:0:0:
247,211,19205,1,0,0:0:0:0:
252,243,19291,1,0,0:0:0:0:
257,275,19377,1,0,0:0:0:0:
144,288,19636,5,2,0:0:0:0:
140,319,19722,1,0,0:0:0:0:
135,351,19808,1,0,0:0:0:0:
130,383,19894,1,0,0:0:0:0:
44,255,20153,1,2,0:0:0:0:
44,255,20239,1,0,0:0:0:0:
44,255,20325,1,0,0:0:0:0:
44,255,20412,1,0,0:0:0:0:
147,146,20670,5,2,0:0:0:0:
181,119,20756,1,0,0:0:0:0:
190,77,20843,1,0,0:0:0:0:
174,38,20929,2,0,L|167:-9,2,32.3333333333333
280,112,21187,1,2,0:0:0:0:
306,108,21274,1,0,0:0:0:0:
333,105,21360,1,0,0:0:0:0:
360,101,21446,1,0,0:0:0:0:
386,98,21532,1,0,0:0:0:0:
190,210,21705,6,0,L|180:260,1,32.3333333333333,2|0,0:0|0:0,0:0:0:0:
268,275,21877,2,0,L|259:325,1,32.3333333333333
347,323,22050,2,0,L|338:373,1,32.3333333333333
442,214,22222,5,2,0:0:0:0:
442,214,22308,1,0,0:0:0:0:
442,214,22394,1,0,0:0:0:0:
442,214,22481,2,0,L|454:164,1,32.3333333333333,2|0,0:0|0:0,0:0:0:0:
277,74,22739,5,2,0:0:0:0:
277,74,22825,1,0,0:0:0:0:
358,53,22998,1,2,0:0:0:0:
358,53,23084,1,0,0:0:0:0:
225,154,23256,1,2,0:0:0:0:
194,150,23343,1,0,0:0:0:0:
162,145,23429,1,0,0:0:0:0:
129,140,23515,1,0,0:0:0:0:
117,253,23774,5,2,0:0:0:0:
86,257,23860,1,0,0:0:0:0:
54,262,23946,1,0,0:0:0:0:
22,267,24032,1,0,0:0:0:0:
149,353,24291,1,2,0:0:0:0:
149,353,24377,1,0,0:0:0:0:
149,353,24463,1,0,0:0:0:0:
149,353,24550,1,0,0:0:0:0:
277,279,24808,5,2,0:0:0:0:
301,271,24894,1,0,0:0:0:0:
323,262,24981,1,0,0:0:0:0:
344,255,25067,2,0,L|348:213,2,32.3333333333333,2|0|0,0:0|0:0|0:0,0:0:0:0:
265,181,25325,2,0,L|269:139,2,32.3333333333333,2|0|0,0:0|0:0|0:0,0:0:0:0:
417,141,25584,2,0,L|421:99,2,32.3333333333333,2|0|0,0:0|0:0|0:0,0:0:0:0:
266,48,25843,5,2,0:0:0:0:
242,56,25929,1,0,0:0:0:0:
220,65,26015,1,0,0:0:0:0:
199,72,26101,2,0,L|195:114,2,32.3333333333333,2|0|0,0:0|0:0|0:0,0:0:0:0:
278,146,26360,2,0,L|274:188,2,32.3333333333333,2|0|0,0:0|0:0|0:0,0:0:0:0:
126,186,26618,2,0,L|122:228,2,32.3333333333333,2|0|0,0:0|0:0|0:0,0:0:0:0:
69,101,26877,5,2,0:0:0:0:
69,101,26963,2,0,L|-17:90,1,64.6666666666667,0|2,0:0|0:0,0:0:0:0:
123,377,27394,5,2,0:0:0:0:
144,340,27481,1,0,0:0:0:0:
183,323,27567,1,0,0:0:0:0:
224,331,27653,2,0,L|271:321,2,32.3333333333333
453,283,27912,5,2,0:0:0:0:
453,283,27998,2,0,L|367:294,1,64.6666666666667,0|2,0:0|0:0,0:0:0:0:
203,101,28429,5,2,0:0:0:0:
224,138,28515,1,0,0:0:0:0:
263,155,28601,1,0,0:0:0:0:
304,147,28687,2,0,L|351:136,2,32.3333333333333
227,255,28946,6,0,L|311:261,1,64.6666666666667,2|0,0:0|0:0,0:0:0:0:
362,302,29205,2,0,L|418:291,1,32.3333333333333,2|0,0:0|0:0,0:0:0:0:
476,236,29377,1,0,0:0:0:0:
476,236,29463,2,0,B|497:285|497:285|487:346,1,97,2|2,0:0|0:0,0:0:0:0:
322,361,29808,5,0,0:0:0:0:
322,361,29894,1,0,0:0:0:0:
322,361,29981,2,0,L|238:355,1,64.6666666666667,2|0,0:0|0:0,0:0:0:0:
187,314,30239,2,0,L|131:325,1,32.3333333333333,2|0,0:0|0:0,0:0:0:0:
73,380,30412,1,0,0:0:0:0:
73,380,30498,2,0,B|52:331|52:331|62:270,1,97,2|2,0:0|0:0,0:0:0:0:
141,100,30843,5,0,0:0:0:0:
141,100,30929,1,0,0:0:0:0:
141,100,31015,2,0,L|127:42,1,32.3333333333333,2|0,0:0|0:0,0:0:0:0:
236,132,31187,1,0,0:0:0:0:
277,120,31274,1,0,0:0:0:0:
317,133,31360,1,0,0:0:0:0:
347,164,31446,1,0,0:0:0:0:
358,206,31532,2,0,L|393:211,4,32.3333333333333,2|0|0|0|0,0:0|0:0|0:0|0:0|0:0,0:0:0:0:
355,31,32050,6,0,L|369:-27,1,32.3333333333333,2|0,0:0|0:0,0:0:0:0:
257,36,32222,1,0,0:0:0:0:
216,24,32308,1,0,0:0:0:0:
176,37,32394,1,0,0:0:0:0:
144,67,32481,1,0,0:0:0:0:
135,110,32567,2,0,L|86:118,4,32.3333333333333,2|0|0|0|0,0:0|0:0|0:0|0:0|0:0,0:0:0:0:
113,304,33084,6,0,L|99:246,1,32.3333333333333,2|0,0:0|0:0,0:0:0:0:
211,309,33256,1,0,0:0:0:0:
252,297,33343,1,0,0:0:0:0:
294,310,33429,1,0,0:0:0:0:
320,343,33515,1,0,0:0:0:0:
333,383,33601,2,0,L|378:373,4,32.3333333333333,2|0|0|0|0,0:0|0:0|0:0|0:0|0:0,0:0:0:0:
341,159,34118,5,2,0:0:0:0:
315,116,34205,1,0,0:0:0:0:
274,78,34291,1,0,0:0:0:0:
233,57,34377,1,2,0:0:0:0:
187,58,34463,1,0,0:0:0:0:
108,146,34636,5,2,0:0:0:0:
108,146,34722,1,0,0:0:0:0:
108,146,34808,1,0,0:0:0:0:
108,146,34894,1,2,0:0:0:0:
256,192,35153,12,2,36705,0:0:0:0:
256,192,37222,12,2,38774,0:0:0:0:
446,330,43429,5,2,0:0:0:0:
446,330,43515,2,0,L|503:300,1,64.6666666666667,0|2,0:0|0:0,0:0:0:0:
389,230,43860,5,0,0:0:0:0:
389,230,43946,2,0,L|411:104,1,97,2|0,0:0|0:0,0:0:0:0:
285,279,44463,5,2,0:0:0:0:
285,279,44550,2,0,L|255:222,1,64.6666666666667,0|2,0:0|0:0,0:0:0:0:
184,336,44894,5,0,0:0:0:0:
184,336,44981,2,0,L|57:314,1,97,2|0,0:0|0:0,0:0:0:0:
52,20,45498,6,0,L|76:132,1,97,2|0,0:0|0:0,0:0:0:0:
24,178,45843,1,0,0:0:0:0:
161,238,46015,1,2,0:0:0:0:
161,238,46101,1,0,0:0:0:0:
161,238,46187,1,0,0:0:0:0:
161,238,46274,1,0,0:0:0:0:
337,124,46532,5,2,0:0:0:0:
337,124,46618,1,0,0:0:0:0:
416,236,46791,1,2,0:0:0:0:
416,236,46877,2,0,L|405:280,1,32.3333333333333
366,336,47050,1,2,0:0:0:0:
366,336,47136,1,0,0:0:0:0:
366,336,47222,1,0,0:0:0:0:
366,336,47308,1,0,0:0:0:0:
366,336,47394,1,0,0:0:0:0:
99,282,47567,6,0,L|89:246,2,32.3333333333333,2|0|0,0:0|0:0|0:0,0:0:0:0:
143,177,47825,1,2,0:0:0:0:
180,161,47912,1,0,0:0:0:0:
196,123,47998,1,0,0:0:0:0:
200,92,48084,1,2,0:0:0:0:
200,92,48170,1,0,0:0:0:0:
200,92,48256,1,0,0:0:0:0:
200,92,48343,1,2,0:0:0:0:
456,123,48601,6,0,L|466:159,2,32.3333333333333,2|0|0,0:0|0:0|0:0,0:0:0:0:
403,207,48860,1,2,0:0:0:0:
366,223,48946,1,0,0:0:0:0:
350,261,49032,1,0,0:0:0:0:
368,316,49118,1,2,0:0:0:0:
368,316,49205,1,0,0:0:0:0:
368,316,49291,1,0,0:0:0:0:
368,316,49377,1,2,0:0:0:0:
132,304,49636,5,2,0:0:0:0:
132,304,49722,1,0,0:0:0:0:
132,304,49808,1,0,0:0:0:0:
132,304,49894,1,2,0:0:0:0:
144,68,50153,5,2,0:0:0:0:
144,68,50239,1,0,0:0:0:0:
144,68,50325,1,0,0:0:0:0:
144,68,50412,1,2,0:0:0:0:
380,80,50670,5,2,0:0:0:0:
380,80,50756,1,0,0:0:0:0:
380,80,50843,1,0,0:0:0:0:
380,80,50929,1,2,0:0:0:0:
368,316,51187,5,2,0:0:0:0:
368,316,51274,1,0,0:0:0:0:
368,316,51360,1,0,0:0:0:0:
368,316,51446,1,2,0:0:0:0:
211,259,51705,5,2,0:0:0:0:
245,267,51791,1,0,0:0:0:0:
282,275,51877,1,0,0:0:0:0:
316,282,51963,1,2,0:0:0:0:
351,290,52050,1,0,0:0:0:0:
37,326,52222,5,2,0:0:0:0:
37,326,52308,1,0,0:0:0:0:
37,326,52394,1,0,0:0:0:0:
37,326,52481,2,0,P|28:271|14:211,1,97,0|2,0:0|0:0,0:0:0:0:
156,146,52912,1,0,0:0:0:0:
156,146,52998,1,2,0:0:0:0:
187,140,53084,1,0,0:0:0:0:
219,134,53170,1,0,0:0:0:0:
253,124,53256,2,0,L|295:118,5,32.3333333333333,2|0|0|0|0|0,0:0|0:0|0:0|0:0|0:0|0:0,0:0:0:0:
216,50,53774,5,2,0:0:0:0:
192,42,53860,1,0,0:0:0:0:
73,164,54032,1,0,0:0:0:0:
82,203,54118,1,0,0:0:0:0:
111,230,54205,1,0,0:0:0:0:
148,242,54291,2,0,L|158:315,1,64.6666666666667,2|0,0:0|0:0,0:0:0:0:
230,356,54550,2,0,B|279:341|279:341|318:371,1,97,0|2,0:0|0:0,0:0:0:0:
399,212,54981,1,0,0:0:0:0:
399,212,55067,2,0,L|407:162,1,32.3333333333333
499,214,55239,2,0,L|491:164,1,32.3333333333333,0|2,0:0|0:0,0:0:0:0:
382,79,55412,5,0,0:0:0:0:
351,88,55498,1,0,0:0:0:0:
320,97,55584,1,0,0:0:0:0:
289,106,55670,1,0,0:0:0:0:
258,117,55756,1,0,0:0:0:0:
220,115,55843,6,0,B|241:84|241:84|228:46,1,64.6666666666667,2|0,0:0|0:0,0:0:0:0:
134,177,56101,1,2,0:0:0:0:
134,177,56187,2,0,L|187:184,1,32.3333333333333
95,301,56360,1,2,0:0:0:0:
95,301,56446,1,0,0:0:0:0:
95,301,56532,1,0,0:0:0:0:
95,301,56618,2,0,P|40:310|-20:324,1,97,0|2,0:0|0:0,0:0:0:0:
213,233,57050,5,0,0:0:0:0:
254,231,57136,1,2,0:0:0:0:
291,248,57222,1,0,0:0:0:0:
317,281,57308,1,0,0:0:0:0:
316,322,57394,2,0,L|310:364,4,32.3333333333333,2|0|0|0|0,0:0|0:0|0:0|0:0|0:0,0:0:0:0:
390,204,57912,5,2,0:0:0:0:
380,165,57998,1,0,0:0:0:0:
372,133,58084,1,0,0:0:0:0:
363,107,58170,1,0,0:0:0:0:
354,83,58256,1,0,0:0:0:0:
260,204,58429,5,2,0:0:0:0:
260,204,58515,2,0,P|233:178|225:163,1,32.3333333333333
233,333,58687,1,0,0:0:0:0:
233,333,58774,2,0,P|196:343|179:342,1,32.3333333333333
111,245,58946,5,2,0:0:0:0:
121,206,59032,1,0,0:0:0:0:
129,174,59118,1,0,0:0:0:0:
138,148,59205,1,0,0:0:0:0:
147,124,59291,1,0,0:0:0:0:
0,139,59463,5,2,0:0:0:0:
0,139,59550,2,0,P|27:165|35:180,1,32.3333333333333
27,10,59722,1,0,0:0:0:0:
27,10,59808,2,0,P|63:0|80:0,1,32.3333333333333
211,9,59981,5,2,0:0:0:0:
352,103,60153,1,0,0:0:0:0:
352,103,60239,2,0,L|303:108,1,32.3333333333333,2|0,0:0|0:0,0:0:0:0:
400,19,60498,1,2,0:0:0:0:
431,55,60584,2,0,L|448:135,1,64.6666666666667,0|2,0:0|0:0,0:0:0:0:
443,140,60843,1,0,0:0:0:0:
262,275,61015,6,0,L|321:258,1,32.3333333333333,2|0,0:0|0:0,0:0:0:0:
368,217,61187,1,0,0:0:0:0:
368,217,61274,1,2,0:0:0:0:
368,217,61360,1,0,0:0:0:0:
368,217,61446,1,0,0:0:0:0:
368,217,61532,2,0,B|410:245|410:245|374:288,1,97,2|2,0:0|0:0,0:0:0:0:
279,349,62050,5,2,0:0:0:0:
142,223,62222,1,0,0:0:0:0:
142,223,62308,2,0,L|191:218,1,32.3333333333333,2|0,0:0|0:0,0:0:0:0:
45,338,62567,1,2,0:0:0:0:
14,302,62653,2,0,L|-3:222,1,64.6666666666667,0|2,0:0|0:0,0:0:0:0:
2,217,62912,1,0,0:0:0:0:
228,83,63084,6,0,L|169:100,1,32.3333333333333,2|0,0:0|0:0,0:0:0:0:
122,141,63256,1,0,0:0:0:0:
122,141,63343,1,2,0:0:0:0:
122,141,63429,1,0,0:0:0:0:
122,141,63515,1,0,0:0:0:0:
122,141,63601,2,0,B|80:113|80:113|116:70,1,97,2|2,0:0|0:0,0:0:0:0:
377,123,64118,5,2,0:0:0:0:
394,145,64205,2,0,L|318:139,1,64.6666666666667,0|2,0:0|0:0,0:0:0:0:
266,180,64463,1,0,0:0:0:0:
451,247,64636,1,2,0:0:0:0:
467,268,64722,2,0,L|391:262,1,64.6666666666667,0|2,0:0|0:0,0:0:0:0:
332,297,64981,1,0,0:0:0:0:
73,251,65153,5,2,0:0:0:0:
58,274,65239,2,0,L|134:268,1,64.6666666666667,0|2,0:0|0:0,0:0:0:0:
190,299,65498,1,0,0:0:0:0:
14,352,65670,1,2,0:0:0:0:
0,374,65756,2,0,L|76:368,1,64.6666666666667,0|2,0:0|0:0,0:0:0:0:
149,384,66015,1,0,0:0:0:0:
279,192,66187,6,0,L|302:147,1,32.3333333333333,2|0,0:0|0:0,0:0:0:0:
229,109,66360,2,0,L|248:64,1,32.3333333333333,0|2,0:0|0:0,0:0:0:0:
137,139,66532,2,0,L|142:97,1,32.3333333333333
100,216,66705,6,0,L|77:261,1,32.3333333333333,2|0,0:0|0:0,0:0:0:0:
153,292,66878,2,0,L|134:337,1,32.3333333333333,0|2,0:0|0:0,0:0:0:0:
245,278,67050,2,0,L|240:320,1,32.3333333333333
53,327,67222,5,2,0:0:0:0:
185,210,67394,1,0,0:0:0:0:
338,249,67567,1,0,0:0:0:0:
394,358,67739,6,0,L|322:348,2,64.6666666666667,2|2|0,0:0|0:0|0:0,0:0:0:0:
433,146,68256,6,0,L|477:132,5,32.3333333333333,2|0|0|0|0|0,0:0|0:0|0:0|0:0|0:0|0:0,0:0:0:0:
512,68,68774,2,0,L|468:54,5,32.3333333333333
413,10,69291,5,2,0:0:0:0:
0,25,69808,6,0,B|34:162,1,97,2|0,0:0|0:0,0:0:0:0:
46,192,70196,1,0,0:0:0:0:
72,264,70325,2,0,L|142:249,1,48.5,2|0,0:0|0:0,0:0:0:0:
195,233,70584,1,0,0:0:0:0:
362,0,70843,5,2,0:0:0:0:
362,0,70929,1,0,0:0:0:0:
341,81,71102,1,0,0:0:0:0:
341,81,71188,1,0,0:0:0:0:
269,204,71360,1,2,0:0:0:0:
265,173,71447,1,0,0:0:0:0:
260,141,71533,1,0,0:0:0:0:
255,109,71619,1,0,0:0:0:0:
369,302,71878,5,2,2:0:0:0:
373,271,71964,1,0,2:0:0:0:
378,239,72050,1,0,2:0:0:0:
383,207,72136,1,0,2:0:0:0:
468,129,72395,5,2,0:0:0:0:
468,129,72481,1,0,0:0:0:0:
468,129,72567,1,0,0:0:0:0:
468,129,72654,2,0,L|482:81,2,32.3333333333333
364,115,72912,5,2,0:0:0:0:
330,142,72998,1,0,0:0:0:0:
321,184,73085,1,0,0:0:0:0:
337,223,73171,2,0,L|344:270,2,32.3333333333333
255,333,73429,1,2,0:0:0:0:
229,337,73516,1,0,0:0:0:0:
202,340,73602,1,0,0:0:0:0:
175,344,73688,1,0,0:0:0:0:
149,347,73774,1,0,0:0:0:0:
0,266,73947,6,0,L|10:216,1,32.3333333333333,2|0,0:0|0:0,0:0:0:0:
102,178,74119,2,0,L|111:128,1,32.3333333333333,0|2,0:0|0:0,0:0:0:0:
75,48,74292,2,0,L|84:-2,1,32.3333333333333
217,23,74464,5,2,0:0:0:0:
217,23,74550,1,0,0:0:0:0:
217,23,74636,1,0,0:0:0:0:
217,23,74723,2,0,L|205:73,1,32.3333333333333,2|0,0:0|0:0,0:0:0:0:
447,137,74981,5,2,0:0:0:0:
447,137,75067,1,0,0:0:0:0:
348,196,75240,1,0,0:0:0:0:
348,196,75326,1,0,0:0:0:0:
415,317,75498,1,2,0:0:0:0:
446,321,75585,1,0,0:0:0:0:
478,326,75671,1,0,0:0:0:0:
511,331,75757,1,0,0:0:0:0:
212,305,76016,5,2,0:0:0:0:
243,301,76102,1,0,0:0:0:0:
325,283,76274,1,0,0:0:0:0:
363,31,76533,5,2,0:0:0:0:
363,31,76619,1,0,0:0:0:0:
363,31,76705,1,0,0:0:0:0:
363,31,76792,2,0,L|310:23,2,32.3333333333333
235,105,77050,5,2,0:0:0:0:
211,113,77136,1,0,0:0:0:0:
189,122,77223,1,0,0:0:0:0:
168,129,77309,2,0,L|164:171,2,32.3333333333333,2|0|0,0:0|0:0|0:0,0:0:0:0:
0,230,77567,5,2,0:0:0:0:
39,243,77654,1,0,0:0:0:0:
74,257,77740,1,0,0:0:0:0:
109,269,77826,2,0,L|114:315,2,32.3333333333333,2|0|0,0:0|0:0|0:0,0:0:0:0:
299,361,78085,5,2,0:0:0:0:
344,345,78171,1,0,0:0:0:0:
386,327,78257,1,0,0:0:0:0:
426,315,78343,2,0,L|434:262,2,32.3333333333333,2|0|0,0:0|0:0|0:0,0:0:0:0:
242,117,78602,6,0,L|249:81,1,32.3333333333333,2|0,0:0|0:0,0:0:0:0:
288,223,78774,2,0,L|315:247,1,32.3333333333333,0|2,0:0|0:0,0:0:0:0:
171,208,78947,2,0,L|136:219,1,32.3333333333333
362,123,79119,6,0,L|407:107,1,32.3333333333333,2|0,0:0|0:0,0:0:0:0:
272,243,79292,2,0,L|262:289,1,32.3333333333333,0|2,0:0|0:0,0:0:0:0:
213,102,79464,2,0,L|177:70,1,32.3333333333333
132,322,79636,5,2,0:0:0:0:
132,322,79723,1,0,0:0:0:0:
132,322,79809,1,0,0:0:0:0:
132,322,79895,1,0,0:0:0:0:
132,322,79981,2,0,L|76:326,1,32.3333333333333,0|0,0:3|0:3,0:0:0:0:
50,260,80154,5,2,0:0:0:0:
50,260,80240,1,0,0:0:0:0:
50,260,80326,1,0,0:0:0:0:
50,260,80412,1,0,0:0:0:0:
50,260,80498,2,0,L|-6:256,1,32.3333333333333,0|0,0:3|0:3,0:0:0:0:
126,101,80671,6,0,L|116:50,1,32.3333333333333,2|0,0:0|0:0,0:0:0:0:
213,77,80843,1,2,0:0:0:0:
224,80,80929,1,0,0:0:0:0:
236,83,81016,2,0,L|226:44,1,32.3333333333333,2|0,0:0|0:0,0:0:0:0:
300,222,81188,6,0,L|310:171,1,32.3333333333333,2|0,0:0|0:0,0:0:0:0:
213,198,81360,1,2,0:0:0:0:
202,201,81447,1,0,0:0:0:0:
190,204,81533,2,0,L|200:165,1,32.3333333333333,2|0,0:0|0:0,0:0:0:0:
512,188,81705,6,0,L|471:229,1,32.3333333333333,2|0,0:0|0:0,0:0:0:0:
421,271,81878,2,0,L|380:312,1,32.3333333333333
323,359,82050,2,0,L|282:400,1,32.3333333333333
346,187,82223,6,0,L|323:209,1,32.3333333333333,2|0,0:0|0:0,0:0:0:0:
248,275,82395,2,0,L|225:297,1,32.3333333333333
156,359,82567,2,0,L|133:381,1,32.3333333333333
18,353,82740,5,2,0:0:0:0:
213,67,83257,6,0,B|179:31|179:31|106:39,1,97,2|2,0:0|0:0,0:0:0:0:
65,217,83774,2,0,B|99:253|99:253|172:245,1,97,2|2,0:0|0:0,0:0:0:0:
359,349,84292,6,0,L|468:320,1,97,2|2,0:0|0:0,0:0:0:0:
476,241,84636,1,0,0:0:0:0:
476,241,84723,1,0,0:0:0:0:
476,241,84809,6,0,L|471:201,2,32.3333333333333,2|0|0,0:0|0:0|0:0,0:0:0:0:
377,182,85067,1,2,0:0:0:0:
405,156,85154,2,0,L|410:117,1,32.3333333333333
484,60,85326,5,2,0:0:0:0:
456,10,85412,1,0,0:0:0:0:
408,6,85498,1,0,0:0:0:0:
365,45,85585,2,0,L|307:44,2,32.3333333333333
261,95,85843,5,2,0:0:0:0:
261,95,85929,1,0,0:0:0:0:
261,95,86016,1,0,0:0:0:0:
261,95,86102,2,0,L|203:94,1,32.3333333333333,2|0,0:0|0:0,0:0:0:0:
144,123,86274,5,0,0:0:0:0:
89,145,86360,1,2,0:0:0:0:
38,117,86447,1,0,0:0:0:0:
20,63,86533,1,0,0:0:0:0:
53,11,86619,2,0,L|-2:8,2,32.3333333333333,2|0|0,0:0|0:0|0:0,0:0:0:0:
146,0,86878,5,0,0:0:0:0:
415,156,87050,5,2,0:0:0:0:
415,156,87136,1,0,0:0:0:0:
415,156,87223,1,0,0:0:0:0:
415,156,87309,1,2,0:0:0:0:
362,140,87395,1,0,0:0:0:0:
310,168,87481,1,0,0:0:0:0:
299,228,87567,1,2,0:0:0:0:
349,264,87654,1,0,0:0:0:0:
378,321,87740,1,0,0:0:0:0:
352,381,87826,1,2,0:0:0:0:
286,382,87912,1,2,0:0:0:0:
0,279,88429,5,2,0:0:0:0:
0,279,88515,2,0,P|125:304|189:318,1,161.666666666667,0|2,0:0|0:0,0:0:0:0:
256,192,89032,12,0,93084,0:0:0:0:
