osu file format v14

[General]
AudioFilename: audio.mp3
AudioLeadIn: 0
PreviewTime: 56216
Countdown: 0
SampleSet: Soft
StackLeniency: 0.7
Mode: 3
LetterboxInBreaks: 0
SpecialStyle: 0
WidescreenStoryboard: 1

[Editor]
DistanceSpacing: 1.3
BeatDivisor: 3
GridSize: 16
TimelineZoom: 1.400001

[Metadata]
Title:Black Key Etude
TitleUnicode:Black Key Etude
Artist:Frederic Chopin
ArtistUnicode:Frédéric Chopin
Creator:Cyantifiction
Version:NM - Technical 6
Source:Pianista
Tags:étude op 10 no. 5 classical instrumental piano g flat major fryderyk franciszek Superb Corp. The Legendary Virtuoso
BeatmapID:4420816
BeatmapSetID:1796615

[Difficulty]
HPDrainRate:6.5
CircleSize:4
OverallDifficulty:6.5
ApproachRate:5
SliderMultiplier:1.4
SliderTickRate:1

[Events]
//Background and Video events
0,0,"pianos-banner.jpg",0,0
//Break Periods
//Storyboard Layer 0 (Background)
//Storyboard Layer 1 (Fail)
//Storyboard Layer 2 (Pass)
//Storyboard Layer 3 (Foreground)
//Storyboard Layer 4 (Overlay)
//Storyboard Sound Samples

[TimingPoints]
1359,285.714285714286,4,2,1,30,1,0

[HitObjects]
192,192,1359,5,0,0:0:0:0:
64,192,1359,1,0,0:0:0:0:
192,192,1644,1,0,0:0:0:0:
320,192,1644,1,0,0:0:0:0:
320,192,1930,1,0,0:0:0:0:
448,192,1930,1,0,0:0:0:0:
448,192,2501,1,0,0:0:0:0:
64,192,2501,1,0,0:0:0:0:
320,192,2787,1,0,0:0:0:0:
64,192,2787,1,0,0:0:0:0:
320,192,3073,1,0,0:0:0:0:
192,192,3073,1,0,0:0:0:0:
192,192,3644,1,0,0:0:0:0:
64,192,3644,1,0,0:0:0:0:
320,192,3930,1,0,0:0:0:0:
448,192,3930,1,0,0:0:0:0:
448,192,4216,1,0,0:0:0:0:
320,192,4216,1,0,0:0:0:0:
448,192,4501,1,0,0:0:0:0:
192,192,4787,1,0,0:0:0:0:
64,192,4787,1,0,0:0:0:0:
320,192,5073,1,0,0:0:0:0:
192,192,5073,1,0,0:0:0:0:
64,192,5359,1,0,0:0:0:0:
448,192,5359,1,0,0:0:0:0:
192,192,5930,1,0,0:0:0:0:
64,192,5930,1,0,0:0:0:0:
192,192,6216,1,0,0:0:0:0:
320,192,6216,1,0,0:0:0:0:
320,192,6501,1,0,0:0:0:0:
448,192,6501,1,0,0:0:0:0:
448,192,7073,1,0,0:0:0:0:
64,192,7073,1,0,0:0:0:0:
320,192,7359,1,0,0:0:0:0:
64,192,7359,1,0,0:0:0:0:
320,192,7644,1,0,0:0:0:0:
192,192,7644,1,0,0:0:0:0:
192,192,8216,1,0,0:0:0:0:
64,192,8216,1,0,0:0:0:0:
320,192,8501,1,0,0:0:0:0:
448,192,8501,1,0,0:0:0:0:
320,192,8787,1,0,0:0:0:0:
448,192,9073,1,0,0:0:0:0:
320,192,9073,1,0,0:0:0:0:
192,192,9359,1,0,0:0:0:0:
64,192,9359,128,0,9644:0:0:0:0:
320,192,9644,1,0,0:0:0:0:
448,192,9644,128,0,10501:0:0:0:0:
192,192,10501,1,0,0:0:0:0:
64,192,10501,1,0,0:0:0:0:
192,192,10787,1,0,0:0:0:0:
320,192,10787,1,0,0:0:0:0:
320,192,11073,1,0,0:0:0:0:
448,192,11073,1,0,0:0:0:0:
448,192,11644,1,0,0:0:0:0:
64,192,11644,1,0,0:0:0:0:
320,192,11930,1,0,0:0:0:0:
64,192,11930,1,0,0:0:0:0:
320,192,12216,1,0,0:0:0:0:
192,192,12216,1,0,0:0:0:0:
192,192,12787,1,0,0:0:0:0:
64,192,12787,1,0,0:0:0:0:
320,192,13073,1,0,0:0:0:0:
448,192,13073,1,0,0:0:0:0:
448,192,13359,1,0,0:0:0:0:
320,192,13359,1,0,0:0:0:0:
448,192,13644,1,0,0:0:0:0:
192,192,13930,1,0,0:0:0:0:
64,192,13930,1,0,0:0:0:0:
320,192,14216,1,0,0:0:0:0:
192,192,14216,1,0,0:0:0:0:
64,192,14501,1,0,0:0:0:0:
448,192,14501,1,0,0:0:0:0:
192,192,15073,1,0,0:0:0:0:
64,192,15073,1,0,0:0:0:0:
192,192,15359,1,0,0:0:0:0:
320,192,15359,1,0,0:0:0:0:
320,192,15644,1,0,0:0:0:0:
448,192,15644,1,0,0:0:0:0:
448,192,16216,1,0,0:0:0:0:
64,192,16216,1,0,0:0:0:0:
320,192,16501,1,0,0:0:0:0:
64,192,16501,1,0,0:0:0:0:
320,192,16787,1,0,0:0:0:0:
192,192,16787,1,0,0:0:0:0:
192,192,17359,1,0,0:0:0:0:
64,192,17359,1,0,0:0:0:0:
320,192,17644,1,0,0:0:0:0:
448,192,17644,1,0,0:0:0:0:
320,192,17930,1,0,0:0:0:0:
448,192,18216,1,0,0:0:0:0:
320,192,18216,1,0,0:0:0:0:
64,192,18501,1,0,0:0:0:0:
192,192,18501,128,0,18787:0:0:0:0:
448,192,18787,1,0,0:0:0:0:
320,192,18787,128,0,19644:0:0:0:0:
64,192,19644,1,0,0:0:0:0:
448,192,19644,1,0,0:0:0:0:
192,192,19930,1,0,0:0:0:0:
320,192,19930,1,0,0:0:0:0:
448,192,20216,1,0,0:0:0:0:
320,192,20216,1,0,0:0:0:0:
448,192,20501,1,0,0:0:0:0:
192,192,20501,1,0,0:0:0:0:
320,192,20787,1,0,0:0:0:0:
192,192,20787,1,0,0:0:0:0:
64,192,21073,1,0,0:0:0:0:
448,192,21073,1,0,0:0:0:0:
320,192,21359,1,0,0:0:0:0:
192,192,21359,1,0,0:0:0:0:
64,192,21644,128,0,21930:0:0:0:0:
192,192,21930,1,0,0:0:0:0:
448,192,21930,1,0,0:0:0:0:
320,192,22216,1,0,0:0:0:0:
448,192,22216,1,0,0:0:0:0:
192,192,22501,1,0,0:0:0:0:
64,192,22501,128,0,22787:0:0:0:0:
448,192,22787,1,0,0:0:0:0:
192,192,23073,128,0,23359:0:0:0:0:
448,192,23359,1,0,0:0:0:0:
320,192,23359,1,0,0:0:0:0:
448,192,23644,128,0,23930:0:0:0:0:
320,192,23930,1,0,0:0:0:0:
64,192,23930,1,0,0:0:0:0:
64,192,24216,1,0,0:0:0:0:
448,192,24216,1,0,0:0:0:0:
192,192,24501,1,0,0:0:0:0:
320,192,24501,1,0,0:0:0:0:
448,192,24787,1,0,0:0:0:0:
320,192,24787,1,0,0:0:0:0:
448,192,25073,1,0,0:0:0:0:
192,192,25073,1,0,0:0:0:0:
320,192,25359,1,0,0:0:0:0:
192,192,25359,1,0,0:0:0:0:
64,192,25644,1,0,0:0:0:0:
448,192,25644,1,0,0:0:0:0:
320,192,25930,1,0,0:0:0:0:
192,192,25930,1,0,0:0:0:0:
64,192,26216,128,0,26501:0:0:0:0:
192,192,26501,1,0,0:0:0:0:
448,192,26501,1,0,0:0:0:0:
320,192,26787,1,0,0:0:0:0:
192,192,26787,1,0,0:0:0:0:
448,192,27073,128,0,27359:0:0:0:0:
320,192,27359,1,0,0:0:0:0:
64,192,27359,1,0,0:0:0:0:
192,192,27644,1,0,0:0:0:0:
448,192,27644,1,0,0:0:0:0:
320,192,27930,1,0,0:0:0:0:
192,192,27930,1,0,0:0:0:0:
448,192,28216,128,0,28501:0:0:0:0:
320,192,28501,1,0,0:0:0:0:
64,192,28501,1,0,0:0:0:0:
192,192,28787,1,0,0:0:0:0:
64,192,28787,1,0,0:0:0:0:
192,192,29073,1,0,0:0:0:0:
320,192,29073,1,0,0:0:0:0:
64,192,29359,128,0,29644:0:0:0:0:
192,192,29644,1,0,0:0:0:0:
448,192,29644,1,0,0:0:0:0:
320,192,29930,1,0,0:0:0:0:
64,192,29930,1,0,0:0:0:0:
192,192,30216,1,0,0:0:0:0:
320,192,30216,1,0,0:0:0:0:
64,192,30501,128,0,30787:0:0:0:0:
192,192,30787,1,0,0:0:0:0:
448,192,30787,1,0,0:0:0:0:
192,192,31073,1,0,0:0:0:0:
64,192,31073,1,0,0:0:0:0:
448,192,31359,1,0,0:0:0:0:
320,192,31359,1,0,0:0:0:0:
448,192,31644,1,0,0:0:0:0:
64,192,31644,1,0,0:0:0:0:
320,192,31930,1,0,0:0:0:0:
192,192,31930,1,0,0:0:0:0:
192,192,32216,1,0,0:0:0:0:
64,192,32216,1,0,0:0:0:0:
320,192,32501,1,0,0:0:0:0:
448,192,32501,1,0,0:0:0:0:
448,192,32787,1,0,0:0:0:0:
64,192,32787,1,0,0:0:0:0:
320,192,33073,1,0,0:0:0:0:
192,192,33073,1,0,0:0:0:0:
192,192,33359,1,0,0:0:0:0:
64,192,33359,1,0,0:0:0:0:
448,192,33835,1,0,0:0:0:0:
192,192,33930,1,0,0:0:0:0:
64,192,33930,128,0,34216:0:0:0:0:
448,192,34025,1,0,0:0:0:0:
320,192,34216,1,0,0:0:0:0:
192,192,34216,128,0,34501:0:0:0:0:
448,192,34501,1,0,0:0:0:0:
320,192,34501,128,0,34787:0:0:0:0:
448,192,34978,1,0,0:0:0:0:
64,192,35073,1,0,0:0:0:0:
192,192,35073,128,0,35359:0:0:0:0:
448,192,35168,1,0,0:0:0:0:
64,192,35359,1,0,0:0:0:0:
320,192,35359,128,0,35644:0:0:0:0:
192,192,35644,1,0,0:0:0:0:
448,192,35644,128,0,35930:0:0:0:0:
64,192,36120,1,0,0:0:0:0:
320,192,36216,128,0,36501:0:0:0:0:
448,192,36216,1,0,0:0:0:0:
64,192,36311,5,0,0:0:0:0:
192,192,36787,128,0,37073:0:0:0:0:
64,192,36787,1,0,0:0:0:0:
448,192,37644,128,0,37930:0:0:0:0:
64,192,37930,128,0,42501:0:0:0:0:
192,192,37930,1,0,0:0:0:0:
320,192,38216,1,0,0:0:0:0:
448,192,38501,1,0,0:0:0:0:
192,192,38787,1,0,0:0:0:0:
320,192,39073,1,0,0:0:0:0:
448,192,39359,1,0,0:0:0:0:
320,192,39644,1,0,0:0:0:0:
448,192,39644,1,0,0:0:0:0:
192,192,39930,1,0,0:0:0:0:
448,192,40073,1,0,0:0:0:0:
320,192,40073,1,0,0:0:0:0:
320,192,40216,1,0,0:0:0:0:
448,192,40216,1,0,0:0:0:0:
192,192,40501,1,0,0:0:0:0:
448,192,40787,1,0,0:0:0:0:
320,192,41073,1,0,0:0:0:0:
192,192,41359,1,0,0:0:0:0:
448,192,41644,1,0,0:0:0:0:
320,192,41930,1,0,0:0:0:0:
192,192,42216,1,0,0:0:0:0:
448,192,42501,128,0,47073:0:0:0:0:
320,192,42501,1,0,0:0:0:0:
64,192,42787,1,0,0:0:0:0:
192,192,43073,1,0,0:0:0:0:
320,192,43359,1,0,0:0:0:0:
64,192,43644,1,0,0:0:0:0:
192,192,43930,1,0,0:0:0:0:
192,192,44216,1,0,0:0:0:0:
64,192,44216,1,0,0:0:0:0:
320,192,44501,1,0,0:0:0:0:
192,192,44644,1,0,0:0:0:0:
64,192,44644,1,0,0:0:0:0:
192,192,44787,1,0,0:0:0:0:
64,192,44787,1,0,0:0:0:0:
320,192,45073,1,0,0:0:0:0:
192,192,45359,1,0,0:0:0:0:
64,192,45644,1,0,0:0:0:0:
320,192,45930,1,0,0:0:0:0:
192,192,46216,1,0,0:0:0:0:
64,192,46501,1,0,0:0:0:0:
320,192,46787,1,0,0:0:0:0:
192,192,47073,128,0,47644:0:0:0:0:
64,192,47073,1,0,0:0:0:0:
64,192,47644,1,0,0:0:0:0:
448,192,47644,128,0,48216:0:0:0:0:
320,192,48216,1,0,0:0:0:0:
64,192,48216,128,0,48644:0:0:0:0:
192,192,48644,1,0,0:0:0:0:
320,192,48787,1,0,0:0:0:0:
448,192,48787,128,0,49216:0:0:0:0:
64,192,49216,1,0,0:0:0:0:
320,192,49359,1,0,0:0:0:0:
192,192,49359,128,0,49930:0:0:0:0:
64,192,49930,1,0,0:0:0:0:
448,192,49930,128,0,50501:0:0:0:0:
320,192,50501,1,0,0:0:0:0:
64,192,50501,128,0,50930:0:0:0:0:
192,192,50930,1,0,0:0:0:0:
320,192,51073,1,0,0:0:0:0:
448,192,51073,128,0,51501:0:0:0:0:
192,192,51501,1,0,0:0:0:0:
64,192,51644,1,0,0:0:0:0:
320,192,51930,1,0,0:0:0:0:
64,192,51930,1,0,0:0:0:0:
192,192,52216,1,0,0:0:0:0:
448,192,52216,1,0,0:0:0:0:
320,192,52501,1,0,0:0:0:0:
64,192,52501,1,0,0:0:0:0:
192,192,52787,1,0,0:0:0:0:
448,192,52787,128,0,53359:0:0:0:0:
320,192,53359,1,0,0:0:0:0:
192,192,53359,1,0,0:0:0:0:
448,192,53644,1,0,0:0:0:0:
64,192,53644,1,0,0:0:0:0:
320,192,53930,1,0,0:0:0:0:
192,192,53930,1,0,0:0:0:0:
64,192,54216,1,0,0:0:0:0:
192,192,54216,1,0,0:0:0:0:
320,192,54501,1,0,0:0:0:0:
448,192,54501,1,0,0:0:0:0:
192,192,54787,1,0,0:0:0:0:
64,192,54787,1,0,0:0:0:0:
320,192,55073,1,0,0:0:0:0:
448,192,55073,128,0,55644:0:0:0:0:
320,192,55644,1,0,0:0:0:0:
192,192,55930,1,0,0:0:0:0:
192,192,56216,5,0,0:0:0:0:
64,192,56216,1,0,0:0:0:0:
192,192,56501,1,0,0:0:0:0:
320,192,56501,1,0,0:0:0:0:
320,192,56787,1,0,0:0:0:0:
448,192,56787,1,0,0:0:0:0:
448,192,57359,1,0,0:0:0:0:
64,192,57359,1,0,0:0:0:0:
320,192,57644,1,0,0:0:0:0:
64,192,57644,1,0,0:0:0:0:
320,192,57930,1,0,0:0:0:0:
192,192,57930,1,0,0:0:0:0:
192,192,58501,1,0,0:0:0:0:
64,192,58501,1,0,0:0:0:0:
320,192,58787,1,0,0:0:0:0:
448,192,58787,1,0,0:0:0:0:
448,192,59073,1,0,0:0:0:0:
320,192,59073,1,0,0:0:0:0:
448,192,59359,1,0,0:0:0:0:
192,192,59644,1,0,0:0:0:0:
64,192,59644,1,0,0:0:0:0:
320,192,59930,1,0,0:0:0:0:
192,192,59930,1,0,0:0:0:0:
64,192,60216,1,0,0:0:0:0:
448,192,60216,1,0,0:0:0:0:
192,192,60787,1,0,0:0:0:0:
64,192,60787,1,0,0:0:0:0:
192,192,61073,1,0,0:0:0:0:
320,192,61073,1,0,0:0:0:0:
320,192,61359,1,0,0:0:0:0:
448,192,61359,1,0,0:0:0:0:
448,192,61930,1,0,0:0:0:0:
64,192,61930,1,0,0:0:0:0:
320,192,62216,1,0,0:0:0:0:
64,192,62216,1,0,0:0:0:0:
320,192,62501,1,0,0:0:0:0:
192,192,62501,1,0,0:0:0:0:
192,192,63073,1,0,0:0:0:0:
64,192,63073,1,0,0:0:0:0:
64,192,63359,1,0,0:0:0:0:
448,192,63359,1,0,0:0:0:0:
320,192,63644,1,0,0:0:0:0:
448,192,63644,128,0,63930:0:0:0:0:
64,192,63930,128,0,64216:0:0:0:0:
192,192,64216,1,0,0:0:0:0:
320,192,64216,1,0,0:0:0:0:
64,192,64501,1,0,0:0:0:0:
448,192,64501,1,0,0:0:0:0:
192,192,64787,1,0,0:0:0:0:
64,192,64787,128,0,65073:0:0:0:0:
448,192,65073,128,0,65359:0:0:0:0:
320,192,65359,1,0,0:0:0:0:
64,192,65644,128,0,65930:0:0:0:0:
448,192,65644,128,0,65930:0:0:0:0:
192,192,65930,1,0,0:0:0:0:
320,192,66216,128,0,66501:0:0:0:0:
448,192,66216,128,0,66501:0:0:0:0:
64,192,66501,1,0,0:0:0:0:
192,192,66787,128,0,67073:0:0:0:0:
448,192,66787,128,0,67073:0:0:0:0:
320,192,67073,1,0,0:0:0:0:
64,192,67359,128,0,67644:0:0:0:0:
320,192,67359,128,0,67644:0:0:0:0:
192,192,67644,1,0,0:0:0:0:
64,192,67930,128,0,68216:0:0:0:0:
448,192,67930,128,0,68216:0:0:0:0:
192,192,68216,1,0,0:0:0:0:
320,192,68501,128,0,68787:0:0:0:0:
448,192,68501,128,0,68787:0:0:0:0:
64,192,68787,1,0,0:0:0:0:
192,192,69073,128,0,69359:0:0:0:0:
448,192,69073,128,0,69359:0:0:0:0:
320,192,69359,1,0,0:0:0:0:
64,192,69644,128,0,69930:0:0:0:0:
320,192,69644,128,0,69930:0:0:0:0:
192,192,69930,1,0,0:0:0:0:
64,192,70216,128,0,70787:0:0:0:0:
448,192,70216,1,0,0:0:0:0:
320,192,70787,1,0,0:0:0:0:
192,192,71073,1,0,0:0:0:0:
64,192,71359,1,0,0:0:0:0:
448,192,71359,128,0,71930:0:0:0:0:
320,192,71930,1,0,0:0:0:0:
192,192,72216,1,0,0:0:0:0:
64,192,72216,1,0,0:0:0:0:
64,192,72787,1,0,0:0:0:0:
448,192,72787,128,0,73359:0:0:0:0:
320,192,73359,1,0,0:0:0:0:
192,192,73359,128,0,74501:0:0:0:0:
64,192,74501,1,0,0:0:0:0:
448,192,74501,128,0,75930:0:0:0:0:
192,192,75930,128,0,76501:0:0:0:0:
64,192,75930,1,0,0:0:0:0:
448,192,76501,128,0,76930:0:0:0:0:
320,192,76501,1,0,0:0:0:0:
320,192,76930,1,0,0:0:0:0:
192,192,77073,128,0,77359:0:0:0:0:
448,192,77073,1,0,0:0:0:0:
64,192,77359,128,0,77644:0:0:0:0:
192,192,77644,1,0,0:0:0:0:
320,192,77644,1,0,0:0:0:0:
192,192,77930,1,0,0:0:0:0:
448,192,77930,1,0,0:0:0:0:
448,192,78216,1,0,0:0:0:0:
320,192,78216,1,0,0:0:0:0:
192,192,78501,1,0,0:0:0:0:
64,192,78501,1,0,0:0:0:0:
64,192,78787,1,0,0:0:0:0:
448,192,78787,1,0,0:0:0:0:
192,192,79073,1,0,0:0:0:0:
320,192,79073,1,0,0:0:0:0:
448,192,79359,128,0,79930:0:0:0:0:
64,192,79359,1,0,0:0:0:0:
320,192,79930,1,0,0:0:0:0:
64,192,79930,1,0,0:0:0:0:
192,192,80216,1,0,0:0:0:0:
64,192,80216,1,0,0:0:0:0:
320,192,80501,1,0,0:0:0:0:
448,192,80501,1,0,0:0:0:0:
448,192,80787,1,0,0:0:0:0:
192,192,80787,1,0,0:0:0:0:
64,192,81073,1,0,0:0:0:0:
320,192,81073,1,0,0:0:0:0:
64,192,81359,1,0,0:0:0:0:
192,192,81359,1,0,0:0:0:0:
192,192,81644,1,0,0:0:0:0:
320,192,81644,1,0,0:0:0:0:
320,192,81930,1,0,0:0:0:0:
448,192,81930,1,0,0:0:0:0:
448,192,82216,1,0,0:0:0:0:
64,192,82216,1,0,0:0:0:0:
192,192,82501,1,0,0:0:0:0:
448,192,82501,1,0,0:0:0:0:
448,192,82787,1,0,0:0:0:0:
320,192,82787,1,0,0:0:0:0:
192,192,83073,1,0,0:0:0:0:
64,192,83073,1,0,0:0:0:0:
64,192,83359,1,0,0:0:0:0:
448,192,83359,128,0,83644:0:0:0:0:
320,192,83644,128,0,83930:0:0:0:0:
192,192,83644,1,0,0:0:0:0:
64,192,83930,1,0,0:0:0:0:
192,192,83930,1,0,0:0:0:0:
448,192,84216,1,0,0:0:0:0:
320,192,84216,1,0,0:0:0:0:
320,192,84501,1,0,0:0:0:0:
64,192,84501,1,0,0:0:0:0:
192,192,84787,1,0,0:0:0:0:
64,192,84787,1,0,0:0:0:0:
320,192,85073,1,0,0:0:0:0:
448,192,85073,1,0,0:0:0:0:
448,192,85359,1,0,0:0:0:0:
192,192,85359,1,0,0:0:0:0:
64,192,85644,1,0,0:0:0:0:
320,192,85644,1,0,0:0:0:0:
64,192,85930,1,0,0:0:0:0:
192,192,85930,1,0,0:0:0:0:
448,192,86216,1,0,0:0:0:0:
320,192,86216,1,0,0:0:0:0:
192,192,86311,1,0,0:0:0:0:
64,192,86501,1,0,0:0:0:0:
448,192,86692,1,0,0:0:0:0:
192,192,86882,1,0,0:0:0:0:
64,192,87073,1,0,0:0:0:0:
320,192,87073,1,0,0:0:0:0:
320,192,87359,1,0,0:0:0:0:
448,192,87359,1,0,0:0:0:0:
192,192,87549,1,0,0:0:0:0:
64,192,87739,1,0,0:0:0:0:
448,192,87930,1,0,0:0:0:0:
192,192,88120,1,0,0:0:0:0:
320,192,88216,1,0,0:0:0:0:
64,192,88216,1,0,0:0:0:0:
320,192,88501,1,0,0:0:0:0:
448,192,88501,1,0,0:0:0:0:
192,192,88692,1,0,0:0:0:0:
64,192,88882,1,0,0:0:0:0:
448,192,89073,1,0,0:0:0:0:
320,192,89263,1,0,0:0:0:0:
64,192,89359,1,0,0:0:0:0:
192,192,89359,1,0,0:0:0:0:
320,192,89644,1,0,0:0:0:0:
448,192,89644,1,0,0:0:0:0:
192,192,89930,1,0,0:0:0:0:
64,192,89930,1,0,0:0:0:0:
320,192,90216,1,0,0:0:0:0:
448,192,90216,1,0,0:0:0:0:
192,192,90501,1,0,0:0:0:0:
64,192,90501,1,0,0:0:0:0:
448,192,90787,1,0,0:0:0:0:
320,192,90787,1,0,0:0:0:0:
448,192,91073,1,0,0:0:0:0:
64,192,91216,1,0,0:0:0:0:
320,192,91359,1,0,0:0:0:0:
192,192,91501,1,0,0:0:0:0:
448,192,91644,1,0,0:0:0:0:
64,192,91787,1,0,0:0:0:0:
320,192,91930,5,0,0:0:0:0:
192,192,92073,1,0,0:0:0:0:
448,192,92216,1,0,0:0:0:0:
64,192,92359,1,0,0:0:0:0:
320,192,92501,1,0,0:0:0:0:
192,192,92644,1,0,0:0:0:0:
64,192,92787,5,0,0:0:0:0:
192,192,92930,1,0,0:0:0:0:
448,192,93073,1,0,0:0:0:0:
320,192,93216,1,0,0:0:0:0:
64,192,93359,1,0,0:0:0:0:
192,192,93501,1,0,0:0:0:0:
448,192,93644,1,0,0:0:0:0:
320,192,93787,1,0,0:0:0:0:
64,192,93930,1,0,0:0:0:0:
192,192,94073,1,0,0:0:0:0:
448,192,94216,1,0,0:0:0:0:
320,192,94359,1,0,0:0:0:0:
64,192,94501,1,0,0:0:0:0:
192,192,94644,1,0,0:0:0:0:
448,192,94787,1,0,0:0:0:0:
320,192,94930,1,0,0:0:0:0:
64,192,95073,1,0,0:0:0:0:
192,192,95216,1,0,0:0:0:0:
320,192,95359,1,0,0:0:0:0:
448,192,95549,1,0,0:0:0:0:
320,192,95739,1,0,0:0:0:0:
192,192,95930,1,0,0:0:0:0:
64,192,96120,1,0,0:0:0:0:
448,192,96311,1,0,0:0:0:0:
320,192,96501,1,0,0:0:0:0:
192,192,97073,1,0,0:0:0:0:
320,192,97216,1,0,0:0:0:0:
64,192,97359,1,0,0:0:0:0:
448,192,97359,1,0,0:0:0:0:
320,192,97644,128,0,98787:0:0:0:0:
64,192,97644,128,0,98787:0:0:0:0:
