osu file format v14

[General]
AudioFilename: audio.mp3
AudioLeadIn: 0
PreviewTime: 56216
Countdown: 0
SampleSet: Soft
StackLeniency: 0.7
Mode: 3
LetterboxInBreaks: 0
SpecialStyle: 0
WidescreenStoryboard: 0

[Editor]
DistanceSpacing: 1.3
BeatDivisor: 3
GridSize: 16
TimelineZoom: 2.7

[Metadata]
Title:Black Key Etude
TitleUnicode:Black Key Etude
Artist:Frederic Chopin
ArtistUnicode:Frédéric Chopin
Creator:Cyantifiction
Version:EX - Technical 9
Source:Pianista
Tags:étude op 10 no. 5 classical instrumental piano g flat major fryderyk franciszek Superb Corp. The Legendary Virtuoso
BeatmapID:3682803
BeatmapSetID:1796615

[Difficulty]
HPDrainRate:8
CircleSize:4
OverallDifficulty:8
ApproachRate:5
SliderMultiplier:1.4
SliderTickRate:1

[Events]
//Background and Video events
0,0,"pianos-banner.jpg",0,0
//Break Periods
//Storyboard Layer 0 (Background)
//Storyboard Layer 1 (Fail)
//Storyboard Layer 2 (Pass)
//Storyboard Layer 3 (Foreground)
//Storyboard Layer 4 (Overlay)
//Storyboard Sound Samples

[TimingPoints]
1359,285.714285714286,4,2,1,30,1,0

[HitObjects]
192,192,1359,5,0,0:0:0:0:
64,192,1359,1,0,0:0:0:0:
320,192,1454,1,0,0:0:0:0:
448,192,1549,1,0,0:0:0:0:
192,192,1644,1,0,0:0:0:0:
320,192,1644,1,0,0:0:0:0:
64,192,1739,1,0,0:0:0:0:
320,192,1835,1,0,0:0:0:0:
64,192,1930,1,0,0:0:0:0:
448,192,1930,1,0,0:0:0:0:
320,192,2025,1,0,0:0:0:0:
192,192,2120,1,0,0:0:0:0:
448,192,2216,1,0,0:0:0:0:
192,192,2311,1,0,0:0:0:0:
64,192,2406,1,0,0:0:0:0:
448,192,2501,1,0,0:0:0:0:
320,192,2501,1,0,0:0:0:0:
192,192,2597,1,0,0:0:0:0:
64,192,2692,1,0,0:0:0:0:
448,192,2787,1,0,0:0:0:0:
192,192,2787,1,0,0:0:0:0:
320,192,2882,1,0,0:0:0:0:
448,192,2978,1,0,0:0:0:0:
320,192,3073,1,0,0:0:0:0:
64,192,3073,1,0,0:0:0:0:
192,192,3168,1,0,0:0:0:0:
448,192,3263,1,0,0:0:0:0:
192,192,3359,1,0,0:0:0:0:
320,192,3454,1,0,0:0:0:0:
448,192,3549,1,0,0:0:0:0:
192,192,3644,1,0,0:0:0:0:
64,192,3644,1,0,0:0:0:0:
448,192,3739,1,0,0:0:0:0:
192,192,3835,1,0,0:0:0:0:
64,192,3930,1,0,0:0:0:0:
320,192,3930,1,0,0:0:0:0:
192,192,4025,1,0,0:0:0:0:
64,192,4120,1,0,0:0:0:0:
320,192,4216,1,0,0:0:0:0:
448,192,4216,1,0,0:0:0:0:
192,192,4311,1,0,0:0:0:0:
320,192,4406,1,0,0:0:0:0:
448,192,4501,1,0,0:0:0:0:
192,192,4501,1,0,0:0:0:0:
64,192,4597,1,0,0:0:0:0:
320,192,4692,1,0,0:0:0:0:
192,192,4787,1,0,0:0:0:0:
64,192,4787,1,0,0:0:0:0:
448,192,4882,1,0,0:0:0:0:
192,192,4978,1,0,0:0:0:0:
64,192,5073,1,0,0:0:0:0:
448,192,5073,1,0,0:0:0:0:
320,192,5168,1,0,0:0:0:0:
64,192,5263,1,0,0:0:0:0:
320,192,5359,1,0,0:0:0:0:
192,192,5359,1,0,0:0:0:0:
448,192,5454,1,0,0:0:0:0:
64,192,5549,1,0,0:0:0:0:
320,192,5644,1,0,0:0:0:0:
192,192,5739,1,0,0:0:0:0:
448,192,5835,1,0,0:0:0:0:
192,192,5930,1,0,0:0:0:0:
64,192,5930,1,0,0:0:0:0:
320,192,6025,1,0,0:0:0:0:
448,192,6120,1,0,0:0:0:0:
192,192,6216,1,0,0:0:0:0:
320,192,6216,1,0,0:0:0:0:
64,192,6311,1,0,0:0:0:0:
320,192,6406,1,0,0:0:0:0:
64,192,6501,1,0,0:0:0:0:
448,192,6501,1,0,0:0:0:0:
320,192,6597,1,0,0:0:0:0:
192,192,6692,1,0,0:0:0:0:
448,192,6787,1,0,0:0:0:0:
192,192,6882,1,0,0:0:0:0:
64,192,6978,1,0,0:0:0:0:
448,192,7073,1,0,0:0:0:0:
320,192,7073,1,0,0:0:0:0:
192,192,7168,1,0,0:0:0:0:
64,192,7263,1,0,0:0:0:0:
192,192,7359,1,0,0:0:0:0:
448,192,7359,1,0,0:0:0:0:
320,192,7454,1,0,0:0:0:0:
448,192,7549,1,0,0:0:0:0:
320,192,7644,1,0,0:0:0:0:
64,192,7644,1,0,0:0:0:0:
192,192,7739,1,0,0:0:0:0:
448,192,7835,1,0,0:0:0:0:
192,192,7930,1,0,0:0:0:0:
320,192,8025,1,0,0:0:0:0:
448,192,8120,1,0,0:0:0:0:
192,192,8216,1,0,0:0:0:0:
64,192,8216,1,0,0:0:0:0:
448,192,8311,1,0,0:0:0:0:
192,192,8406,1,0,0:0:0:0:
64,192,8501,1,0,0:0:0:0:
320,192,8501,1,0,0:0:0:0:
192,192,8597,1,0,0:0:0:0:
64,192,8692,1,0,0:0:0:0:
320,192,8787,1,0,0:0:0:0:
448,192,8787,1,0,0:0:0:0:
192,192,8882,1,0,0:0:0:0:
320,192,8978,1,0,0:0:0:0:
448,192,9073,1,0,0:0:0:0:
192,192,9073,1,0,0:0:0:0:
64,192,9168,1,0,0:0:0:0:
320,192,9263,1,0,0:0:0:0:
192,192,9359,1,0,0:0:0:0:
64,192,9359,1,0,0:0:0:0:
448,192,9454,1,0,0:0:0:0:
192,192,9549,1,0,0:0:0:0:
448,192,9644,1,0,0:0:0:0:
192,192,9739,1,0,0:0:0:0:
448,192,9835,1,0,0:0:0:0:
192,192,9930,1,0,0:0:0:0:
448,192,10025,1,0,0:0:0:0:
192,192,10120,1,0,0:0:0:0:
448,192,10216,1,0,0:0:0:0:
192,192,10311,1,0,0:0:0:0:
448,192,10406,1,0,0:0:0:0:
192,192,10501,1,0,0:0:0:0:
64,192,10501,1,0,0:0:0:0:
320,192,10597,1,0,0:0:0:0:
448,192,10692,1,0,0:0:0:0:
192,192,10787,1,0,0:0:0:0:
320,192,10787,1,0,0:0:0:0:
64,192,10882,1,0,0:0:0:0:
320,192,10978,1,0,0:0:0:0:
64,192,11073,1,0,0:0:0:0:
448,192,11073,1,0,0:0:0:0:
320,192,11168,1,0,0:0:0:0:
192,192,11263,1,0,0:0:0:0:
448,192,11359,1,0,0:0:0:0:
192,192,11454,1,0,0:0:0:0:
64,192,11549,1,0,0:0:0:0:
448,192,11644,1,0,0:0:0:0:
320,192,11644,1,0,0:0:0:0:
192,192,11739,1,0,0:0:0:0:
64,192,11835,1,0,0:0:0:0:
448,192,11930,1,0,0:0:0:0:
192,192,11930,1,0,0:0:0:0:
320,192,12025,1,0,0:0:0:0:
448,192,12120,1,0,0:0:0:0:
320,192,12216,1,0,0:0:0:0:
64,192,12216,1,0,0:0:0:0:
192,192,12311,1,0,0:0:0:0:
448,192,12406,1,0,0:0:0:0:
192,192,12501,1,0,0:0:0:0:
320,192,12597,1,0,0:0:0:0:
448,192,12692,1,0,0:0:0:0:
192,192,12787,1,0,0:0:0:0:
64,192,12787,1,0,0:0:0:0:
448,192,12882,1,0,0:0:0:0:
192,192,12978,1,0,0:0:0:0:
64,192,13073,1,0,0:0:0:0:
320,192,13073,1,0,0:0:0:0:
192,192,13168,1,0,0:0:0:0:
64,192,13263,1,0,0:0:0:0:
448,192,13359,1,0,0:0:0:0:
320,192,13359,1,0,0:0:0:0:
192,192,13454,1,0,0:0:0:0:
320,192,13549,1,0,0:0:0:0:
448,192,13644,1,0,0:0:0:0:
192,192,13644,1,0,0:0:0:0:
64,192,13739,1,0,0:0:0:0:
320,192,13835,1,0,0:0:0:0:
192,192,13930,1,0,0:0:0:0:
64,192,13930,1,0,0:0:0:0:
448,192,14025,1,0,0:0:0:0:
192,192,14120,1,0,0:0:0:0:
64,192,14216,1,0,0:0:0:0:
448,192,14216,1,0,0:0:0:0:
320,192,14311,1,0,0:0:0:0:
64,192,14406,1,0,0:0:0:0:
320,192,14501,1,0,0:0:0:0:
192,192,14501,1,0,0:0:0:0:
448,192,14597,1,0,0:0:0:0:
64,192,14692,1,0,0:0:0:0:
320,192,14787,1,0,0:0:0:0:
192,192,14882,1,0,0:0:0:0:
448,192,14978,1,0,0:0:0:0:
192,192,15073,1,0,0:0:0:0:
64,192,15073,1,0,0:0:0:0:
320,192,15168,1,0,0:0:0:0:
448,192,15263,1,0,0:0:0:0:
320,192,15359,1,0,0:0:0:0:
192,192,15359,1,0,0:0:0:0:
64,192,15454,1,0,0:0:0:0:
320,192,15549,1,0,0:0:0:0:
64,192,15644,1,0,0:0:0:0:
448,192,15644,1,0,0:0:0:0:
320,192,15739,1,0,0:0:0:0:
192,192,15835,1,0,0:0:0:0:
448,192,15930,1,0,0:0:0:0:
192,192,16025,1,0,0:0:0:0:
64,192,16120,1,0,0:0:0:0:
448,192,16216,1,0,0:0:0:0:
320,192,16216,1,0,0:0:0:0:
192,192,16311,1,0,0:0:0:0:
64,192,16406,1,0,0:0:0:0:
448,192,16501,1,0,0:0:0:0:
192,192,16501,1,0,0:0:0:0:
320,192,16597,1,0,0:0:0:0:
448,192,16692,1,0,0:0:0:0:
320,192,16787,1,0,0:0:0:0:
64,192,16787,1,0,0:0:0:0:
192,192,16882,1,0,0:0:0:0:
448,192,16978,1,0,0:0:0:0:
192,192,17073,1,0,0:0:0:0:
320,192,17168,1,0,0:0:0:0:
448,192,17263,1,0,0:0:0:0:
64,192,17359,1,0,0:0:0:0:
192,192,17359,1,0,0:0:0:0:
448,192,17454,1,0,0:0:0:0:
192,192,17549,1,0,0:0:0:0:
64,192,17644,1,0,0:0:0:0:
320,192,17644,1,0,0:0:0:0:
192,192,17739,1,0,0:0:0:0:
64,192,17835,1,0,0:0:0:0:
448,192,17930,1,0,0:0:0:0:
192,192,18025,1,0,0:0:0:0:
320,192,18120,1,0,0:0:0:0:
448,192,18216,1,0,0:0:0:0:
192,192,18216,1,0,0:0:0:0:
64,192,18311,1,0,0:0:0:0:
320,192,18406,1,0,0:0:0:0:
192,192,18501,1,0,0:0:0:0:
64,192,18501,1,0,0:0:0:0:
320,192,18597,1,0,0:0:0:0:
448,192,18692,1,0,0:0:0:0:
192,192,18787,1,0,0:0:0:0:
64,192,18787,1,0,0:0:0:0:
448,192,18882,1,0,0:0:0:0:
320,192,18978,1,0,0:0:0:0:
192,192,19073,1,0,0:0:0:0:
64,192,19168,1,0,0:0:0:0:
192,192,19263,1,0,0:0:0:0:
320,192,19359,1,0,0:0:0:0:
64,192,19454,1,0,0:0:0:0:
448,192,19549,1,0,0:0:0:0:
320,192,19644,1,0,0:0:0:0:
64,192,19644,1,0,0:0:0:0:
192,192,19739,1,0,0:0:0:0:
320,192,19835,1,0,0:0:0:0:
64,192,19930,1,0,0:0:0:0:
448,192,19930,1,0,0:0:0:0:
320,192,20025,1,0,0:0:0:0:
448,192,20120,1,0,0:0:0:0:
192,192,20216,1,0,0:0:0:0:
64,192,20216,1,0,0:0:0:0:
448,192,20311,1,0,0:0:0:0:
64,192,20406,1,0,0:0:0:0:
192,192,20501,1,0,0:0:0:0:
320,192,20501,1,0,0:0:0:0:
448,192,20597,1,0,0:0:0:0:
320,192,20692,1,0,0:0:0:0:
192,192,20787,1,0,0:0:0:0:
64,192,20787,1,0,0:0:0:0:
448,192,20882,1,0,0:0:0:0:
192,192,20978,1,0,0:0:0:0:
64,192,21073,1,0,0:0:0:0:
320,192,21073,1,0,0:0:0:0:
192,192,21168,1,0,0:0:0:0:
320,192,21263,1,0,0:0:0:0:
64,192,21359,1,0,0:0:0:0:
448,192,21359,1,0,0:0:0:0:
320,192,21454,1,0,0:0:0:0:
64,192,21549,1,0,0:0:0:0:
192,192,21644,128,0,21930:0:0:0:0:
448,192,21644,1,0,0:0:0:0:
64,192,21930,1,0,0:0:0:0:
320,192,21930,1,0,0:0:0:0:
448,192,22025,1,0,0:0:0:0:
320,192,22120,1,0,0:0:0:0:
192,192,22216,1,0,0:0:0:0:
64,192,22216,1,0,0:0:0:0:
448,192,22311,1,0,0:0:0:0:
64,192,22406,1,0,0:0:0:0:
320,192,22501,1,0,0:0:0:0:
448,192,22501,1,0,0:0:0:0:
192,192,22597,1,0,0:0:0:0:
64,192,22692,1,0,0:0:0:0:
448,192,22787,1,0,0:0:0:0:
320,192,22787,1,0,0:0:0:0:
192,192,22882,1,0,0:0:0:0:
320,192,22978,1,0,0:0:0:0:
448,192,23073,1,0,0:0:0:0:
64,192,23073,1,0,0:0:0:0:
192,192,23168,1,0,0:0:0:0:
448,192,23263,1,0,0:0:0:0:
192,192,23359,1,0,0:0:0:0:
320,192,23359,1,0,0:0:0:0:
64,192,23454,1,0,0:0:0:0:
192,192,23549,1,0,0:0:0:0:
320,192,23644,1,0,0:0:0:0:
448,192,23644,1,0,0:0:0:0:
192,192,23739,1,0,0:0:0:0:
320,192,23835,1,0,0:0:0:0:
64,192,23930,1,0,0:0:0:0:
448,192,23930,1,0,0:0:0:0:
320,192,24025,1,0,0:0:0:0:
192,192,24120,1,0,0:0:0:0:
64,192,24216,1,0,0:0:0:0:
320,192,24216,1,0,0:0:0:0:
192,192,24311,1,0,0:0:0:0:
320,192,24406,1,0,0:0:0:0:
64,192,24501,1,0,0:0:0:0:
448,192,24501,1,0,0:0:0:0:
320,192,24597,1,0,0:0:0:0:
448,192,24692,1,0,0:0:0:0:
192,192,24787,1,0,0:0:0:0:
64,192,24787,1,0,0:0:0:0:
448,192,24882,1,0,0:0:0:0:
64,192,24978,1,0,0:0:0:0:
192,192,25073,1,0,0:0:0:0:
320,192,25073,1,0,0:0:0:0:
448,192,25168,1,0,0:0:0:0:
320,192,25263,1,0,0:0:0:0:
192,192,25359,1,0,0:0:0:0:
64,192,25359,1,0,0:0:0:0:
448,192,25454,1,0,0:0:0:0:
192,192,25549,1,0,0:0:0:0:
64,192,25644,1,0,0:0:0:0:
320,192,25644,1,0,0:0:0:0:
192,192,25739,1,0,0:0:0:0:
320,192,25835,1,0,0:0:0:0:
64,192,25930,1,0,0:0:0:0:
448,192,25930,1,0,0:0:0:0:
320,192,26025,1,0,0:0:0:0:
64,192,26120,1,0,0:0:0:0:
192,192,26216,128,0,26501:0:0:0:0:
448,192,26216,1,0,0:0:0:0:
64,192,26501,1,0,0:0:0:0:
448,192,26501,1,0,0:0:0:0:
320,192,26597,1,0,0:0:0:0:
192,192,26692,1,0,0:0:0:0:
320,192,26787,1,0,0:0:0:0:
448,192,26787,1,0,0:0:0:0:
192,192,26882,1,0,0:0:0:0:
320,192,26978,1,0,0:0:0:0:
64,192,27073,1,0,0:0:0:0:
192,192,27168,1,0,0:0:0:0:
320,192,27263,1,0,0:0:0:0:
192,192,27359,1,0,0:0:0:0:
64,192,27359,1,0,0:0:0:0:
320,192,27454,1,0,0:0:0:0:
192,192,27549,1,0,0:0:0:0:
64,192,27644,1,0,0:0:0:0:
448,192,27644,1,0,0:0:0:0:
320,192,27739,1,0,0:0:0:0:
192,192,27835,1,0,0:0:0:0:
320,192,27930,1,0,0:0:0:0:
448,192,27930,1,0,0:0:0:0:
192,192,28025,1,0,0:0:0:0:
320,192,28120,1,0,0:0:0:0:
64,192,28216,1,0,0:0:0:0:
192,192,28311,1,0,0:0:0:0:
320,192,28406,1,0,0:0:0:0:
192,192,28501,1,0,0:0:0:0:
64,192,28501,1,0,0:0:0:0:
320,192,28597,1,0,0:0:0:0:
192,192,28692,1,0,0:0:0:0:
64,192,28787,1,0,0:0:0:0:
320,192,28787,1,0,0:0:0:0:
448,192,28882,1,0,0:0:0:0:
192,192,28978,1,0,0:0:0:0:
448,192,29073,1,0,0:0:0:0:
320,192,29073,1,0,0:0:0:0:
192,192,29168,1,0,0:0:0:0:
448,192,29263,1,0,0:0:0:0:
64,192,29359,1,0,0:0:0:0:
192,192,29359,1,0,0:0:0:0:
320,192,29454,1,0,0:0:0:0:
64,192,29549,1,0,0:0:0:0:
320,192,29644,1,0,0:0:0:0:
448,192,29644,1,0,0:0:0:0:
64,192,29739,1,0,0:0:0:0:
320,192,29835,1,0,0:0:0:0:
192,192,29930,1,0,0:0:0:0:
64,192,29930,1,0,0:0:0:0:
448,192,30025,1,0,0:0:0:0:
192,192,30120,1,0,0:0:0:0:
448,192,30216,1,0,0:0:0:0:
320,192,30216,1,0,0:0:0:0:
192,192,30311,1,0,0:0:0:0:
448,192,30406,1,0,0:0:0:0:
64,192,30501,1,0,0:0:0:0:
192,192,30501,1,0,0:0:0:0:
320,192,30597,1,0,0:0:0:0:
64,192,30692,1,0,0:0:0:0:
320,192,30787,1,0,0:0:0:0:
448,192,30787,1,0,0:0:0:0:
64,192,30882,1,0,0:0:0:0:
320,192,30978,1,0,0:0:0:0:
448,192,31073,1,0,0:0:0:0:
192,192,31073,1,0,0:0:0:0:
64,192,31168,1,0,0:0:0:0:
192,192,31263,1,0,0:0:0:0:
448,192,31359,1,0,0:0:0:0:
320,192,31359,1,0,0:0:0:0:
64,192,31454,1,0,0:0:0:0:
448,192,31549,1,0,0:0:0:0:
320,192,31644,1,0,0:0:0:0:
192,192,31644,1,0,0:0:0:0:
64,192,31739,1,0,0:0:0:0:
192,192,31835,1,0,0:0:0:0:
320,192,31930,1,0,0:0:0:0:
64,192,31930,1,0,0:0:0:0:
448,192,32025,1,0,0:0:0:0:
320,192,32120,1,0,0:0:0:0:
192,192,32216,1,0,0:0:0:0:
64,192,32216,1,0,0:0:0:0:
320,192,32311,1,0,0:0:0:0:
192,192,32406,1,0,0:0:0:0:
64,192,32501,1,0,0:0:0:0:
448,192,32501,1,0,0:0:0:0:
320,192,32597,1,0,0:0:0:0:
64,192,32692,1,0,0:0:0:0:
192,192,32787,1,0,0:0:0:0:
320,192,32787,1,0,0:0:0:0:
64,192,32882,1,0,0:0:0:0:
192,192,32978,1,0,0:0:0:0:
320,192,33073,1,0,0:0:0:0:
448,192,33073,1,0,0:0:0:0:
192,192,33168,1,0,0:0:0:0:
64,192,33263,1,0,0:0:0:0:
320,192,33359,1,0,0:0:0:0:
448,192,33359,1,0,0:0:0:0:
64,192,33454,1,0,0:0:0:0:
192,192,33549,1,0,0:0:0:0:
64,192,33644,1,0,0:0:0:0:
448,192,33644,1,0,0:0:0:0:
320,192,33739,1,0,0:0:0:0:
64,192,33835,1,0,0:0:0:0:
192,192,33835,1,0,0:0:0:0:
320,192,33930,1,0,0:0:0:0:
448,192,33930,1,0,0:0:0:0:
192,192,34025,1,0,0:0:0:0:
64,192,34025,1,0,0:0:0:0:
448,192,34120,1,0,0:0:0:0:
320,192,34216,1,0,0:0:0:0:
64,192,34216,1,0,0:0:0:0:
192,192,34311,1,0,0:0:0:0:
320,192,34406,1,0,0:0:0:0:
64,192,34501,1,0,0:0:0:0:
448,192,34501,1,0,0:0:0:0:
192,192,34597,1,0,0:0:0:0:
320,192,34692,1,0,0:0:0:0:
64,192,34787,1,0,0:0:0:0:
448,192,34787,1,0,0:0:0:0:
192,192,34882,1,0,0:0:0:0:
448,192,34978,1,0,0:0:0:0:
320,192,34978,1,0,0:0:0:0:
192,192,35073,1,0,0:0:0:0:
64,192,35073,1,0,0:0:0:0:
320,192,35168,1,0,0:0:0:0:
448,192,35168,1,0,0:0:0:0:
192,192,35263,1,0,0:0:0:0:
64,192,35359,1,0,0:0:0:0:
448,192,35359,1,0,0:0:0:0:
320,192,35454,1,0,0:0:0:0:
192,192,35549,1,0,0:0:0:0:
448,192,35644,1,0,0:0:0:0:
320,192,35644,1,0,0:0:0:0:
192,192,35739,1,0,0:0:0:0:
64,192,35835,1,0,0:0:0:0:
192,192,35930,1,0,0:0:0:0:
448,192,35930,1,0,0:0:0:0:
320,192,36025,1,0,0:0:0:0:
64,192,36120,1,0,0:0:0:0:
192,192,36120,1,0,0:0:0:0:
320,192,36216,1,0,0:0:0:0:
448,192,36216,1,0,0:0:0:0:
64,192,36311,1,0,0:0:0:0:
192,192,36311,1,0,0:0:0:0:
320,192,36406,1,0,0:0:0:0:
192,192,36501,1,0,0:0:0:0:
64,192,36501,1,0,0:0:0:0:
448,192,36597,1,0,0:0:0:0:
320,192,36692,1,0,0:0:0:0:
192,192,36787,1,0,0:0:0:0:
64,192,36787,1,0,0:0:0:0:
448,192,36882,1,0,0:0:0:0:
320,192,36978,1,0,0:0:0:0:
192,192,37073,1,0,0:0:0:0:
448,192,37073,1,0,0:0:0:0:
64,192,37168,1,0,0:0:0:0:
320,192,37263,1,0,0:0:0:0:
192,192,37359,1,0,0:0:0:0:
448,192,37454,1,0,0:0:0:0:
320,192,37549,1,0,0:0:0:0:
448,192,37644,1,0,0:0:0:0:
192,192,37644,1,0,0:0:0:0:
64,192,37739,1,0,0:0:0:0:
320,192,37835,1,0,0:0:0:0:
64,192,37930,1,0,0:0:0:0:
448,192,37930,1,0,0:0:0:0:
192,192,37930,1,0,0:0:0:0:
320,192,38025,1,0,0:0:0:0:
64,192,38120,1,0,0:0:0:0:
192,192,38216,1,0,0:0:0:0:
320,192,38311,1,0,0:0:0:0:
64,192,38406,1,0,0:0:0:0:
192,192,38501,1,0,0:0:0:0:
320,192,38597,1,0,0:0:0:0:
448,192,38692,1,0,0:0:0:0:
192,192,38787,1,0,0:0:0:0:
64,192,38882,1,0,0:0:0:0:
192,192,38978,1,0,0:0:0:0:
320,192,39073,1,0,0:0:0:0:
448,192,39168,1,0,0:0:0:0:
192,192,39263,1,0,0:0:0:0:
320,192,39359,1,0,0:0:0:0:
64,192,39454,1,0,0:0:0:0:
448,192,39549,1,0,0:0:0:0:
64,192,39644,1,0,0:0:0:0:
320,192,39644,1,0,0:0:0:0:
192,192,39644,1,0,0:0:0:0:
448,192,39739,1,0,0:0:0:0:
320,192,39835,1,0,0:0:0:0:
192,192,39930,1,0,0:0:0:0:
64,192,40025,1,0,0:0:0:0:
320,192,40073,1,0,0:0:0:0:
192,192,40073,1,0,0:0:0:0:
448,192,40120,1,0,0:0:0:0:
320,192,40216,1,0,0:0:0:0:
64,192,40216,1,0,0:0:0:0:
192,192,40216,1,0,0:0:0:0:
448,192,40311,1,0,0:0:0:0:
192,192,40406,1,0,0:0:0:0:
320,192,40501,1,0,0:0:0:0:
192,192,40597,1,0,0:0:0:0:
64,192,40692,1,0,0:0:0:0:
448,192,40787,1,0,0:0:0:0:
320,192,40882,1,0,0:0:0:0:
448,192,40978,1,0,0:0:0:0:
192,192,41073,1,0,0:0:0:0:
320,192,41168,1,0,0:0:0:0:
192,192,41263,1,0,0:0:0:0:
64,192,41359,1,0,0:0:0:0:
448,192,41454,1,0,0:0:0:0:
320,192,41549,1,0,0:0:0:0:
64,192,41644,1,0,0:0:0:0:
192,192,41739,1,0,0:0:0:0:
448,192,41835,1,0,0:0:0:0:
64,192,41930,1,0,0:0:0:0:
192,192,42025,1,0,0:0:0:0:
320,192,42120,1,0,0:0:0:0:
192,192,42216,1,0,0:0:0:0:
448,192,42311,1,0,0:0:0:0:
320,192,42406,1,0,0:0:0:0:
64,192,42501,1,0,0:0:0:0:
448,192,42501,1,0,0:0:0:0:
192,192,42501,1,0,0:0:0:0:
320,192,42597,1,0,0:0:0:0:
64,192,42692,1,0,0:0:0:0:
192,192,42787,1,0,0:0:0:0:
320,192,42882,1,0,0:0:0:0:
64,192,42978,1,0,0:0:0:0:
192,192,43073,1,0,0:0:0:0:
320,192,43168,1,0,0:0:0:0:
448,192,43263,1,0,0:0:0:0:
192,192,43359,1,0,0:0:0:0:
64,192,43454,1,0,0:0:0:0:
192,192,43549,1,0,0:0:0:0:
320,192,43644,1,0,0:0:0:0:
448,192,43739,1,0,0:0:0:0:
192,192,43835,1,0,0:0:0:0:
320,192,43930,1,0,0:0:0:0:
64,192,44025,1,0,0:0:0:0:
448,192,44120,1,0,0:0:0:0:
64,192,44216,1,0,0:0:0:0:
320,192,44216,1,0,0:0:0:0:
192,192,44216,1,0,0:0:0:0:
448,192,44311,1,0,0:0:0:0:
320,192,44406,1,0,0:0:0:0:
192,192,44501,1,0,0:0:0:0:
448,192,44597,1,0,0:0:0:0:
320,192,44644,1,0,0:0:0:0:
192,192,44644,1,0,0:0:0:0:
64,192,44692,1,0,0:0:0:0:
320,192,44787,1,0,0:0:0:0:
448,192,44787,1,0,0:0:0:0:
192,192,44787,1,0,0:0:0:0:
64,192,44882,1,0,0:0:0:0:
448,192,44978,1,0,0:0:0:0:
320,192,45073,1,0,0:0:0:0:
192,192,45168,1,0,0:0:0:0:
64,192,45263,1,0,0:0:0:0:
448,192,45359,1,0,0:0:0:0:
320,192,45454,1,0,0:0:0:0:
448,192,45549,1,0,0:0:0:0:
192,192,45644,1,0,0:0:0:0:
320,192,45739,1,0,0:0:0:0:
192,192,45835,1,0,0:0:0:0:
64,192,45930,1,0,0:0:0:0:
448,192,46025,1,0,0:0:0:0:
320,192,46120,1,0,0:0:0:0:
64,192,46216,1,0,0:0:0:0:
192,192,46311,1,0,0:0:0:0:
448,192,46406,1,0,0:0:0:0:
64,192,46501,1,0,0:0:0:0:
192,192,46597,1,0,0:0:0:0:
320,192,46692,1,0,0:0:0:0:
192,192,46787,1,0,0:0:0:0:
448,192,46882,1,0,0:0:0:0:
320,192,46978,1,0,0:0:0:0:
192,192,47073,1,0,0:0:0:0:
64,192,47073,1,0,0:0:0:0:
448,192,47168,1,0,0:0:0:0:
192,192,47263,1,0,0:0:0:0:
320,192,47359,1,0,0:0:0:0:
448,192,47454,1,0,0:0:0:0:
192,192,47549,1,0,0:0:0:0:
64,192,47644,1,0,0:0:0:0:
448,192,47644,1,0,0:0:0:0:
320,192,47739,1,0,0:0:0:0:
192,192,47835,1,0,0:0:0:0:
64,192,47930,1,0,0:0:0:0:
448,192,48025,1,0,0:0:0:0:
320,192,48120,1,0,0:0:0:0:
192,192,48216,1,0,0:0:0:0:
64,192,48216,1,0,0:0:0:0:
448,192,48311,1,0,0:0:0:0:
64,192,48406,1,0,0:0:0:0:
192,192,48501,1,0,0:0:0:0:
320,192,48597,1,0,0:0:0:0:
64,192,48692,1,0,0:0:0:0:
448,192,48787,1,0,0:0:0:0:
320,192,48787,1,0,0:0:0:0:
192,192,48882,1,0,0:0:0:0:
64,192,48978,1,0,0:0:0:0:
320,192,49073,1,0,0:0:0:0:
448,192,49168,1,0,0:0:0:0:
64,192,49263,1,0,0:0:0:0:
320,192,49359,1,0,0:0:0:0:
448,192,49359,1,0,0:0:0:0:
192,192,49454,1,0,0:0:0:0:
64,192,49549,1,0,0:0:0:0:
320,192,49644,1,0,0:0:0:0:
192,192,49739,1,0,0:0:0:0:
448,192,49835,1,0,0:0:0:0:
320,192,49930,1,0,0:0:0:0:
64,192,49930,1,0,0:0:0:0:
448,192,50025,1,0,0:0:0:0:
64,192,50120,1,0,0:0:0:0:
320,192,50216,1,0,0:0:0:0:
192,192,50311,1,0,0:0:0:0:
64,192,50406,1,0,0:0:0:0:
192,192,50501,1,0,0:0:0:0:
448,192,50501,1,0,0:0:0:0:
320,192,50597,1,0,0:0:0:0:
192,192,50692,1,0,0:0:0:0:
64,192,50787,1,0,0:0:0:0:
320,192,50882,1,0,0:0:0:0:
192,192,50978,1,0,0:0:0:0:
320,192,51073,1,0,0:0:0:0:
448,192,51073,1,0,0:0:0:0:
64,192,51168,1,0,0:0:0:0:
192,192,51263,1,0,0:0:0:0:
320,192,51359,1,0,0:0:0:0:
448,192,51454,1,0,0:0:0:0:
320,192,51549,1,0,0:0:0:0:
192,192,51644,1,0,0:0:0:0:
64,192,51644,1,0,0:0:0:0:
448,192,51739,1,0,0:0:0:0:
192,192,51835,1,0,0:0:0:0:
320,192,51930,1,0,0:0:0:0:
448,192,51930,1,0,0:0:0:0:
192,192,52025,1,0,0:0:0:0:
448,192,52120,1,0,0:0:0:0:
64,192,52216,1,0,0:0:0:0:
320,192,52216,1,0,0:0:0:0:
448,192,52311,1,0,0:0:0:0:
192,192,52406,1,0,0:0:0:0:
448,192,52501,1,0,0:0:0:0:
320,192,52501,1,0,0:0:0:0:
64,192,52597,1,0,0:0:0:0:
448,192,52692,1,0,0:0:0:0:
320,192,52787,1,0,0:0:0:0:
192,192,52787,1,0,0:0:0:0:
64,192,52882,1,0,0:0:0:0:
448,192,52978,1,0,0:0:0:0:
192,192,53073,1,0,0:0:0:0:
320,192,53168,1,0,0:0:0:0:
448,192,53263,1,0,0:0:0:0:
192,192,53359,1,0,0:0:0:0:
64,192,53359,1,0,0:0:0:0:
448,192,53454,1,0,0:0:0:0:
320,192,53549,1,0,0:0:0:0:
64,192,53644,1,0,0:0:0:0:
192,192,53644,1,0,0:0:0:0:
320,192,53739,1,0,0:0:0:0:
448,192,53835,1,0,0:0:0:0:
192,192,53930,1,0,0:0:0:0:
320,192,53930,1,0,0:0:0:0:
448,192,54025,1,0,0:0:0:0:
320,192,54120,1,0,0:0:0:0:
64,192,54216,1,0,0:0:0:0:
448,192,54216,1,0,0:0:0:0:
192,192,54311,1,0,0:0:0:0:
64,192,54406,1,0,0:0:0:0:
448,192,54501,1,0,0:0:0:0:
192,192,54501,1,0,0:0:0:0:
320,192,54597,1,0,0:0:0:0:
448,192,54692,1,0,0:0:0:0:
64,192,54787,1,0,0:0:0:0:
320,192,54787,1,0,0:0:0:0:
192,192,54882,1,0,0:0:0:0:
64,192,54978,1,0,0:0:0:0:
448,192,55073,1,0,0:0:0:0:
192,192,55073,1,0,0:0:0:0:
320,192,55168,1,0,0:0:0:0:
448,192,55263,1,0,0:0:0:0:
64,192,55359,1,0,0:0:0:0:
192,192,55454,1,0,0:0:0:0:
64,192,55549,1,0,0:0:0:0:
192,192,55644,1,0,0:0:0:0:
448,192,55644,1,0,0:0:0:0:
320,192,55739,1,0,0:0:0:0:
448,192,55835,1,0,0:0:0:0:
320,192,55930,1,0,0:0:0:0:
64,192,55930,1,0,0:0:0:0:
192,192,56025,1,0,0:0:0:0:
448,192,56120,1,0,0:0:0:0:
192,192,56216,5,0,0:0:0:0:
64,192,56216,1,0,0:0:0:0:
320,192,56311,1,0,0:0:0:0:
448,192,56406,1,0,0:0:0:0:
192,192,56501,1,0,0:0:0:0:
320,192,56501,1,0,0:0:0:0:
64,192,56597,1,0,0:0:0:0:
320,192,56692,1,0,0:0:0:0:
64,192,56787,1,0,0:0:0:0:
448,192,56787,1,0,0:0:0:0:
320,192,56882,1,0,0:0:0:0:
192,192,56978,1,0,0:0:0:0:
448,192,57073,1,0,0:0:0:0:
192,192,57168,1,0,0:0:0:0:
64,192,57263,1,0,0:0:0:0:
448,192,57359,1,0,0:0:0:0:
320,192,57359,1,0,0:0:0:0:
192,192,57454,1,0,0:0:0:0:
64,192,57549,1,0,0:0:0:0:
448,192,57644,1,0,0:0:0:0:
192,192,57644,1,0,0:0:0:0:
320,192,57739,1,0,0:0:0:0:
448,192,57835,1,0,0:0:0:0:
320,192,57930,1,0,0:0:0:0:
64,192,57930,1,0,0:0:0:0:
192,192,58025,1,0,0:0:0:0:
448,192,58120,1,0,0:0:0:0:
192,192,58216,1,0,0:0:0:0:
320,192,58311,1,0,0:0:0:0:
448,192,58406,1,0,0:0:0:0:
192,192,58501,1,0,0:0:0:0:
64,192,58501,1,0,0:0:0:0:
448,192,58597,1,0,0:0:0:0:
192,192,58692,1,0,0:0:0:0:
64,192,58787,1,0,0:0:0:0:
320,192,58787,1,0,0:0:0:0:
192,192,58882,1,0,0:0:0:0:
64,192,58978,1,0,0:0:0:0:
320,192,59073,1,0,0:0:0:0:
448,192,59073,1,0,0:0:0:0:
192,192,59168,1,0,0:0:0:0:
320,192,59263,1,0,0:0:0:0:
448,192,59359,1,0,0:0:0:0:
192,192,59359,1,0,0:0:0:0:
64,192,59454,1,0,0:0:0:0:
320,192,59549,1,0,0:0:0:0:
192,192,59644,1,0,0:0:0:0:
64,192,59644,1,0,0:0:0:0:
448,192,59739,1,0,0:0:0:0:
192,192,59835,1,0,0:0:0:0:
64,192,59930,1,0,0:0:0:0:
448,192,59930,1,0,0:0:0:0:
320,192,60025,1,0,0:0:0:0:
64,192,60120,1,0,0:0:0:0:
320,192,60216,1,0,0:0:0:0:
192,192,60216,1,0,0:0:0:0:
448,192,60311,1,0,0:0:0:0:
64,192,60406,1,0,0:0:0:0:
320,192,60501,1,0,0:0:0:0:
192,192,60597,1,0,0:0:0:0:
448,192,60692,5,0,0:0:0:0:
192,192,60787,1,0,0:0:0:0:
64,192,60787,1,0,0:0:0:0:
320,192,60882,1,0,0:0:0:0:
448,192,60978,1,0,0:0:0:0:
192,192,61073,1,0,0:0:0:0:
320,192,61073,1,0,0:0:0:0:
64,192,61168,1,0,0:0:0:0:
320,192,61263,1,0,0:0:0:0:
64,192,61359,1,0,0:0:0:0:
448,192,61359,1,0,0:0:0:0:
320,192,61454,1,0,0:0:0:0:
192,192,61549,1,0,0:0:0:0:
448,192,61644,1,0,0:0:0:0:
192,192,61739,1,0,0:0:0:0:
64,192,61835,1,0,0:0:0:0:
448,192,61930,1,0,0:0:0:0:
320,192,61930,1,0,0:0:0:0:
192,192,62025,1,0,0:0:0:0:
64,192,62120,1,0,0:0:0:0:
448,192,62216,1,0,0:0:0:0:
192,192,62216,1,0,0:0:0:0:
320,192,62311,1,0,0:0:0:0:
448,192,62406,1,0,0:0:0:0:
320,192,62501,1,0,0:0:0:0:
64,192,62501,1,0,0:0:0:0:
192,192,62597,1,0,0:0:0:0:
448,192,62692,1,0,0:0:0:0:
192,192,62787,1,0,0:0:0:0:
320,192,62882,1,0,0:0:0:0:
448,192,62978,1,0,0:0:0:0:
192,192,63073,1,0,0:0:0:0:
64,192,63073,1,0,0:0:0:0:
448,192,63168,1,0,0:0:0:0:
192,192,63263,1,0,0:0:0:0:
64,192,63359,1,0,0:0:0:0:
320,192,63359,1,0,0:0:0:0:
192,192,63454,1,0,0:0:0:0:
64,192,63549,1,0,0:0:0:0:
320,192,63644,1,0,0:0:0:0:
448,192,63644,1,0,0:0:0:0:
192,192,63739,1,0,0:0:0:0:
448,192,63835,1,0,0:0:0:0:
320,192,63930,1,0,0:0:0:0:
64,192,63930,1,0,0:0:0:0:
448,192,64025,1,0,0:0:0:0:
320,192,64120,1,0,0:0:0:0:
192,192,64216,1,0,0:0:0:0:
64,192,64216,1,0,0:0:0:0:
448,192,64311,1,0,0:0:0:0:
320,192,64406,1,0,0:0:0:0:
64,192,64501,1,0,0:0:0:0:
448,192,64501,1,0,0:0:0:0:
192,192,64597,1,0,0:0:0:0:
64,192,64692,1,0,0:0:0:0:
320,192,64787,1,0,0:0:0:0:
448,192,64787,1,0,0:0:0:0:
192,192,64882,1,0,0:0:0:0:
64,192,64978,1,0,0:0:0:0:
192,192,65073,1,0,0:0:0:0:
320,192,65073,1,0,0:0:0:0:
64,192,65168,1,0,0:0:0:0:
192,192,65263,1,0,0:0:0:0:
320,192,65359,1,0,0:0:0:0:
448,192,65359,1,0,0:0:0:0:
64,192,65454,1,0,0:0:0:0:
448,192,65549,1,0,0:0:0:0:
64,192,65644,128,0,65930:0:0:0:0:
192,192,65644,1,0,0:0:0:0:
320,192,65739,1,0,0:0:0:0:
448,192,65835,1,0,0:0:0:0:
320,192,65930,1,0,0:0:0:0:
64,192,66025,1,0,0:0:0:0:
320,192,66120,1,0,0:0:0:0:
192,192,66216,128,0,66501:0:0:0:0:
448,192,66216,1,0,0:0:0:0:
64,192,66311,1,0,0:0:0:0:
448,192,66406,1,0,0:0:0:0:
64,192,66501,1,0,0:0:0:0:
448,192,66597,1,0,0:0:0:0:
192,192,66692,1,0,0:0:0:0:
320,192,66787,1,0,0:0:0:0:
448,192,66787,128,0,67073:0:0:0:0:
64,192,66882,1,0,0:0:0:0:
192,192,66978,1,0,0:0:0:0:
320,192,67073,1,0,0:0:0:0:
448,192,67168,1,0,0:0:0:0:
64,192,67263,1,0,0:0:0:0:
320,192,67359,128,0,67644:0:0:0:0:
448,192,67359,1,0,0:0:0:0:
192,192,67454,1,0,0:0:0:0:
64,192,67549,1,0,0:0:0:0:
448,192,67644,1,0,0:0:0:0:
64,192,67739,1,0,0:0:0:0:
448,192,67835,1,0,0:0:0:0:
64,192,67930,128,0,68216:0:0:0:0:
192,192,67930,1,0,0:0:0:0:
320,192,68025,1,0,0:0:0:0:
448,192,68120,1,0,0:0:0:0:
320,192,68216,1,0,0:0:0:0:
64,192,68311,1,0,0:0:0:0:
320,192,68406,1,0,0:0:0:0:
192,192,68501,128,0,68787:0:0:0:0:
448,192,68501,1,0,0:0:0:0:
64,192,68597,1,0,0:0:0:0:
448,192,68692,1,0,0:0:0:0:
64,192,68787,1,0,0:0:0:0:
448,192,68882,1,0,0:0:0:0:
192,192,68978,1,0,0:0:0:0:
320,192,69073,1,0,0:0:0:0:
448,192,69073,128,0,69359:0:0:0:0:
64,192,69168,1,0,0:0:0:0:
192,192,69263,1,0,0:0:0:0:
320,192,69359,1,0,0:0:0:0:
448,192,69454,1,0,0:0:0:0:
64,192,69549,1,0,0:0:0:0:
320,192,69644,128,0,69930:0:0:0:0:
448,192,69644,1,0,0:0:0:0:
192,192,69739,1,0,0:0:0:0:
64,192,69835,1,0,0:0:0:0:
448,192,69930,1,0,0:0:0:0:
64,192,70025,1,0,0:0:0:0:
320,192,70120,1,0,0:0:0:0:
448,192,70216,128,0,70787:0:0:0:0:
192,192,70216,1,0,0:0:0:0:
64,192,70311,1,0,0:0:0:0:
192,192,70406,1,0,0:0:0:0:
320,192,70501,1,0,0:0:0:0:
192,192,70597,1,0,0:0:0:0:
320,192,70692,1,0,0:0:0:0:
192,192,70787,1,0,0:0:0:0:
64,192,70787,1,0,0:0:0:0:
320,192,70882,1,0,0:0:0:0:
448,192,70978,1,0,0:0:0:0:
192,192,71073,1,0,0:0:0:0:
320,192,71073,1,0,0:0:0:0:
64,192,71168,1,0,0:0:0:0:
320,192,71263,1,0,0:0:0:0:
448,192,71359,128,0,71930:0:0:0:0:
192,192,71359,1,0,0:0:0:0:
64,192,71454,1,0,0:0:0:0:
192,192,71549,1,0,0:0:0:0:
320,192,71644,1,0,0:0:0:0:
192,192,71739,1,0,0:0:0:0:
320,192,71835,1,0,0:0:0:0:
64,192,71930,1,0,0:0:0:0:
192,192,71930,1,0,0:0:0:0:
448,192,72025,1,0,0:0:0:0:
320,192,72120,1,0,0:0:0:0:
448,192,72216,1,0,0:0:0:0:
64,192,72216,1,0,0:0:0:0:
192,192,72311,1,0,0:0:0:0:
320,192,72406,1,0,0:0:0:0:
64,192,72501,1,0,0:0:0:0:
448,192,72597,1,0,0:0:0:0:
192,192,72692,1,0,0:0:0:0:
320,192,72787,1,0,0:0:0:0:
448,192,72787,1,0,0:0:0:0:
64,192,72882,1,0,0:0:0:0:
448,192,72978,1,0,0:0:0:0:
192,192,73073,1,0,0:0:0:0:
320,192,73168,1,0,0:0:0:0:
64,192,73263,1,0,0:0:0:0:
448,192,73359,5,0,0:0:0:0:
320,192,73359,1,0,0:0:0:0:
192,192,73454,1,0,0:0:0:0:
320,192,73549,1,0,0:0:0:0:
64,192,73644,1,0,0:0:0:0:
448,192,73739,1,0,0:0:0:0:
192,192,73835,1,0,0:0:0:0:
320,192,73930,1,0,0:0:0:0:
64,192,74025,1,0,0:0:0:0:
448,192,74120,1,0,0:0:0:0:
192,192,74216,1,0,0:0:0:0:
320,192,74311,1,0,0:0:0:0:
448,192,74406,1,0,0:0:0:0:
64,192,74501,5,0,0:0:0:0:
192,192,74537,1,0,0:0:0:0:
320,192,74573,1,0,0:0:0:0:
448,192,74609,1,0,0:0:0:0:
320,192,74787,1,0,0:0:0:0:
192,192,74930,1,0,0:0:0:0:
64,192,74978,1,0,0:0:0:0:
448,192,75073,1,0,0:0:0:0:
320,192,75168,1,0,0:0:0:0:
192,192,75263,1,0,0:0:0:0:
64,192,75359,1,0,0:0:0:0:
448,192,75454,1,0,0:0:0:0:
320,192,75549,1,0,0:0:0:0:
192,192,75644,1,0,0:0:0:0:
64,192,75739,1,0,0:0:0:0:
448,192,75835,1,0,0:0:0:0:
64,192,75930,128,0,76501:0:0:0:0:
192,192,75930,128,0,76311:0:0:0:0:
320,192,75930,128,0,76311:0:0:0:0:
192,192,76501,128,0,76787:0:0:0:0:
320,192,76501,128,0,76787:0:0:0:0:
448,192,76501,128,0,76930:0:0:0:0:
320,192,76930,1,0,0:0:0:0:
192,192,77073,1,0,0:0:0:0:
64,192,77073,128,0,77359:0:0:0:0:
320,192,77359,1,0,0:0:0:0:
448,192,77359,128,0,77644:0:0:0:0:
192,192,77644,1,0,0:0:0:0:
64,192,77644,1,0,0:0:0:0:
320,192,77739,1,0,0:0:0:0:
64,192,77835,1,0,0:0:0:0:
192,192,77930,1,0,0:0:0:0:
448,192,77930,1,0,0:0:0:0:
320,192,78025,1,0,0:0:0:0:
64,192,78120,1,0,0:0:0:0:
448,192,78216,1,0,0:0:0:0:
320,192,78216,1,0,0:0:0:0:
192,192,78311,1,0,0:0:0:0:
64,192,78406,1,0,0:0:0:0:
192,192,78501,1,0,0:0:0:0:
448,192,78501,1,0,0:0:0:0:
320,192,78597,1,0,0:0:0:0:
448,192,78692,1,0,0:0:0:0:
64,192,78787,1,0,0:0:0:0:
192,192,78787,1,0,0:0:0:0:
320,192,78882,1,0,0:0:0:0:
448,192,78978,1,0,0:0:0:0:
64,192,79073,128,0,79359:0:0:0:0:
192,192,79073,1,0,0:0:0:0:
192,192,79359,1,0,0:0:0:0:
320,192,79359,1,0,0:0:0:0:
448,192,79454,1,0,0:0:0:0:
320,192,79549,1,0,0:0:0:0:
448,192,79644,1,0,0:0:0:0:
192,192,79739,1,0,0:0:0:0:
320,192,79835,1,0,0:0:0:0:
64,192,79930,1,0,0:0:0:0:
192,192,79930,1,0,0:0:0:0:
320,192,80025,1,0,0:0:0:0:
64,192,80120,1,0,0:0:0:0:
192,192,80216,1,0,0:0:0:0:
448,192,80216,1,0,0:0:0:0:
320,192,80311,1,0,0:0:0:0:
192,192,80406,1,0,0:0:0:0:
64,192,80501,1,0,0:0:0:0:
448,192,80501,1,0,0:0:0:0:
192,192,80597,1,0,0:0:0:0:
320,192,80692,1,0,0:0:0:0:
192,192,80787,1,0,0:0:0:0:
64,192,80787,1,0,0:0:0:0:
448,192,80882,1,0,0:0:0:0:
320,192,80978,1,0,0:0:0:0:
192,192,81073,1,0,0:0:0:0:
448,192,81073,1,0,0:0:0:0:
64,192,81168,1,0,0:0:0:0:
192,192,81263,1,0,0:0:0:0:
320,192,81359,1,0,0:0:0:0:
448,192,81359,1,0,0:0:0:0:
64,192,81454,1,0,0:0:0:0:
320,192,81549,1,0,0:0:0:0:
192,192,81644,1,0,0:0:0:0:
64,192,81644,1,0,0:0:0:0:
320,192,81739,1,0,0:0:0:0:
64,192,81835,1,0,0:0:0:0:
192,192,81930,1,0,0:0:0:0:
448,192,81930,1,0,0:0:0:0:
320,192,82025,1,0,0:0:0:0:
64,192,82120,1,0,0:0:0:0:
448,192,82216,1,0,0:0:0:0:
320,192,82216,1,0,0:0:0:0:
192,192,82311,1,0,0:0:0:0:
64,192,82406,1,0,0:0:0:0:
192,192,82501,1,0,0:0:0:0:
448,192,82501,1,0,0:0:0:0:
320,192,82597,1,0,0:0:0:0:
448,192,82692,1,0,0:0:0:0:
64,192,82787,1,0,0:0:0:0:
192,192,82787,1,0,0:0:0:0:
320,192,82882,1,0,0:0:0:0:
192,192,82978,1,0,0:0:0:0:
448,192,83073,1,0,0:0:0:0:
64,192,83073,1,0,0:0:0:0:
320,192,83168,1,0,0:0:0:0:
64,192,83263,1,0,0:0:0:0:
320,192,83359,1,0,0:0:0:0:
448,192,83359,128,0,83644:0:0:0:0:
64,192,83644,128,0,83930:0:0:0:0:
192,192,83644,1,0,0:0:0:0:
192,192,83930,1,0,0:0:0:0:
448,192,83930,1,0,0:0:0:0:
320,192,84025,1,0,0:0:0:0:
64,192,84120,1,0,0:0:0:0:
192,192,84216,1,0,0:0:0:0:
448,192,84216,1,0,0:0:0:0:
320,192,84311,1,0,0:0:0:0:
192,192,84406,1,0,0:0:0:0:
64,192,84501,1,0,0:0:0:0:
448,192,84501,1,0,0:0:0:0:
192,192,84597,1,0,0:0:0:0:
320,192,84692,1,0,0:0:0:0:
192,192,84787,1,0,0:0:0:0:
64,192,84787,1,0,0:0:0:0:
448,192,84882,1,0,0:0:0:0:
320,192,84978,1,0,0:0:0:0:
192,192,85073,1,0,0:0:0:0:
448,192,85073,1,0,0:0:0:0:
64,192,85168,1,0,0:0:0:0:
192,192,85263,1,0,0:0:0:0:
320,192,85359,1,0,0:0:0:0:
448,192,85359,1,0,0:0:0:0:
64,192,85454,1,0,0:0:0:0:
448,192,85549,1,0,0:0:0:0:
192,192,85644,1,0,0:0:0:0:
64,192,85644,1,0,0:0:0:0:
320,192,85739,1,0,0:0:0:0:
448,192,85835,1,0,0:0:0:0:
64,192,85930,1,0,0:0:0:0:
320,192,85930,1,0,0:0:0:0:
192,192,86025,1,0,0:0:0:0:
64,192,86120,1,0,0:0:0:0:
448,192,86216,1,0,0:0:0:0:
320,192,86251,1,0,0:0:0:0:
192,192,86287,1,0,0:0:0:0:
64,192,86323,1,0,0:0:0:0:
448,192,86406,1,0,0:0:0:0:
320,192,86501,1,0,0:0:0:0:
448,192,86597,1,0,0:0:0:0:
192,192,86692,1,0,0:0:0:0:
320,192,86787,1,0,0:0:0:0:
192,192,86882,1,0,0:0:0:0:
448,192,86978,1,0,0:0:0:0:
192,192,87073,1,0,0:0:0:0:
64,192,87073,1,0,0:0:0:0:
320,192,87073,1,0,0:0:0:0:
448,192,87168,1,0,0:0:0:0:
192,192,87263,1,0,0:0:0:0:
64,192,87359,1,0,0:0:0:0:
320,192,87359,1,0,0:0:0:0:
448,192,87359,1,0,0:0:0:0:
192,192,87454,1,0,0:0:0:0:
64,192,87549,1,0,0:0:0:0:
320,192,87644,1,0,0:0:0:0:
192,192,87739,1,0,0:0:0:0:
448,192,87835,1,0,0:0:0:0:
320,192,87930,1,0,0:0:0:0:
64,192,88025,1,0,0:0:0:0:
192,192,88120,1,0,0:0:0:0:
64,192,88216,1,0,0:0:0:0:
320,192,88216,1,0,0:0:0:0:
448,192,88216,1,0,0:0:0:0:
192,192,88311,1,0,0:0:0:0:
320,192,88406,1,0,0:0:0:0:
64,192,88501,1,0,0:0:0:0:
192,192,88501,1,0,0:0:0:0:
448,192,88501,1,0,0:0:0:0:
320,192,88597,1,0,0:0:0:0:
448,192,88692,1,0,0:0:0:0:
192,192,88787,1,0,0:0:0:0:
320,192,88882,1,0,0:0:0:0:
64,192,88978,1,0,0:0:0:0:
192,192,89073,1,0,0:0:0:0:
64,192,89168,1,0,0:0:0:0:
320,192,89263,1,0,0:0:0:0:
192,192,89359,1,0,0:0:0:0:
64,192,89359,1,0,0:0:0:0:
448,192,89359,1,0,0:0:0:0:
320,192,89454,1,0,0:0:0:0:
192,192,89549,1,0,0:0:0:0:
448,192,89644,1,0,0:0:0:0:
320,192,89644,1,0,0:0:0:0:
64,192,89644,1,0,0:0:0:0:
192,192,89739,1,0,0:0:0:0:
320,192,89835,1,0,0:0:0:0:
192,192,89930,1,0,0:0:0:0:
64,192,89930,1,0,0:0:0:0:
448,192,89930,1,0,0:0:0:0:
320,192,90025,1,0,0:0:0:0:
192,192,90120,1,0,0:0:0:0:
64,192,90216,1,0,0:0:0:0:
320,192,90216,1,0,0:0:0:0:
448,192,90216,1,0,0:0:0:0:
192,192,90311,1,0,0:0:0:0:
320,192,90406,1,0,0:0:0:0:
192,192,90501,1,0,0:0:0:0:
64,192,90501,1,0,0:0:0:0:
448,192,90501,1,0,0:0:0:0:
320,192,90597,1,0,0:0:0:0:
192,192,90692,1,0,0:0:0:0:
64,192,90787,1,0,0:0:0:0:
320,192,90787,1,0,0:0:0:0:
448,192,90787,1,0,0:0:0:0:
448,192,91073,1,0,0:0:0:0:
320,192,91073,1,0,0:0:0:0:
192,192,91168,1,0,0:0:0:0:
64,192,91168,1,0,0:0:0:0:
448,192,91263,1,0,0:0:0:0:
320,192,91359,1,0,0:0:0:0:
192,192,91359,1,0,0:0:0:0:
64,192,91454,1,0,0:0:0:0:
448,192,91454,1,0,0:0:0:0:
320,192,91549,1,0,0:0:0:0:
192,192,91644,1,0,0:0:0:0:
64,192,91644,1,0,0:0:0:0:
320,192,91739,1,0,0:0:0:0:
448,192,91739,1,0,0:0:0:0:
192,192,91835,1,0,0:0:0:0:
64,192,91930,1,0,0:0:0:0:
448,192,91930,1,0,0:0:0:0:
192,192,92025,1,0,0:0:0:0:
320,192,92025,1,0,0:0:0:0:
64,192,92120,1,0,0:0:0:0:
448,192,92216,1,0,0:0:0:0:
320,192,92216,1,0,0:0:0:0:
192,192,92311,1,0,0:0:0:0:
64,192,92311,1,0,0:0:0:0:
448,192,92406,1,0,0:0:0:0:
192,192,92501,1,0,0:0:0:0:
320,192,92501,1,0,0:0:0:0:
64,192,92597,1,0,0:0:0:0:
448,192,92597,1,0,0:0:0:0:
320,192,92692,1,0,0:0:0:0:
192,192,92787,1,0,0:0:0:0:
64,192,92787,1,0,0:0:0:0:
320,192,92882,1,0,0:0:0:0:
448,192,92882,1,0,0:0:0:0:
192,192,92978,1,0,0:0:0:0:
64,192,93073,1,0,0:0:0:0:
448,192,93073,1,0,0:0:0:0:
192,192,93168,1,0,0:0:0:0:
320,192,93263,1,0,0:0:0:0:
448,192,93359,1,0,0:0:0:0:
64,192,93359,1,0,0:0:0:0:
320,192,93454,1,0,0:0:0:0:
192,192,93549,1,0,0:0:0:0:
64,192,93644,1,0,0:0:0:0:
448,192,93644,1,0,0:0:0:0:
192,192,93739,1,0,0:0:0:0:
320,192,93835,1,0,0:0:0:0:
448,192,93930,1,0,0:0:0:0:
64,192,93930,1,0,0:0:0:0:
320,192,94025,1,0,0:0:0:0:
192,192,94120,1,0,0:0:0:0:
64,192,94216,1,0,0:0:0:0:
448,192,94216,1,0,0:0:0:0:
192,192,94311,1,0,0:0:0:0:
320,192,94406,1,0,0:0:0:0:
448,192,94501,1,0,0:0:0:0:
64,192,94501,1,0,0:0:0:0:
320,192,94597,1,0,0:0:0:0:
192,192,94692,1,0,0:0:0:0:
64,192,94787,1,0,0:0:0:0:
448,192,94787,1,0,0:0:0:0:
192,192,94882,1,0,0:0:0:0:
320,192,94978,1,0,0:0:0:0:
448,192,95073,1,0,0:0:0:0:
64,192,95073,1,0,0:0:0:0:
320,192,95168,1,0,0:0:0:0:
192,192,95263,1,0,0:0:0:0:
64,192,95359,1,0,0:0:0:0:
448,192,95359,1,0,0:0:0:0:
448,192,95549,1,0,0:0:0:0:
320,192,95549,1,0,0:0:0:0:
192,192,95644,1,0,0:0:0:0:
64,192,95644,1,0,0:0:0:0:
448,192,95739,1,0,0:0:0:0:
320,192,95835,1,0,0:0:0:0:
192,192,95835,1,0,0:0:0:0:
64,192,95930,1,0,0:0:0:0:
448,192,95930,1,0,0:0:0:0:
192,192,96025,1,0,0:0:0:0:
448,192,96120,1,0,0:0:0:0:
320,192,96120,1,0,0:0:0:0:
192,192,96216,1,0,0:0:0:0:
64,192,96216,1,0,0:0:0:0:
448,192,96311,1,0,0:0:0:0:
320,192,96406,1,0,0:0:0:0:
192,192,96406,1,0,0:0:0:0:
64,192,96501,128,0,96787:0:0:0:0:
448,192,96501,1,0,0:0:0:0:
64,192,97073,1,0,0:0:0:0:
192,192,97144,1,0,0:0:0:0:
320,192,97216,1,0,0:0:0:0:
448,192,97359,128,0,97644:0:0:0:0:
64,192,97359,1,0,0:0:0:0:
320,192,97644,128,0,98787:0:0:0:0:
192,192,97644,128,0,98787:0:0:0:0:
64,192,97644,128,0,98787:0:0:0:0:
