osu file format v14

[General]
AudioFilename: audio.mp3
AudioLeadIn: 0
PreviewTime: 44816
Countdown: 1
SampleSet: Normal
StackLeniency: 0.2
Mode: 0
LetterboxInBreaks: 0
WidescreenStoryboard: 1

[Editor]
Bookmarks: 22665,54931,57722,110745,113536,123303,148245,170571,202838,205629,232489,243129,251849
DistanceSpacing: 1
BeatDivisor: 4
GridSize: 4
TimelineZoom: 1.250003

[Metadata]
Title:oddloop
TitleUnicode:オドループ
Artist:Frederic
ArtistUnicode:フレデリック
Creator:n0ah
Version:oldnoob
Source:
Tags:
BeatmapID:1142960
BeatmapSetID:536872

[Difficulty]
HPDrainRate:5
CircleSize:5
OverallDifficulty:7
ApproachRate:7
SliderMultiplier:0.999999999999999
SliderTickRate:1

[Events]
//Background and Video events
0,0,"A_yellow_flower_in_late_summer.jpg",0,0
//Break Periods
//Storyboard Layer 0 (Background)
//Storyboard Layer 1 (Fail)
//Storyboard Layer 2 (Pass)
//Storyboard Layer 3 (Foreground)
//Storyboard Sound Samples

[TimingPoints]
513,348.837209302326,4,1,0,100,1,0
38886,-200,4,1,0,100,0,0
44989,-100,4,1,0,100,0,1
67315,-100,4,1,0,100,0,0
83536,-200,4,1,0,100,0,0
84233,-66.6666666666667,4,1,0,100,0,0
84757,-50,4,1,0,100,0,0
85106,-100,4,1,0,100,0,0
89117,-200,4,1,0,100,0,0
89815,-100,4,1,0,100,0,0
100803,-100,4,1,0,100,0,1
103594,-66.6666666666667,4,1,0,100,0,1
103768,-100,4,1,0,100,0,1
106385,-66.6666666666667,4,1,0,100,0,1
106559,-100,4,1,0,100,0,1
123303,-200,4,1,0,100,0,0
124001,-100,4,1,0,100,0,0
126268,-200,4,1,0,100,0,0
126617,-100,4,1,0,100,0,0
148245,-66.6666666666667,4,1,0,100,0,1
159233,-100,4,1,0,100,0,1
159757,-66.6666666666667,4,1,0,100,0,1
165338,-100,4,1,0,100,0,1
166385,-200,4,1,0,100,0,1
166908,-66.6666666666667,4,1,0,100,0,1
170570,-66.6666666666667,4,1,0,100,0,0
170571,-66.6666666666667,4,1,0,100,0,1
190106,-100,4,1,0,100,0,0
192896,-100,4,1,0,100,0,1
194292,-50,4,1,0,100,0,1
194466,-100,4,1,0,100,0,1
231792,-66.6666666666667,4,1,0,100,0,1
232489,-200,4,1,0,100,0,1
232838,-100,4,1,0,100,0,1
233187,-66.6666666666667,4,1,0,100,0,1
233536,-50,4,1,0,100,0,1
233885,174.418604651163,4,1,0,100,1,1
233885,-66.6666666666667,4,1,0,100,0,1
234059,348.837209302326,4,1,0,100,1,1
234756,-66.6666666666667,4,1,0,100,0,1
243129,-100,4,1,0,100,0,0

[HitObjects]
76,76,339,5,0,0:0:0:0:
76,76,426,1,0,0:0:0:0:
76,76,514,1,0,0:0:0:0:
176,75,862,2,0,L|176:175,1,99.9999999999999
25,175,1560,1,0,0:0:0:0:
25,175,1734,1,0,0:0:0:0:
176,175,2083,1,0,0:0:0:0:
176,276,2432,1,0,0:0:0:0:
176,276,2607,1,0,0:0:0:0:
176,276,2781,1,0,0:0:0:0:
276,276,3130,5,0,0:0:0:0:
300,276,3217,1,0,0:0:0:0:
276,276,3304,1,0,0:0:0:0:
276,176,3653,2,0,L|392:176,1,99.9999999999999
376,76,4351,1,0,0:0:0:0:
376,76,4525,1,0,0:0:0:0:
276,76,4874,1,0,0:0:0:0:
376,76,5223,1,0,0:0:0:0:
376,76,5397,1,0,0:0:0:0:
276,76,5572,1,0,0:0:0:0:
176,76,5920,5,0,0:0:0:0:
152,76,6008,1,0,0:0:0:0:
152,52,6095,1,0,0:0:0:0:
152,152,6444,2,0,L|152:256,1,99.9999999999999
252,252,7141,1,0,0:0:0:0:
252,200,7316,1,0,0:0:0:0:
352,200,7665,1,0,0:0:0:0:
252,200,8014,1,0,0:0:0:0:
252,252,8187,1,0,0:0:0:0:
252,200,8362,1,0,0:0:0:0:
352,200,8711,5,0,0:0:0:0:
352,176,8798,1,0,0:0:0:0:
352,152,8886,1,0,0:0:0:0:
352,200,9234,2,0,L|352:320,1,99.9999999999999
252,300,9932,1,0,0:0:0:0:
252,244,10107,1,0,0:0:0:0:
168,300,10455,1,0,0:0:0:0:
168,200,10804,1,0,0:0:0:0:
168,252,10979,1,0,0:0:0:0:
120,252,11153,1,0,0:0:0:0:
220,252,11502,5,0,0:0:0:0:
244,252,11589,1,0,0:0:0:0:
268,252,11676,1,0,0:0:0:0:
368,252,12025,2,0,L|368:132,1,99.9999999999999
268,152,12723,1,0,0:0:0:0:
368,152,12897,1,0,0:0:0:0:
268,152,13246,1,0,0:0:0:0:
168,152,13595,1,0,0:0:0:0:
168,104,13769,1,0,0:0:0:0:
168,52,13944,1,0,0:0:0:0:
268,52,14293,5,0,0:0:0:0:
292,52,14380,1,0,0:0:0:0:
316,52,14467,1,0,0:0:0:0:
416,52,14816,2,0,L|304:52,1,99.9999999999999
316,152,15514,1,0,0:0:0:0:
316,200,15688,1,0,0:0:0:0:
416,200,16037,1,0,0:0:0:0:
316,200,16386,1,0,0:0:0:0:
316,152,16560,1,0,0:0:0:0:
316,104,16734,1,0,0:0:0:0:
216,152,17083,5,0,0:0:0:0:
192,152,17170,1,0,0:0:0:0:
192,176,17258,1,0,0:0:0:0:
192,276,17607,1,0,0:0:0:0:
292,276,17955,2,0,L|192:276,1,99.9999999999999
392,276,18479,1,0,0:0:0:0:
392,176,18827,1,0,0:0:0:0:
492,228,19176,1,0,0:0:0:0:
492,176,19351,1,0,0:0:0:0:
492,128,19525,1,0,0:0:0:0:
492,28,19874,5,0,0:0:0:0:
468,28,19961,1,0,0:0:0:0:
444,28,20048,1,0,0:0:0:0:
372,96,20397,2,0,L|272:96,1,99.9999999999999
272,196,21095,1,0,0:0:0:0:
224,196,21269,1,0,0:0:0:0:
124,196,21618,1,0,0:0:0:0:
124,96,21967,1,0,0:0:0:0:
172,96,22141,1,0,0:0:0:0:
224,96,22316,1,0,0:0:0:0:
324,96,22665,5,0,0:0:0:0:
376,148,22839,1,0,0:0:0:0:
428,96,23188,1,0,0:0:0:0:
324,200,23362,1,0,0:0:0:0:
217,306,23711,1,0,0:0:0:0:
164,252,23885,1,0,0:0:0:0:
60,148,24060,1,0,0:0:0:0:
112,200,24234,2,0,L|187:131,1,99.9999999999999
412,132,25107,5,0,0:0:0:0:
412,208,25281,1,0,0:0:0:0:
336,208,25455,1,0,0:0:0:0:
336,132,25630,2,0,L|256:52,1,99.9999999999999
260,208,26153,2,0,L|184:132,1,99.9999999999999
120,208,26851,1,0,0:0:0:0:
120,284,27025,1,0,0:0:0:0:
260,284,27374,1,0,0:0:0:0:
392,152,28246,5,0,0:0:0:0:
316,152,28420,1,0,0:0:0:0:
316,76,28595,1,0,0:0:0:0:
240,76,28769,1,0,0:0:0:0:
316,76,28944,1,0,0:0:0:0:
316,152,29118,1,0,0:0:0:0:
316,76,29293,1,0,0:0:0:0:
240,76,29467,1,0,0:0:0:0:
164,76,29641,1,0,0:0:0:0:
164,152,29816,2,0,B|240:152|240:152|240:184,1,99.9999999999999
240,288,30688,5,0,0:0:0:0:
316,288,30862,1,0,0:0:0:0:
468,288,31037,1,0,0:0:0:0:
392,288,31211,1,0,0:0:0:0:
468,136,31560,1,0,0:0:0:0:
468,136,31734,1,0,0:0:0:0:
468,136,32083,1,0,0:0:0:0:
316,136,32432,1,0,0:0:0:0:
316,136,32607,1,0,0:0:0:0:
392,136,32781,1,0,0:0:0:0:
468,136,32955,1,0,0:0:0:0:
468,136,33304,2,0,L|468:200,2,50
468,36,33827,5,0,0:0:0:0:
392,36,34002,1,0,0:0:0:0:
316,36,34351,1,0,0:0:0:0:
168,36,34525,1,0,0:0:0:0:
168,188,34874,1,0,0:0:0:0:
92,188,35048,1,0,0:0:0:0:
92,264,35223,1,0,0:0:0:0:
168,264,35397,1,0,0:0:0:0:
168,340,35746,1,0,0:0:0:0:
392,340,36269,5,0,0:0:0:0:
468,340,36444,1,0,0:0:0:0:
392,264,36618,1,0,0:0:0:0:
468,264,36793,1,0,0:0:0:0:
464,188,37141,1,0,0:0:0:0:
392,188,37316,1,0,0:0:0:0:
240,188,37665,1,0,0:0:0:0:
88,188,38014,1,0,0:0:0:0:
88,112,38188,1,0,0:0:0:0:
164,112,38362,1,0,0:0:0:0:
164,188,38537,1,0,0:0:0:0:
164,340,38886,6,0,L|112:340,2,50
314,340,39932,1,0,0:0:0:0:
464,340,40281,1,0,0:0:0:0:
464,264,40455,1,0,0:0:0:0:
388,264,40630,1,0,0:0:0:0:
388,340,40804,1,0,0:0:0:0:
388,188,40979,1,0,0:0:0:0:
464,188,41327,1,0,0:0:0:0:
388,76,41851,5,0,0:0:0:0:
312,76,42025,1,0,0:0:0:0:
236,76,42199,1,0,0:0:0:0:
84,76,42548,1,0,0:0:0:0:
236,76,42897,1,0,0:0:0:0:
84,76,43246,1,0,0:0:0:0:
236,76,43594,1,0,0:0:0:0:
84,76,43943,1,0,0:0:0:0:
84,152,44118,1,0,0:0:0:0:
84,228,44292,1,0,0:0:0:0:
158,226,44466,1,0,0:0:0:0:
412,68,44990,5,0,0:0:0:0:
412,216,45164,1,0,0:0:0:0:
412,68,45513,1,0,0:0:0:0:
336,68,45687,1,0,0:0:0:0:
260,68,46036,1,0,0:0:0:0:
260,144,46210,1,0,0:0:0:0:
260,220,46385,1,0,0:0:0:0:
184,220,46559,1,0,0:0:0:0:
260,220,46734,1,0,0:0:0:0:
336,220,46908,1,0,0:0:0:0:
85,220,47780,5,0,0:0:0:0:
84,144,47955,1,0,0:0:0:0:
236,144,48304,1,0,0:0:0:0:
236,220,48478,1,0,0:0:0:0:
160,220,48827,1,0,0:0:0:0:
160,144,49001,1,0,0:0:0:0:
160,68,49176,1,0,0:0:0:0:
160,68,49350,1,0,0:0:0:0:
236,68,49525,1,0,0:0:0:0:
312,68,49699,1,0,0:0:0:0:
236,68,49873,1,0,0:0:0:0:
312,68,50048,1,0,0:0:0:0:
312,268,50571,5,0,0:0:0:0:
212,268,50745,2,0,L|316:268,1,99.9999999999999
388,268,51269,2,0,L|388:166,1,99.9999999999999
464,168,51792,1,0,0:0:0:0:
464,92,51966,1,0,0:0:0:0:
312,168,52141,1,0,0:0:0:0:
312,92,52315,1,0,0:0:0:0:
388,92,52490,1,0,0:0:0:0:
136,300,53362,5,0,0:0:0:0:
60,300,53536,1,0,0:0:0:0:
62,168,53885,1,0,0:0:0:0:
62,168,54059,2,0,L|162:168,1,99.9999999999999
163,234,54583,2,0,L|163:306,1,50
163,284,54932,5,0,1:0:0:0:
348,284,55107,1,0,1:0:0:0:
348,99,55281,1,0,1:0:0:0:
163,99,55455,1,0,1:0:0:0:
163,284,55630,1,0,1:0:0:0:
348,284,55804,1,0,1:0:0:0:
348,99,55979,1,0,1:0:0:0:
163,99,56153,1,0,1:0:0:0:
256,324,57723,5,0,0:0:0:0:
123,191,57897,1,0,0:0:0:0:
256,59,58072,1,0,0:0:0:0:
388,192,58245,1,0,0:0:0:0:
255,324,58420,1,0,0:0:0:0:
123,191,58594,1,0,0:0:0:0:
256,59,58769,1,0,0:0:0:0:
388,192,58944,1,0,0:0:0:0:
255,324,59118,1,0,0:0:0:0:
104,324,59466,1,0,0:0:0:0:
180,324,59641,1,0,0:0:0:0:
328,324,59990,1,0,0:0:0:0:
404,324,60164,1,0,0:0:0:0:
404,248,60339,1,0,0:0:0:0:
328,248,60513,1,0,0:0:0:0:
328,324,60687,1,0,0:0:0:0:
404,248,60862,1,0,0:0:0:0:
404,68,61734,5,0,0:0:0:0:
252,68,61908,1,0,0:0:0:0:
328,68,62257,1,0,0:0:0:0:
176,68,62431,1,0,0:0:0:0:
100,68,62780,2,0,L|100:136,1,50
100,192,63129,1,0,0:0:0:0:
100,268,63304,1,0,0:0:0:0:
176,268,63478,1,0,0:0:0:0:
176,192,63652,1,0,0:0:0:0:
176,268,63827,1,0,0:0:0:0:
176,268,64001,1,0,0:0:0:0:
176,192,64350,1,0,0:0:0:0:
328,192,64699,6,0,L|328:88,1,99.9999999999999
328,192,65222,1,0,0:0:0:0:
328,92,65397,2,0,L|328:192,1,99.9999999999999
404,192,65920,1,0,0:0:0:0:
480,192,66094,1,0,0:0:0:0:
480,268,66444,1,0,0:0:0:0:
404,268,66618,1,0,0:0:0:0:
328,268,66792,1,0,0:0:0:0:
328,120,67315,5,0,0:0:0:0:
328,120,67402,1,0,0:0:0:0:
276,120,67490,1,0,0:0:0:0:
176,120,67839,1,0,0:0:0:0:
176,220,68187,1,0,0:0:0:0:
76,220,68536,1,0,0:0:0:0:
76,168,68711,1,0,0:0:0:0:
76,68,69059,1,0,0:0:0:0:
176,68,69408,1,0,0:0:0:0:
228,68,69583,1,0,0:0:0:0:
276,68,69757,1,0,0:0:0:0:
276,168,70106,6,0,L|240:168,2,25
376,168,70629,1,0,0:0:0:0:
276,168,70978,1,0,0:0:0:0:
276,268,71327,1,0,0:0:0:0:
276,268,71501,1,0,0:0:0:0:
376,268,71850,1,0,0:0:0:0:
376,168,72199,1,0,0:0:0:0:
328,168,72373,1,0,0:0:0:0:
276,168,72548,1,0,0:0:0:0:
276,68,72897,5,0,0:0:0:0:
276,116,72984,1,0,0:0:0:0:
276,168,73071,1,0,0:0:0:0:
176,168,73420,1,0,0:0:0:0:
76,168,73769,1,0,0:0:0:0:
76,268,74118,1,0,0:0:0:0:
76,220,74292,1,0,0:0:0:0:
176,220,74641,1,0,0:0:0:0:
128,120,74990,1,0,0:0:0:0:
128,168,75164,1,0,0:0:0:0:
128,220,75339,1,0,0:0:0:0:
128,328,75687,5,0,0:0:0:0:
128,328,75775,1,0,0:0:0:0:
128,328,75862,1,0,0:0:0:0:
240,328,76211,1,0,0:0:0:0:
352,328,76560,1,0,0:0:0:0:
128,328,76908,1,0,0:0:0:0:
240,328,77083,1,0,0:0:0:0:
352,328,77432,1,0,0:0:0:0:
352,220,77780,1,0,0:0:0:0:
352,164,77955,1,0,0:0:0:0:
352,220,78129,1,0,0:0:0:0:
240,164,78478,5,0,0:0:0:0:
240,220,78652,2,0,L|136:220,1,99.9999999999999
140,220,79175,1,0,0:0:0:0:
91,223,79524,1,0,0:0:0:0:
140,220,79699,1,0,0:0:0:0:
140,170,79873,1,0,0:0:0:0:
140,120,80047,1,0,0:0:0:0:
240,120,80396,1,0,0:0:0:0:
388,120,80919,5,0,0:0:0:0:
388,172,81094,1,0,0:0:0:0:
388,220,81268,1,0,0:0:0:0:
388,270,81443,2,0,L|388:220,1,50
340,268,81792,1,0,0:0:0:0:
240,268,81966,1,0,0:0:0:0:
188,268,82315,1,0,0:0:0:0:
140,268,82489,1,0,0:0:0:0:
140,320,82664,1,0,0:0:0:0:
188,320,82838,1,0,0:0:0:0:
188,268,83013,1,0,0:0:0:0:
188,220,83187,1,0,0:0:0:0:
60,68,83536,6,0,L|116:68,2,50
188,68,84408,2,0,L|292:68,1,75.000002861023
388,68,84757,2,0,L|188:68,1,200
388,120,85280,1,0,0:0:0:0:
388,168,85454,1,0,0:0:0:0:
388,220,85629,1,0,0:0:0:0:
488,220,85978,1,0,0:0:0:0:
488,172,86501,5,0,0:0:0:0:
440,172,86675,1,0,0:0:0:0:
440,224,86850,1,0,0:0:0:0:
440,272,87024,1,0,0:0:0:0:
340,272,87373,1,0,0:0:0:0:
340,224,87547,1,0,0:0:0:0:
340,124,87896,1,0,0:0:0:0:
288,124,88071,1,0,0:0:0:0:
240,124,88245,1,0,0:0:0:0:
240,76,88419,1,0,0:0:0:0:
240,176,88594,1,0,0:0:0:0:
192,176,88768,1,0,0:0:0:0:
52,316,89117,6,0,B|-8:316,2,50
152,316,89989,1,0,0:0:0:0:
152,216,90164,1,0,0:0:0:0:
252,216,90338,2,0,L|252:336,2,99.9999999999999
252,116,91210,1,0,0:0:0:0:
352,116,91385,1,0,0:0:0:0:
352,16,91559,1,0,0:0:0:0:
252,16,91733,2,0,L|148:16,1,99.9999999999999
52,16,92257,1,0,0:0:0:0:
152,16,92431,1,0,0:0:0:0:
252,16,92606,1,0,0:0:0:0:
252,116,92954,1,0,0:0:0:0:
152,116,93128,1,0,0:0:0:0:
52,116,93478,1,0,0:0:0:0:
52,216,93826,1,0,0:0:0:0:
152,216,94001,2,0,L|152:320,2,99.9999999999999
452,216,95222,5,0,0:0:0:0:
452,316,95396,1,0,0:0:0:0:
352,316,95745,2,0,L|280:316,1,50
300,256,96094,2,0,L|372:256,1,50
352,204,96443,1,0,0:0:0:0:
352,156,96617,1,0,0:0:0:0:
252,156,96792,1,0,0:0:0:0:
252,56,96966,1,0,0:0:0:0:
252,56,97140,1,0,0:0:0:0:
152,56,97315,1,0,0:0:0:0:
152,56,97489,1,0,0:0:0:0:
152,156,97664,1,0,0:0:0:0:
152,156,97838,1,0,0:0:0:0:
152,256,98013,1,0,0:0:0:0:
152,356,98187,1,0,0:0:0:0:
152,256,98361,1,0,0:0:0:0:
152,356,98536,1,0,0:0:0:0:
252,356,98710,1,0,0:0:0:0:
352,356,98885,1,0,0:0:0:0:
352,256,99059,1,0,0:0:0:0:
352,256,99233,1,0,0:0:0:0:
352,156,99408,5,0,0:0:0:0:
352,156,99582,1,0,0:0:0:0:
110,152,99757,1,0,0:0:0:0:
233,66,99931,1,0,0:0:0:0:
154,296,100106,1,0,0:0:0:0:
303,298,100280,1,0,0:0:0:0:
476,156,100803,5,0,0:0:0:0:
476,156,100978,1,0,0:0:0:0:
476,304,101326,1,0,0:0:0:0:
476,304,101501,1,0,0:0:0:0:
476,156,101850,1,0,0:0:0:0:
476,80,102024,1,0,0:0:0:0:
400,80,102199,1,0,0:0:0:0:
324,80,102373,1,0,0:0:0:0:
400,80,102547,1,0,0:0:0:0:
324,156,102722,1,0,0:0:0:0:
72,159,103594,6,0,L|72:84,1,75.000002861023
148,160,104117,1,0,0:0:0:0:
148,84,104292,1,0,0:0:0:0:
148,232,104640,1,0,0:0:0:0:
72,232,104815,1,0,0:0:0:0:
148,232,104989,1,0,0:0:0:0:
224,232,105164,1,0,0:0:0:0:
224,156,105338,2,0,L|224:100,1,50
224,232,105687,1,0,0:0:0:0:
224,308,105861,1,0,0:0:0:0:
376,312,106385,6,0,L|376:216,1,75.000002861023
376,164,106908,1,0,0:0:0:0:
376,88,107082,1,0,0:0:0:0:
376,164,107431,1,0,0:0:0:0:
300,164,107606,1,0,0:0:0:0:
224,164,107780,1,0,0:0:0:0:
224,88,107954,1,0,0:0:0:0:
300,88,108129,1,0,0:0:0:0:
224,88,108303,1,0,0:0:0:0:
36,88,109175,5,0,0:0:0:0:
36,164,109350,1,0,0:0:0:0:
112,164,109699,1,0,0:0:0:0:
36,164,109873,1,0,0:0:0:0:
188,164,110222,1,0,0:0:0:0:
340,164,110396,1,0,0:0:0:0:
264,164,110571,1,0,0:0:0:0:
264,264,110745,5,0,0:0:0:0:
412,264,110919,1,0,0:0:0:0:
412,116,111094,1,0,0:0:0:0:
264,264,111268,1,0,0:0:0:0:
412,264,111443,1,0,0:0:0:0:
412,116,111617,1,0,0:0:0:0:
264,264,111792,1,0,0:0:0:0:
412,264,111966,1,0,0:0:0:0:
156,264,113536,5,0,0:0:0:0:
355,264,113710,1,0,0:0:0:0:
256,92,113885,1,0,0:0:0:0:
156,264,114059,1,0,0:0:0:0:
355,264,114233,1,0,0:0:0:0:
256,92,114408,1,0,0:0:0:0:
156,264,114582,1,0,0:0:0:0:
355,264,114757,1,0,0:0:0:0:
156,264,114931,1,0,0:0:0:0:
256,264,115280,5,0,0:0:0:0:
256,264,115454,1,0,0:0:0:0:
256,164,115803,1,0,0:0:0:0:
332,164,115978,1,0,0:0:0:0:
332,88,116152,1,0,0:0:0:0:
256,88,116326,1,0,0:0:0:0:
180,88,116501,1,0,0:0:0:0:
180,164,116675,1,0,0:0:0:0:
480,88,117547,5,0,0:0:0:0:
480,164,117722,1,0,0:0:0:0:
404,164,118071,1,0,0:0:0:0:
404,240,118246,1,0,0:0:0:0:
480,240,118594,1,0,0:0:0:0:
480,316,118769,1,0,0:0:0:0:
404,316,118943,1,0,0:0:0:0:
328,316,119117,1,0,0:0:0:0:
252,316,119292,1,0,0:0:0:0:
176,316,119466,1,0,0:0:0:0:
100,316,119640,1,0,0:0:0:0:
24,316,119815,1,0,0:0:0:0:
24,316,120164,1,0,0:0:0:0:
200,140,120513,5,0,0:0:0:0:
348,140,120861,1,0,0:0:0:0:
348,140,121036,1,0,0:0:0:0:
200,64,121210,1,0,0:0:0:0:
352,64,121559,1,0,0:0:0:0:
352,64,121734,1,0,0:0:0:0:
200,64,121908,1,0,0:0:0:0:
504,64,122257,1,0,0:0:0:0:
428,64,122431,1,0,0:0:0:0:
428,140,122606,1,0,0:0:0:0:
216,352,123303,6,0,L|160:352,2,50
216,300,124175,1,0,0:0:0:0:
216,248,124350,1,0,0:0:0:0:
216,200,124524,1,0,0:0:0:0:
116,200,124699,1,0,0:0:0:0:
116,248,125047,1,0,0:0:0:0:
116,300,125222,1,0,0:0:0:0:
364,300,126268,6,0,L|364:240,1,50
364,200,126792,1,0,0:0:0:0:
364,152,126966,1,0,0:0:0:0:
364,104,127140,1,0,0:0:0:0:
312,104,127315,1,0,0:0:0:0:
248,104,127489,1,0,0:0:0:0:
168,104,127838,1,0,0:0:0:0:
68,104,128012,1,0,0:0:0:0:
68,304,128710,5,0,0:0:0:0:
68,252,128885,1,0,0:0:0:0:
68,152,129233,1,0,0:0:0:0:
68,204,129408,1,0,0:0:0:0:
68,304,130106,5,0,0:0:0:0:
68,252,130281,1,0,0:0:0:0:
68,152,130629,1,0,0:0:0:0:
68,204,130804,1,0,0:0:0:0:
368,152,131850,5,0,0:0:0:0:
332,188,132024,1,0,0:0:0:0:
368,224,132199,1,0,0:0:0:0:
404,188,132373,1,0,0:0:0:0:
440,152,132547,1,0,0:0:0:0:
368,80,132722,1,0,0:0:0:0:
296,152,132896,1,0,0:0:0:0:
368,224,133071,1,0,0:0:0:0:
364,324,133419,1,0,0:0:0:0:
364,324,133594,1,0,0:0:0:0:
116,324,134466,6,0,L|16:324,2,99.9999999999999
116,272,135338,1,0,0:0:0:0:
116,220,135513,1,0,0:0:0:0:
16,172,135687,1,0,0:0:0:0:
68,172,135861,1,0,0:0:0:0:
116,172,136210,1,0,0:0:0:0:
116,172,136385,1,0,0:0:0:0:
416,172,137431,6,0,L|416:236,2,50
416,222,137954,1,0,0:0:0:0:
416,272,138129,1,0,0:0:0:0:
416,320,138303,1,0,0:0:0:0:
316,320,138478,1,0,0:0:0:0:
316,220,138652,1,0,0:0:0:0:
316,120,138826,1,0,0:0:0:0:
316,20,139175,1,0,0:0:0:0:
216,120,140222,5,0,0:0:0:0:
316,120,140396,1,0,0:0:0:0:
416,120,140571,1,0,0:0:0:0:
416,20,140745,2,0,L|520:20,2,99.9999999999999
216,20,141792,1,0,0:0:0:0:
16,20,142140,1,0,0:0:0:0:
216,220,142489,1,0,0:0:0:0:
16,220,142838,1,0,0:0:0:0:
216,220,143361,1,0,0:0:0:0:
216,220,143536,1,0,0:0:0:0:
216,120,144233,1,0,0:0:0:0:
416,120,144756,1,0,0:0:0:0:
416,120,144931,1,0,0:0:0:0:
416,320,145629,5,0,0:0:0:0:
316,320,145978,1,0,0:0:0:0:
316,320,146153,1,0,0:0:0:0:
216,320,146327,1,0,0:0:0:0:
216,220,146501,1,0,0:0:0:0:
116,220,146675,1,0,0:0:0:0:
116,320,146850,1,0,0:0:0:0:
116,120,147024,1,0,0:0:0:0:
316,120,147373,1,0,0:0:0:0:
316,120,147547,1,0,0:0:0:0:
32,32,148245,5,0,0:0:0:0:
32,88,148332,1,0,0:0:0:0:
32,144,148419,1,0,0:0:0:0:
144,88,148594,5,0,0:0:0:0:
144,144,148681,1,0,0:0:0:0:
144,200,148768,1,0,0:0:0:0:
256,144,148943,5,0,0:0:0:0:
256,200,149030,1,0,0:0:0:0:
256,256,149117,1,0,0:0:0:0:
368,200,149292,5,0,0:0:0:0:
368,256,149379,1,0,0:0:0:0:
368,312,149466,1,0,0:0:0:0:
480,256,149640,5,0,0:0:0:0:
480,312,149728,1,0,0:0:0:0:
480,368,149815,1,0,0:0:0:0:
480,143,149989,1,0,0:0:0:0:
480,32,150164,1,0,0:0:0:0:
368,32,150338,1,0,0:0:0:0:
480,32,150513,1,0,0:0:0:0:
256,32,150861,5,0,0:0:0:0:
32,32,151036,5,0,0:0:0:0:
256,108,151210,5,0,0:0:0:0:
32,108,151385,5,0,0:0:0:0:
256,184,151559,5,0,0:0:0:0:
32,184,151733,5,0,0:0:0:0:
256,260,151908,5,0,0:0:0:0:
32,260,152082,5,0,0:0:0:0:
32,336,152431,6,0,B|60:361|108:342|95:329|143:310|171:336,1,150.000005722046
216,336,152867,1,0,0:0:0:0:
256,336,152954,1,0,0:0:0:0:
480,336,153129,1,0,0:0:0:0:
424,336,153216,1,0,0:0:0:0:
368,336,153303,1,0,0:0:0:0:
368,220,153652,1,0,0:0:0:0:
480,220,153826,1,0,0:0:0:0:
268,8,154175,5,0,0:0:0:0:
44,8,154524,1,0,0:0:0:0:
44,8,154699,1,0,0:0:0:0:
156,8,154873,1,0,0:0:0:0:
156,120,155047,1,0,0:0:0:0:
44,120,155222,1,0,0:0:0:0:
268,120,155571,5,0,0:0:0:0:
268,232,155745,1,0,0:0:0:0:
344,232,155919,2,0,L|269:232,1,75.000002861023
420,232,156268,1,0,0:0:0:0:
512,232,156617,5,0,0:0:0:0:
512,344,156792,1,0,0:0:0:0:
400,344,156966,1,0,0:0:0:0:
288,344,157140,1,0,0:0:0:0:
176,344,157315,1,0,0:0:0:0:
96,264,157489,1,0,0:0:0:0:
176,184,157663,1,0,0:0:0:0:
176,264,157838,1,0,0:0:0:0:
96,184,158013,1,0,0:0:0:0:
176,104,158187,1,0,0:0:0:0:
176,184,158362,1,0,0:0:0:0:
96,104,158536,1,0,0:0:0:0:
176,24,158710,1,0,0:0:0:0:
176,104,158885,1,0,0:0:0:0:
336,104,159233,2,0,B|336:204,1,99.9999999999999
452,296,159931,5,0,0:0:0:0:
372,296,160018,1,0,0:0:0:0:
292,296,160106,1,0,0:0:0:0:
144,296,160280,1,0,0:0:0:0:
51,203,160454,1,0,0:0:0:0:
144,111,160629,1,0,0:0:0:0:
51,203,160803,6,0,B|79:178|127:197|114:210|162:229|191:202,1,150.000005722046
262,263,161326,1,0,0:0:0:0:
227,115,161501,1,0,0:0:0:0:
191,201,161675,1,0,0:0:0:0:
321,123,161850,1,0,0:0:0:0:
342,214,162024,1,0,0:0:0:0:
342,214,162111,1,0,0:0:0:0:
342,214,162199,1,0,0:0:0:0:
448,320,162373,5,0,0:0:0:0:
448,172,162547,1,0,0:0:0:0:
448,20,162722,1,0,0:0:0:0:
300,20,162896,1,0,0:0:0:0:
448,20,163071,1,0,0:0:0:0:
300,20,163245,1,0,0:0:0:0:
452,96,163594,1,0,0:0:0:0:
300,96,163769,1,0,0:0:0:0:
452,172,164117,1,0,0:0:0:0:
300,172,164292,1,0,0:0:0:0:
75,172,164640,1,0,0:0:0:0:
227,172,164815,6,0,B|202:200|221:248|234:235|253:283|226:312,1,150.000005722046
152,312,165338,2,0,B|48:312,1,99.9999999999999
132,232,165861,1,0,0:0:0:0:
52,152,166036,1,0,0:0:0:0:
132,72,166210,1,0,0:0:0:0:
244,72,166385,2,0,L|320:72,1,74.9999999999999
392,72,167082,1,0,0:0:0:0:
472,152,167257,1,0,0:0:0:0:
392,232,167431,1,0,0:0:0:0:
312,312,167606,1,0,0:0:0:0:
472,312,167780,1,0,0:0:0:0:
392,154,168129,5,0,0:0:0:0:
392,154,168216,1,0,0:0:0:0:
392,154,168303,1,0,0:0:0:0:
316,154,168478,5,0,0:0:0:0:
316,154,168652,1,0,0:0:0:0:
316,190,168739,1,0,0:0:0:0:
316,226,168826,1,0,0:0:0:0:
204,154,169001,5,0,0:0:0:0:
204,154,169175,1,0,0:0:0:0:
204,210,169263,1,0,0:0:0:0:
204,266,169350,1,0,0:0:0:0:
54,154,169524,5,0,0:0:0:0:
54,154,169699,1,0,0:0:0:0:
54,228,169786,1,0,0:0:0:0:
54,302,169873,1,0,0:0:0:0:
54,40,170047,5,0,0:0:0:0:
280,40,170396,1,0,0:0:0:0:
356,40,170571,1,0,0:0:0:0:
432,40,170745,1,0,0:0:0:0:
280,40,171094,1,0,0:0:0:0:
280,116,171268,1,0,0:0:0:0:
280,192,171617,1,0,0:0:0:0:
356,192,171792,1,0,0:0:0:0:
432,192,171966,1,0,0:0:0:0:
356,192,172141,1,0,0:0:0:0:
280,192,172315,1,0,0:0:0:0:
432,192,172489,1,0,0:0:0:0:
280,304,173361,5,0,0:0:0:0:
356,304,173536,1,0,0:0:0:0:
280,304,173885,1,0,0:0:0:0:
356,304,174060,1,0,0:0:0:0:
356,304,174408,1,0,0:0:0:0:
280,304,174583,1,0,0:0:0:0:
204,304,174757,1,0,0:0:0:0:
128,304,174931,1,0,0:0:0:0:
128,192,175106,1,0,0:0:0:0:
16,192,175280,1,0,0:0:0:0:
16,304,175454,1,0,0:0:0:0:
128,304,175629,1,0,0:0:0:0:
464,196,176152,5,0,0:0:0:0:
388,196,176326,1,0,0:0:0:0:
388,44,176675,1,0,0:0:0:0:
464,44,176850,1,0,0:0:0:0:
464,120,177199,1,0,0:0:0:0:
388,120,177373,1,0,0:0:0:0:
236,120,177547,1,0,0:0:0:0:
312,120,177722,1,0,0:0:0:0:
84,120,177896,1,0,0:0:0:0:
160,120,178071,1,0,0:0:0:0:
160,308,178943,5,0,0:0:0:0:
236,308,179117,1,0,0:0:0:0:
84,308,179466,1,0,0:0:0:0:
160,308,179640,1,0,0:0:0:0:
236,308,179989,1,0,0:0:0:0:
312,308,180164,1,0,0:0:0:0:
388,308,180338,1,0,0:0:0:0:
464,308,180513,5,0,0:0:0:0:
464,232,180687,1,0,0:0:0:0:
388,232,180861,1,0,0:0:0:0:
464,232,181036,1,0,0:0:0:0:
464,160,181210,1,0,0:0:0:0:
464,84,181385,1,0,0:0:0:0:
388,84,181559,1,0,0:0:0:0:
464,84,181733,1,0,0:0:0:0:
128,84,183303,5,0,0:0:0:0:
280,84,183478,1,0,0:0:0:0:
280,84,183652,1,0,0:0:0:0:
128,84,183826,1,0,0:0:0:0:
128,236,184001,1,0,0:0:0:0:
276,236,184175,1,0,0:0:0:0:
128,236,184350,1,0,0:0:0:0:
128,84,184524,1,0,0:0:0:0:
280,84,184699,1,0,0:0:0:0:
504,84,185047,1,0,0:0:0:0:
352,84,185222,1,0,0:0:0:0:
428,84,185571,1,0,0:0:0:0:
428,160,185745,1,0,0:0:0:0:
428,236,185919,1,0,0:0:0:0:
504,312,186094,1,0,0:0:0:0:
428,312,186268,1,0,0:0:0:0:
352,312,186443,1,0,0:0:0:0:
164,312,187315,5,0,0:0:0:0:
164,236,187489,1,0,0:0:0:0:
164,84,187838,1,0,0:0:0:0:
164,160,188012,1,0,0:0:0:0:
88,160,188361,1,0,0:0:0:0:
164,160,188535,1,0,0:0:0:0:
88,160,188710,1,0,0:0:0:0:
12,160,188885,1,0,0:0:0:0:
12,84,189059,1,0,0:0:0:0:
12,8,189233,1,0,0:0:0:0:
88,8,189408,1,0,0:0:0:0:
164,8,189582,1,0,0:0:0:0:
312,8,189931,1,0,0:0:0:0:
312,204,190280,6,0,L|384:204,1,50
362,128,190629,2,0,L|259:128,1,99.9999999999999
212,204,191152,2,0,L|284:204,1,50
262,128,191501,2,0,L|159:128,1,99.9999999999999
362,128,192024,1,0,0:0:0:0:
262,128,192199,2,0,L|159:128,1,99.9999999999999
56,232,192896,5,0,0:0:0:0:
56,308,193071,1,0,0:0:0:0:
204,308,193419,1,0,0:0:0:0:
280,308,193594,2,0,L|392:308,1,99.9999999999999
380,308,194117,1,0,0:0:0:0:
280,308,194292,2,0,L|400:308,1,99.9999999999999
456,308,194640,1,0,0:0:0:0:
456,232,194815,1,0,0:0:0:0:
80,232,195687,5,0,0:0:0:0:
156,232,195861,1,0,0:0:0:0:
156,156,196210,1,0,0:0:0:0:
80,156,196384,1,0,0:0:0:0:
156,80,196733,1,0,0:0:0:0:
80,80,196908,1,0,0:0:0:0:
232,80,197082,1,0,0:0:0:0:
384,80,197257,1,0,0:0:0:0:
232,80,197431,1,0,0:0:0:0:
384,80,197606,1,0,0:0:0:0:
232,80,197780,1,0,0:0:0:0:
384,80,197954,1,0,0:0:0:0:
384,304,198478,5,0,0:0:0:0:
384,228,198652,1,0,0:0:0:0:
460,304,199001,1,0,0:0:0:0:
384,304,199176,1,0,0:0:0:0:
384,228,199524,1,0,0:0:0:0:
308,228,199698,1,0,0:0:0:0:
308,152,199873,1,0,0:0:0:0:
232,152,200047,1,0,0:0:0:0:
232,76,200221,1,0,0:0:0:0:
156,76,200396,1,0,0:0:0:0:
432,76,201268,5,0,0:0:0:0:
432,76,201443,1,0,0:0:0:0:
356,76,201792,1,0,0:0:0:0:
356,76,201966,1,0,0:0:0:0:
432,152,202315,1,0,0:0:0:0:
432,152,202489,1,0,0:0:0:0:
356,152,202664,1,0,0:0:0:0:
156,152,202838,5,0,0:0:0:0:
156,352,203013,1,0,0:0:0:0:
256,252,203187,1,0,0:0:0:0:
356,352,203361,1,0,0:0:0:0:
356,152,203536,1,0,0:0:0:0:
156,152,203710,1,0,0:0:0:0:
156,352,203885,1,0,0:0:0:0:
256,252,204059,1,0,0:0:0:0:
331,321,205629,5,0,0:0:0:0:
181,321,205803,1,0,0:0:0:0:
106,191,205978,1,0,0:0:0:0:
181,62,206152,1,0,0:0:0:0:
331,62,206327,1,0,0:0:0:0:
406,192,206501,1,0,0:0:0:0:
331,321,206675,1,0,0:0:0:0:
181,321,206849,1,0,0:0:0:0:
106,191,207024,1,0,0:0:0:0:
106,40,207373,1,0,0:0:0:0:
32,40,207547,1,0,0:0:0:0:
32,192,207896,1,0,0:0:0:0:
32,268,208071,1,0,0:0:0:0:
32,344,208245,1,0,0:0:0:0:
32,344,208419,1,0,0:0:0:0:
184,344,208594,1,0,0:0:0:0:
32,344,208768,1,0,0:0:0:0:
108,344,209640,5,0,0:0:0:0:
260,344,209815,1,0,0:0:0:0:
332,344,210164,1,0,0:0:0:0:
184,344,210338,2,0,L|184:232,1,99.9999999999999
184,92,210861,1,0,0:0:0:0:
108,92,211036,1,0,0:0:0:0:
108,168,211210,1,0,0:0:0:0:
184,168,211385,1,0,0:0:0:0:
260,168,211559,1,0,0:0:0:0:
336,168,211733,1,0,0:0:0:0:
412,168,211908,1,0,0:0:0:0:
184,168,212257,1,0,0:0:0:0:
412,16,212606,5,0,0:0:0:0:
340,16,212954,1,0,0:0:0:0:
264,16,213129,1,0,0:0:0:0:
264,92,213303,1,0,0:0:0:0:
340,92,213652,1,0,0:0:0:0:
416,92,213826,1,0,0:0:0:0:
264,92,214001,1,0,0:0:0:0:
188,92,214350,1,0,0:0:0:0:
112,92,214524,1,0,0:0:0:0:
36,92,214699,1,0,0:0:0:0:
248,304,215222,5,0,0:0:0:0:
324,304,215396,2,0,L|424:304,1,99.9999999999999
248,304,215919,2,0,L|148:304,1,99.9999999999999
324,304,216443,1,0,0:0:0:0:
248,304,216617,1,0,0:0:0:0:
248,228,216792,1,0,0:0:0:0:
172,228,216966,1,0,0:0:0:0:
248,228,217140,1,0,0:0:0:0:
324,228,217315,1,0,0:0:0:0:
324,152,217489,1,0,0:0:0:0:
172,152,217838,1,0,0:0:0:0:
400,152,218187,6,0,L|400:52,1,99.9999999999999
400,152,218710,1,0,0:0:0:0:
400,52,218885,2,0,L|400:152,1,99.9999999999999
400,152,219408,1,0,0:0:0:0:
400,52,219582,2,0,L|400:152,1,99.9999999999999
400,152,220106,1,0,0:0:0:0:
400,300,220280,1,0,0:0:0:0:
252,300,220629,1,0,0:0:0:0:
104,300,220803,1,0,0:0:0:0:
104,148,220978,5,0,0:0:0:0:
204,148,221326,1,0,0:0:0:0:
208,48,221675,1,0,0:0:0:0:
208,48,222024,1,0,0:0:0:0:
108,48,222199,1,0,0:0:0:0:
108,48,222547,1,0,0:0:0:0:
108,148,222896,1,0,0:0:0:0:
160,148,223071,1,0,0:0:0:0:
208,148,223245,1,0,0:0:0:0:
408,148,223594,5,0,0:0:0:0:
408,148,223681,1,0,0:0:0:0:
408,148,223768,1,0,0:0:0:0:
308,148,224117,1,0,0:0:0:0:
508,148,224466,1,0,0:0:0:0:
508,48,224815,2,0,L|458:48,1,50
356,48,225338,1,0,0:0:0:0:
508,48,225687,1,0,0:0:0:0:
508,148,225861,1,0,0:0:0:0:
508,248,226036,1,0,0:0:0:0:
308,248,226385,5,0,0:0:0:0:
308,200,226472,1,0,0:0:0:0:
308,152,226559,1,0,0:0:0:0:
108,152,226908,1,0,0:0:0:0:
308,152,227257,1,0,0:0:0:0:
308,352,227606,1,0,0:0:0:0:
308,352,227780,1,0,0:0:0:0:
208,348,228129,1,0,0:0:0:0:
108,348,228478,1,0,0:0:0:0:
108,248,228652,1,0,0:0:0:0:
108,148,228827,1,0,0:0:0:0:
108,248,229175,5,0,0:0:0:0:
160,248,229263,1,0,0:0:0:0:
208,248,229350,1,0,0:0:0:0:
360,248,229699,1,0,0:0:0:0:
360,48,230047,1,0,0:0:0:0:
260,48,230396,1,0,0:0:0:0:
212,48,230570,1,0,0:0:0:0:
60,48,230919,1,0,0:0:0:0:
60,48,231268,1,0,0:0:0:0:
108,48,231443,1,0,0:0:0:0:
156,48,231617,1,0,0:0:0:0:
156,123,231792,6,0,B|184:148|232:129|219:116|267:97|295:123,1,150.000005722046
437,265,232489,2,0,L|437:245,2,12.5
384,318,232838,2,0,L|384:343,2,25
305,238,233187,2,0,L|305:182,2,37.5000014305115
198,294,233536,2,0,L|198:344,2,50
92,188,233885,2,0,L|92:112,2,74.9999999999999
92,336,234233,1,0,0:0:0:0:
303,124,234407,1,0,0:0:0:0:
304,124,234756,6,0,B|332:149|380:130|367:117|415:98|444:125,1,150.000005722046
444,125,235279,1,0,0:0:0:0:
303,124,235454,1,0,0:0:0:0:
303,273,235628,1,0,0:0:0:0:
152,273,235803,1,0,0:0:0:0:
44,168,235977,1,0,0:0:0:0:
44,168,236152,1,0,0:0:0:0:
148,60,236326,5,0,0:0:0:0:
148,60,236500,1,0,0:0:0:0:
152,273,236675,1,0,0:0:0:0:
152,273,236849,1,0,0:0:0:0:
299,60,237024,1,0,0:0:0:0:
299,60,237198,1,0,0:0:0:0:
303,273,237372,5,0,0:0:0:0:
303,273,237547,5,0,0:0:0:0:
452,273,237721,1,0,0:0:0:0:
452,273,237896,1,0,0:0:0:0:
452,124,238070,1,0,0:0:0:0:
452,124,238245,1,0,0:0:0:0:
227,124,238419,5,0,0:0:0:0:
227,124,238593,1,0,0:0:0:0:
227,124,238768,1,0,0:0:0:0:
76,124,238942,1,0,0:0:0:0:
76,124,239117,1,0,0:0:0:0:
76,124,239291,1,0,0:0:0:0:
76,272,239465,5,0,0:0:0:0:
76,272,239640,1,0,0:0:0:0:
227,272,239814,1,0,0:0:0:0:
368,272,240163,6,0,B|396:297|444:278|431:265|479:246|507:272,1,150.000005722046
508,124,240861,1,0,0:0:0:0:
508,88,240948,1,0,0:0:0:0:
508,52,241035,1,0,0:0:0:0:
508,124,241210,5,0,0:0:0:0:
408,52,241559,1,0,0:0:0:0:
372,52,241734,1,0,0:0:0:0:
296,52,242082,1,0,0:0:0:0:
184,52,242256,1,0,0:0:0:0:
33,52,242431,1,0,0:0:0:0:
33,240,242605,1,0,0:0:0:0:
256,240,242779,1,0,0:0:0:0:
256,192,243129,12,0,251849,0:0:0:0:
