osu file format v14

[General]
AudioFilename: audio.mp3
AudioLeadIn: 0
PreviewTime: 44868
Countdown: 0
SampleSet: Drum
StackLeniency: 0.6
Mode: 0
LetterboxInBreaks: 0
WidescreenStoryboard: 0

[Editor]
Bookmarks: 392,22717,45043,67543,78531,89694,100857,123182,134345,148124,148450,149868,151088,170622,192948,215274,220855,232018,243181
DistanceSpacing: 1.1
BeatDivisor: 4
GridSize: 32
TimelineZoom: 1.550004

[Metadata]
Title:oddloop
TitleUnicode:オドループ
Artist:Frederic
ArtistUnicode:フレデリック
Creator:RatinA0
Version:quite odd
Source:山田くんと7人の魔女
Tags:Yamada-kun to 7-nin no Majo Koji Mihara odoru to dance oddl∞p ova full ending ed japanese anime ratinao
BeatmapID:2136227
BeatmapSetID:1020990

[Difficulty]
HPDrainRate:5
CircleSize:5
OverallDifficulty:8.1
ApproachRate:9
SliderMultiplier:1.72
SliderTickRate:1

[Events]
//Background and Video events
Video,-100,"opto.flv"
0,0,"58662866_p0_1080.png",0,0
//Break Periods
//Storyboard Layer 0 (Background)
//Storyboard Layer 1 (Fail)
//Storyboard Layer 2 (Pass)
//Storyboard Layer 3 (Foreground)
//Storyboard Layer 4 (Overlay)
//Storyboard Sound Samples

[TimingPoints]
44,348.837209302326,4,3,1,60,1,0
44,-100,4,3,1,60,0,0
392,348.837209302326,4,1,1,60,1,0
392,-133.333333333333,4,1,1,60,0,0
915,-133.333333333333,4,3,1,60,0,0
1089,-133.333333333333,4,1,1,60,0,0
1612,-100,4,3,1,60,0,0
4403,-133.333333333333,4,3,1,60,0,0
6322,-133.333333333333,4,1,1,60,0,0
6496,-133.333333333333,4,3,1,60,0,0
7194,-100,4,3,1,60,0,0
9985,-133.333333333333,4,3,1,60,0,0
11903,-133.333333333333,4,1,1,60,0,0
12078,-133.333333333333,4,3,1,60,0,0
12252,-133.333333333333,4,1,1,60,0,0
12775,-100,4,3,1,60,0,0
15566,-133.333333333333,4,3,1,60,0,0
18357,-100,4,3,1,60,0,0
21147,-133.333333333333,4,3,1,60,0,0
22717,-250,4,2,1,40,0,0
24112,-125,4,2,1,40,0,0
25508,-166.666666666667,4,2,1,40,0,0
28298,-250,4,2,1,40,0,0
29694,-125,4,2,1,40,0,0
31089,-166.666666666667,4,2,1,40,0,0
33880,-250,4,2,1,40,0,0
35275,-125,4,2,1,40,0,0
36671,-166.666666666667,4,2,1,40,0,0
39461,-250,4,2,1,40,0,0
40857,-125,4,2,1,40,0,0
42252,-166.666666666667,4,2,1,40,0,0
43996,-125,4,2,1,50,0,0
45043,-100,4,3,1,70,0,1
53415,-90.9090909090909,4,3,1,70,0,1
54985,-100,4,3,1,70,0,1
64578,-80,4,3,1,70,0,1
64839,-80,4,2,99,5,0,1
64926,-66.6666666666667,4,3,1,70,0,1
65450,-50,4,3,1,70,0,1
65798,-66.6666666666667,4,3,1,70,0,1
67194,-100,4,3,1,60,0,0
67543,-133.333333333333,4,3,1,60,0,0
68589,-100,4,3,1,60,0,0
71380,-133.333333333333,4,3,1,60,0,0
74171,-100,4,3,1,60,0,0
76961,-133.333333333333,4,3,1,60,0,0
78531,-200,4,2,1,40,0,0
89694,-200,4,3,1,60,0,0
89781,-200,4,2,99,5,0,0
90043,-200,4,3,1,60,0,0
90653,-200,4,2,99,5,0,0
90740,-200,4,3,1,60,0,0
91176,-200,4,2,99,5,0,0
91438,-200,4,3,1,60,0,0
92048,-200,4,2,99,5,0,0
92135,-200,4,3,1,60,0,0
92572,-200,4,2,99,5,0,0
92834,-200,4,3,1,60,0,0
93444,-200,4,2,99,5,0,0
93531,-200,4,3,1,60,0,0
93967,-200,4,2,99,5,0,0
94229,-200,4,3,1,60,0,0
94839,-200,4,2,99,5,0,0
94926,-200,4,3,1,60,0,0
95275,-200,4,3,1,60,0,0
95362,-200,4,2,99,5,0,0
95624,-200,4,3,1,60,0,0
96235,-200,4,2,99,5,0,0
96322,-200,4,3,1,60,0,0
96758,-200,4,2,99,5,0,0
97019,-200,4,3,1,60,0,0
97630,-200,4,2,99,5,0,0
97717,-200,4,3,1,60,0,0
98153,-200,4,2,99,5,0,0
98415,-200,4,3,1,60,0,0
99025,-200,4,2,99,5,0,0
99112,-200,4,3,1,60,0,0
99461,-200,4,3,1,65,0,0
99548,-200,4,2,99,5,0,0
99635,-200,4,3,1,65,0,0
99723,-200,4,2,99,5,0,0
99810,-200,4,3,1,65,0,0
99897,-200,4,2,99,5,0,0
100159,-200,4,3,1,70,0,0
100246,-200,4,2,99,5,0,0
100333,-200,4,3,1,70,0,0
100420,-200,4,2,99,5,0,0
100508,-200,4,3,1,70,0,0
100595,-200,4,2,99,5,0,0
100682,-200,4,3,1,70,0,0
100769,-200,4,2,99,5,0,0
100857,-100,4,3,1,70,0,1
109229,-90.9090909090909,4,3,1,70,0,1
110798,-100,4,3,1,70,0,1
120392,-80,4,3,1,70,0,1
120653,-80,4,2,99,5,0,1
120740,-66.6666666666667,4,3,1,70,0,1
122485,-80,4,3,1,70,0,1
123008,-100,4,3,1,70,0,0
123182,-100,4,2,1,50,0,0
134345,-200,4,3,1,65,0,0
141235,-200,4,2,99,5,0,0
141322,-200,4,3,1,65,0,0
144025,-200,4,2,99,5,0,0
144112,-200,4,3,1,65,0,0
145421,-200,4,2,99,5,0,0
145508,-100,4,3,1,70,0,0
146903,-66.6666666666667,4,3,1,80,0,0
148124,-66.6666666666667,4,3,1,80,0,1
148298,-66.6666666666667,4,3,1,85,0,1
148450,348.837209302326,4,3,1,85,1,0
148450,-100,4,3,1,85,0,0
149868,348.837209302326,4,3,1,85,1,0
149868,-100,4,3,1,85,0,0
149955,-100,4,2,99,5,0,0
150042,-125,4,3,1,85,0,0
150129,-125,4,2,99,5,0,0
150216,-166.666666666667,4,3,1,85,0,0
150304,-166.666666666667,4,2,99,5,0,0
150391,-250.000000000001,4,3,1,85,0,0
150478,-250.000000000001,4,2,99,5,0,0
150740,-100,4,3,1,85,0,0
150827,-100,4,2,99,5,0,0
150914,-100,4,3,1,85,0,0
151001,-100,4,2,99,5,0,0
151088,348.837209302326,4,3,1,85,1,0
151088,-100,4,3,1,85,0,0
151175,-100,4,2,99,5,0,0
151262,-100,4,3,1,85,0,0
151349,-100,4,2,99,5,0,0
151436,-100,4,3,1,85,0,0
151524,-100,4,2,99,5,0,0
151611,-100,4,3,1,85,0,0
151698,-100,4,2,99,5,0,0
151785,-100,4,3,1,85,0,0
151872,-100,4,2,99,5,0,0
151960,-100,4,3,1,85,0,0
152308,-66.6666666666667,4,3,1,85,0,1
152657,-66.6666666666667,4,3,1,85,0,0
155099,-100,4,3,1,85,0,0
155186,-100,4,2,99,5,0,0
155448,-100,4,3,1,85,0,0
156233,-100,4,2,99,5,0,0
156494,-100,4,3,1,85,0,0
156756,-100,4,2,99,5,0,0
156843,-100,4,3,1,85,0,0
157105,-100,4,2,99,5,0,0
157192,-100,4,3,1,85,0,0
157454,-100,4,2,99,5,0,0
157541,-100,4,3,1,85,0,0
157628,-100,4,2,99,5,0,0
157715,-100,4,3,1,85,0,0
157977,-100,4,2,99,5,0,0
158064,-100,4,3,1,85,0,0
158151,-100,4,2,99,5,0,0
158239,-100,4,3,1,85,0,0
158500,-100,4,2,99,5,0,0
158588,-100,4,3,1,85,0,0
158675,-100,4,2,99,5,0,0
158762,-100,4,3,1,85,0,0
159111,-100,4,3,1,85,0,1
159460,-100,4,3,1,85,0,0
160157,-100,4,3,1,85,0,0
160244,-100,4,2,99,5,0,0
160332,-125,4,3,1,85,0,0
160419,-125,4,2,99,5,0,0
160506,-166.666666666667,4,3,1,85,0,0
160593,-166.666666666667,4,2,99,5,0,0
160681,-66.6666666666667,4,3,1,85,0,0
161204,-500,4,3,1,85,0,0
161291,-500,4,2,99,5,0,0
161378,-500,4,3,1,85,0,0
161465,-500,4,2,99,5,0,0
161553,-500,4,3,1,85,0,0
161640,-500,4,2,99,5,0,0
161727,-500,4,3,1,85,0,0
161814,-500,4,2,99,5,0,0
161901,-100,4,3,1,85,0,0
162250,-100,4,3,1,85,0,1
162425,-100,4,3,1,85,0,0
162686,-100,4,2,99,5,0,0
162774,-100,4,3,1,85,0,0
163035,-100,4,2,99,5,0,0
163122,-100,4,3,1,85,0,0
163471,-125,4,3,1,85,0,0
163558,-100,4,2,99,5,0,0
163646,-100,4,3,1,85,0,0
163994,-166.666666666667,4,3,1,85,0,0
164082,-100,4,2,99,5,0,0
164169,-100,4,3,1,85,0,0
164518,-250,4,3,1,85,0,0
164605,-100,4,2,99,5,0,0
164692,-66.6666666666667,4,3,1,85,0,0
165215,-100,4,3,1,85,0,0
165303,-100,4,2,99,5,0,0
165390,-100,4,3,1,85,0,0
167221,-100,4,2,99,5,0,0
167308,-100,4,3,1,85,0,0
167396,-100,4,2,99,5,0,0
167483,-100,4,3,1,85,0,0
167570,-100,4,2,99,5,0,0
167657,-100,4,3,1,85,0,0
167744,-100,4,2,99,5,0,0
168006,-100,4,3,1,85,0,1
170535,-100,4,2,99,5,0,0
170622,-100,4,3,1,70,0,1
178994,-90.9090909090909,4,3,1,70,0,1
180564,-100,4,3,1,70,0,1
190157,-80,4,3,1,70,0,1
190419,-80,4,2,99,5,0,1
190506,-66.6666666666667,4,3,1,70,0,1
191029,-50,4,3,1,70,0,1
191378,-66.6666666666667,4,3,1,70,0,1
192861,-66.6666666666667,4,3,1,70,0,0
192948,-100,4,3,1,70,0,1
193035,-100,4,3,1,70,0,0
215274,-100,4,3,1,70,0,1
218064,-80,4,3,1,70,0,1
218326,-80,4,2,99,5,0,1
218413,-66.6666666666667,4,3,1,70,0,1
218936,-50,4,3,1,70,0,1
219285,-66.6666666666667,4,3,1,70,0,1
220768,-100,4,3,1,70,0,0
220855,-133.333333333333,4,3,1,70,0,1
221029,-133.333333333333,4,3,1,70,0,0
222076,-100,4,3,1,70,0,0
225739,-133.333333333333,4,3,1,70,0,0
227657,-100,4,3,1,70,0,0
228529,-133.333333333333,4,3,1,70,0,0
229227,-100,4,3,1,70,0,0
231320,-133.333333333333,4,3,1,70,0,0
231669,-66.6666666666667,4,3,1,80,0,1
232018,-111.111111111111,4,3,1,70,0,1
232715,-90.9090909090909,4,3,1,70,0,1
233064,-76.9230769230769,4,3,1,70,0,1
233413,-66.6666666666667,4,3,1,70,0,1
234111,-500,4,3,1,70,0,1
234198,-500,4,2,99,5,0,1
234285,-500,4,3,1,70,0,1
234372,-500,4,2,99,5,0,1
234634,-66.6666666666667,4,3,1,70,0,1
235157,-100,4,3,1,70,0,1
236204,-500,4,3,1,70,0,1
236291,-500,4,2,99,5,0,1
236378,-500,4,3,1,70,0,1
237337,-500,4,2,99,5,0,1
237424,-500,4,3,1,70,0,1
238384,-500,4,2,99,5,0,1
238471,-500,4,3,1,70,0,1
239430,-500,4,2,99,5,0,1
239518,-500,4,3,1,70,0,1
240041,-100,4,3,1,70,0,1
240738,-100,4,3,1,60,0,1
241087,-500,4,3,1,60,0,1
241174,-500,4,2,99,5,0,1
241436,-500,4,3,1,60,0,1
241523,-500,4,2,99,5,0,1
241611,-500,4,3,1,60,0,1
241698,-500,4,2,99,5,0,1
241959,-500,4,3,1,55,0,1
242047,-500,4,2,99,5,0,1
242134,-500,4,3,1,55,0,1
242221,-500,4,2,99,5,0,1
242308,-500,4,3,1,55,0,1
242395,-500,4,2,99,5,0,1
242483,-500,4,3,1,55,0,1
242570,-500,4,2,99,5,0,1
242657,-500,4,3,1,55,0,1
242744,-500,4,2,99,5,0,1
243006,-500,4,3,1,50,0,1
243181,-500,4,2,99,40,0,0

[Colours]
Combo1 : 255,170,20
Combo2 : 87,190,12
Combo3 : 50,116,226
Combo4 : 241,50,22

[HitObjects]
61,250,392,5,0,1:0:0:0:
61,250,566,1,0,1:0:0:0:
61,250,740,2,0,B|17:256|-19:279,3,64.5000024604798,0|0|0|0,1:0|1:0|1:0|1:0,0:0:0:0:
133,259,1438,1,0,0:0:0:0:
170,327,1612,2,0,B|207:356|259:346|245:321|298:313|333:338,2,172,0|0|0,1:0|1:0|0:2,1:0:0:0:
216,265,2485,1,0,1:0:0:0:
473,132,2833,1,2,0:0:0:0:
473,132,3182,6,0,P|469:86|375:12,2,172,0|0|2,1:0|1:0|0:2,1:0:0:0:
378,223,4054,1,2,0:3:0:0:
378,223,4229,1,0,1:0:0:0:
378,223,4403,2,0,P|359:162|382:103,2,129.00000492096,0|0|0,1:0|1:0|0:0,1:0:0:0:
418,288,5275,1,0,0:0:0:0:
396,358,5450,1,0,0:0:0:0:
433,289,5624,1,2,1:3:0:0:
66,148,5973,5,0,1:0:0:0:
66,148,6147,2,0,B|54:210,1,64.5000024604798,0|0,1:0|1:0,0:0:0:0:
136,87,6496,2,0,B|75:34,1,64.5000024604798,0|0,1:0|1:0,0:0:0:0:
155,178,6845,2,0,B|215:156,1,64.5000024604798,0|0,1:0|1:0,0:0:0:0:
299,17,7194,2,0,B|239:39|239:39|211:78|211:78|150:98,2,172,0|0|0,1:0|1:0|1:0,1:0:0:0:
376,12,8066,1,0,1:0:0:0:
167,331,8415,1,0,1:0:0:0:
167,331,8589,1,2,0:3:0:0:
167,331,8764,6,0,B|146:378|84:322|78:323|56:393|9:360,2,172,0|0|2,1:0|1:0|0:2,1:0:0:0:
215,270,9636,1,2,0:0:0:0:
215,270,9810,1,0,1:0:0:0:
215,270,9985,2,0,B|208:220|79:254|79:254,2,129.00000492096,0|0|0,1:0|1:0|0:0,1:0:0:0:
275,312,10857,1,0,0:0:0:0:
300,379,11031,1,2,0:0:0:0:
344,258,11205,1,0,0:0:0:0:
291,308,11380,1,2,0:0:0:0:
417,210,11554,5,4,1:2:0:0:
417,210,11729,1,0,1:0:0:0:
416,210,11903,2,0,P|411:241|415:273,3,64.5000024604798,0|0|0|0,1:0|1:0|1:0|1:0,0:0:0:0:
487,185,12601,1,0,0:0:0:0:
505,115,12775,2,0,B|529:77|519:-27|423:-2|461:38,2,172,0|0|0,1:0|1:0|0:0,1:0:0:0:
435,137,13647,1,0,1:0:0:0:
213,275,13996,1,0,1:0:0:0:
213,275,14171,1,2,0:3:0:0:
213,275,14345,6,0,B|156:256|156:256|135:235|135:235|99:237|99:237|43:218,2,172,0|0|2,1:0|1:0|0:2,1:0:0:0:
203,355,15217,1,2,0:0:0:0:
203,355,15392,1,0,1:0:0:0:
203,355,15566,2,0,B|157:340|157:340|122:345|122:345|78:334,2,129.00000492096,0|0|0,1:0|1:0|0:0,1:0:0:0:
281,338,16438,1,0,0:0:0:0:
356,360,16612,1,0,0:0:0:0:
277,323,16787,1,0,1:0:0:0:
224,31,17136,5,4,1:2:0:0:
224,31,17310,1,0,1:0:0:0:
224,31,17485,2,0,P|201:53|171:66,1,64.5000024604798,0|0,1:0|1:0,1:0:0:0:
127,130,17833,2,0,P|168:138|210:131,2,64.5000024604798,0|0|0,1:0|1:0|0:0,1:0:0:0:
12,70,18357,2,0,P|55:138|63:238,2,172,0|0|0,1:0|1:0|0:0,1:0:0:0:
0,0,19229,1,0,1:0:0:0:
208,287,19578,1,0,1:0:0:0:
208,287,19752,1,2,0:3:0:0:
208,287,19926,6,0,B|262:249|321:263|321:263|332:292|358:307,2,172,0|0|2,1:0|1:0|0:2,1:0:0:0:
182,377,20798,1,2,0:0:0:0:
182,377,20973,1,0,1:0:0:0:
182,377,21147,2,0,B|149:281|66:373|32:273,1,193.50000738144,0|0,1:0|1:0,1:0:0:0:
91,226,21845,2,0,P|124:225|155:230,1,64.5000024604798,0|0,1:0|1:0,1:0:0:0:
281,279,22194,1,2,0:3:0:0:
208,287,22368,1,0,1:0:0:0:
341,236,22543,1,2,0:3:0:0:
446,286,22717,6,0,L|486:299,1,34.4,2|0,0:3|3:0,0:0:0:0:
442,212,23066,2,0,L|482:226,1,34.4,2|0,0:3|3:0,0:0:0:0:
440,140,23415,2,0,L|472:151,1,34.4,2|0,0:3|3:0,0:0:0:0:
436,66,23764,2,0,L|468:77,1,34.4,2|0,0:3|3:0,0:0:0:0:
341,236,24112,6,0,L|273:222,3,68.8,2|0|2|0,0:0|3:0|0:2|3:0,0:0:0:0:
206,185,24810,2,0,L|251:133,1,68.8,2|0,0:0|3:0,0:0:0:0:
318,94,25159,2,0,L|339:159,1,68.8,2|0,0:0|3:0,0:0:0:0:
159,254,25508,6,0,L|177:303,1,51.599998425293,2|0,0:3|3:0,0:3:0:0:
104,302,25857,2,0,L|121:350,1,51.599998425293,2|0,0:3|3:0,0:3:0:0:
41,182,26205,2,0,L|24:231,1,51.599998425293,2|0,0:3|3:0,0:3:0:0:
97,230,26554,2,0,L|79:278,1,51.599998425293,2|0,0:3|3:0,0:3:0:0:
113,122,26903,2,0,L|131:171,3,51.599998425293,2|0|2|0,0:3|3:0|0:3|3:0,0:3:0:0:
103,6,27601,2,0,L|85:55,3,51.599998425293,2|0|2|0,0:3|3:0|0:3|3:0,0:3:0:0:
236,34,28298,6,0,L|268:23,1,34.4,2|0,0:3|3:0,0:0:0:0:
264,98,28647,2,0,L|231:109,1,34.4,2|0,0:3|3:0,0:0:0:0:
230,181,28996,2,0,L|262:170,1,34.4,2|0,0:3|3:0,0:0:0:0:
258,244,29345,2,0,L|226:255,1,34.4,2|0,0:3|3:0,0:0:0:0:
415,214,29694,6,0,L|480:192,3,68.8,2|0|2|0,0:0|3:0|0:2|3:0,0:0:0:0:
376,97,30392,2,0,L|363:164,1,68.8,2|0,0:0|3:0,0:0:0:0:
497,122,30740,2,0,L|446:77,1,68.8,2|0,0:0|3:0,0:0:0:0:
468,291,31089,6,0,L|420:308,1,51.599998425293,2|0,0:3|3:0,0:3:0:0:
356,274,31438,2,0,L|405:292,1,51.599998425293,2|0,0:3|3:0,0:3:0:0:
356,352,31787,2,0,L|291:374,1,51.599998425293,2|0,0:3|3:0,0:3:0:0:
243,334,32136,2,0,L|292:352,1,51.599998425293,2|0,0:3|3:0,0:3:0:0:
269,263,32485,2,0,L|204:241,3,51.599998425293,2|0|2|0,0:3|3:0|0:3|3:0,0:3:0:0:
154,285,33182,1,2,0:3:0:0:
92,264,33357,1,0,3:0:0:0:
35,300,33531,2,0,L|84:283,1,51.599998425293,2|0,0:3|3:0,0:3:0:0:
269,263,33880,6,0,L|237:252,1,34.4,2|0,0:3|3:0,0:0:0:0:
283,195,34229,2,0,L|250:184,1,34.4,2|0,0:3|3:0,0:0:0:0:
295,125,34578,2,0,L|262:114,1,34.4,2|0,0:3|3:0,0:0:0:0:
305,53,34926,2,0,L|271:42,1,34.4,2|0,0:3|3:0,0:0:0:0:
438,260,35275,6,0,L|503:238,3,68.8,2|0|2|0,0:2|3:0|0:2|3:0,0:0:0:0:
329,152,35973,2,0,L|394:131,1,68.8,2|0,1:2|3:0,0:0:0:0:
373,283,36322,2,0,L|352:218,1,68.8,2|0,1:2|3:0,0:0:0:0:
435,38,36671,6,0,L|483:20,1,51.599998425293,2|0,1:3|3:0,0:3:0:0:
365,46,37019,2,0,L|414:29,1,51.599998425293,2|0,0:3|3:0,0:3:0:0:
303,97,37368,2,0,L|352:115,1,51.599998425293,2|0,0:3|3:0,0:3:0:0:
234,88,37717,2,0,L|282:105,1,51.599998425293,2|0,0:3|3:0,0:3:0:0:
138,53,38066,2,0,L|187:36,3,51.599998425293,2|0|2|0,0:3|3:0|0:3|3:0,0:3:0:0:
48,111,38764,2,0,L|0:94,1,51.599998425293,2|0,1:3|3:0,0:3:0:0:
117,122,39112,2,0,L|68:104,1,51.599998425293,2|0,1:3|3:0,0:3:0:0:
75,353,39461,6,0,L|107:342,1,34.4,2|0,1:3|3:0,0:0:0:0:
111,268,39810,2,0,L|78:278,1,34.4,2|0,0:3|3:0,0:0:0:0:
81,207,40159,2,0,L|113:196,1,34.4,2|0,0:3|3:0,0:0:0:0:
117,122,40508,2,0,L|84:132,1,34.4,2|0,0:3|3:0,0:0:0:0:
328,241,40857,6,0,L|275:285,3,68.8,2|0|2|0,0:2|3:0|0:2|3:0,0:0:0:0:
195,192,41554,2,0,L|209:260,1,68.8,2|0,1:2|3:0,0:0:0:0:
317,170,41903,2,0,L|252:146,1,68.8,2|0,1:2|3:0,0:0:0:0:
419,364,42252,6,0,L|436:316,1,51.599998425293,2|0,1:3|3:0,0:0:0:0:
401,253,42601,2,0,L|419:302,1,51.599998425293,2|0,0:3|3:0,0:0:0:0:
473,221,42950,2,0,L|459:172,1,51.599998425293,2|0,0:3|3:0,0:0:0:0:
495,112,43298,2,0,L|475:160,1,51.599998425293,2|0,0:3|3:0,0:0:0:0:
409,91,43647,2,0,L|434:27,1,51.599998425293,2|0,0:3|3:0,0:0:0:0:
281,128,43996,6,0,L|345:154,1,68.8,2|2,1:3|1:2,0:0:0:0:
128,182,44345,1,2,1:3:0:0:
191,155,44519,1,2,1:3:0:0:
0,214,44694,1,2,1:2:0:0:
63,239,44868,1,2,1:3:0:0:
191,331,45043,5,6,1:2:0:0:
191,331,45217,2,0,P|238:103|483:145,1,516,2|0,0:2|0:0,0:0:0:0:
468,154,46438,1,2,1:3:0:0:
468,154,46612,2,0,P|361:88|240:121,1,258,2|2,0:2|0:0,0:0:0:0:
192,187,47310,1,2,0:0:0:0:
186,273,47485,1,2,0:2:0:0:
226,351,47659,1,2,0:0:0:0:
270,282,47833,5,2,1:3:0:0:
292,197,48008,2,0,P|239:180|174:191,3,86,2|2|0|0,0:0|0:2|0:0|0:0,0:0:0:0:
120,202,48705,2,0,B|72:214|55:267|80:264|62:312|10:320,1,172,2|0,0:2|0:0,0:0:0:0:
140,315,49229,6,0,B|191:312|220:335|220:335,1,86,0|0,1:0|0:0,1:0:0:0:
285,270,49578,2,0,B|312:312|307:350|307:350,1,86,2|0,0:2|0:0,1:0:0:0:
380,287,49926,2,0,B|403:240|439:227|439:227,1,86,2|2,0:2|0:3,1:0:0:0:
497,167,50275,2,0,B|468:123|474:84|474:84,1,86,2|2,0:2|0:3,1:0:0:0:
406,37,50624,5,2,1:3:0:0:
406,37,50798,2,0,P|362:112|4:22,1,516,2|0,0:2|0:0,0:0:0:0:
22,24,52019,1,2,1:3:0:0:
22,24,52194,2,0,P|131:148|296:141,1,258,2|2,0:2|0:0,0:0:0:0:
297,140,52892,1,2,0:0:0:0:
362,84,53066,1,2,0:2:0:0:
396,7,53240,1,2,0:0:0:0:
296,0,53415,5,2,1:3:0:0:
296,0,53589,2,0,P|306:48|343:85,2,94.600002886963,2|0|2,0:0|0:0|0:0,0:0:0:0:
440,94,54112,1,2,0:2:0:0:
440,94,54287,2,0,P|477:59|491:10,2,94.600002886963,2|0|2,0:0|0:0|0:0,0:0:0:0:
498,306,54810,5,2,1:3:0:0:
498,306,54985,2,0,P|509:264|512:220,1,86,2|0,0:0|0:0,1:0:0:0:
376,245,55333,1,2,0:0:0:0:
376,245,55508,2,0,P|392:282|417:318,1,86,2|0,0:0|0:0,1:0:0:0:
254,371,55857,2,0,P|284:339|319:313,1,86,2|0,0:0|0:0,1:0:0:0:
338,178,56205,5,6,1:2:0:0:
219,280,56380,1,2,0:0:0:0:
326,162,56554,1,2,0:0:0:0:
234,296,56729,1,2,0:0:0:0:
310,147,56903,1,2,0:0:0:0:
254,305,57078,2,0,P|282:274|297:233,1,86,2|2,0:2|0:0,0:0:0:0:
289,133,57426,1,2,0:0:0:0:
392,191,57601,6,0,P|359:38|204:61,1,344,2|0,1:3|0:0,0:0:0:0:
142,127,58473,1,0,0:0:0:0:
143,217,58647,2,0,B|164:178|164:178|157:137,1,86,2|0,0:0|0:0,1:0:0:0:
71,86,58996,6,0,P|35:109|11:144,1,86,2|2,1:3|0:0,0:0:0:0:
73,295,59345,2,0,P|71:253|52:213,1,86,2|2,0:0|0:0,0:0:0:0:
14,358,59694,2,0,P|52:376|94:380,1,86,2|2,0:0|0:0,0:0:0:0:
188,362,60043,1,2,0:0:0:0:
259,299,60217,1,2,0:0:0:0:
273,208,60392,1,2,1:3:0:0:
273,208,60740,6,0,B|300:241|300:241|339:258,1,86,2|2,0:2|0:0,1:0:0:0:
398,104,61089,2,0,B|355:110|355:110|321:136,1,86,2|2,0:2|0:0,1:0:0:0:
468,218,61438,1,2,0:0:0:0:
479,136,61612,1,2,0:0:0:0:
336,15,61787,5,6,1:2:0:0:
336,15,61961,2,0,P|438:132|207:323,1,516,2|0,0:2|0:0,0:0:0:0:
204,335,63182,2,0,P|365:330|458:183,1,344,2|0,1:3|0:0,0:0:0:0:
453,101,64054,1,2,0:2:0:0:
406,28,64229,1,2,0:0:0:0:
324,0,64403,5,2,0:0:0:0:
324,0,64578,2,0,P|343:55|286:148,1,161.25,2|0,1:3|0:0,1:0:0:0:
275,140,64926,2,0,P|238:76|240:9,1,129,0|0,1:0|0:0,1:0:0:0:
218,9,65450,6,0,P|218:89|276:167,1,172,0|0,1:0|0:0,1:0:0:0:
308,335,65798,2,0,P|290:159|112:154,1,387.000014762879,4|0,1:2|0:0,1:0:0:0:
106,180,66496,1,2,0:0:0:0:
106,180,66671,2,0,P|278:169|283:343,1,387.000014762879,2|2,0:0|0:0,1:0:0:0:
473,84,67543,5,0,1:0:0:0:
473,84,67717,1,0,1:0:0:0:
473,84,67892,2,0,P|489:32|484:0,2,64.5000024604798,0|0|0,1:0|1:0|1:0,0:0:0:0:
434,144,68415,1,0,0:0:0:0:
424,216,68589,2,0,P|427:283|473:382,2,172,0|0|2,1:0|1:0|0:0,1:0:0:0:
493,195,69461,1,0,1:0:0:0:
493,195,69810,1,0,1:0:0:0:
194,325,70159,6,0,B|132:343|127:344|97:300|92:300|30:320,2,172,0|0|2,1:0|1:0|0:2,1:0:0:0:
224,261,71031,1,2,0:0:0:0:
224,261,71205,1,0,1:0:0:0:
224,261,71380,2,0,P|217:326|215:394,2,129.00000492096,0|0|2,1:0|1:0|0:0,1:0:0:0:
263,200,72252,1,2,0:0:0:0:
263,200,72601,1,2,0:2:0:0:
34,218,73124,5,0,1:0:0:0:
34,218,73298,2,0,P|20:173|16:131,1,64.5000024604798,0|0,1:0|1:0,1:0:0:0:
83,41,73647,2,0,P|83:73|78:106,2,64.5000024604798,0|0|0,1:0|1:0|1:0,1:0:0:0:
212,13,74171,2,0,B|308:-5|377:78|377:78,2,172,0|0|2,1:0|1:0|0:0,1:0:0:0:
154,59,75043,1,0,1:0:0:0:
229,81,75217,1,2,0:0:0:0:
157,75,75392,1,0,1:0:0:0:
410,323,75740,6,0,B|420:265|420:265|451:218|451:218|466:141,2,172,0|0|2,1:0|1:0|0:2,1:0:0:0:
336,335,76612,1,2,0:0:0:0:
336,335,76787,1,0,1:0:0:0:
336,335,76961,2,0,B|323:301|323:301|337:209,2,129.00000492096,0|0|2,1:0|1:0|0:0,1:0:0:0:
248,369,77833,5,0,1:0:0:0:
187,304,78008,1,0,1:0:0:0:
15,299,78182,1,0,1:0:0:0:
102,279,78357,1,0,1:0:0:0:
96,175,78531,6,0,L|86:272,1,86,4|0,1:3|0:3,3:3:0:0:
132,62,79054,2,0,L|137:110,1,43,4|0,0:3|0:3,3:3:0:0:
171,214,79403,1,4,0:3:0:0:
171,214,79578,2,0,L|176:165,1,43,8|0,1:3|0:3,3:3:0:0:
253,192,79926,2,0,L|263:95,1,86,4|0,0:3|0:3,3:3:0:0:
336,171,80450,2,0,L|355:-13,1,172,4|0,0:3|0:3,3:3:0:0:
429,172,81322,6,0,L|420:86,1,86,4|0,0:3|0:3,3:3:0:0:
489,265,81845,2,0,L|494:209,1,43,4|0,0:3|0:3,3:3:0:0:
463,341,82194,1,4,0:3:0:0:
463,341,82368,2,0,L|505:345,1,43,8|0,1:3|0:3,3:3:0:0:
387,323,82717,5,4,0:3:0:0:
387,323,82892,1,0,0:3:0:0:
387,323,83066,1,0,0:3:0:0:
331,373,83240,2,0,L|248:348,1,86,8|0,0:3|0:3,3:3:0:0:
127,383,83764,1,4,1:3:0:0:
127,383,83938,1,0,0:3:0:0:
202,251,84112,6,0,L|177:352,1,86,4|0,0:3|0:3,3:3:0:0:
253,166,84636,2,0,L|265:216,1,43,4|0,0:3|0:3,3:3:0:0:
265,282,84985,1,4,0:3:0:0:
202,251,85159,2,0,L|152:236,1,43,8|0,1:3|0:3,3:3:0:0:
127,172,85508,2,0,L|158:143,1,43,4|0,0:3|0:3,3:3:0:0:
40,102,85857,1,4,0:3:0:0:
40,102,86031,2,0,L|55:201,1,86,12|0,0:3|0:3,3:3:0:0:
93,250,86554,1,8,1:3:0:0:
93,250,86729,1,0,0:3:0:0:
212,187,86903,6,0,L|203:272,1,86,4|0,0:3|0:3,3:3:0:0:
147,96,87426,2,0,L|141:151,1,43,4|0,0:3|0:3,3:3:0:0:
176,20,87775,1,4,0:3:0:0:
176,20,87950,2,0,L|133:15,1,43,8|0,1:3|0:3,3:3:0:0:
306,17,88298,6,0,L|283:73,1,43,4|0,0:3|0:3,3:3:0:0:
283,133,88647,1,4,0:3:0:0:
374,189,88822,2,0,L|294:156,1,86,4|0,0:3|0:3,3:3:0:0:
214,120,89345,1,8,1:3:0:0:
136,159,89519,1,4,0:3:0:0:
24,53,89694,6,0,B|32:17,1,21.5,6|0,0:2|0:0,1:0:0:0:
70,321,90043,1,2,0:3:0:0:
70,321,90217,2,0,L|54:216,1,107.5,2|0,0:2|0:0,1:0:0:0:
60,209,90740,2,0,L|67:254,1,43,0|0,1:0|0:0,0:0:0:0:
257,380,91089,6,0,L|281:364,1,21.5,2|0,1:2|0:0,1:0:0:0:
502,242,91438,1,2,0:0:0:0:
502,242,91612,2,0,P|451:266|443:321,1,107.5,2|0,0:2|0:0,1:0:0:0:
447,318,92136,2,0,P|447:293|456:268,1,43,0|0,1:0|0:0,0:0:0:0:
455,44,92485,6,0,L|472:18,1,21.5,2|0,1:2|0:0,1:0:0:0:
218,127,92833,1,2,0:0:0:0:
218,127,93008,2,0,B|273:157|273:106|320:124,1,107.5,2|0,0:2|0:0,1:0:0:0:
326,131,93531,2,0,P|293:128|281:133,1,43,0|0,1:0|0:0,0:0:0:0:
48,20,93880,6,0,L|59:43,1,21.5,2|0,1:2|0:0,1:0:0:0:
157,289,94229,1,2,0:0:0:0:
157,289,94403,2,0,B|149:245|149:245|138:230|138:230|130:187,1,107.5,2|0,0:2|0:0,1:0:0:0:
135,179,94926,2,0,L|144:224,1,43,0|0,1:0|0:0,0:0:0:0:
378,79,95275,6,0,L|395:53,1,21.5,6|0,1:2|0:0,1:0:0:0:
413,306,95624,1,2,0:0:0:0:
413,306,95798,2,0,B|452:269|452:269|470:216,1,107.5,2|0,0:2|0:0,1:0:0:0:
464,210,96322,2,0,L|447:254,1,43,0|0,1:0|0:0,0:0:0:0:
216,370,96671,6,0,L|190:357,1,21.5,2|0,1:2|0:0,1:0:0:0:
10,242,97019,1,2,0:0:0:0:
10,242,97194,2,0,P|30:292|89:316,1,107.5,2|0,0:2|0:0,1:0:0:0:
83,311,97717,2,0,P|62:305|44:294,1,43,0|0,1:0|0:0,0:0:0:0:
40,39,98066,6,0,L|27:10,1,21.5,2|0,1:2|0:0,1:0:0:0:
258,161,98415,1,2,0:0:0:0:
258,161,98589,2,0,B|218:161|214:161|192:139|186:139|155:139,1,107.5,2|0,0:2|0:0,1:0:0:0:
151,148,99112,2,0,P|183:149|194:153,1,43,0|0,1:0|0:0,0:0:0:0:
276,382,99461,6,0,L|263:353,1,21.5,2|0,1:3|0:0,1:0:0:0:
318,288,99636,2,2,L|328:258,1,21.5,0|0,0:0|0:0,1:0:0:0:
274,175,99810,2,0,L|264:145,1,21.5,2|0,0:0|0:0,1:0:0:0:
260,370,100159,6,2,L|250:340,1,21.5,2|0,0:2|0:0,1:0:0:0:
336,257,100333,2,2,L|342:236,1,21.5,2|0,0:2|0:0,1:0:0:0:
256,145,100508,2,2,L|249:124,1,21.5,2|0,0:2|0:0,1:0:0:0:
333,20,100682,2,2,L|339:0,1,21.5,2|0,0:2|0:0,1:0:0:0:
483,46,100857,5,6,1:2:0:0:
483,46,101031,2,0,P|396:277|254:88,1,516,2|2,0:2|0:0,0:0:0:0:
257,145,102252,1,2,1:3:0:0:
257,145,102426,2,0,P|288:223|448:245,1,258,2|2,0:2|0:0,0:0:0:0:
499,179,103124,1,2,0:0:0:0:
499,93,103298,1,2,0:2:0:0:
459,16,103473,1,2,0:0:0:0:
424,94,103647,5,2,1:3:0:0:
366,158,103822,2,0,P|323:165|281:159,3,86,2|2|0|0,0:0|0:2|0:0|0:0,0:0:0:0:
199,138,104519,2,0,B|154:132|133:70|158:71|133:22|90:18,1,172,2|0,0:2|0:0,0:0:0:0:
0,142,105043,6,0,B|48:127|68:95|68:95,1,86,0|0,1:0|0:0,1:0:0:0:
94,273,105392,2,0,B|105:224|87:190|87:190,1,86,2|0,0:2|0:0,1:0:0:0:
178,267,105740,2,0,B|225:288|261:275|261:275,1,86,2|2,0:2|0:3,1:0:0:0:
337,237,106089,2,0,B|343:289|372:315|372:315,1,86,2|2,0:2|0:3,1:0:0:0:
321,160,106438,5,6,1:2:0:0:
321,160,106612,2,0,P|132:77|43:334,1,516,2|2,0:2|0:0,0:0:0:0:
48,314,107833,1,2,1:3:0:0:
48,314,108008,2,0,P|37:188|130:101,1,258,2|2,0:2|0:0,0:0:0:0:
219,106,108705,1,2,0:0:0:0:
294,163,108880,1,2,0:2:0:0:
319,253,109054,1,2,0:0:0:0:
224,248,109229,5,2,1:3:0:0:
224,248,109403,2,0,P|259:180|294:161,2,94.600002886963,2|0|2,0:0|0:0|0:0,0:0:0:0:
369,182,109926,1,2,0:2:0:0:
369,182,110101,2,0,P|409:246|408:286,2,94.600002886963,2|0|2,0:0|0:0|0:0,0:0:0:0:
310,43,110624,5,2,1:3:0:0:
310,43,110798,2,0,P|269:27|232:5,1,86,2|0,0:0|0:0,1:0:0:0:
137,26,111147,1,2,0:0:0:0:
137,26,111322,2,0,P|154:62|178:99,1,86,2|0,0:0|0:0,1:0:0:0:
17,157,111671,2,0,P|55:137|96:125,1,86,2|0,0:0|0:0,1:0:0:0:
234,160,112019,5,6,1:2:0:0:
103,247,112194,1,2,0:0:0:0:
245,175,112368,1,2,0:0:0:0:
92,228,112543,1,2,0:0:0:0:
256,194,112717,1,2,0:0:0:0:
89,207,112892,2,0,P|125:228|168:234,1,86,2|2,0:2|0:0,0:0:0:0:
262,217,113240,1,2,0:0:0:0:
418,358,113415,6,0,P|415:205|262:216,1,344,2|0,1:3|0:0,0:0:0:0:
235,315,114287,1,0,0:0:0:0:
317,373,114461,2,0,B|340:338|340:338|346:294,1,86,2|0,0:0|0:0,1:0:0:0:
471,65,114810,6,0,P|460:106|436:141,1,86,2|2,1:3|0:0,0:0:0:0:
334,18,115159,2,0,P|374:3|417:0,1,86,2|0,0:0|0:0,0:0:0:0:
294,93,115508,2,0,P|263:122|225:142,1,86,2|0,0:0|0:0,0:0:0:0:
134,159,115857,1,2,0:0:0:0:
51,122,116031,1,2,0:0:0:0:
4,46,116205,1,2,1:3:0:0:
4,46,116554,6,0,B|10:90|10:90|35:123,1,86,2|2,0:2|0:0,1:0:0:0:
177,21,116903,2,0,B|135:4|135:4|94:9,1,86,2|2,0:2|0:0,1:0:0:0:
112,183,117252,1,2,0:0:0:0:
159,115,117426,1,2,0:0:0:0:
19,204,117601,5,6,1:2:0:0:
19,204,117775,2,0,P|161:366|388:226,1,516,2|2,0:2|0:0,0:0:0:0:
401,236,118996,2,0,P|278:371|114:368,1,344,2|0,1:3|0:0,0:0:0:0:
50,327,119868,1,2,0:2:0:0:
7,251,120043,1,2,0:0:0:0:
17,168,120217,5,2,0:0:0:0:
17,168,120392,2,0,P|55:211|164:209,1,161.25,0|0,1:0|0:0,1:0:0:0:
173,203,120740,2,0,P|242:177|308:191,1,129,0|0,1:0|0:0,1:0:0:0:
305,174,121264,6,0,P|242:161|181:180,1,129,0|0,1:0|0:0,1:0:0:0:
250,262,121612,2,0,P|400:185|240:94,1,387.000014762879,0|0,1:0|0:0,1:0:0:0:
286,90,122310,1,2,0:0:0:0:
286,90,122485,2,0,P|386:173|262:252,1,322.5,2|0,0:0|0:0,1:0:0:0:
59,143,123182,5,4,1:2:0:0:
90,241,123531,1,2,0:3:0:0:
182,323,123880,1,2,0:3:0:0:
334,356,124229,1,2,0:2:0:0:
512,300,124578,1,2,0:2:0:0:
334,256,124926,1,2,0:3:0:0:
174,310,125275,1,2,0:3:0:0:
56,276,125624,1,2,0:3:0:0:
0,207,125973,5,0,3:0:0:0:
44,132,126322,1,2,0:3:0:0:
166,91,126671,1,2,0:3:0:0:
289,183,127019,1,2,0:2:0:0:
297,366,127368,1,2,0:2:0:0:
216,196,127717,1,2,0:3:0:0:
309,68,128066,1,2,0:3:0:0:
422,18,128415,1,2,0:3:0:0:
509,32,128764,5,0,3:0:0:0:
476,118,129112,1,2,0:3:0:0:
385,205,129461,1,2,0:3:0:0:
228,239,129810,1,2,0:2:0:0:
47,195,130159,1,2,0:2:0:0:
228,131,130508,1,2,0:3:0:0:
372,195,130857,1,2,0:2:0:0:
444,296,131205,1,2,0:3:0:0:
438,384,131554,5,0,0:0:0:0:
359,339,131903,1,2,0:3:0:0:
340,159,132252,1,2,0:3:0:0:
0,60,132601,1,2,0:2:0:0:
93,262,132950,1,2,0:2:0:0:
265,332,133298,1,2,0:2:0:0:
397,262,133647,1,2,0:3:0:0:
461,153,133996,1,2,0:3:0:0:
439,63,134345,5,2,0:0:0:0:
307,67,134519,2,0,L|266:56,4,43,0|0|0|0|0,0:0|0:0|0:0|0:0|0:0,1:0:0:0:
120,128,135566,5,2,0:0:0:0:
252,128,135740,2,0,L|293:138,3,43,0|0|0|0,0:0|0:0|0:0|0:0,1:0:0:0:
249,205,136438,1,2,0:2:0:0:
249,205,136787,1,2,0:0:0:0:
114,368,137136,5,0,0:0:0:0:
114,368,137310,1,2,0:0:0:0:
118,236,137485,2,0,P|115:214|107:194,3,43,0|0|0|0,0:0|0:0|0:0|0:0,1:0:0:0:
24,96,138357,5,2,0:0:0:0:
20,228,138531,2,0,P|23:249|30:270,3,43,0|0|0|0,0:0|0:0|0:0|0:0,1:0:0:0:
93,301,139578,1,2,0:0:0:0:
457,302,139926,6,0,L|498:291,1,43,2|2,0:0|0:0,1:0:0:0:
325,298,140275,2,0,L|283:308,3,43,0|0|0|0,0:0|0:0|0:0|0:0,1:0:0:0:
139,231,141147,6,0,L|110:238,1,21.5,2|0,0:0|0:0,1:0:0:0:
271,235,141322,2,0,L|313:224,3,43,0|0|0|0,0:0|0:0|0:0|0:0,1:0:0:0:
343,61,142717,6,0,P|333:42|319:27,1,43,2|2,0:0|0:0,1:0:0:0:
373,165,143066,2,0,P|383:185|397:201,4,43,0|0|0|0|0,0:0|0:0|0:0|0:0|0:0,1:0:0:0:
441,147,143938,6,0,P|448:138|456:131,1,21.5,2|0,0:0|0:0,1:0:0:0:
366,260,144112,2,0,P|350:273|332:286,3,43,0|0|2|0,0:0|0:0|0:2|0:0,1:0:0:0:
228,307,144810,2,0,P|206:300|186:292,1,43,2|0,0:2|0:0,1:0:0:0:
107,226,145159,2,0,P|93:197|85:166,1,64.5,2|0,0:0|0:0,1:0:0:0:
72,159,145508,6,0,P|140:281|415:71,1,602,4|0,0:2|0:0,0:0:0:0:
458,21,146903,6,0,P|320:369|11:115,1,903.000034446718,4|2,0:2|0:2,1:0:0:0:
33,74,148211,1,0,0:0:0:0:
78,62,148298,1,0,0:0:0:0:
15,119,148450,1,2,0:2:0:0:
37,78,148537,1,0,0:0:0:0:
82,66,148624,1,0,0:0:0:0:
19,123,148798,1,2,0:2:0:0:
41,82,148886,1,0,0:0:0:0:
86,70,148973,1,0,0:0:0:0:
23,127,149147,1,2,0:2:0:0:
45,86,149234,1,0,0:0:0:0:
90,74,149322,1,0,0:0:0:0:
27,131,149496,1,2,0:2:0:0:
49,90,149583,1,0,0:0:0:0:
94,78,149670,1,0,0:0:0:0:
167,222,149868,2,0,L|157:180,1,43,2|0,0:2|0:0,1:0:0:0:
225,49,150042,2,0,L|222:83,1,34.4,2|0,0:2|0:0,1:0:0:0:
265,191,150216,2,0,L|259:165,1,25.7999992126465,0|0,0:0|0:0,1:0:0:0:
316,104,150391,2,0,L|308:132,1,17.2,0|0,0:0|0:0,1:0:0:0:
47,347,150740,6,0,L|30:294,1,43,2|0,0:0|0:0,1:0:0:0:
51,347,150914,2,0,L|34:294,1,43,2|0,0:0|0:0,1:0:0:0:
55,347,151088,2,0,L|38:294,1,43,2|0,0:0|0:0,1:0:0:0:
59,347,151262,2,0,L|42:294,1,43,2|0,0:0|0:0,1:0:0:0:
63,347,151436,2,0,L|46:294,1,43,2|0,0:0|0:0,1:0:0:0:
67,347,151611,2,0,L|50:294,1,43,2|0,0:0|0:0,1:0:0:0:
139,203,151785,2,0,L|122:256,1,43,2|0,0:0|0:0,1:0:0:0:
190,318,151960,1,2,0:2:0:0:
195,333,152047,1,2,0:0:0:0:
200,348,152134,1,0,0:0:0:0:
316,104,152308,6,0,P|409:95|364:247,1,258.000009841919,2|0,0:2|0:0,1:0:0:0:
378,247,152744,1,2,0:0:0:0:
332,241,152832,1,0,0:0:0:0:
183,111,153006,1,0,0:0:0:0:
207,131,153093,1,2,0:0:0:0:
239,130,153181,2,0,P|268:117|267:16,1,129.00000492096,2|0,0:0|0:0,1:0:0:0:
214,0,153529,1,0,1:0:0:0:
214,0,153704,1,6,1:2:0:0:
321,231,154053,5,2,0:0:0:0:
34,281,154401,5,2,0:0:0:0:
34,281,154576,1,2,0:0:0:0:
248,266,154750,1,2,0:2:0:0:
101,325,154925,1,2,0:0:0:0:
178,342,155099,2,0,L|170:299,1,43,2|0,0:0|0:0,1:0:0:0:
82,217,155448,5,2,0:0:0:0:
34,281,155622,1,2,0:0:0:0:
248,266,155797,1,2,0:2:0:0:
101,325,155971,1,2,0:2:0:0:
171,384,156146,2,0,L|178:343,1,43,2|0,0:0|0:0,1:0:0:0:
151,20,156494,5,2,0:0:0:0:
155,20,156669,2,0,P|154:42|160:63,1,43,2|0,0:0|0:0,1:0:0:0:
176,151,156843,1,2,0:2:0:0:
159,20,157018,2,0,P|158:42|164:63,1,43,2|0,0:0|0:0,1:0:0:0:
179,148,157192,1,2,0:2:0:0:
388,207,157367,2,0,L|334:209,1,43,2|0,0:2|0:0,1:0:0:0:
388,203,157541,2,0,L|334:205,1,43,2|0,0:2|0:0,1:0:0:0:
268,177,157715,1,2,0:0:0:0:
388,199,157890,2,0,L|334:201,1,43,2|0,0:2|0:0,1:0:0:0:
388,195,158064,2,0,L|334:197,1,43,2|0,0:2|0:0,1:0:0:0:
268,173,158239,1,2,0:0:0:0:
388,191,158413,2,0,L|334:193,1,43,2|0,0:2|0:0,1:0:0:0:
388,187,158588,2,0,L|334:189,1,43,2|0,0:2|0:0,1:0:0:0:
268,169,158762,1,2,0:0:0:0:
498,376,159111,6,2,B|437:368|554:282|455:206,1,172,2|4,0:0|1:2,1:0:0:0:
0,132,159808,5,2,0:2:0:0:
34,108,159896,1,2,0:2:0:0:
73,115,159983,1,2,0:2:0:0:
205,207,160157,2,0,L|187:143,1,43,2|0,0:0|0:0,1:0:0:0:
115,181,160332,2,0,L|106:214,1,34.4,2|0,0:2|0:0,1:0:0:0:
28,233,160506,2,0,L|17:193,1,25.7999992126465,2|0,0:0|0:0,1:0:0:0:
158,99,160681,2,2,P|285:182|394:105,1,258.000009841919,2|0,0:2|0:0,1:0:0:0:
417,58,161204,2,0,L|421:43,1,8.6,2|0,0:2|0:0,1:0:0:0:
420,55,161378,2,0,L|424:40,1,8.6,2|0,0:2|0:0,1:0:0:0:
423,52,161553,2,0,L|427:37,1,8.6,2|0,0:2|0:0,1:0:0:0:
426,49,161727,2,0,L|430:34,1,8.6,2|0,0:2|0:0,1:0:0:0:
384,148,161901,1,2,0:2:0:0:
378,169,161989,1,0,0:0:0:0:
372,191,162076,1,2,0:0:0:0:
255,1,162250,6,2,B|264:32|264:32|266:53|266:53|275:83,1,86,2|0,0:1|0:0,1:0:0:0:
311,261,162599,2,0,L|269:273,1,43,2|0,0:0|0:0,1:0:0:0:
183,289,162774,1,2,0:0:0:0:
15,157,162948,2,0,P|20:178|27:198,1,43,2|0,0:2|0:0,1:0:0:0:
66,325,163122,2,0,P|86:287|86:243,1,86,2|0,0:0|0:0,1:0:0:0:
98,146,163471,2,0,P|106:160|118:173,1,34.4,2|0,0:2|0:0,1:0:0:0:
198,280,163646,2,0,P|202:237|189:196,1,86,2|0,0:0|0:0,1:0:0:0:
174,106,163907,1,2,0:0:0:0:
174,106,163994,2,0,P|182:113|195:120,1,25.7999992126465,2|0,0:2|0:0,1:0:0:0:
307,192,164169,2,0,P|296:150|270:116,1,86,2|0,0:0|0:0,1:0:0:0:
256,15,164518,2,0,L|234:29,1,17.2,0|0,1:0|0:0,1:0:0:0:
29,115,164692,2,0,B|74:159|146:141|141:101|210:77|271:117,1,258.000009841919,2|0,0:0|0:0,1:0:0:0:
307,192,165215,6,2,P|287:201|263:220,1,43,2|0,0:2|0:0,1:0:0:0:
166,322,165390,2,0,B|219:333|219:333|280:322|280:322|335:334,1,172,2|0,0:0|0:0,1:0:0:0:
507,370,165913,1,2,0:0:0:0:
425,354,166088,1,2,0:0:0:0:
425,354,166262,2,0,P|379:282|498:209,1,258,2|2,0:0|0:0,1:0:0:0:
259,370,166960,1,2,0:0:0:0:
259,370,167134,2,0,L|245:313,1,43,2|0,0:0|0:0,1:0:0:0:
310,267,167308,2,0,L|324:220,1,43,2|0,0:0|0:0,1:0:0:0:
260,146,167483,2,0,L|254:93,1,43,2|0,0:2|0:0,1:0:0:0:
340,43,167657,2,0,L|347:-32,1,43,2|0,0:0|0:0,1:0:0:0:
239,370,168006,5,2,0:2:0:0:
244,349,168093,1,2,0:0:0:0:
249,328,168181,1,0,0:0:0:0:
313,372,168355,1,2,0:2:0:0:
185,284,168529,1,2,0:2:0:0:
178,259,168617,1,2,0:0:0:0:
171,234,168704,1,0,0:0:0:0:
108,287,168878,1,6,0:2:0:0:
234,181,169053,1,2,0:2:0:0:
238,150,169140,1,2,0:0:0:0:
241,121,169227,1,0,0:0:0:0:
308,168,169401,1,2,0:2:0:0:
174,74,169576,1,2,0:2:0:0:
173,36,169663,1,2,0:0:0:0:
170,0,169750,1,0,0:0:0:0:
95,51,169925,1,2,0:2:0:0:
484,68,170274,6,2,B|455:39|395:100|362:68,1,129,2|0,0:1|0:0,1:0:0:0:
276,39,170622,5,6,1:2:0:0:
276,39,170797,2,0,P|189:256|402:357,1,516,2|2,0:2|0:0,0:0:0:0:
410,341,172018,1,2,1:3:0:0:
410,341,172192,2,0,P|284:339|201:244,1,258,2|2,0:2|0:0,0:0:0:0:
199,158,172890,1,2,0:2:0:0:
243,84,173064,1,2,0:0:0:0:
320,45,173239,1,2,0:0:0:0:
416,38,173413,5,2,1:3:0:0:
428,127,173588,2,0,P|397:173|340:206,3,86,2|2|0|0,0:0|0:2|0:0|0:0,0:0:0:0:
291,224,174285,2,0,B|250:243|200:217|217:208|172:186|127:201,1,172,2|0,0:2|0:0,0:0:0:0:
11,226,174808,6,0,B|54:252|65:288|65:288,1,86,0|0,1:0|0:0,1:0:0:0:
154,283,175157,2,0,B|152:332|126:361|126:361,1,86,2|0,0:2|0:0,1:0:0:0:
230,352,175506,2,0,B|270:319|308:322|308:322,1,86,2|2,0:2|0:3,1:0:0:0:
401,339,175855,2,0,B|393:286|415:254|415:254,1,86,2|2,0:2|0:3,1:0:0:0:
277,249,176204,5,2,1:3:0:0:
277,249,176378,2,0,P|454:256|406:-1,1,516,2|2,0:2|0:0,0:0:0:0:
391,7,177599,1,2,0:0:0:0:
391,7,177774,2,0,P|491:79|484:203,1,258,2|2,0:2|0:0,0:0:0:0:
421,261,178471,1,2,0:0:0:0:
334,265,178646,1,2,0:2:0:0:
263,215,178820,1,2,0:0:0:0:
331,152,178994,5,2,1:3:0:0:
331,152,179169,2,0,P|353:197|350:248,2,94.600002886963,2|0|2,0:0|0:0|0:0,0:0:0:0:
276,307,179692,1,2,0:2:0:0:
276,307,179867,2,0,P|227:301|187:267,2,94.600002886963,2|0|2,0:0|0:0|0:0,0:0:0:0:
118,204,180390,5,2,1:3:0:0:
118,204,180564,2,0,P|79:186|36:175,1,86,2|0,0:0|0:0,1:0:0:0:
146,52,180913,1,2,0:0:0:0:
146,52,181088,2,0,P|151:92|165:134,1,86,2|0,0:0|0:0,1:0:0:0:
320,46,181436,2,0,P|277:53|237:68,1,86,2|0,0:0|0:0,1:0:0:0:
230,181,181785,5,6,1:2:0:0:
349,276,181960,1,2,0:0:0:0:
215,192,182134,1,2,0:0:0:0:
364,260,182308,1,2,0:0:0:0:
204,210,182483,1,2,0:0:0:0:
368,238,182657,2,0,P|329:219|286:216,1,86,2|2,0:2|0:0,0:0:0:0:
194,232,183006,1,2,0:0:0:0:
260,347,183181,6,0,P|202:203|345:143,1,344,2|0,1:3|0:0,0:0:0:0:
428,194,184053,1,0,0:0:0:0:
451,291,184227,2,0,B|424:257|424:257|419:215,1,86,2|0,0:0|0:0,1:0:0:0:
494,71,184576,6,0,P|477:31|447:2,1,86,2|2,1:3|0:0,0:0:0:0:
322,83,184925,2,0,P|364:88|406:77,1,86,2|2,0:0|0:0,0:0:0:0:
252,36,185274,2,0,P|240:76|247:125,1,86,2|2,0:0|0:0,0:0:0:0:
288,204,185622,1,2,0:0:0:0:
272,297,185797,1,2,0:0:0:0:
206,235,185971,1,2,1:3:0:0:
206,235,186320,6,0,B|188:194|188:194|153:168,1,86,2|2,0:2|0:0,1:0:0:0:
78,310,186669,2,0,B|120:314|120:314|159:298,1,86,2|2,0:2|0:0,1:0:0:0:
76,161,187018,1,2,0:0:0:0:
44,238,187192,1,2,0:0:0:0:
199,366,187367,5,6,1:2:0:0:
199,366,187541,2,0,P|349:328|271:39,1,516,2|2,0:2|0:0,0:0:0:0:
304,36,188762,2,0,P|416:163|375:324,1,344,2|2,1:3|0:0,0:0:0:0:
292,376,189634,1,2,0:2:0:0:
199,366,189808,1,2,0:0:0:0:
277,290,189983,5,2,0:0:0:0:
277,290,190157,2,0,P|329:232|324:153,1,161.25,0|0,1:0|0:0,1:0:0:0:
303,144,190506,2,0,P|229:155|180:200,1,129,0|0,1:0|0:0,1:0:0:0:
164,188,191029,6,0,P|229:134|314:128,1,172,0|0,1:0|0:0,1:0:0:0:
465,138,191378,2,0,P|303:210|210:58,1,387.000014762879,4|0,1:2|0:0,1:0:0:0:
229,40,192076,1,2,0:0:0:0:
229,40,192250,2,0,P|305:194|458:111,1,387.000014762879,2|2,0:0|0:0,1:0:0:0:
356,53,192948,5,6,1:2:0:0:
420,141,193297,1,2,0:0:0:0:
420,141,193471,2,0,P|304:171|248:65,1,258,2|0,1:3|0:0,1:0:0:0:
43,99,194518,5,2,1:3:0:0:
7,288,194867,1,2,0:0:0:0:
7,288,195041,2,0,B|23:152|109:175|109:175,1,172,2|0,1:3|0:0,1:0:0:0:
215,321,195739,6,0,P|204:268|180:217,1,86,2|0,1:3|0:0,1:0:0:0:
271,198,196088,1,2,0:0:0:0:
271,198,196262,1,2,0:0:0:0:
339,259,196436,1,2,0:0:0:0:
339,259,196611,1,2,0:0:0:0:
419,223,196785,2,0,P|429:275|453:326,1,86,2|0,0:0|0:0,1:0:0:0:
499,360,197134,5,2,1:3:0:0:
478,167,197483,1,2,0:0:0:0:
478,167,197657,2,0,P|415:191|425:60,1,258,0|0,1:0|0:0,1:0:0:0:
242,201,198529,5,0,1:0:0:0:
331,264,198878,1,2,0:0:0:0:
331,264,199053,2,0,P|361:148|255:91,1,258,2|0,1:3|0:0,1:0:0:0:
30,177,200099,5,2,1:3:0:0:
211,272,200448,1,2,0:0:0:0:
211,272,200622,2,0,B|165:275|137:310|137:310|109:273|61:271,1,172,2|0,1:3|0:0,1:0:0:0:
14,41,201320,6,0,P|41:74|73:102,1,86,0|0,1:3|0:0,1:0:0:0:
164,134,201669,1,2,0:0:0:0:
164,134,201843,1,2,0:0:0:0:
254,104,202018,1,2,0:0:0:0:
254,104,202192,1,2,0:0:0:0:
329,162,202367,2,0,P|369:146|411:138,1,86,2|0,0:0|0:0,1:0:0:0:
496,133,202715,5,2,1:3:0:0:
358,259,203064,1,2,0:0:0:0:
358,259,203239,2,0,P|457:304|378:380,1,258,2|0,1:3|0:0,1:0:0:0:
437,71,204111,5,6,1:2:0:0:
348,8,204460,1,2,0:0:0:0:
348,8,204634,2,0,P|318:124|424:181,1,258,2|0,1:3|0:0,1:0:0:0:
120,62,205681,5,2,1:3:0:0:
319,124,206029,1,2,0:0:0:0:
319,124,206204,2,0,B|257:106|252:105|222:149|217:149|155:129,1,172,2|0,1:3|0:0,1:0:0:0:
395,384,206901,6,0,P|378:344|375:301,1,86,2|0,1:3|0:0,1:0:0:0:
281,328,207250,1,2,0:0:0:0:
281,328,207425,1,2,0:0:0:0:
202,272,207599,1,2,0:0:0:0:
202,272,207774,1,2,0:0:0:0:
110,303,207948,2,0,P|91:341|63:374,1,86,2|0,0:0|0:0,1:0:0:0:
168,381,208297,5,2,1:3:0:0:
25,257,208646,1,2,0:0:0:0:
25,257,208820,2,0,P|134:248|85:149,1,258,2|0,1:3|0:0,1:0:0:0:
363,256,209692,5,6,1:2:0:0:
281,328,210041,1,2,0:0:0:0:
281,328,210215,2,0,P|250:212|357:155,1,258,2|0,1:3|0:0,1:0:0:0:
94,68,211262,5,2,1:3:0:0:
283,86,211611,1,2,0:0:0:0:
283,86,211785,2,0,B|176:31|176:31|191:57|194:82,1,172,2|0,1:3|0:0,1:0:0:0:
492,210,212483,6,0,P|455:187|422:159,1,86,2|0,1:3|0:0,1:0:0:0:
340,210,212832,1,2,0:0:0:0:
340,210,213006,1,2,0:0:0:0:
250,177,213181,1,2,0:0:0:0:
250,177,213355,1,2,0:0:0:0:
167,222,213529,2,0,P|134:194|97:171,1,86,2|0,0:0|0:0,1:0:0:0:
25,218,213878,5,2,1:3:0:0:
164,356,214227,1,2,0:0:0:0:
164,356,214401,2,0,P|124:301|253:277,1,258,2|0,1:3|0:0,1:0:0:0:
456,336,215274,5,4,0:2:0:0:
329,255,215448,1,2,0:0:0:0:
438,355,215622,1,0,1:0:0:0:
346,235,215797,1,2,0:0:0:0:
415,367,215971,1,2,0:0:0:0:
368,222,216146,2,0,B|373:270|373:280|324:326|324:331|330:385,1,172,2|2,0:3|0:0,0:0:0:0:
486,134,216669,5,0,0:0:0:0:
486,134,216843,2,0,L|500:49,1,86,2|0,0:0|1:0,0:0:0:0:
348,52,217192,2,0,L|361:136,1,86,2|2,0:0|0:2,0:0:0:0:
287,198,217541,1,2,0:0:0:0:
210,134,217715,2,0,L|224:49,1,86,2|2,1:2|0:2,0:0:0:0:
137,287,218064,6,0,P|94:249|96:140,1,161.25,0|0,1:0|0:0,1:0:0:0:
102,132,218413,2,0,P|128:63|114:-3,1,129,0|0,1:0|0:0,1:0:0:0:
129,0,218936,6,0,P|142:63|93:163,1,172,6|0,1:2|0:0,1:0:0:0:
14,288,219285,2,0,P|77:146|217:274,1,387.000014762879,6|0,1:2|0:0,1:0:0:0:
206,277,219983,1,2,0:0:0:0:
206,277,220157,2,0,P|97:152|33:301,1,387.000014762879,2|0,1:3|0:0,1:0:0:0:
162,342,220855,5,4,1:2:0:0:
162,342,221029,1,0,1:2:0:0:
162,342,221204,2,0,P|189:359|213:379,1,64.5000024604798,0|0,1:0|1:0,1:0:0:0:
261,244,221553,2,0,P|232:258|203:269,1,64.5000024604798,0|0,1:0|1:0,1:0:0:0:
123,270,221901,1,0,0:0:0:0:
123,270,222076,2,0,B|75:264|46:220|73:213|42:170|0:163,2,172,0|0|0,1:0|1:0|0:0,1:0:0:0:
214,173,222948,1,0,1:0:0:0:
136,191,223122,1,2,0:0:0:0:
92,128,223297,1,0,1:0:0:0:
142,181,223471,1,2,0:0:0:0:
212,41,223646,6,0,B|233:-6|294:52|301:49|323:-21|370:12,2,172,0|0|2,1:0|1:0|0:2,1:0:0:0:
177,109,224518,1,2,0:0:0:0:
253,104,224692,1,0,1:0:0:0:
177,109,224867,2,0,B|110:128|92:-10|45:27,2,172,0|0|0,1:0|1:0|0:0,1:0:0:0:
253,104,225739,2,0,P|277:87|296:56,1,64.5000024604798,0|2,1:0|0:0,0:0:0:0:
290,343,226088,1,0,1:0:0:0:
207,340,226262,1,4,0:2:0:0:
290,343,226436,6,0,B|338:385,1,64.5000024604798,0|0,1:0|1:0,0:0:0:0:
251,269,226785,2,0,B|261:205,1,64.5000024604798,0|0,1:0|1:0,0:0:0:0:
207,340,227134,2,0,B|146:361,1,64.5000024604798,0|0,1:0|1:0,0:0:0:0:
336,277,227483,1,2,0:0:0:0:
336,277,227657,2,0,B|347:214|347:214|380:179|380:179|389:120,2,172,0|0|0,1:0|1:0|0:0,1:0:0:0:
397,320,228529,2,0,B|404:384,1,64.5000024604798,0|0,1:0|0:0,0:0:0:0:
349,67,228878,1,0,1:0:0:0:
397,125,229053,1,2,0:0:0:0:
349,67,229227,6,0,B|408:43|413:41|447:82|452:82|512:57,2,172,0|0|2,1:0|1:0|0:2,1:0:0:0:
300,131,230099,1,2,0:0:0:0:
355,189,230274,1,0,1:0:0:0:
288,147,230448,2,0,B|211:115|333:25|249:-4,2,172,0|0|0,1:0|1:0|0:0,1:0:0:0:
355,189,231320,2,0,P|388:225|396:242,1,64.5000024604798,0|2,1:0|0:0,0:0:0:0:
48,76,231669,6,2,B|-25:111|139:275|61:308,1,258.000009841919,0|6,0:0|0:2,1:0:0:0:
232,372,232367,6,0,L|222:334,2,38.6999988189698,2|0|0,0:2|0:0|0:0,1:0:0:0:
155,270,232715,2,0,L|167:224,2,47.3000014434815,2|0|0,0:2|0:0|0:0,1:0:0:0:
247,172,233064,2,0,L|232:118,2,55.8999974411012,2|0|0,0:2|0:0|0:0,1:0:0:0:
161,63,233413,2,0,L|178:1,2,64.5000024604798,2|0|0,0:2|0:0|0:0,1:0:0:0:
256,171,233762,1,2,0:2:0:0:
264,202,233849,1,0,0:0:0:0:
273,234,233936,1,0,0:0:0:0:
157,273,234111,2,0,L|155:283,1,8.6,2|0,0:2|0:0,1:0:0:0:
235,375,234285,2,0,L|237:385,1,8.6,2|0,0:0|0:0,1:0:0:0:
477,322,234634,6,0,P|382:258|331:360,1,258.000009841919,2|0,0:0|0:0,1:0:0:0:
403,340,235157,2,0,P|397:297|407:243,1,86,2|0,0:2|0:0,1:0:0:0:
451,182,235506,2,0,P|457:139|446:85,1,86,2|0,0:0|0:0,1:0:0:0:
402,23,235855,1,2,0:0:0:0:
402,23,236029,1,2,0:0:0:0:
341,103,236204,2,0,L|338:113,1,8.6,2|0,0:2|0:0,1:0:0:0:
242,84,236378,1,2,0:2:0:0:
170,177,236553,1,2,0:0:0:0:
182,281,236727,1,2,0:0:0:0:
268,229,236901,1,2,0:0:0:0:
341,254,237076,1,2,0:0:0:0:
345,107,237250,2,0,L|347:96,1,8.6,6|0,0:2|0:0,1:0:0:0:
246,88,237425,1,2,0:2:0:0:
174,181,237599,1,6,0:2:0:0:
186,285,237774,1,2,0:0:0:0:
272,233,237948,1,2,0:0:0:0:
345,258,238122,1,2,0:0:0:0:
349,111,238297,2,0,L|351:100,1,8.6,2|0,0:2|0:0,1:0:0:0:
250,92,238471,1,2,0:2:0:0:
178,185,238646,1,2,0:0:0:0:
190,289,238820,1,2,0:0:0:0:
276,237,238994,1,2,0:0:0:0:
349,262,239169,1,2,0:0:0:0:
353,115,239343,2,0,L|355:104,1,8.6,2|0,0:2|0:0,1:0:0:0:
254,96,239518,1,2,0:2:0:0:
182,189,239692,1,2,0:0:0:0:
182,189,240041,6,0,B|138:203|138:203|102:201|102:201|81:222|81:222|24:241,1,172,2|2,1:3|0:0,1:0:0:0:
190,288,240739,5,6,0:2:0:0:
217,298,240826,1,0,0:0:0:0:
244,307,240913,1,0,0:0:0:0:
276,237,241088,2,0,L|291:231,1,8.6,2|0,0:2|0:0,1:0:0:0:
378,361,241436,6,0,L|386:364,1,8.6,2|0,0:0|0:0,1:0:0:0:
347,289,241611,2,0,L|355:286,1,8.6,6|0,0:2|0:0,1:0:0:0:
197,211,241960,6,2,L|193:196,1,8.6,0|0,0:0|0:0,1:0:0:0:
194,208,242134,2,2,L|190:193,1,8.6,0|0,0:0|0:0,1:0:0:0:
191,205,242308,2,2,L|187:190,1,8.6,0|0,0:0|0:0,1:0:0:0:
188,202,242483,2,2,L|184:187,1,8.6,0|0,0:0|0:0,1:0:0:0:
185,199,242657,2,2,L|181:184,1,8.6,0|0,0:0|0:0,1:0:0:0:
53,331,243006,6,0,L|57:348,1,17.2,0|4,0:0|0:2,1:0:0:0:
