osu file format v14

[General]
AudioFilename: audio.mp3
AudioLeadIn: 0
PreviewTime: 44868
Countdown: 0
SampleSet: Drum
StackLeniency: 0.6
Mode: 0
LetterboxInBreaks: 0
WidescreenStoryboard: 1

[Editor]
Bookmarks: 44,392,148450,149868,151088,243181
DistanceSpacing: 1.1
BeatDivisor: 4
GridSize: 8
TimelineZoom: 2.450003

[Metadata]
Title:oddloop
TitleUnicode:オドループ
Artist:Frederic
ArtistUnicode:フレデリック
Creator:RatinA0
Version:mostly insane
Source:山田くんと7人の魔女
Tags:Yamada-kun to 7-nin no Majo Koji Mihara odoru to dance oddl∞p ova full ending ed japanese anime ratinao
BeatmapID:2226452
BeatmapSetID:1020990

[Difficulty]
HPDrainRate:4.5
CircleSize:4.3
OverallDifficulty:7.5
ApproachRate:8.5
SliderMultiplier:1.72
SliderTickRate:1

[Events]
//Background and Video events
Video,-100,"opto.flv"
0,0,"58662866_p0_1080.png",0,0
//Break Periods
//Storyboard Layer 0 (Background)
//Storyboard Layer 1 (Fail)
//Storyboard Layer 2 (Pass)
//Storyboard Layer 3 (Foreground)
//Storyboard Layer 4 (Overlay)
//Storyboard Sound Samples

[TimingPoints]
44,348.837209302326,4,3,1,70,1,0
44,-133.333333333333,4,3,1,70,0,0
392,348.837209302326,4,3,1,70,1,0
392,-133.333333333333,4,3,1,70,0,0
1612,-100,4,3,1,70,0,0
4403,-133.333333333333,4,3,1,70,0,0
7194,-100,4,3,1,70,0,0
9985,-133.333333333333,4,3,1,70,0,0
12775,-100,4,3,1,70,0,0
15566,-133.333333333333,4,3,1,70,0,0
18357,-100,4,3,1,70,0,0
21147,-133.333333333333,4,3,1,70,0,0
21671,-100,4,3,1,70,0,0
22717,-133.333333333333,4,2,1,60,0,0
33531,-100,4,2,1,65,0,0
33880,-125,4,2,1,65,0,0
43473,-111.111111111111,4,2,1,70,0,0
44345,-111.111111111111,4,2,1,80,0,0
45043,-90.9090909090909,4,3,1,90,0,1
46787,-100,4,3,1,90,0,1
47833,-90.9090909090909,4,3,1,90,0,1
49926,-100,4,3,1,90,0,1
50624,-90.9090909090909,4,3,1,90,0,1
52368,-100,4,3,1,90,0,1
53415,-90.9090909090909,4,3,1,90,0,1
54810,-100,4,3,1,90,0,1
56205,-90.9090909090909,4,3,1,90,0,1
58996,-83.3333333333333,4,3,1,90,0,1
60740,-100,4,3,1,90,0,1
61787,-83.3333333333333,4,3,1,90,0,1
63182,-100,4,3,1,90,0,1
64578,-80,4,3,1,90,0,1
64839,-80,4,2,99,5,0,1
64926,-66.6666666666667,4,3,1,90,0,1
65450,-57.1428571428571,4,3,1,90,0,1
65798,-66.6666666666667,4,3,1,90,0,1
67194,-133.333333333333,4,3,1,70,0,0
68589,-100,4,3,1,70,0,0
71380,-133.333333333333,4,3,1,70,0,0
74171,-100,4,3,1,70,0,0
76961,-133.333333333333,4,3,1,70,0,0
78531,-200,4,3,1,60,0,0
89519,-125,4,3,1,70,0,0
91176,-125,4,2,99,5,0,0
91438,-125,4,3,1,70,0,0
91874,-125,4,2,99,5,0,0
91961,-125,4,3,1,70,0,0
92572,-125,4,2,99,5,0,0
92833,-125,4,3,1,70,0,0
93967,-125,4,2,99,5,0,0
94229,-125,4,3,1,70,0,0
95275,-125,4,3,1,75,0,0
95537,-125,4,2,99,5,0,0
95624,-125,4,3,1,75,0,0
100159,-125,4,3,1,80,0,0
100508,-125,4,3,1,85,0,0
100857,-90.9090909090909,4,3,1,90,0,1
102601,-100,4,3,1,90,0,1
103647,-90.9090909090909,4,3,1,90,0,1
105740,-100,4,3,1,90,0,1
106438,-90.9090909090909,4,3,1,90,0,1
108182,-100,4,3,1,90,0,1
109229,-90.9090909090909,4,3,1,90,0,1
110624,-100,4,3,1,90,0,1
112019,-90.9090909090909,4,3,1,90,0,1
114810,-83.3333333333333,4,3,1,90,0,1
116554,-100,4,3,1,90,0,1
117601,-83.3333333333333,4,3,1,90,0,1
118996,-100,4,3,1,90,0,1
120392,-80,4,3,1,90,0,1
120653,-80,4,2,99,5,0,1
120740,-80,4,3,1,90,0,1
122485,-100,4,3,1,90,0,1
123182,-133.333333333333,4,2,1,60,0,0
133996,-100,4,2,1,60,0,0
134258,-100,4,2,99,5,0,0
134345,-133.333333333333,4,3,1,60,0,0
140624,-117.647058823529,4,3,1,60,0,0
140886,-133.333333333333,4,2,99,5,0,0
140973,-133.333333333333,4,3,1,60,0,0
141235,-133.333333333333,4,2,99,5,0,0
141322,-117.647058823529,4,3,1,60,0,0
142717,-100,4,3,1,60,0,0
145421,-100,4,2,99,5,0,0
145508,-90.9090909090909,4,3,1,70,0,0
146903,-100,4,3,1,80,0,0
148124,-90.9090909090909,4,1,1,90,0,1
148450,348.837209302326,4,1,1,90,1,0
148450,-90.9090909090909,4,1,1,90,0,0
149868,348.837209302326,4,1,1,90,1,0
149868,-100,4,1,1,90,0,0
150391,-200,4,1,1,90,0,0
150478,-200,4,2,99,5,0,0
150740,-100,4,1,1,90,0,0
151000,-100,4,2,99,5,0,0
151088,348.837209302326,4,1,1,90,1,0
151088,-100,4,1,1,90,0,0
151349,-100,4,2,99,5,0,0
151436,-100,4,1,1,90,0,0
151698,-100,4,2,99,5,0,0
151785,-100,4,1,1,90,0,0
152308,-76.9230769230769,4,1,1,90,0,1
152657,-76.9230769230769,4,1,1,90,0,0
155099,-100,4,1,1,90,0,0
155186,-100,4,2,99,5,0,0
155448,-100,4,1,1,90,0,0
156233,-100,4,2,99,5,0,0
156494,-100,4,1,1,90,0,0
156756,-100,4,2,99,5,0,0
156843,-100,4,1,1,90,0,0
157105,-100,4,2,99,5,0,0
157192,-100,4,1,1,90,0,0
157454,-100,4,2,99,5,0,0
157541,-100,4,1,1,90,0,0
157628,-100,4,2,99,5,0,0
157715,-100,4,1,1,90,0,0
157977,-100,4,2,99,5,0,0
158064,-100,4,1,1,90,0,0
158151,-100,4,2,99,5,0,0
158239,-100,4,1,1,90,0,0
158500,-100,4,2,99,5,0,0
158588,-100,4,1,1,90,0,0
158675,-100,4,2,99,5,0,0
158762,-100,4,1,1,90,0,0
159111,-100,4,1,1,90,0,1
159460,-100,4,1,1,90,0,0
160681,-76.9230769230769,4,1,1,90,0,0
161901,-100,4,1,1,90,0,0
162250,-100,4,1,1,90,0,1
162425,-100,4,1,1,90,0,0
164692,-76.9230769230769,4,1,1,90,0,0
165390,-100,4,1,1,90,0,0
166262,-90.9090909090909,4,1,1,90,0,0
167134,-100,4,1,1,90,0,0
167221,-100,4,2,99,5,0,0
167308,-100,4,1,1,90,0,0
167396,-100,4,2,99,5,0,0
167483,-100,4,1,1,90,0,0
167570,-100,4,2,99,5,0,0
167657,-100,4,1,1,90,0,0
167744,-100,4,2,99,5,0,0
168006,-100,4,1,1,90,0,1
170274,-90.9090909090909,4,1,1,90,0,1
170535,-90.9090909090909,4,1,1,90,0,0
170622,-90.9090909090909,4,3,1,90,0,1
172366,-100,4,3,1,90,0,1
173412,-90.9090909090909,4,3,1,90,0,1
175505,-100,4,3,1,90,0,1
176203,-90.9090909090909,4,3,1,90,0,1
177947,-100,4,3,1,90,0,1
178994,-90.9090909090909,4,3,1,90,0,1
180389,-100,4,3,1,90,0,1
181784,-90.9090909090909,4,3,1,90,0,1
184575,-83.3333333333333,4,3,1,90,0,1
186319,-100,4,3,1,90,0,1
187366,-83.3333333333333,4,3,1,90,0,1
188761,-100,4,3,1,90,0,1
190157,-80,4,3,1,90,0,1
190418,-80,4,2,99,5,0,1
190506,-66.6666666666667,4,3,1,90,0,1
191029,-57.1428571428571,4,3,1,90,0,1
191378,-66.6666666666667,4,3,1,90,0,1
192861,-66.6666666666667,4,3,1,90,0,0
192948,-100,4,3,1,90,0,1
193035,-100,4,3,1,90,0,0
203413,-76.9230769230769,4,3,1,90,0,0
204111,-100,4,3,1,90,0,0
215274,-100,4,3,1,90,0,1
218064,-80,4,3,1,90,0,1
218326,-80,4,2,99,5,0,1
218413,-66.6666666666667,4,3,1,90,0,1
218936,-57.1428571428571,4,3,1,90,0,1
219285,-66.6666666666667,4,3,1,90,0,1
220157,-100,4,3,1,90,0,1
220768,-100,4,3,1,90,0,0
220855,-133.333333333333,4,3,1,90,0,0
222076,-100,4,3,1,90,0,0
224867,-133.333333333333,4,3,1,90,0,0
227657,-100,4,3,1,90,0,0
231669,-66.6666666666667,4,3,1,90,0,1
232018,-90.9090909090909,4,3,1,90,0,1
234634,-80,4,3,1,90,0,1
235157,-100,4,3,1,90,0,1
236204,-133.333333333333,4,3,1,90,0,1
240041,-100,4,3,1,90,0,1
240738,-133.333333333333,4,3,1,80,0,1
241436,-133.333333333333,4,3,1,70,0,1
241959,-133.333333333333,4,3,1,60,0,1
243006,-200,4,3,1,50,0,1
243181,-500,4,2,99,40,0,0

[Colours]
Combo1 : 255,170,20
Combo2 : 87,190,12
Combo3 : 50,116,226
Combo4 : 241,50,22

[HitObjects]
61,250,218,5,2,0:2:0:0:
61,250,305,1,2,0:2:0:0:
61,250,392,2,0,B|17:256|-19:279,1,64.5000024604798,4|0,1:1|0:0,1:0:0:0:
136,214,740,2,0,B|108:178|70:159,1,64.5000024604798,10|0,1:2|0:0,1:0:0:0:
204,260,1089,2,0,B|220:218|218:176,1,64.5000024604798,2|0,1:3|0:0,1:0:0:0:
170,57,1438,1,8,1:2:0:0:
170,57,1612,2,0,B|207:28|259:38|245:63|298:71|333:46,2,172,2|8|2,1:3|1:2|1:3,1:0:0:0:
218,122,2485,1,2,1:3:0:0:
218,122,2659,1,2,0:3:0:0:
473,252,3008,1,2,0:2:0:0:
473,252,3095,1,2,0:2:0:0:
473,252,3182,6,0,P|469:298|375:372,2,172,2|10|2,1:3|1:2|1:3,1:0:0:0:
336,121,4054,1,0,0:0:0:0:
401,183,4229,1,10,1:2:0:0:
401,183,4403,2,0,P|382:122|405:63,2,129.00000492096,2|8|2,1:3|1:2|1:3,1:0:0:0:
493,163,5275,1,2,1:3:0:0:
493,163,5450,1,2,0:3:0:0:
300,313,5798,1,2,0:2:0:0:
300,313,5886,1,2,0:2:0:0:
300,313,5973,5,2,1:3:0:0:
209,299,6147,2,0,B|212:331|212:331|224:361,1,64.5000024604798,0|10,0:0|1:2,1:0:0:0:
139,366,6496,2,0,B|127:336|127:336|124:304,1,64.5000024604798,0|2,0:0|1:3,1:0:0:0:
44,322,6845,2,0,B|47:354|47:354|59:384,1,64.5000024604798,0|10,0:0|1:2,0:0:0:0:
224,211,7194,2,0,B|163:232|163:232|117:220|117:220|61:243,2,172,2|8|2,1:3|1:2|1:3,1:0:0:0:
316,222,8066,1,2,1:3:0:0:
316,222,8240,1,2,0:3:0:0:
511,60,8589,1,2,0:2:0:0:
511,60,8676,1,2,0:2:0:0:
511,60,8764,6,0,B|490:13|428:69|422:68|400:-2|353:31,2,172,2|8|2,1:3|1:2|1:3,1:0:0:0:
497,168,9636,1,0,0:0:0:0:
432,249,9810,1,10,1:2:0:0:
432,249,9985,2,0,B|366:156|409:125|409:125,2,129.00000492096,2|8|2,1:3|1:2|1:3,1:0:0:0:
512,313,10857,1,2,1:3:0:0:
512,313,11031,1,2,0:3:0:0:
312,110,11380,1,2,0:2:0:0:
312,110,11467,1,2,0:2:0:0:
312,110,11554,6,0,P|305:141|291:170,1,64.5000024604798,4|0,1:1|3:0,1:0:0:0:
186,64,11903,2,0,P|210:85|227:112,1,64.5000024604798,8|0,1:2|3:0,1:0:0:0:
83,150,12252,2,0,P|113:139|145:138,1,64.5000024604798,2|0,1:3|3:0,1:0:0:0:
228,240,12601,1,10,1:2:0:0:
228,240,12775,2,0,B|228:201|147:191|78:259|106:280,2,172,2|8|2,1:3|1:2|1:3,1:0:0:0:
192,317,13647,1,2,1:3:0:0:
192,317,13822,1,2,0:3:0:0:
429,250,14171,1,2,0:2:0:0:
429,250,14258,1,2,0:2:0:0:
429,250,14345,6,0,B|448:193|448:193|469:172|469:172|467:136|467:136|486:80,2,172,2|8|2,1:3|1:2|1:3,1:0:0:0:
381,331,15217,1,0,0:0:0:0:
381,331,15392,1,10,1:2:0:0:
381,331,15566,2,0,B|427:346|427:346|462:341|462:341|506:352,2,129.00000492096,2|8|2,1:3|1:2|1:3,1:0:0:0:
303,293,16438,1,2,0:3:0:0:
303,293,16612,1,2,0:3:0:0:
274,37,16961,1,2,0:2:0:0:
274,37,17048,1,2,0:2:0:0:
274,37,17136,5,4,1:0:0:0:
253,126,17310,2,0,P|223:113|200:91,1,64.5000024604798,0|10,0:0|1:2,1:0:0:0:
234,208,17659,2,0,P|266:209|297:201,1,64.5000024604798,0|2,0:0|1:3,1:0:0:0:
214,292,18008,2,0,P|184:279|161:257,1,64.5000024604798,0|10,0:0|1:2,1:0:0:0:
72,177,18357,2,0,P|115:245|123:345,2,172,2|8|2,1:3|1:2|1:3,1:0:0:0:
0,134,19229,1,2,1:3:0:0:
0,134,19403,1,2,0:3:0:0:
219,28,19752,1,2,0:2:0:0:
219,28,19839,1,2,0:2:0:0:
219,28,19926,6,0,B|158:55|141:114|141:114|161:138|161:168,2,172,2|8|2,1:3|1:2|1:3,1:0:0:0:
318,28,20798,1,0,0:0:0:0:
380,128,20973,1,10,1:2:0:0:
380,128,21147,2,0,B|324:145|307:96|253:117,1,129.00000492096,2|2,1:3|1:2,1:0:0:0:
164,182,21671,2,2,P|243:218|240:295,1,172,8|4,1:2|0:3,1:0:0:0:
239,335,22107,1,4,0:3:0:0:
264,369,22194,1,8,0:3:0:0:
303,384,22281,1,8,0:3:0:0:
343,372,22368,1,4,1:3:0:0:
347,276,22543,5,0,0:0:0:0:
347,276,22717,2,0,L|455:357,1,129.00000492096,4|8,1:2|3:2,0:0:0:0:
392,209,23240,2,0,L|399:144,1,64.5000024604798,0|0,0:0|1:0,0:0:0:0:
424,57,23589,1,0,0:0:0:0:
512,34,23764,1,8,1:2:0:0:
486,121,23938,1,0,0:0:0:0:
399,145,24112,2,0,P|339:110|269:100,2,129.00000492096,0|8|0,1:0|3:2|1:0,0:0:0:0:
307,203,24985,5,0,0:0:0:0:
223,238,25159,1,8,1:2:0:0:
140,273,25333,1,0,0:0:0:0:
140,273,25508,2,0,P|145:156|143:142,1,129.00000492096,0|8,1:0|1:2,0:0:0:0:
54,128,26031,2,0,P|59:11|62:-2,2,129.00000492096,0|8|0,1:0|1:2|1:0,0:0:0:0:
138,159,26903,1,0,1:0:0:0:
0,335,27252,1,8,1:2:0:0:
0,335,27601,6,0,P|36:343|78:346,3,64.5000024604798,0|0|8|0,1:0|0:0|1:2|0:0,0:0:0:0:
156,313,28298,2,0,L|167:401,1,64.5000024604798,0|0,1:0|0:0,0:0:0:0:
223,238,28647,2,0,L|231:173,1,64.5000024604798,8|0,1:2|0:0,0:0:0:0:
302,303,28996,1,0,1:0:0:0:
302,303,29171,1,0,0:0:0:0:
392,257,29345,1,8,1:2:0:0:
392,257,29519,1,0,0:0:0:0:
490,273,29694,2,0,P|492:209|523:153,2,129.00000492096,0|8|0,1:0|1:2|1:0,0:0:0:0:
512,371,30566,5,0,0:0:0:0:
415,350,30740,1,8,1:2:0:0:
392,257,30915,1,0,0:0:0:0:
392,257,31089,2,0,P|389:193|358:137,1,129.00000492096,0|8,1:0|1:2,0:0:0:0:
258,118,31612,2,0,B|243:88|255:54|255:54|229:31|223:0,2,129.00000492096,0|8|2,1:0|1:2|1:3,0:0:0:0:
202,191,32485,1,0,1:0:0:0:
108,210,32659,1,0,0:0:0:0:
144,117,32833,1,8,1:2:0:0:
202,191,33008,5,2,0:2:0:0:
217,219,33095,1,2,0:2:0:0:
233,246,33182,1,2,1:3:0:0:
189,371,33357,1,2,0:3:0:0:
75,309,33531,2,0,B|104:299|104:299|128:300|128:300|157:290,1,86,10|0,1:2|0:0,0:0:0:0:
276,331,33880,5,0,1:0:0:0:
356,289,34054,2,0,P|356:254|363:220,1,68.8,0|8,0:0|1:2,0:0:0:0:
300,150,34403,2,0,P|294:78|278:-7,1,137.6,0|0,1:0|1:0,0:0:0:0:
282,13,34926,1,8,1:2:0:0:
381,73,35101,1,0,0:0:0:0:
471,30,35275,1,0,1:0:0:0:
200,140,35624,1,8,1:2:0:0:
200,140,35973,6,2,L|103:122,1,68.8,2|0,1:2|0:0,1:0:0:0:
151,291,36322,2,2,L|162:223,1,68.8,10|0,1:2|0:0,1:0:0:0:
0,243,36671,2,2,L|66:254,1,68.8,2|0,1:2|0:0,1:0:0:0:
224,346,37019,1,8,1:2:0:0:
131,375,37194,2,0,B|82:366|82:366|53:345|53:345|3:336,2,137.6,0|8|0,1:0|1:2|1:0,1:0:0:0:
224,346,38066,1,0,1:0:0:0:
269,262,38240,1,0,3:0:0:0:
360,298,38415,1,8,1:2:0:0:
360,298,38764,6,2,P|352:331|346:376,1,68.8,0|0,1:0|0:0,1:0:0:0:
433,198,39112,2,2,P|441:231|447:276,1,68.8,8|0,1:2|0:0,1:0:0:0:
360,98,39461,2,2,P|351:132|346:176,1,68.8,0|0,1:0|0:0,1:0:0:0:
458,257,39810,2,0,P|441:163|444:93,1,137.6,8|0,1:2|1:0,0:0:0:0:
424,26,40333,1,0,0:0:0:0:
360,98,40508,1,8,1:2:0:0:
266,79,40682,1,0,0:0:0:0:
330,7,40857,1,0,1:0:0:0:
272,270,41205,1,8,1:2:0:0:
272,270,41554,6,2,L|191:249,1,68.8,0|0,1:0|0:0,1:0:0:0:
122,370,41903,2,2,L|180:310,1,68.8,8|0,1:2|0:0,1:0:0:0:
110,190,42252,2,2,L|132:270,1,68.8,0|0,1:0|0:0,1:0:0:0:
227,170,42601,1,8,1:2:0:0:
227,170,42775,2,0,P|183:118|175:50,1,137.6,0|0,1:0|1:0,0:0:0:0:
249,4,43298,1,8,1:2:0:0:
249,4,43473,2,0,L|82:33,1,154.799995275879,0|2,1:0|1:0,0:0:0:0:
7,151,43996,1,10,1:2:0:0:
112,135,44171,1,2,1:3:0:0:
23,69,44345,5,4,1:3:0:0:
6,108,44432,1,4,1:3:0:0:
7,151,44519,1,10,1:3:0:0:
24,190,44607,1,8,1:3:0:0:
55,219,44694,1,4,1:3:0:0:
95,234,44781,1,4,1:3:0:0:
137,232,44868,1,10,1:3:0:0:
176,214,44955,1,8,1:3:0:0:
203,182,45043,6,0,P|283:139|358:190,1,189.200005773926,6|8,1:2|1:2,1:0:0:0:
390,354,45566,2,0,B|375:306|402:255|418:279|456:233|444:181,1,189.200005773926,2|2,1:2|1:2,1:0:0:0:
393,96,46089,1,8,1:2:0:0:
456,200,46264,1,0,0:0:0:0:
512,87,46438,1,2,1:3:0:0:
512,87,46612,1,2,0:3:0:0:
371,89,46787,2,0,P|339:53|315:11,1,86,10|0,1:2|0:0,1:0:0:0:
252,176,47136,2,0,P|250:127|258:80,1,86,0|0,1:0|0:0,1:0:0:0:
104,165,47485,2,0,P|133:127|170:96,1,86,8|2,1:2|0:3,1:0:0:0:
271,190,47833,6,0,B|283:235|259:280|239:257|208:314|235:366,1,189.200005773926,2|8,1:3|1:2,1:0:0:0:
327,355,48357,2,0,B|287:321|287:321|123:344,1,189.200005773926,2|2,1:2|1:2,1:0:0:0:
18,362,48880,1,8,1:2:0:0:
70,246,49054,1,0,0:0:0:0:
155,361,49229,1,2,1:2:0:0:
155,361,49403,1,2,0:2:0:0:
77,271,49578,1,10,1:2:0:0:
77,271,49752,1,2,0:3:0:0:
171,191,49926,2,0,L|186:104,1,86,2|0,1:2|0:0,1:0:0:0:
120,0,50275,1,8,1:2:0:0:
160,104,50450,1,2,0:3:0:0:
275,79,50624,6,0,B|315:113|315:113|479:90,1,189.200005773926,6|8,1:2|1:2,1:0:0:0:
493,0,51147,2,0,B|473:64|473:64|480:117|480:117|460:181,1,189.200005773926,2|2,1:2|1:2,1:0:0:0:
388,289,51671,1,8,1:2:0:0:
469,201,51845,1,0,0:0:0:0:
490,298,52019,1,2,1:3:0:0:
490,298,52194,1,2,0:3:0:0:
366,194,52368,2,0,P|339:160|319:122,1,86,10|0,1:2|0:0,1:0:0:0:
232,282,52717,2,0,P|247:242|270:205,1,86,0|0,1:0|0:0,1:0:0:0:
88,209,53066,2,0,P|130:202|173:204,1,86,8|2,1:2|0:3,1:0:0:0:
286,364,53415,6,0,B|218:367|218:367|169:347|169:347|101:351,1,189.200005773926,2|8,1:3|1:2,1:0:0:0:
5,351,53938,2,0,P|88:318|99:228,1,189.200005773926,2|2,1:2|1:2,1:0:0:0:
44,88,54461,1,8,1:2:0:0:
0,193,54636,1,0,0:0:0:0:
128,143,54810,5,2,1:2:0:0:
128,143,54985,2,0,P|167:124|202:98,1,86,2|10,0:2|1:2,1:0:0:0:
74,8,55333,1,2,0:2:0:0:
74,8,55508,2,0,P|55:44|44:86,1,86,2|2,1:3|0:3,1:0:0:0:
257,165,55857,2,0,P|275:128|286:86,1,86,10|2,1:2|0:3,1:0:0:0:
222,0,56205,5,6,1:2:0:0:
369,80,56380,1,2,0:2:0:0:
214,18,56554,1,10,1:2:0:0:
376,61,56729,1,2,0:2:0:0:
211,39,56903,1,2,1:2:0:0:
379,40,57078,1,2,0:2:0:0:
213,59,57252,2,0,P|217:102|247:147,1,94.600002886963,8|2,1:2|0:2,0:0:0:0:
342,213,57601,5,2,1:2:0:0:
342,213,57775,1,2,0:2:0:0:
451,201,57950,1,10,1:2:0:0:
488,98,58124,1,2,0:2:0:0:
432,188,58298,2,0,B|417:171|409:147|409:147|386:136|372:119,1,94.600002886963,2|2,1:3|0:2,1:0:0:0:
512,251,58647,2,0,B|504:271|506:297|506:297|489:315|482:337,1,94.600002886963,8|2,1:2|0:3,1:0:0:0:
388,378,58996,6,0,P|304:328|318:232,1,206.399993701172,2|8,1:2|1:2,0:0:0:0:
384,286,59519,2,0,P|285:318|185:343,1,206.399993701172,2|2,1:2|1:2,0:0:0:0:
64,303,60043,1,8,1:2:0:0:
64,303,60217,1,0,0:0:0:0:
186,343,60392,1,2,1:3:0:0:
254,250,60566,1,2,0:3:0:0:
194,358,60740,2,0,B|156:377|156:377|113:379,1,86,10|0,1:2|0:0,1:0:0:0:
20,234,61089,2,0,B|55:256|55:256|79:293,1,86,0|0,1:0|0:0,1:0:0:0:
0,384,61438,1,8,1:2:0:0:
64,303,61612,1,2,0:3:0:0:
186,343,61787,6,0,P|160:242|143:140,1,206.399993701172,6|10,1:2|1:2,1:0:0:0:
59,65,62310,2,0,P|106:124|229:93,1,206.399993701172,2|2,1:2|1:2,1:0:0:0:
158,35,62833,1,8,1:2:0:0:
158,35,63008,1,0,0:0:0:0:
257,0,63182,2,0,P|299:3|340:17,1,86,2|2,1:3|0:2,0:0:0:0:
339,180,63531,2,0,P|320:141|312:99,1,86,8|2,1:2|0:2,0:0:0:0:
454,19,63880,2,0,P|429:54|397:82,1,86,2|0,1:3|0:0,0:0:0:0:
222,101,64229,1,10,1:2:0:0:
222,101,64403,1,2,0:3:0:0:
225,187,64578,6,0,P|256:260|329:291,1,161.25,4|0,1:2|0:0,1:0:0:0:
353,290,64926,2,0,P|425:301|475:347,1,129,6|0,1:3|0:0,1:0:0:0:
488,344,65450,6,0,P|444:297|349:280,1,150.50000143528,6|0,1:3|0:0,1:0:0:0:
189,267,65798,2,2,P|315:389|455:278,1,387.000014762879,6|4,1:2|1:3,1:2:0:0:
446,161,66496,1,2,1:3:0:0:
441,254,66671,2,0,P|315:372|200:240,1,387.000014762879,2|0,1:3|1:0,3:0:0:0:
221,167,67281,1,0,1:0:0:0:
248,161,67368,6,0,B|287:181|313:215,1,64.5000024604798,2|0,1:3|0:0,1:0:0:0:
181,98,67717,2,0,B|223:80|265:83,1,64.5000024604798,10|0,1:2|0:0,1:0:0:0:
89,108,68066,2,0,B|103:65|132:34,1,64.5000024604798,2|0,1:3|0:0,1:0:0:0:
10,187,68415,1,8,1:2:0:0:
10,187,68589,2,0,B|-19:224|-9:276|16:262|24:315|-1:350,2,172,2|8|2,1:3|1:2|1:3,1:0:0:0:
163,243,69461,1,2,1:3:0:0:
163,243,69636,2,0,P|127:227|69:236,1,86,0|8,0:0|1:2,0:0:0:0:
212,337,69985,1,2,0:2:0:0:
212,337,70072,1,2,0:2:0:0:
212,337,70159,6,0,P|258:266|241:185,2,172,2|10|2,1:3|1:2|1:3,1:0:0:0:
304,384,71031,1,0,0:0:0:0:
378,314,71205,1,10,1:2:0:0:
378,314,71380,2,0,P|434:284|496:296,2,129.00000492096,2|8|2,1:3|1:2|1:3,1:0:0:0:
451,369,72252,1,2,1:3:0:0:
451,369,72426,1,2,0:3:0:0:
512,145,72775,1,2,0:2:0:0:
512,145,72862,1,2,0:2:0:0:
512,145,72950,5,2,1:3:0:0:
421,140,73124,2,0,B|424:108|424:108|436:78,1,64.5000024604798,0|10,0:0|1:2,1:0:0:0:
351,61,73473,2,0,B|339:91|339:91|336:123,1,64.5000024604798,0|2,0:0|1:3,1:0:0:0:
249,105,73822,2,0,B|252:73|252:73|264:43,1,64.5000024604798,0|10,0:0|1:2,0:0:0:0:
268,197,74171,2,0,B|204:184|204:184|170:151|170:151|110:143,2,172,2|8|2,1:3|1:2|1:3,1:0:0:0:
361,204,75043,1,2,1:3:0:0:
361,204,75217,2,0,P|350:245|321:276,1,86,2|8,0:3|1:2,0:0:0:0:
157,337,75566,1,2,0:2:0:0:
157,337,75653,1,2,0:2:0:0:
157,337,75740,6,0,B|136:384|74:328|68:329|46:399|-1:366,2,172,2|8|2,1:3|1:2|1:3,1:0:0:0:
132,232,76612,1,0,0:0:0:0:
16,271,76787,1,10,1:2:0:0:
16,271,76961,2,0,P|41:202|37:146,1,129.00000492096,2|8,1:3|1:2,1:0:0:0:
24,19,77485,1,4,0:2:0:0:
128,39,77659,5,8,1:3:0:0:
157,51,77746,1,8,1:3:0:0:
183,63,77833,1,4,3:3:0:0:
130,144,78008,1,4,3:3:0:0:
225,155,78182,1,8,3:3:0:0:
278,74,78357,1,4,3:3:0:0:
308,210,78531,6,0,L|318:307,1,86,4|0,1:3|0:0,0:0:0:0:
252,341,79054,2,0,L|257:389,1,43,4|0,0:3|0:0,0:0:0:0:
381,377,79403,1,0,0:0:0:0:
381,377,79578,2,0,L|386:328,1,43,8|0,1:3|0:0,0:0:0:0:
448,285,79926,2,0,L|456:199,2,86,4|0|2,0:3|0:0|0:3,0:0:0:0:
512,348,80798,1,0,0:0:0:0:
512,348,80973,1,10,1:3:0:0:
461,242,81147,1,0,0:0:0:0:
461,242,81322,6,0,L|456:199,1,43,4|0,0:0|0:0,0:0:0:0:
356,221,81671,1,2,0:0:0:0:
356,221,81845,2,0,L|366:124,1,86,4|0,0:0|0:0,0:0:0:0:
267,235,82368,2,0,L|262:192,1,43,8|0,1:3|0:0,0:0:0:0:
176,279,82717,1,4,0:0:0:0:
176,279,82892,1,0,0:0:0:0:
176,279,83066,2,0,L|181:221,1,43,0|4,0:0|0:0,0:0:0:0:
55,201,83415,6,0,L|112:206,1,43,2|0,0:0|0:0,0:0:0:0:
34,78,83764,2,0,L|29:120,1,43,10|0,1:3|0:0,0:0:0:0:
157,51,84112,6,0,L|114:46,1,43,6|0,0:0|0:0,0:0:0:0:
228,116,84461,1,0,0:0:0:0:
228,116,84636,2,0,L|270:111,1,43,4|0,0:0|0:0,0:0:0:0:
225,204,84985,1,0,0:0:0:0:
140,214,85159,2,0,L|97:205,1,43,8|0,1:3|0:0,0:0:0:0:
164,319,85508,2,0,L|192:286,1,43,4|0,0:0|0:0,0:0:0:0:
62,288,85857,1,4,0:0:0:0:
62,288,86031,2,0,L|90:369,1,86,4|0,0:0|0:0,0:0:0:0:
203,384,86554,1,10,1:3:0:0:
325,287,86729,1,0,0:0:0:0:
325,287,86903,6,0,L|295:372,1,86,4|4,0:0|0:0,0:0:0:0:
231,200,87426,2,0,L|244:240,1,43,4|0,0:0|0:0,0:0:0:0:
324,118,87775,2,0,L|311:158,1,43,0|8,0:0|1:3,0:0:0:0:
242,57,88124,1,0,0:0:0:0:
242,57,88298,1,4,0:0:0:0:
338,0,88473,1,0,0:0:0:0:
338,0,88647,2,0,L|325:40,1,43,4|0,0:0|0:0,0:0:0:0:
473,90,88996,6,0,L|443:58,1,43,2|0,0:0|0:0,0:0:0:0:
311,159,89345,1,10,1:3:0:0:
311,159,89519,6,0,L|393:141,1,68.8,0|4,1:0|1:3,0:0:0:0:
471,168,89868,1,0,0:0:0:0:
396,226,90043,2,0,L|329:241,1,68.8,8|4,1:2|0:3,0:0:0:0:
347,329,90392,2,0,L|429:311,1,68.8,0|0,1:0|0:0,0:0:0:0:
378,144,90740,2,0,L|311:159,1,68.8,8|0,1:2|0:0,0:0:0:0:
239,210,91089,6,0,L|205:202,1,34.4,4|0,1:3|0:0,0:0:0:0:
95,71,91438,1,8,1:2:0:0:
95,71,91612,2,0,P|47:111|45:162,1,103.2,4|0,1:3|0:0,0:0:0:0:
49,163,91961,1,2,0:3:0:0:
108,243,92136,2,0,P|122:273|119:307,1,68.8,8|0,1:2|0:0,0:0:0:0:
12,364,92485,6,0,L|46:356,1,34.4,4|0,1:3|0:0,0:0:0:0:
210,315,92833,1,8,1:2:0:0:
210,315,93008,2,0,B|275:341|275:289|343:315,2,137.6,4|8|0,1:3|1:2|1:0,1:0:0:0:
108,243,93880,6,0,L|142:235,1,34.4,4|0,1:3|0:0,0:0:0:0:
278,102,94229,1,8,1:2:0:0:
278,102,94403,2,0,B|267:158|267:158|253:177|253:177|243:232,1,137.6,4|0,1:3|1:0,1:0:0:0:
383,232,94926,2,0,L|370:159,1,68.8,8|0,1:2|0:0,0:0:0:0:
349,40,95275,6,0,P|396:59|470:59,1,103.2,4|0,1:2|0:0,1:0:0:0:
465,57,95624,1,8,1:2:0:0:
496,191,95798,2,0,B|483:125|483:125|435:74,1,137.6,4|0,1:3|1:0,1:0:0:0:
383,232,96322,2,0,L|354:307,1,68.8,8|0,1:2|0:0,0:0:0:0:
259,305,96671,5,4,1:3:0:0:
259,305,96845,1,0,0:0:0:0:
234,210,97019,2,0,P|257:185|286:165,1,68.8,8|4,1:2|0:3,0:0:0:0:
275,61,97368,1,0,1:0:0:0:
275,61,97543,1,0,0:0:0:0:
172,87,97717,2,0,P|165:121|147:151,1,68.8,8|0,1:2|0:0,0:0:0:0:
137,247,98066,5,4,1:3:0:0:
137,247,98240,1,0,0:0:0:0:
0,160,98415,2,0,P|30:175|64:184,1,68.8,8|4,1:2|0:3,0:0:0:0:
137,247,98764,1,0,1:0:0:0:
137,247,98938,1,0,0:0:0:0:
0,333,99112,2,0,P|31:318|64:308,1,68.8,8|0,1:2|0:0,0:0:0:0:
150,364,99461,5,6,1:3:0:0:
245,383,99636,1,2,0:2:0:0:
318,320,99810,1,10,0:2:0:0:
314,223,99985,1,2,0:2:0:0:
334,341,100159,5,4,1:3:0:0:
373,356,100246,1,8,1:3:0:0:
417,353,100333,1,10,1:3:0:0:
455,334,100421,1,8,1:3:0:0:
482,303,100508,1,4,1:3:0:0:
496,262,100595,1,8,1:3:0:0:
492,220,100682,1,10,1:3:0:0:
473,182,100769,1,8,1:3:0:0:
441,156,100857,6,0,P|403:73|457:1,1,189.200005773926,6|8,1:2|1:2,1:0:0:0:
303,89,101380,2,0,B|345:60|402:80|385:103|442:111|482:81,1,189.200005773926,2|2,1:2|1:2,1:0:0:0:
433,17,101903,1,8,1:2:0:0:
331,78,102078,1,0,0:0:0:0:
365,196,102252,1,2,1:3:0:0:
365,196,102426,1,2,0:3:0:0:
233,177,102601,2,0,P|207:142|194:101,1,86,10|0,1:2|0:0,1:0:0:0:
249,314,102950,2,0,P|266:274|295:243,1,86,0|0,1:0|0:0,1:0:0:0:
121,380,103298,2,0,P|163:375|205:384,1,86,10|2,1:2|0:3,1:0:0:0:
123,263,103647,6,0,B|87:232|81:182|110:187|103:124|54:97,1,189.200005773926,2|8,1:3|1:2,1:0:0:0:
0,180,104171,2,0,B|27:135|27:135|190:106,1,189.200005773926,2|2,1:2|1:2,1:0:0:0:
291,95,104694,1,8,1:2:0:0:
200,0,104868,1,0,0:0:0:0:
174,133,105043,1,2,1:2:0:0:
174,133,105217,1,2,0:2:0:0:
291,75,105392,1,10,1:2:0:0:
291,75,105566,1,2,0:3:0:0:
407,106,105740,2,0,L|492:89,1,86,2|0,1:2|0:0,1:0:0:0:
474,235,106089,1,8,1:2:0:0:
370,192,106264,1,2,0:3:0:0:
265,231,106438,6,0,B|293:275|293:275|428:298,1,189.200005773926,6|8,1:2|1:2,1:0:0:0:
484,220,106961,2,0,B|446:275|446:275|437:328|437:328|399:384,1,189.200005773926,2|2,1:2|1:2,1:0:0:0:
218,297,107485,1,8,1:2:0:0:
345,284,107659,1,0,0:0:0:0:
291,384,107833,1,2,1:3:0:0:
291,384,108008,1,2,0:3:0:0:
203,307,108182,2,0,P|176:273|156:235,1,86,10|0,1:2|0:0,1:0:0:0:
287,145,108531,2,0,P|271:184|248:221,1,86,0|0,1:0|0:0,1:0:0:0:
105,154,108880,2,0,P|147:147|190:149,1,86,8|2,1:2|0:3,1:0:0:0:
69,351,109229,6,0,B|83:284|83:284|72:232|72:232|88:166,1,189.200005773926,2|8,1:3|1:2,1:0:0:0:
66,55,109752,2,0,P|106:142|200:144,1,189.200005773926,2|2,1:2|1:2,1:0:0:0:
244,16,110275,1,8,1:2:0:0:
160,67,110450,1,0,0:0:0:0:
212,153,110624,5,2,1:2:0:0:
212,153,110798,2,0,P|250:173|284:200,1,86,2|10,0:2|1:2,1:0:0:0:
157,291,111147,1,2,0:2:0:0:
157,291,111322,2,0,P|138:255|127:213,1,86,2|2,1:3|0:3,1:0:0:0:
340,134,111671,2,0,P|358:171|369:213,1,86,10|2,1:2|0:3,1:0:0:0:
299,290,112019,5,6,1:2:0:0:
448,211,112194,1,2,0:2:0:0:
291,272,112368,1,10,1:2:0:0:
455,230,112543,1,2,0:2:0:0:
288,251,112717,1,2,1:2:0:0:
458,251,112892,1,2,0:2:0:0:
290,231,113066,2,0,P|295:188|327:144,1,94.600002886963,8|2,1:2|0:2,0:0:0:0:
423,96,113415,5,2,1:2:0:0:
423,96,113589,1,2,0:2:0:0:
337,152,113764,1,10,1:2:0:0:
244,99,113938,1,2,0:2:0:0:
330,49,114112,2,0,B|349:38|363:17|363:17|389:13|408:1,1,94.600002886963,2|2,1:3|0:2,1:0:0:0:
238,118,114461,2,0,B|218:107|204:86|204:86|178:82|151:66,1,94.600002886963,10|2,1:2|0:2,1:0:0:0:
0,97,114810,6,0,P|99:135|161:61,1,206.399993701172,2|8,1:2|1:2,0:0:0:0:
77,45,115333,2,0,P|100:143|135:243,1,206.399993701172,2|2,1:2|1:2,0:0:0:0:
236,321,115857,1,8,1:2:0:0:
236,321,116031,1,0,0:0:0:0:
193,175,116205,1,2,1:3:0:0:
300,235,116380,1,2,0:3:0:0:
121,251,116554,2,0,B|78:249|78:249|40:230,1,86,10|0,1:2|0:0,1:0:0:0:
145,350,116903,2,0,B|185:341|185:341|220:314,1,86,0|0,1:0|0:0,1:0:0:0:
327,234,117252,1,8,1:2:0:0:
229,296,117426,1,2,0:3:0:0:
339,362,117601,6,0,P|356:261|365:156,1,206.399993701172,6|10,1:2|1:2,1:0:0:0:
317,60,118124,2,0,P|367:144|465:137,1,206.399993701172,2|2,1:2|1:2,1:0:0:0:
414,64,118647,1,8,1:2:0:0:
414,64,118822,1,0,0:0:0:0:
365,158,118996,2,0,P|324:172|281:177,1,86,2|2,1:3|0:2,0:0:0:0:
183,39,119345,2,0,P|216:66|240:101,1,86,8|2,1:2|0:2,0:0:0:0:
171,257,119694,2,0,P|177:214|195:175,1,86,2|0,1:3|0:0,0:0:0:0:
365,158,120043,1,10,1:2:0:0:
365,158,120217,1,2,0:3:0:0:
317,58,120392,6,0,P|248:21|173:43,1,161.25,4|0,1:2|0:0,1:0:0:0:
160,60,120740,2,0,P|161:134|200:188,1,107.5,6|0,1:3|0:0,1:0:0:0:
175,185,121264,6,0,P|144:125|145:64,1,107.5,6|0,1:3|0:0,1:0:0:0:
243,110,121612,2,0,P|245:255|100:257,1,322.5,6|8,1:3|1:2,1:0:0:0:
3,142,122310,1,2,1:3:0:0:
3,142,122485,2,0,P|42:157|78:182,1,86,2|2,1:3|0:3,1:0:0:0:
125,357,122833,2,0,P|85:342|51:317,1,86,8|0,1:2|0:0,1:0:0:0:
285,346,123182,5,4,1:1:0:0:
439,290,123531,1,2,1:3:0:0:
469,107,123880,2,0,P|476:75|497:37,1,64.5000024604798,2|0,0:2|1:0,0:0:0:0:
380,139,124229,1,2,1:3:0:0:
380,139,124403,1,0,1:0:0:0:
380,139,124578,2,0,B|329:145|329:141|306:118|305:113|255:118,1,129.00000492096,2|2,1:2|1:3,0:0:0:0:
166,139,125101,1,0,0:0:0:0:
165,139,125275,2,0,P|132:138|101:130,2,64.5000024604798,2|0|2,0:2|1:0|1:3,0:0:0:0:
323,58,125973,5,2,1:2:0:0:
323,58,126147,2,0,P|265:101|254:158,1,129.00000492096,0|0,1:0|1:0,0:0:0:0:
218,238,126671,2,0,P|181:289|119:304,1,129.00000492096,2|0,1:2|1:3,0:0:0:0:
18,281,127194,1,0,0:0:0:0:
18,281,127368,2,0,B|63:304|65:300|94:286|97:282|143:305,1,129.00000492096,2|2,1:2|1:3,0:0:0:0:
206,366,127892,1,0,0:0:0:0:
206,366,128066,2,0,P|234:381|265:385,2,64.5000024604798,2|0|2,0:2|1:0|1:3,0:0:0:0:
157,301,128589,5,0,0:0:0:0:
263,296,128764,2,0,B|310:304|310:304|324:314|324:314|341:309|341:309|389:318,1,129.00000492096,2|2,1:2|1:3,0:0:0:0:
436,233,129287,2,0,B|365:220|365:220|343:204|343:204|317:212|317:212|251:200,1,193.50000738144,0|2,1:0|1:3,0:0:0:0:
148,217,129985,1,2,0:3:0:0:
180,114,130159,2,0,B|137:121|137:121|99:145|99:145|57:153,1,129.00000492096,2|2,1:2|1:3,0:0:0:0:
0,79,130682,2,0,B|60:69|60:69|117:33|117:33|181:23,1,193.50000738144,0|2,1:0|1:3,0:0:0:0:
457,159,131554,5,2,1:2:0:0:
457,159,131729,1,0,0:0:0:0:
373,213,131903,1,2,1:3:0:0:
442,136,132078,1,0,1:0:0:0:
396,224,132252,2,0,P|414:166|435:141,1,64.5000024604798,2|0,0:2|1:0,0:0:0:0:
388,73,132601,2,0,P|369:15|348:-9,1,64.5000024604798,2|0,1:3|0:0,0:0:0:0:
487,87,132950,2,0,P|453:146|393:165,1,129.00000492096,2|2,1:2|1:3,0:0:0:0:
248,109,133473,6,0,P|233:94|217:75,2,32.2500012302399,2|2|2,0:3|0:3|0:2,0:0:0:0:
337,225,133822,1,2,1:2:0:0:
337,225,133996,2,0,P|263:191|199:212,1,129,10|0,1:2|0:0,0:0:0:0:
193,218,134345,5,6,1:2:0:0:
70,188,134519,1,0,0:0:0:0:
70,188,134694,2,0,P|38:177|7:171,2,64.5000024604798,2|0|2,1:3|0:0|0:2,1:0:0:0:
82,313,135217,1,0,1:0:0:0:
82,313,135392,2,0,P|101:287|116:258,1,64.5000024604798,2|0,1:3|1:0,0:0:0:0:
240,282,135740,2,0,P|293:311|285:371,1,129.00000492096,2|0,1:2|1:3,1:0:0:0:
193,368,136264,1,0,1:0:0:0:
193,368,136438,2,0,P|161:372|125:384,2,64.5000024604798,2|0|2,0:2|1:0|1:3,0:0:0:0:
412,384,137136,5,2,1:2:0:0:
412,384,137310,2,0,B|409:346|422:321|422:321|399:297|392:265,1,129.00000492096,0|0,1:0|1:0,0:0:0:0:
297,236,137833,2,0,P|341:176|416:174,1,129.00000492096,2|2,1:2|1:3,0:0:0:0:
512,216,138357,1,0,0:0:0:0:
512,216,138531,1,2,1:2:0:0:
441,270,138705,2,0,P|385:241|372:180,1,129.00000492096,0|2,1:0|1:2,0:0:0:0:
415,95,139229,2,0,B|423:65|423:65|422:32,2,64.5000024604798,2|0|2,0:2|1:0|1:3,0:0:0:0:
156,149,139926,5,6,1:2:0:0:
156,149,140101,1,0,0:0:0:0:
234,106,140275,1,2,1:3:0:0:
191,28,140450,1,0,0:0:0:0:
113,70,140624,2,0,P|78:113|69:166,1,109.650002091408,2|0,0:2|0:0,0:0:0:0:
71,191,140973,2,0,B|63:238|63:238|34:276,1,96.7500036907198,0|0,1:3|0:0,0:0:0:0:
39,302,141322,6,0,L|90:233,1,73.1000013942719,2|0,1:2|0:0,0:0:0:0:
143,310,141671,2,0,L|228:320,1,73.1000013942719,2|0,1:3|0:0,0:0:0:0:
316,341,142019,2,0,L|283:261,1,73.1000013942719,2|0,0:2|1:0,0:0:0:0:
229,188,142368,2,0,L|143:177,1,73.1000013942719,2|0,1:3|0:0,0:0:0:0:
120,84,142717,6,0,P|201:12|335:80,1,258,6|2,1:2|1:3,1:0:0:0:
368,146,143415,1,2,1:2:0:0:
187,249,143764,1,10,1:2:0:0:
319,52,144112,2,0,P|381:150|476:84,1,258,2|2,1:2|1:3,1:0:0:0:
502,0,144810,1,2,1:2:0:0:
368,146,145159,2,0,P|415:142|483:199,1,129,10|0,1:2|0:0,1:0:0:0:
489,215,145508,6,0,P|494:271|389:354,1,189.200005773926,2|8,1:2|1:2,0:0:0:0:
304,337,146031,1,0,0:0:0:0:
378,243,146205,2,0,P|341:278|304:332,1,94.600002886963,0|0,1:0|0:0,0:0:0:0:
185,319,146554,2,0,P|233:333|299:338,1,94.600002886963,8|0,1:2|0:0,0:0:0:0:
283,221,146903,5,0,1:0:0:0:
160,195,147078,1,2,0:3:0:0:
71,272,147252,1,0,1:0:0:0:
155,178,147426,1,2,0:3:0:0:
132,62,147601,1,4,1:2:0:0:
172,182,147775,2,0,L|188:236,2,43,2|0|0,1:3|1:0|1:0,1:0:0:0:
298,15,148124,5,2,0:2:0:0:
323,2,148211,1,0,0:0:0:0:
351,3,148298,1,6,0:3:0:0:
246,91,148450,2,0,L|201:105,2,47.3000014434815,2|0|6,0:2|0:0|0:3,0:0:0:0:
370,197,148798,1,2,0:2:0:0:
395,210,148886,1,0,0:0:0:0:
423,209,148973,1,6,0:3:0:0:
319,120,149147,2,0,L|269:105,2,47.3000014434815,2|0|6,0:2|0:0|0:3,0:0:0:0:
442,15,149496,1,2,0:2:0:0:
467,2,149583,1,0,0:0:0:0:
495,3,149670,1,6,0:3:0:0:
399,89,149868,1,2,0:2:0:0:
490,174,150042,1,2,0:2:0:0:
451,263,150216,1,10,0:3:0:0:
492,328,150391,2,2,L|488:364,1,21.5,6|0,0:3|0:0,0:2:0:0:
293,362,150740,5,2,0:3:0:0:
219,260,150914,2,0,L|206:220,1,43,2|0,0:3|0:0,0:0:0:0:
265,369,151088,1,6,0:3:0:0:
195,275,151262,2,0,L|182:235,1,43,2|0,0:3|0:0,0:0:0:0:
237,376,151436,1,10,0:3:0:0:
171,290,151611,2,0,L|158:250,1,43,2|0,0:3|0:0,0:0:0:0:
209,383,151785,1,6,0:3:0:0:
284,207,151960,2,0,L|306:171,2,43,2|2|10,0:2|0:2|0:3,0:0:0:0:
104,137,152308,6,2,P|13:189|27:293,1,223.599989764405,2|8,0:0|0:3,0:0:0:0:
54,314,152744,1,0,0:0:0:0:
86,323,152832,1,8,0:3:0:0:
182,235,153006,1,0,0:0:0:0:
160,241,153093,1,0,0:0:0:0:
137,238,153181,2,2,P|92:195|104:134,1,111.799994882202,4|0,0:3|0:0,0:2:0:0:
187,24,153529,1,4,0:3:0:0:
104,59,153704,1,4,0:2:0:0:
292,241,154053,5,4,0:3:0:0:
512,119,154401,5,0,0:0:0:0:
512,119,154576,1,4,0:3:0:0:
427,150,154750,1,0,0:0:0:0:
357,48,154925,1,8,0:3:0:0:
339,138,155099,2,0,L|324:215,1,43,2|0,0:3|0:0,0:0:0:0:
168,128,155448,5,0,0:0:0:0:
191,223,155622,1,4,0:3:0:0:
279,245,155797,1,0,0:0:0:0:
339,138,155971,1,8,0:3:0:0:
367,262,156146,2,0,L|374:305,1,43,2|0,0:3|0:0,0:0:0:0:
209,370,156494,5,0,0:0:0:0:
209,370,156669,2,2,B|166:359,1,43,6|0,0:3|0:0,0:0:0:0:
124,281,156843,1,2,0:2:0:0:
20,351,157018,2,2,B|63:340,1,43,6|0,0:3|0:0,0:0:0:0:
123,263,157192,1,2,0:2:0:0:
55,192,157367,2,2,B|13:181,1,43,2|0,0:2|0:0,0:0:0:0:
5,249,157541,2,2,B|35:218,1,43,2|0,0:2|0:0,0:0:0:0:
114,113,157715,1,10,3:3:0:0:
114,113,157890,2,2,B|102:71,1,43,2|0,0:2|0:0,0:0:0:0:
39,98,158064,2,2,B|80:108,1,43,2|0,0:2|0:0,0:0:0:0:
211,124,158239,1,10,3:3:0:0:
211,124,158413,2,2,B|241:93,1,43,2|0,0:2|0:0,0:0:0:0:
186,51,158588,2,2,B|197:92,1,43,2|0,0:2|0:0,0:0:0:0:
249,213,158762,1,10,3:3:0:0:
496,148,159111,6,2,B|450:99|460:243|345:221,1,172,6|4,0:3|0:2,0:2:0:0:
78,297,159808,5,2,0:2:0:0:
106,306,159896,1,0,0:0:0:0:
135,304,159983,1,0,0:0:0:0:
225,221,160157,1,2,0:2:0:0:
124,159,160332,1,10,0:3:0:0:
28,229,160506,1,6,0:3:0:0:
161,292,160681,2,0,B|206:331|280:321|259:297|329:271|387:311,1,223.599989764405,2|2,0:2|0:2,0:0:0:0:
461,362,161204,1,2,0:2:0:0:
441,236,161378,1,2,0:2:0:0:
470,381,161553,1,2,0:2:0:0:
459,251,161727,1,2,0:2:0:0:
358,172,161901,2,0,L|290:152,2,43,2|2|2,0:2|0:3|0:3,0:0:0:0:
512,183,162250,6,2,P|523:136|529:98,1,86,6|0,0:2|0:0,0:0:0:0:
479,6,162599,1,0,0:0:0:0:
479,6,162774,1,2,0:2:0:0:
417,102,162948,1,8,0:3:0:0:
315,74,163122,2,0,P|288:40|277:0,1,86,8|0,0:3|0:0,0:0:0:0:
156,130,163471,1,8,0:3:0:0:
221,66,163646,2,0,P|263:59|304:70,1,86,12|0,0:3|0:0,0:0:0:0:
326,90,163907,1,0,0:0:0:0:
340,115,163994,1,4,0:3:0:0:
217,220,164169,2,0,P|228:179|255:147,1,86,4|0,0:3|0:0,0:0:0:0:
379,191,164518,1,4,0:3:0:0:
211,239,164692,2,2,B|171:277|109:261|113:226|53:205|0:240,1,223.599989764405,12|6,0:3|0:2,0:0:0:0:
53,322,165215,5,2,0:0:0:0:
83,140,165390,2,2,B|72:193|72:193|83:254|83:254|71:309,1,172,6|0,0:3|0:0,0:2:0:0:
168,368,165913,1,8,0:3:0:0:
168,368,166088,1,4,0:3:0:0:
168,368,166262,2,0,P|189:272|334:332,1,283.800008660889,8|10,0:3|0:3,0:0:0:0:
259,370,166960,1,0,0:0:0:0:
259,370,167134,2,2,L|245:313,1,43,4|0,0:3|0:0,0:0:0:0:
300,266,167308,2,2,L|314:219,1,43,4|0,0:3|0:0,0:0:0:0:
260,169,167483,2,0,L|254:116,1,43,8|0,0:3|0:0,0:0:0:0:
316,80,167657,2,2,L|323:5,1,43,10|0,0:3|0:0,0:0:0:0:
443,241,168006,6,0,L|481:222,2,43,2|0|2,0:3|0:0|0:3,0:0:0:0:
411,358,168355,1,2,0:2:0:0:
311,292,168529,1,2,0:3:0:0:
300,269,168617,1,0,0:0:0:0:
289,245,168704,1,2,0:3:0:0:
225,367,168878,2,0,P|183:321|120:322,1,129,6|0,0:2|0:0,0:0:0:0:
79,337,169227,5,6,0:3:0:0:
38,323,169314,1,8,0:3:0:0:
9,292,169401,1,8,0:3:0:0:
0,250,169489,1,8,0:3:0:0:
10,210,169576,1,4,0:3:0:0:
41,180,169663,1,8,0:3:0:0:
83,166,169750,1,8,0:3:0:0:
121,147,169838,1,8,0:3:0:0:
145,112,169925,1,4,0:3:0:0:
150,70,170012,1,8,0:3:0:0:
133,31,170099,1,8,0:3:0:0:
99,6,170186,1,8,0:3:0:0:
56,0,170274,2,2,B|37:17|31:42|31:42|8:44|-11:56,1,94.600002886963,6|2,0:1|0:2,0:0:0:0:
41,180,170622,6,0,P|121:223|196:172,1,189.200005773926,6|8,1:2|1:2,1:0:0:0:
286,33,171146,2,0,B|255:72|263:130|286:113|306:169|277:214,1,189.200005773926,2|2,1:2|1:2,1:0:0:0:
219,294,171669,1,8,1:2:0:0:
191,154,171843,1,0,0:0:0:0:
117,259,172018,1,2,1:3:0:0:
117,259,172192,1,2,0:3:0:0:
233,283,172367,2,0,P|254:326|266:372,1,86,10|0,1:2|0:0,1:0:0:0:
383,223,172715,2,0,P|359:266|328:302,1,86,0|0,1:0|0:0,1:0:0:0:
512,314,173064,2,0,P|464:319|416:314,1,86,8|2,1:2|0:3,1:0:0:0:
279,212,173413,6,0,B|267:167|291:122|311:145|342:88|315:36,1,189.200005773926,2|8,1:3|1:2,1:0:0:0:
218,40,173936,2,0,B|258:74|258:74|422:51,1,189.200005773926,2|2,1:2|1:2,1:0:0:0:
509,30,174460,1,8,1:2:0:0:
402,79,174634,1,0,0:0:0:0:
512,176,174808,1,2,1:2:0:0:
512,176,174983,1,2,0:2:0:0:
420,104,175157,1,10,1:2:0:0:
420,104,175332,1,2,0:3:0:0:
312,157,175506,2,0,L|327:244,1,86,2|0,1:2|0:0,1:0:0:0:
202,314,175855,1,8,1:2:0:0:
233,229,176029,1,2,0:3:0:0:
310,338,176204,6,0,B|270:304|270:304|106:327,1,189.200005773926,6|8,1:2|1:2,1:0:0:0:
48,383,176727,2,0,B|39:314|39:314|55:263|55:263|47:197,1,189.200005773926,2|2,1:2|1:2,1:0:0:0:
45,90,177250,1,8,1:2:0:0:
139,195,177425,1,0,0:0:0:0:
31,194,177599,1,2,1:3:0:0:
31,194,177774,1,2,0:3:0:0:
146,85,177948,2,0,P|173:51|193:13,1,86,10|0,1:2|0:0,1:0:0:0:
301,162,178297,2,0,P|258:155|215:157,1,86,0|0,1:0|0:0,1:0:0:0:
291,0,178646,2,0,P|305:39|329:76,1,86,8|2,1:2|0:3,1:0:0:0:
205,169,178994,6,0,B|272:177|272:177|317:206|317:206|384:213,1,189.200005773926,2|8,1:3|1:2,1:0:0:0:
395,300,179518,2,0,P|405:210|489:177,1,189.200005773926,2|2,1:2|1:2,1:0:0:0:
512,283,180041,1,8,1:2:0:0:
409,314,180215,1,0,0:0:0:0:
246,226,180390,5,2,1:2:0:0:
246,226,180564,2,0,P|274:258|308:285,1,86,2|10,0:2|1:2,1:0:0:0:
391,217,180913,1,2,0:2:0:0:
391,217,181088,2,0,P|381:177|362:138,1,86,2|2,1:3|0:3,1:0:0:0:
154,210,181436,2,0,P|163:249|182:289,1,86,10|2,1:2|0:3,1:0:0:0:
287,313,181785,5,6,1:2:0:0:
124,346,181960,1,2,0:2:0:0:
282,294,182134,1,10,1:2:0:0:
130,365,182308,1,2,0:2:0:0:
271,276,182483,1,2,1:2:0:0:
141,384,182657,1,2,0:2:0:0:
256,262,182832,2,0,P|225:231|173:216,1,94.600002886963,8|2,1:2|0:2,0:0:0:0:
56,212,183181,5,2,1:2:0:0:
56,212,183355,1,2,0:2:0:0:
158,217,183529,1,10,1:2:0:0:
212,125,183704,1,2,0:2:0:0:
113,124,183878,2,0,B|91:120|69:106|69:106|43:113|22:109,1,94.600002886963,2|2,1:3|0:2,1:0:0:0:
227,138,184227,2,0,B|238:118|240:93|240:93|260:76|276:49,1,94.600002886963,10|2,1:2|0:2,1:0:0:0:
135,0,184576,6,0,P|219:50|205:146,1,206.399993701172,2|8,1:2|1:2,0:0:0:0:
139,92,185099,2,0,P|238:60|338:35,1,206.399993701172,2|2,1:2|1:2,0:0:0:0:
466,36,185622,1,8,1:2:0:0:
466,36,185797,1,0,0:0:0:0:
371,169,185971,1,2,1:3:0:0:
343,54,186146,1,2,0:3:0:0:
456,126,186320,2,0,B|481:160|481:160|490:202,1,86,10|0,1:2|0:0,1:0:0:0:
310,224,186669,2,0,B|326:185|326:185|364:151,1,86,0|0,1:0|0:0,1:0:0:0:
465,312,187018,1,8,1:2:0:0:
403,238,187192,1,2,0:3:0:0:
303,367,187367,6,0,P|275:266|238:169,1,206.399993701172,6|10,1:2|1:2,1:0:0:0:
132,113,187890,2,0,P|225:144|296:77,1,206.399993701172,2|2,1:2|1:2,1:0:0:0:
197,14,188413,1,8,1:2:0:0:
197,14,188588,1,0,0:0:0:0:
110,97,188762,2,0,P|85:131|69:171,1,86,2|2,1:3|0:2,0:0:0:0:
203,276,189111,2,0,P|185:236|158:203,1,86,8|2,1:2|0:2,0:0:0:0:
0,271,189460,2,0,P|42:274|84:267,1,86,2|0,1:3|0:0,0:0:0:0:
239,170,189808,1,10,1:2:0:0:
239,170,189983,1,2,0:3:0:0:
203,276,190157,6,0,P|282:271|336:213,1,161.25,4|0,1:2|0:0,1:0:0:0:
343,190,190506,2,0,P|377:126|438:94,1,129,6|0,1:3|0:0,1:0:0:0:
438,82,191029,6,0,P|378:107|330:190,1,150.50000143528,6|0,1:3|0:0,1:0:0:0:
232,338,191378,2,2,P|400:289|374:113,1,387.000014762879,6|4,1:2|0:3,1:2:0:0:
262,80,192076,1,2,1:3:0:0:
346,113,192250,2,0,P|385:281|213:314,1,387.000014762879,2|0,1:3|1:0,3:0:0:0:
155,247,192861,1,0,1:0:0:0:
152,227,192948,5,4,1:0:0:0:
0,371,193297,1,8,1:2:0:0:
0,371,193471,2,0,P|92:308|141:336,1,172,2|2,0:3|0:3,1:0:0:0:
251,384,193994,1,8,1:2:0:0:
251,384,194169,1,2,0:3:0:0:
356,317,194343,1,2,1:2:0:0:
246,245,194518,6,0,P|205:216|173:167,1,86,2|8,1:2|1:2,0:0:0:0:
241,58,194867,1,2,1:3:0:0:
241,58,195041,2,0,P|273:135|351:164,1,172,0|8,1:0|1:2,1:0:0:0:
423,93,195564,1,2,0:3:0:0:
440,199,195739,6,0,P|464:247|500:290,1,86,4|2,1:2|0:3,1:0:0:0:
352,164,196088,1,8,1:2:0:0:
352,164,196262,1,2,0:3:0:0:
278,225,196436,1,0,1:0:0:0:
278,225,196611,1,2,0:3:0:0:
206,153,196785,2,0,P|174:110|131:74,1,86,8|2,1:2|0:3,1:0:0:0:
43,102,197134,5,0,1:0:0:0:
87,19,197308,1,2,0:3:0:0:
180,0,197483,1,8,1:2:0:0:
258,43,197657,1,2,0:3:0:0:
279,135,197832,2,0,P|197:151|135:96,1,172,2|8,1:2|1:2,1:0:0:0:
88,4,198355,1,2,0:3:0:0:
88,4,198529,5,4,1:2:0:0:
23,213,198878,1,8,1:2:0:0:
23,213,199053,2,0,P|39:132|117:103,1,172,2|2,0:3|0:3,1:0:0:0:
225,175,199576,1,8,1:2:0:0:
225,175,199750,1,2,0:3:0:0:
328,102,199925,1,2,1:2:0:0:
411,131,200099,6,0,P|426:88|428:42,1,86,2|8,1:2|1:2,0:0:0:0:
321,194,200448,1,2,0:3:0:0:
321,194,200622,2,0,B|365:203|386:245|386:245|420:215|466:220,1,172,0|8,1:0|1:2,1:0:0:0:
466,220,201146,1,0,0:0:0:0:
512,366,201320,6,0,P|483:333|450:306,1,86,0|2,1:0|0:3,1:0:0:0:
351,348,201669,1,8,1:2:0:0:
351,348,201843,1,2,0:3:0:0:
269,283,202018,1,0,1:0:0:0:
269,283,202192,1,2,0:3:0:0:
174,338,202367,2,0,P|131:346|89:347,1,86,8|2,1:2|0:3,1:0:0:0:
3,312,202715,5,2,1:2:0:0:
118,249,202890,1,2,1:2:0:0:
138,130,203064,1,10,1:2:0:0:
61,27,203239,1,2,1:3:0:0:
61,27,203413,2,0,P|116:115|71:246,1,223.599989764405,2|8,1:2|1:2,1:0:0:0:
3,312,203936,1,2,1:3:0:0:
6,283,204024,1,0,1:0:0:0:
25,261,204111,5,4,1:0:0:0:
243,185,204460,1,8,1:2:0:0:
243,185,204634,2,0,P|217:266|245:352,1,172,2|2,0:3|0:3,1:0:0:0:
367,313,205157,1,8,1:2:0:0:
367,313,205332,1,2,0:3:0:0:
325,379,205506,5,2,1:2:0:0:
291,266,205681,1,2,1:2:0:0:
381,193,205855,1,10,1:2:0:0:
478,256,206029,1,2,1:3:0:0:
448,368,206204,1,0,1:0:0:0:
448,368,206378,2,0,P|438:327|443:283,1,86,2|8,1:3|1:2,1:0:0:0:
476,133,206727,1,0,0:0:0:0:
476,133,206901,6,0,B|414:115|409:114|379:158|374:158|312:138,1,172,4|8,1:2|1:2,1:0:0:0:
230,88,207425,1,2,0:3:0:0:
133,125,207599,1,0,1:0:0:0:
133,125,207774,1,2,0:3:0:0:
43,73,207948,2,0,P|74:43|113:26,1,86,8|2,1:2|0:3,1:0:0:0:
230,88,208297,5,0,1:0:0:0:
230,88,208471,1,2,0:3:0:0:
196,186,208646,1,8,1:2:0:0:
105,230,208820,2,0,P|214:239|178:357,1,258,2|8,0:3|1:2,1:0:0:0:
59,356,209518,1,2,1:3:0:0:
76,332,209605,1,0,1:0:0:0:
103,322,209692,5,4,1:0:0:0:
328,347,210041,1,8,1:2:0:0:
328,347,210215,2,0,P|320:217|284:171,1,172,2|2,0:3|0:3,1:0:0:0:
227,120,210739,1,8,1:2:0:0:
327,178,210913,1,2,0:3:0:0:
411,91,211088,1,0,1:0:0:0:
327,155,211262,5,2,0:3:0:0:
415,250,211436,1,8,1:2:0:0:
414,384,211611,1,2,0:3:0:0:
414,384,211785,2,0,B|440:266|440:266|450:294|468:313,1,172,0|8,1:0|1:2,1:0:0:0:
465,310,212308,1,2,0:3:0:0:
503,189,212483,6,0,P|495:146|494:103,1,86,6|2,1:2|0:3,1:0:0:0:
415,250,212832,1,8,1:2:0:0:
415,250,213006,1,2,0:3:0:0:
323,200,213181,2,0,P|290:172|253:149,1,86,2|2,1:2|0:3,1:0:0:0:
413,152,213529,1,8,1:2:0:0:
413,152,213704,1,2,0:3:0:0:
491,19,213878,6,0,B|427:30|427:30|393:54|393:54|329:66,1,172,0|8,1:0|1:2,0:0:0:0:
174,77,214401,1,2,0:3:0:0:
174,77,214576,2,0,P|252:134|147:207,1,258,0|2,1:0|0:3,1:0:0:0:
56,65,215274,5,4,1:1:0:0:
183,146,215448,1,2,0:3:0:0:
74,46,215622,1,2,1:2:0:0:
166,166,215797,1,2,0:3:0:0:
97,34,215971,1,2,1:3:0:0:
143,178,216146,1,2,0:3:0:0:
123,31,216320,2,0,P|127:74|106:113,1,86,2|2,1:2|0:2,0:0:0:0:
38,211,216669,5,2,1:3:0:0:
58,298,216843,1,2,0:3:0:0:
144,261,217018,1,2,1:2:0:0:
124,348,217192,1,2,0:3:0:0:
230,239,217367,1,2,1:3:0:0:
250,326,217541,1,2,0:3:0:0:
346,297,217715,1,2,1:2:0:0:
326,384,217890,1,2,0:3:0:0:
430,297,218064,6,0,P|487:242|477:162,1,161.25,4|0,1:1|0:0,1:0:0:0:
462,145,218413,2,0,P|403:128|339:158,1,129.00000492096,6|0,1:3|0:0,1:0:0:0:
323,149,218936,6,0,P|390:115|475:136,1,150.50000143528,6|0,1:3|0:0,1:0:0:0:
512,289,219285,2,2,P|347:189|420:32,1,387.000014762879,6|4,1:2|1:3,1:2:0:0:
512,38,219983,1,2,1:3:0:0:
511,38,220157,2,0,P|468:36|427:48,1,86,2|0,1:3|0:0,0:0:0:0:
329,132,220506,1,8,1:2:0:0:
236,50,220681,1,2,1:2:0:0:
214,34,220768,1,2,1:2:0:0:
194,25,220855,6,0,P|161:26|129:31,1,64.5000024604798,4|0,1:1|0:0,1:0:0:0:
185,167,221204,2,0,P|168:139|147:114,1,64.5000024604798,10|0,1:2|0:0,1:0:0:0:
78,257,221553,2,0,P|93:228|104:198,1,64.5000024604798,2|0,1:3|0:0,1:0:0:0:
63,121,221901,1,8,1:2:0:0:
63,121,222076,2,0,B|100:91|152:102|138:126|191:134|226:110,2,172,2|8|2,1:3|1:2|1:3,1:0:0:0:
11,203,222948,1,2,1:3:0:0:
11,203,223122,1,2,0:3:0:0:
90,272,223297,1,8,1:2:0:0:
195,267,223471,1,2,1:2:0:0:
211,262,223558,1,2,1:2:0:0:
227,256,223646,6,0,B|271:230|211:174|211:168|279:140|242:96,2,172,2|10|2,1:3|1:2|1:3,1:0:0:0:
75,363,224692,1,8,1:2:0:0:
75,363,224867,2,0,B|23:344|18:236|18:236,2,129.00000492096,2|8|2,1:3|1:2|1:3,1:0:0:0:
174,384,225739,1,2,1:3:0:0:
174,384,225913,1,2,0:3:0:0:
252,321,226088,1,8,1:2:0:0:
349,344,226262,1,2,1:2:0:0:
349,344,226349,1,2,1:2:0:0:
349,344,226436,5,6,1:2:0:0:
393,200,226611,2,0,B|365:218|365:218|349:245,1,64.5000024604798,0|8,0:0|1:2,0:0:0:0:
496,311,226960,2,0,B|493:278|493:278|477:250,1,64.5000024604798,0|0,0:0|1:0,0:0:0:0:
349,344,227308,2,0,B|379:358|379:358|411:359,1,64.5000024604798,0|8,0:0|1:2,0:0:0:0:
393,200,227657,2,0,B|330:188|330:188|285:207|285:207|227:196,2,172,2|8|2,1:3|1:2|1:3,1:0:0:0:
481,164,228529,1,2,1:3:0:0:
481,164,228704,1,2,0:3:0:0:
443,68,228878,1,8,1:2:0:0:
341,66,229053,1,2,1:2:0:0:
326,73,229140,1,2,1:2:0:0:
314,84,229227,6,0,B|285:141|283:146|321:183|320:188|290:246,2,172,0|8|0,1:0|1:2|1:0,1:0:0:0:
258,1,230099,1,2,0:3:0:0:
258,1,230274,1,8,1:2:0:0:
180,60,230448,2,0,B|186:98|108:122|28:67|52:41,2,172,2|8|2,1:3|1:2|1:3,1:0:0:0:
125,8,231320,1,2,1:3:0:0:
125,8,231494,1,2,0:3:0:0:
105,125,231669,6,2,B|71:198|302:218|264:294,1,258.000009841919,2|4,1:2|1:2,3:1:0:0:
22,270,232367,6,0,L|69:257,2,47.3000014434815,2|0|2,1:2|0:0|0:3,1:0:0:0:
135,307,232715,2,0,L|180:320,2,47.3000014434815,2|0|2,1:2|0:0|0:3,1:0:0:0:
248,270,233064,2,0,L|302:256,2,47.3000014434815,2|0|2,1:2|0:0|0:3,1:0:0:0:
361,307,233413,2,0,L|406:319,2,47.3000014434815,2|0|2,1:2|0:0|0:3,1:0:0:0:
473,271,233762,1,2,1:2:0:0:
493,265,233849,1,0,0:0:0:0:
512,260,233936,1,2,0:3:0:0:
468,384,234111,1,2,1:2:0:0:
468,384,234285,1,2,1:3:0:0:
460,25,234634,6,0,P|397:103|452:186,1,215,0|2,1:0|0:3,1:0:0:0:
482,108,235157,2,0,P|439:114|385:104,1,86,0|2,1:0|0:3,1:0:0:0:
322,55,235506,2,0,P|279:49|225:60,1,86,0|2,1:0|0:3,1:0:0:0:
164,108,235855,1,2,1:2:0:0:
164,108,236029,1,2,1:2:0:0:
203,207,236204,2,0,L|180:270,1,64.5000024604798,2|2,1:2|0:2,0:0:0:0:
150,373,236553,1,2,1:2:0:0:
76,296,236727,1,2,0:3:0:0:
180,267,236901,1,2,1:3:0:0:
180,267,237076,1,2,0:3:0:0:
277,360,237250,2,2,L|300:297,1,64.5000024604798,6|2,1:2|0:2,0:2:0:0:
387,237,237599,1,6,1:2:0:0:
285,195,237774,1,2,0:3:0:0:
299,299,237948,1,2,1:3:0:0:
299,299,238122,1,2,0:3:0:0:
180,267,238297,2,2,L|156:205,1,64.5000024604798,2|2,1:2|0:2,0:2:0:0:
118,105,238646,1,2,1:2:0:0:
219,126,238820,1,2,0:3:0:0:
156,206,238994,1,2,1:3:0:0:
156,206,239169,1,2,0:3:0:0:
285,195,239343,2,2,L|307:134,1,64.5000024604798,2|2,1:2|0:2,0:2:0:0:
260,34,239692,1,2,1:2:0:0:
260,34,240041,6,0,B|304:48|304:48|340:46|340:46|361:67|361:67|418:86,1,172,2|0,1:3|1:0,1:0:0:0:
418,298,240739,5,6,1:2:0:0:
410,312,240826,1,0,0:0:0:0:
403,326,240913,1,0,0:0:0:0:
502,247,241088,1,0,1:0:0:0:
285,195,241436,5,0,1:0:0:0:
223,118,241611,1,6,0:2:0:0:
223,288,241960,5,2,0:2:0:0:
219,292,242134,1,2,0:2:0:0:
215,296,242308,1,2,0:2:0:0:
211,300,242483,1,2,0:2:0:0:
207,304,242657,1,2,0:2:0:0:
61,250,243006,6,0,L|19:260,1,43,2|4,0:2|0:2,1:0:0:0:
