osu file format v14

[General]
AudioFilename: audio.mp3
AudioLeadIn: 0
PreviewTime: 44868
Countdown: 0
SampleSet: Drum
StackLeniency: 0.6
Mode: 0
LetterboxInBreaks: 0
WidescreenStoryboard: 1

[Editor]
Bookmarks: 44,392,148450,149868,151088,243181
DistanceSpacing: 1
BeatDivisor: 4
GridSize: 8
TimelineZoom: 2.450003

[Metadata]
Title:oddloop
TitleUnicode:オドループ
Artist:Frederic
ArtistUnicode:フレデリック
Creator:RatinA0
Version:hard enough
Source:山田くんと7人の魔女
Tags:Yamada-kun to 7-nin no Majo Koji Mihara odoru to dance oddl∞p ova full ending ed japanese anime ratinao
BeatmapID:2244804
BeatmapSetID:1020990

[Difficulty]
HPDrainRate:4
CircleSize:4
OverallDifficulty:6
ApproachRate:7.5
SliderMultiplier:1.72
SliderTickRate:1

[Events]
//Background and Video events
Video,-100,"opto.flv"
0,0,"58662866_p0_1080.png",0,0
//Break Periods
//Storyboard Layer 0 (Background)
//Storyboard Layer 1 (Fail)
//Storyboard Layer 2 (Pass)
//Storyboard Layer 3 (Foreground)
//Storyboard Layer 4 (Overlay)
//Storyboard Sound Samples

[TimingPoints]
44,348.837209302326,4,3,1,70,1,0
44,-125,4,3,1,70,0,0
218,-125,4,3,1,70,0,0
392,348.837209302326,4,3,1,70,1,0
392,-125,4,3,1,70,0,0
4403,-142.857142857143,4,3,1,70,0,0
5798,-125,4,3,1,70,0,0
9985,-142.857142857143,4,3,1,70,0,0
11380,-125,4,3,1,70,0,0
15566,-142.857142857143,4,3,1,70,0,0
16961,-125,4,3,1,70,0,0
18357,-125,4,3,1,70,0,0
21147,-142.857142857143,4,3,1,70,0,0
21671,-125,4,3,1,70,0,0
22717,-142.857142857143,4,2,1,60,0,0
33531,-100,4,2,1,65,0,0
33880,-142.857142857143,4,2,1,65,0,0
43473,-142.857142857143,4,2,1,70,0,0
44345,-142.857142857143,4,2,1,80,0,0
45043,-100,4,3,1,90,0,1
64578,-90.9090909090909,4,3,1,90,0,1
64839,-90.9090909090909,4,2,99,5,0,1
64926,-83.3333333333333,4,3,1,90,0,1
65450,-71.4285714285714,4,3,1,90,0,1
65798,-83.3333333333333,4,3,1,90,0,1
67194,-125,4,3,1,70,0,0
71380,-142.857142857143,4,3,1,70,0,0
72775,-125,4,3,1,70,0,0
76961,-142.857142857143,4,3,1,70,0,0
78531,-200,4,3,1,60,0,0
89519,-125,4,3,1,70,0,0
95275,-125,4,3,1,75,0,0
100159,-125,4,3,1,80,0,0
100508,-125,4,3,1,85,0,0
100857,-100,4,3,1,90,0,1
120392,-90.9090909090909,4,3,1,90,0,1
120653,-90.9090909090909,4,2,99,5,0,1
120740,-90.9090909090909,4,3,1,90,0,1
123182,-133.333333333333,4,2,1,60,0,0
133996,-100,4,2,1,60,0,0
134345,-133.333333333333,4,3,1,60,0,0
142717,-117.647058823529,4,3,1,60,0,0
145421,-117.647058823529,4,2,99,5,0,0
145508,-111.111111111111,4,3,1,70,0,0
146903,-100,4,3,1,80,0,0
148124,-90.9090909090909,4,1,1,90,0,1
148450,348.837209302326,4,1,1,90,1,0
148450,-90.9090909090909,4,1,1,90,0,0
149868,348.837209302326,4,1,1,90,1,0
149868,-100,4,1,1,90,0,0
151088,348.837209302326,4,1,1,90,1,0
151088,-100,4,1,1,90,0,0
152308,-83.3333333333333,4,1,1,90,0,1
152657,-83.3333333333333,4,1,1,90,0,0
156669,-100,4,1,1,90,0,0
156756,-100,4,2,99,5,0,0
156843,-100,4,1,1,90,0,0
157105,-100,4,2,99,5,0,0
157192,-100,4,1,1,90,0,0
157628,-100,4,2,99,5,0,0
157715,-100,4,1,1,90,0,0
158151,-100,4,2,99,5,0,0
158239,-100,4,1,1,90,0,0
158675,-100,4,2,99,5,0,0
158762,-100,4,1,1,90,0,0
159111,-100,4,1,1,90,0,1
159460,-100,4,1,1,90,0,0
160681,-90.9090909090909,4,1,1,90,0,0
161901,-100,4,1,1,90,0,0
162250,-100,4,1,1,90,0,1
162425,-100,4,1,1,90,0,0
164692,-90.9090909090909,4,1,1,90,0,0
165390,-100,4,1,1,90,0,0
166262,-90.9090909090909,4,1,1,90,0,0
168006,-100,4,1,1,90,0,1
170274,-90.9090909090909,4,1,1,90,0,1
170535,-90.9090909090909,4,1,1,90,0,0
170622,-100,4,3,1,90,0,1
190157,-90.9090909090909,4,3,1,90,0,1
190419,-90.9090909090909,4,2,99,5,0,1
190506,-83.3333333333333,4,3,1,90,0,1
191029,-71.4285714285714,4,3,1,90,0,1
191378,-83.3333333333333,4,3,1,90,0,1
192861,-66.6666666666667,4,3,1,90,0,0
192948,-100,4,3,1,90,0,1
193035,-100,4,3,1,90,0,0
203413,-76.9230769230769,4,3,1,90,0,0
204111,-100,4,3,1,90,0,0
215274,-100,4,3,1,90,0,1
218064,-90.9090909090909,4,3,1,90,0,1
218326,-90.9090909090909,4,2,99,5,0,1
218413,-83.3333333333333,4,3,1,90,0,1
219285,-83.3333333333333,4,3,1,90,0,1
220157,-100,4,3,1,90,0,1
220768,-100,4,3,1,90,0,0
220855,-125,4,3,1,90,0,0
224867,-142.857142857143,4,3,1,90,0,0
226262,-125,4,3,1,90,0,0
231669,-76.9230769230769,4,3,1,90,0,1
232018,-90.9090909090909,4,3,1,90,0,1
234634,-80,4,3,1,90,0,1
235157,-100,4,3,1,90,0,1
236204,-133.333333333333,4,3,1,90,0,1
240041,-100,4,3,1,90,0,1
240738,-133.333333333333,4,3,1,80,0,1
241436,-133.333333333333,4,3,1,70,0,1
241959,-133.333333333333,4,3,1,60,0,1
243006,-200,4,3,1,50,0,1
243181,-500,4,2,99,40,0,0

[Colours]
Combo1 : 255,170,20
Combo2 : 87,190,12
Combo3 : 50,116,226
Combo4 : 241,50,22

[HitObjects]
9,271,218,6,0,L|-28:309,2,34.4,2|2|4,0:2|0:2|1:1,0:0:0:0:
152,352,740,1,10,1:2:0:0:
291,264,1089,1,2,1:3:0:0:
413,368,1438,1,8,1:2:0:0:
413,368,1612,2,0,B|449:363|474:330|453:322|479:289|513:284,2,137.6,2|8|2,1:3|1:2|1:3,1:0:0:0:
317,325,2485,2,0,P|297:297|291:264,1,68.8,2|2,1:3|0:3,0:0:0:0:
373,131,3008,1,2,0:2:0:0:
373,131,3095,1,2,0:2:0:0:
373,131,3182,6,0,P|369:93|298:26,2,137.6,2|10|2,1:3|1:2|1:3,1:0:0:0:
236,205,4229,1,10,1:2:0:0:
236,205,4403,2,0,P|289:238|354:221,2,120.399996325684,2|8|2,1:3|1:2|1:3,1:0:0:0:
179,130,5275,2,0,P|154:109|112:96,1,60.1999981628419,2|2,1:3|0:3,0:0:0:0:
33,232,5798,6,0,L|0:238,2,34.4,2|2|2,0:2|0:2|1:3,0:0:0:0:
125,231,6147,2,0,B|146:255|146:255|160:292,1,68.8,0|10,0:0|1:2,1:0:0:0:
118,365,6496,2,0,B|128:334|128:334|153:304,1,68.8,0|2,0:0|1:3,1:0:0:0:
312,327,7019,1,10,1:2:0:0:
312,327,7194,2,0,B|360:343|360:343|397:334|397:334|442:352,2,137.6,2|8|2,1:3|1:2|1:3,1:0:0:0:
242,257,8066,2,0,B|239:236|239:236|244:210|244:210|242:190,1,68.8,2|2,1:3|0:3,0:0:0:0:
163,50,8589,1,2,0:2:0:0:
163,50,8676,1,2,0:2:0:0:
163,50,8764,6,0,B|146:12|96:57|91:56|74:0|36:26,2,137.6,2|8|2,1:3|1:2|1:3,1:0:0:0:
318,82,9810,1,10,1:2:0:0:
317,82,9985,2,0,B|259:163|297:191|297:191,2,120.399996325684,2|8|2,1:3|1:2|1:3,1:0:0:0:
384,20,10857,2,0,B|414:1|440:0|440:0,1,60.1999981628419,2|2,1:3|0:3,0:0:0:0:
476,169,11380,6,0,L|484:202,2,34.4,2|2|4,0:2|0:2|1:1,0:0:0:0:
318,197,11903,1,8,1:2:0:0:
340,361,12252,1,2,1:3:0:0:
494,349,12601,1,10,1:2:0:0:
494,349,12775,2,0,B|524:314|537:233|500:229|487:256,2,137.6,2|8|2,1:3|1:2|1:3,1:0:0:0:
405,373,13647,2,0,P|371:374|339:360,1,68.8,2|2,1:3|0:3,0:0:0:0:
246,229,14171,1,2,0:2:0:0:
246,229,14258,1,2,0:2:0:0:
246,229,14345,6,0,B|230:183|230:183|214:166|214:166|215:137|215:137|203:102,2,137.6,2|8|2,1:3|1:2|1:3,1:0:0:0:
133,339,15392,1,10,1:2:0:0:
133,339,15566,2,0,B|90:352|90:352|58:348|58:348|17:358,2,120.399996325684,2|8|2,1:3|1:2|1:3,1:0:0:0:
230,317,16438,2,0,L|296:292,1,60.1999981628419,2|2,0:3|0:3,0:0:0:0:
310,148,16961,6,0,L|318:115,2,34.4,2|2|4,0:2|0:2|1:0,0:0:0:0:
214,166,17310,2,0,P|184:153|156:120,1,68.8,0|10,0:0|1:2,1:0:0:0:
160,34,17659,2,0,P|186:14|228:6,1,68.8,0|2,0:0|1:3,1:0:0:0:
383,46,18182,1,10,1:2:0:0:
382,46,18357,2,0,P|433:85|467:158,2,137.6,2|8|2,1:3|1:2|1:3,1:0:0:0:
286,42,19229,2,0,P|252:34|225:14,1,68.8,2|2,1:3|0:3,0:0:0:0:
67,54,19752,1,2,0:2:0:0:
67,54,19839,1,2,0:2:0:0:
67,54,19926,6,0,B|18:75|4:122|4:122|20:142|20:165,2,137.6,2|8|2,1:3|1:2|1:3,1:0:0:0:
196,161,20973,1,10,1:2:0:0:
196,161,21147,2,0,B|213:217|185:288,1,120.399996325684,2|2,1:3|1:2,1:0:0:0:
98,343,21671,2,2,P|130:299|211:296,1,137.6,8|4,1:2|0:3,1:0:0:0:
227,311,22107,2,0,L|257:347,3,34.4,4|8|8|4,0:3|0:3|0:3|1:3,0:0:0:0:
97,213,22717,6,0,P|102:145|141:103,1,120.399996325684,4|8,1:2|3:2,0:0:0:0:
214,93,23240,1,0,0:0:0:0:
291,233,23589,1,0,0:0:0:0:
370,219,23764,2,0,P|407:203|439:179,1,60.1999981628419,8|0,1:2|0:0,0:0:0:0:
477,133,24112,2,0,B|481:115|483:92|483:92|473:55|473:55|473:35|478:14,2,120.399996325684,0|8|0,1:0|3:2|1:0,0:0:0:0:
424,193,24985,5,0,0:0:0:0:
437,271,25159,2,0,P|452:308|477:340,1,60.1999981628419,8|0,1:2|0:0,0:0:0:0:
390,388,25508,2,0,P|367:328|327:284,1,120.399996325684,0|8,1:0|1:2,0:0:0:0:
253,263,26031,2,0,P|213:217|192:161,2,120.399996325684,0|8|0,1:0|1:2|1:0,0:0:0:0:
312,211,26903,1,0,1:0:0:0:
356,361,27252,1,8,1:2:0:0:
201,374,27601,6,0,P|165:382|123:385,3,60.1999981628419,0|0|8|0,1:0|0:0|1:2|0:0,0:0:0:0:
68,356,28298,2,0,L|60:296,1,60.1999981628419,0|0,1:0|0:0,0:0:0:0:
123,248,28647,2,0,L|131:183,1,60.1999981628419,8|0,1:2|0:0,0:0:0:0:
76,130,28996,2,0,P|46:130|16:137,2,60.1999981628419,0|0|8,1:0|0:0|1:2,0:0:0:0:
132,73,29519,1,0,0:0:0:0:
132,73,29694,2,0,P|185:46|245:45,2,120.399996325684,0|8|0,1:0|1:2|1:0,0:0:0:0:
76,130,30566,5,0,0:0:0:0:
130,188,30740,2,0,P|170:193|209:187,1,60.1999981628419,8|0,1:2|0:0,0:0:0:0:
249,141,31089,2,0,P|311:128|373:153,1,120.399996325684,0|8,1:0|1:2,0:0:0:0:
416,204,31612,2,0,B|440:225|474:222|474:222|488:252|512:264,2,120.399996325684,0|8|2,1:0|1:2|1:3,0:0:0:0:
350,161,32485,1,0,1:0:0:0:
288,210,32659,1,0,0:0:0:0:
315,284,32833,1,8,1:2:0:0:
397,302,33008,6,0,L|425:293,2,30.0999990814209,2|2|2,0:2|0:2|1:3,0:0:0:0:
337,366,33357,1,2,0:3:0:0:
337,366,33531,2,0,B|306:370|306:370|283:365|283:365|252:370,1,86,10|0,1:2|0:0,0:0:0:0:
157,384,33880,5,0,1:0:0:0:
124,313,34054,2,0,P|124:278|131:244,1,60.1999981628419,0|8,0:0|1:2,0:0:0:0:
197,214,34403,2,0,P|196:155|175:99,1,120.399996325684,0|0,1:0|1:0,0:0:0:0:
116,151,34926,2,0,P|94:172|71:190,2,60.1999981628419,8|0|0,1:2|0:0|1:0,0:0:0:0:
44,10,35624,1,8,1:2:0:0:
200,22,35973,6,2,L|260:12,1,60.1999981628419,2|0,1:2|0:0,1:0:0:0:
313,77,36322,2,2,L|372:87,1,60.1999981628419,10|0,1:2|0:0,1:0:0:0:
260,142,36671,2,2,L|200:152,1,60.1999981628419,2|0,1:2|0:0,1:0:0:0:
323,203,37019,1,8,1:2:0:0:
323,203,37194,2,0,B|366:210|366:210|392:229|392:229|435:237,2,120.399996325684,0|8|0,1:0|1:2|1:0,1:0:0:0:
254,241,38066,1,0,1:0:0:0:
219,313,38240,2,0,L|229:372,1,60.1999981628419,0|8,3:0|1:2,0:0:0:0:
49,324,38764,6,2,P|78:334|107:342,1,60.1999981628419,0|0,1:0|0:0,1:0:0:0:
50,228,39112,2,2,P|38:259|32:286,1,60.1999981628419,8|0,1:2|0:0,1:0:0:0:
146,229,39461,2,2,P|115:217|88:211,1,60.1999981628419,0|0,1:0|0:0,1:0:0:0:
40,149,39810,2,0,P|26:90|22:30,1,120.399996325684,8|0,1:2|1:0,0:0:0:0:
105,49,40333,1,0,0:0:0:0:
105,49,40508,2,0,P|134:44|165:34,1,60.1999981628419,8|0,1:2|0:0,0:0:0:0:
233,0,40857,1,0,1:0:0:0:
137,123,41205,1,8,1:2:0:0:
281,96,41554,6,2,L|323:53,1,60.1999981628419,0|0,1:0|0:0,1:0:0:0:
259,176,41903,2,2,L|201:162,1,60.1999981628419,8|0,1:2|0:0,1:0:0:0:
339,155,42252,2,2,L|356:213,1,60.1999981628419,0|0,1:0|0:0,1:0:0:0:
393,97,42601,1,8,1:2:0:0:
393,97,42775,2,0,P|442:50|503:44,1,120.399996325684,0|0,1:0|1:0,0:0:0:0:
497,135,43298,1,8,1:2:0:0:
434,203,43473,2,0,L|414:322,1,120.399996325684,0|2,1:0|1:0,0:0:0:0:
498,374,43996,1,10,1:2:0:0:
501,275,44171,1,2,1:3:0:0:
398,328,44345,6,0,L|362:322,3,30.0999990814209,4|4|10|8,1:3|1:3|1:3|1:3,0:0:0:0:
335,339,44694,2,0,L|299:333,3,30.0999990814209,4|4|10|8,1:3|1:3|1:3|1:3,0:0:0:0:
274,347,45043,6,0,P|266:265|193:225,1,172,6|8,1:2|1:2,1:0:0:0:
124,286,45566,2,0,B|96:248|90:203|117:211|121:159|96:120,1,172,2|2,1:2|1:2,1:0:0:0:
0,152,46089,2,0,P|41:159|82:145,1,86,8|0,1:2|0:0,0:0:0:0:
158,75,46438,1,2,1:3:0:0:
158,75,46612,1,2,0:3:0:0:
244,23,46787,2,0,P|286:15|328:21,1,86,10|0,1:2|0:0,1:0:0:0:
280,123,47136,2,0,P|252:90|235:50,1,86,0|0,1:0|0:0,1:0:0:0:
349,42,47485,2,0,P|334:82|308:116,1,86,8|2,1:2|0:3,1:0:0:0:
254,204,47833,6,0,B|243:244|264:285|282:264|310:315|287:365,1,172,2|8,1:3|1:2,1:0:0:0:
208,336,48357,2,0,B|242:313|242:313|374:332,1,172,2|2,1:2|1:2,1:0:0:0:
447,384,48880,2,0,L|459:298,1,86,8|0,1:2|0:0,0:0:0:0:
402,221,49229,1,2,1:2:0:0:
402,221,49403,1,2,0:2:0:0:
485,161,49578,1,10,1:2:0:0:
485,161,49752,1,2,0:3:0:0:
413,85,49926,2,0,L|400:-1,1,86,2|0,1:2|0:0,1:0:0:0:
315,66,50275,2,0,L|302:151,1,86,8|2,1:2|0:3,0:0:0:0:
215,216,50624,6,0,B|188:184|188:184|206:54,1,172,6|8,1:2|1:2,1:0:0:0:
299,48,51147,2,0,B|239:29|239:29|191:35|191:35|132:17,1,172,2|2,1:2|1:2,1:0:0:0:
40,54,51671,2,0,B|34:96|34:96|44:137,1,86,8|0,1:2|0:0,0:0:0:0:
119,201,52019,1,2,1:3:0:0:
119,201,52194,1,2,0:3:0:0:
214,224,52368,2,0,B|219:266|219:266|209:307,1,86,10|0,1:2|0:0,1:0:0:0:
103,353,52717,2,0,B|137:327|137:327|178:315,1,86,0|0,1:0|0:0,1:0:0:0:
271,384,53066,2,0,B|231:367|231:367|200:337,1,86,8|2,1:2|0:3,1:0:0:0:
305,292,53415,6,0,B|364:273|364:273|411:279|411:279|470:259,1,172,2|8,1:3|1:2,1:0:0:0:
476,351,53938,2,0,P|400:319|382:235,1,172,2|2,1:2|1:2,1:0:0:0:
449,171,54461,1,8,1:2:0:0:
449,171,54636,1,0,0:0:0:0:
369,114,54810,5,2,1:2:0:0:
369,114,54985,2,0,P|344:78|330:35,1,86,2|10,0:2|1:2,1:0:0:0:
442,0,55333,1,2,0:2:0:0:
442,0,55508,2,0,P|459:39|466:84,1,86,2|2,1:3|0:3,1:0:0:0:
357,133,55857,2,0,P|313:136|269:127,1,86,10|2,1:2|0:3,1:0:0:0:
130,94,56205,5,6,1:2:0:0:
130,94,56380,1,2,0:2:0:0:
156,170,56554,2,0,P|192:192|234:197,1,86,8|2,1:2|0:2,0:0:0:0:
249,121,56903,1,2,1:2:0:0:
249,121,57078,1,2,0:2:0:0:
223,45,57252,2,0,P|185:22|131:20,1,86,8|2,1:2|0:2,0:0:0:0:
55,31,57601,5,2,1:2:0:0:
0,97,57775,1,2,0:2:0:0:
17,181,57950,1,10,1:2:0:0:
92,222,58124,1,2,0:2:0:0:
174,199,58298,2,0,B|193:192|217:195|217:195|234:182|255:177,1,86,2|2,1:3|0:2,1:0:0:0:
174,312,58647,2,0,B|155:308|131:313|131:313|113:301|91:299,1,86,8|2,1:2|0:3,1:0:0:0:
254,343,58996,6,0,P|320:292|400:311,1,172,2|8,1:2|1:2,0:0:0:0:
339,384,59519,2,0,P|322:299|320:213,1,172,2|2,1:2|1:2,0:0:0:0:
396,167,60043,2,0,P|393:122|382:78,1,86,8|0,1:2|0:0,0:0:0:0:
299,35,60392,1,2,1:3:0:0:
299,35,60566,1,2,0:3:0:0:
208,83,60740,2,0,B|231:119|231:119|266:142,1,86,10|0,1:2|0:0,1:0:0:0:
239,235,61089,2,0,B|282:233|282:233|320:214,1,86,0|0,1:0|0:0,1:0:0:0:
394,264,61438,2,0,B|413:225|413:225|416:183,1,86,8|2,1:2|0:3,0:0:0:0:
403,90,61787,6,0,P|438:168|496:231,1,172,6|10,1:2|1:2,1:0:0:0:
512,310,62310,2,0,P|454:256|369:302,1,172,2|2,1:2|1:2,1:0:0:0:
314,354,62833,1,8,1:2:0:0:
314,354,63008,1,0,0:0:0:0:
215,332,63182,2,0,P|203:291|202:248,1,86,2|2,1:3|0:2,0:0:0:0:
281,168,63531,2,0,P|292:208|293:251,1,86,8|2,1:2|0:2,0:0:0:0:
120,239,63880,2,0,L|204:223,1,86,2|0,1:3|0:0,0:0:0:0:
127,332,64229,2,0,L|42:347,1,86,10|2,1:2|0:3,0:0:0:0:
26,254,64578,6,0,P|85:218|110:153,1,141.900004330444,4|0,1:2|0:0,1:0:0:0:
110,131,64926,2,0,P|89:83|51:49,1,103.199996850586,6|0,1:3|0:0,1:0:0:0:
51,49,65450,5,6,1:3:0:0:
222,164,65798,2,2,P|378:192|460:57,1,309.599990551758,6|4,1:2|1:3,1:2:0:0:
448,4,66496,1,2,1:3:0:0:
475,80,66671,2,0,P|383:212|245:204,1,309.599990551758,2|0,1:3|1:0,3:0:0:0:
224,193,67281,1,0,1:0:0:0:
206,179,67368,5,2,1:3:0:0:
241,338,67717,1,10,1:2:0:0:
397,339,68066,1,2,1:3:0:0:
446,190,68415,1,8,1:2:0:0:
446,190,68589,2,0,B|434:225|456:262|471:244|491:282|482:315,2,137.6,2|8|2,1:3|1:2|1:3,1:0:0:0:
462,94,69461,2,0,P|455:60|436:32,1,68.8,2|0,1:3|0:0,0:0:0:0:
269,15,69985,1,2,0:2:0:0:
269,15,70072,1,2,0:2:0:0:
269,15,70159,6,0,P|231:19|164:90,2,137.6,2|10|2,1:3|1:2|1:3,1:0:0:0:
341,169,71205,1,10,1:2:0:0:
341,169,71380,2,0,P|353:230|315:285,2,120.399996325684,2|8|2,1:3|1:2|1:3,1:0:0:0:
244,167,72252,2,0,P|223:192|210:234,1,60.1999981628419,2|2,1:3|0:3,0:0:0:0:
54,351,72775,6,0,L|39:381,2,34.4,2|2|2,0:2|0:2|1:3,0:0:0:0:
102,267,73124,2,0,B|108:235|108:235|101:196,1,68.8,0|10,0:0|1:2,1:0:0:0:
30,133,73473,2,0,B|23:101|23:101|29:62,1,68.8,0|2,0:0|1:3,1:0:0:0:
201,62,73996,1,10,1:2:0:0:
201,62,74171,2,0,B|249:46|249:46|286:55|286:55|331:37,2,137.6,2|8|2,1:3|1:2|1:3,1:0:0:0:
155,150,75043,2,0,B|138:163|138:163|113:171|113:171|96:183,1,68.8,2|2,1:3|0:3,0:0:0:0:
241,336,75566,1,2,0:2:0:0:
241,336,75653,1,2,0:2:0:0:
241,336,75740,6,0,B|224:374|174:329|169:330|152:386|114:360,2,137.6,2|8|2,1:3|1:2|1:3,1:0:0:0:
410,370,76787,1,10,1:2:0:0:
411,370,76961,2,0,B|469:289|436:253|436:253,1,120.399996325684,2|8,1:3|1:2,1:0:0:0:
375,184,77485,1,4,0:2:0:0:
281,181,77659,5,8,1:3:0:0:
281,181,77746,1,8,1:3:0:0:
281,181,77833,2,0,L|216:186,1,60.1999981628419,4|4,3:3|3:3,0:0:0:0:
321,86,78182,2,0,L|385:91,1,60.1999981628419,8|4,3:3|3:3,0:0:0:0:
221,8,78531,6,0,L|231:105,1,86,4|0,1:3|0:0,0:0:0:0:
163,138,79054,2,0,L|153:235,1,86,4|0,0:3|0:0,0:0:0:0:
199,290,79578,2,0,L|203:332,1,43,8|0,1:3|0:0,0:0:0:0:
128,381,79926,2,0,L|119:295,1,86,4|0,0:3|0:0,0:0:0:0:
8,170,80624,6,0,L|50:174,1,43,2|0,0:3|0:0,0:0:0:0:
108,126,80973,2,0,L|150:121,1,43,10|0,1:3|0:0,0:0:0:0:
174,23,81322,6,0,L|165:108,1,86,4|2,0:0|0:0,0:0:0:0:
259,144,81845,2,0,L|250:58,1,86,4|0,0:0|0:0,0:0:0:0:
336,19,82368,2,0,L|332:62,1,43,8|0,1:3|0:0,0:0:0:0:
417,59,82717,1,4,0:0:0:0:
412,102,82892,1,0,0:0:0:0:
408,145,83066,1,0,0:0:0:0:
397,318,83415,6,0,L|439:321,1,43,2|0,0:0|0:0,0:0:0:0:
434,244,83764,2,0,L|476:249,1,43,10|0,1:3|0:0,0:0:0:0:
470,170,84112,6,0,L|512:173,1,43,6|0,0:0|0:0,0:0:0:0:
399,123,84461,1,0,0:0:0:0:
399,123,84636,2,0,L|309:133,1,86,4|0,0:0|0:0,0:0:0:0:
285,208,85159,2,0,L|242:217,1,43,8|0,1:3|0:0,0:0:0:0:
176,172,85508,1,4,0:0:0:0:
270,304,85857,1,4,0:0:0:0:
126,347,86205,6,0,L|81:352,1,43,2|0,0:0|0:0,0:0:0:0:
72,266,86554,2,0,L|30:272,1,43,10|0,1:3|0:0,0:0:0:0:
93,181,86903,6,0,L|59:101,1,86,4|4,0:0|0:0,0:0:0:0:
176,172,87426,2,0,L|218:177,1,43,4|0,0:0|0:0,0:0:0:0:
283,128,87775,2,0,L|368:117,1,86,8|8,0:0|0:0,0:0:0:0:
444,140,88298,1,4,0:0:0:0:
438,183,88473,1,0,0:0:0:0:
432,225,88647,1,4,0:0:0:0:
265,244,88996,6,0,L|256:291,1,43,2|0,0:0|0:0,0:0:0:0:
243,362,89345,1,10,1:3:0:0:
243,362,89519,6,0,L|161:344,1,68.8,0|4,1:0|1:3,0:0:0:0:
148,256,89868,1,0,0:0:0:0:
67,214,90043,2,0,L|0:229,1,68.8,8|4,1:2|0:3,0:0:0:0:
57,310,90392,2,0,L|71:242,1,68.8,0|0,1:0|0:0,0:0:0:0:
141,158,90740,2,0,L|126:90,1,68.8,8|0,1:2|0:0,0:0:0:0:
113,10,91089,5,4,1:3:0:0:
229,126,91438,1,8,1:2:0:0:
229,126,91612,2,0,P|269:78|345:85,1,137.6,4|2,1:3|0:3,0:0:0:0:
413,134,92136,2,0,P|443:148|477:145,1,68.8,8|0,1:2|0:0,0:0:0:0:
512,64,92485,5,4,1:3:0:0:
435,227,92833,1,8,1:2:0:0:
435,227,93008,2,0,B|437:296|388:279|389:351,2,137.6,4|8|0,1:3|1:2|1:0,1:0:0:0:
413,134,93880,5,4,1:3:0:0:
252,21,94229,1,8,1:2:0:0:
252,21,94403,2,0,B|263:77|263:77|277:96|277:96|287:151,1,137.6,4|0,1:3|1:0,1:0:0:0:
233,227,94926,2,0,L|220:294,1,68.8,8|0,1:2|0:0,0:0:0:0:
282,357,95275,6,0,P|235:338|140:347,1,137.6,4|8,1:2|1:2,1:0:0:0:
69,374,95798,2,0,B|119:329|119:329|139:262,1,137.6,4|0,1:3|1:0,1:0:0:0:
93,185,96322,2,0,L|68:120,1,68.8,8|0,1:2|0:0,0:0:0:0:
69,31,96671,5,4,1:3:0:0:
69,31,96845,1,0,0:0:0:0:
157,19,97019,2,0,P|146:51|144:86,1,68.8,8|4,1:2|0:3,0:0:0:0:
202,160,97368,1,0,1:0:0:0:
202,160,97543,1,0,0:0:0:0:
257,89,97717,2,0,P|284:69|316:56,1,68.8,8|0,1:2|0:0,0:0:0:0:
409,68,98066,5,4,1:3:0:0:
409,68,98240,1,0,0:0:0:0:
351,136,98415,2,0,P|335:166|329:200,1,68.8,8|4,1:2|0:3,0:0:0:0:
366,287,98764,1,0,1:0:0:0:
366,287,98938,1,0,0:0:0:0:
445,245,99112,2,0,P|464:216|478:185,1,68.8,8|0,1:2|0:0,0:0:0:0:
512,302,99461,5,6,1:3:0:0:
476,384,99636,1,2,0:2:0:0:
386,377,99810,1,10,0:2:0:0:
366,287,99985,1,2,0:2:0:0:
301,348,100159,6,0,L|283:318,3,34.4,4|8|10|8,1:3|1:3|1:3|1:3,0:0:0:0:
249,315,100508,2,0,L|214:315,3,34.4,4|8|10|8,1:3|1:3|1:3|1:3,0:0:0:0:
193,334,100857,6,0,P|110:331|81:248,1,172,6|8,1:2|1:2,1:0:0:0:
0,214,101380,2,0,B|40:191|91:214|73:232|125:244|164:221,1,172,2|2,1:2|1:2,1:0:0:0:
236,164,101903,2,0,P|256:126|260:84,1,86,8|0,1:2|0:0,0:0:0:0:
198,12,102252,1,2,1:3:0:0:
198,12,102426,1,2,0:3:0:0:
112,62,102601,2,0,P|110:104|123:145,1,86,10|0,1:2|0:0,1:0:0:0:
236,164,102950,2,0,P|199:141|158:131,1,86,0|0,1:0|0:0,1:0:0:0:
85,220,103298,2,0,P|122:200|151:168,1,86,10|2,1:2|0:3,1:0:0:0:
260,84,103647,6,0,B|297:63|341:73|328:96|383:109|421:76,1,172,2|8,1:3|1:2,1:0:0:0:
474,10,104171,2,0,B|429:37|429:37|408:154,1,172,2|2,1:2|1:2,1:0:0:0:
509,145,104694,2,0,B|493:229,1,86,8|0,1:2|0:0,0:0:0:0:
431,310,105043,1,2,1:2:0:0:
431,310,105217,1,2,0:2:0:0:
356,239,105392,1,10,1:2:0:0:
356,239,105566,1,2,0:3:0:0:
316,322,105740,2,0,L|231:335,1,86,2|0,1:2|0:0,1:0:0:0:
171,258,106089,2,0,L|86:245,1,86,8|2,1:2|0:3,0:0:0:0:
239,187,106438,6,0,B|283:159|283:159|303:40,1,172,6|8,1:2|1:2,1:0:0:0:
388,27,106961,2,0,B|328:17|328:17|280:29|280:29|220:19,1,172,2|2,1:2|1:2,1:0:0:0:
202,105,107485,2,0,B|163:90|163:90|120:91,1,86,8|0,1:2|0:0,0:0:0:0:
21,62,107833,1,2,1:3:0:0:
21,62,108008,1,2,0:3:0:0:
0,154,108182,2,0,B|25:187|25:187|66:201,1,86,10|0,1:2|0:0,1:0:0:0:
155,200,108531,2,0,B|113:204|113:204|81:233,1,86,0|0,1:0|0:0,1:0:0:0:
36,310,108880,2,0,B|52:271|52:271|43:229,1,86,8|2,1:2|0:3,1:0:0:0:
155,299,109229,6,0,B|215:289|215:289|263:301|263:301|323:291,1,172,2|8,1:3|1:2,1:0:0:0:
329,207,109752,2,0,P|245:261|252:343,1,172,2|2,1:2|1:2,1:0:0:0:
328,378,110275,1,8,1:2:0:0:
328,378,110450,1,0,0:0:0:0:
391,289,110624,5,2,1:2:0:0:
391,289,110798,2,0,P|427:264|470:249,1,86,2|10,0:2|1:2,1:0:0:0:
512,353,111147,1,2,0:2:0:0:
512,353,111322,2,0,P|473:370|427:377,1,86,2|2,1:3|0:3,1:0:0:0:
377,306,111671,2,0,P|358:264|352:221,1,86,10|2,1:2|0:3,1:0:0:0:
274,213,112019,5,6,1:2:0:0:
274,213,112194,1,2,0:2:0:0:
312,146,112368,2,0,P|290:107|244:78,1,86,8|2,1:2|0:2,0:0:0:0:
395,158,112717,1,0,1:0:0:0:
395,158,112892,1,2,0:2:0:0:
472,177,113066,2,0,P|501:143|512:90,1,86,8|2,1:2|0:2,0:0:0:0:
512,18,113415,5,2,1:2:0:0:
424,0,113589,1,2,0:2:0:0:
340,26,113764,1,10,1:2:0:0:
279,87,113938,1,2,0:2:0:0:
217,27,114112,2,0,B|198:19|174:20|174:20|158:5|138:-1,1,86,2|2,1:3|0:2,1:0:0:0:
184,139,114461,2,0,B|202:132|226:133|226:133|242:118|263:112,1,86,10|2,1:2|0:2,1:0:0:0:
108,81,114810,6,0,P|79:158|0:178,1,172,2|8,1:2|1:2,0:0:0:0:
22,93,115333,2,0,P|36:190|80:291,1,172,2|2,1:2|1:2,0:0:0:0:
135,330,115857,2,0,P|180:317|226:320,1,86,8|0,1:2|0:0,0:0:0:0:
315,356,116205,1,2,1:3:0:0:
315,356,116380,1,2,0:3:0:0:
416,330,116554,2,0,B|396:292|396:292|362:265,1,86,10|0,1:2|0:0,1:0:0:0:
389,168,116903,2,0,B|346:166|346:166|306:182,1,86,0|0,1:0|0:0,1:0:0:0:
237,110,117252,2,0,B|214:146|214:146|207:188,1,86,8|2,1:2|0:3,0:0:0:0:
189,290,117601,6,0,P|274:268|357:285,1,172,6|10,1:2|1:2,1:0:0:0:
437,337,118124,2,0,P|376:279|390:194,1,172,2|2,1:2|1:2,1:0:0:0:
469,154,118647,1,8,1:2:0:0:
469,154,118822,1,0,0:0:0:0:
377,112,118996,2,0,P|350:78|332:39,1,86,2|2,1:3|0:2,0:0:0:0:
423,0,119345,2,0,L|350:44,1,86,8|2,1:2|0:2,0:0:0:0:
239,73,119694,2,0,L|166:117,1,86,2|0,1:3|0:0,0:0:0:0:
213,0,120043,2,0,P|239:33|258:72,1,86,10|2,1:2|0:3,0:0:0:0:
217,216,120392,6,0,P|153:244|86:225,1,141.900004330444,4|0,1:2|0:0,1:0:0:0:
69,205,120740,2,0,P|63:154|81:105,1,94.600002886963,6|0,1:3|0:0,1:0:0:0:
76,113,121264,5,6,1:3:0:0:
22,263,121612,2,0,P|120:372|257:324,1,283.800008660889,6|8,1:3|1:2,1:0:0:0:
218,253,122310,1,2,1:3:0:0:
218,253,122485,2,0,P|376:330|492:198,1,378.400011547852,2|4,1:3|1:1,1:0:0:0:
385,35,123531,5,2,1:3:0:0:
416,219,123880,1,2,0:2:0:0:
416,219,124054,2,0,P|409:269|395:294,2,64.5000024604798,0|2|0,1:0|1:3|1:0,0:0:0:0:
378,148,124578,2,0,B|373:99|378:98|401:75|405:75|399:24,1,129.00000492096,2|2,1:2|1:3,0:0:0:0:
321,43,125101,2,0,B|272:47|271:42|248:19|248:15|197:21,1,129.00000492096,0|0,0:0|1:0,0:0:0:0:
197,21,125624,1,2,1:3:0:0:
303,153,125973,5,2,1:2:0:0:
303,153,126147,2,0,P|236:124|181:143,1,129.00000492096,0|0,1:0|1:0,0:0:0:0:
117,178,126671,2,0,P|54:171|10:125,1,129.00000492096,2|0,1:2|1:3,0:0:0:0:
90,102,127194,1,0,0:0:0:0:
90,102,127368,2,0,B|68:145|72:148|86:177|90:179|67:224,1,129.00000492096,2|2,1:2|1:3,0:0:0:0:
97,298,127892,2,0,B|145:294|146:289|164:263|164:258|214:256,1,129.00000492096,0|0,0:0|1:0,0:0:0:0:
283,384,128589,5,0,0:0:0:0:
283,384,128764,2,0,B|330:376|330:376|344:366|344:366|361:371|361:371|409:362,1,129.00000492096,2|2,1:2|1:3,0:0:0:0:
486,365,129287,2,0,B|473:294|473:294|457:272|457:272|465:246|465:246|453:180,1,193.50000738144,0|2,1:0|1:3,0:0:0:0:
379,206,129985,1,2,0:3:0:0:
379,206,130159,2,0,B|339:198|339:198|301:174|301:174|258:167,1,129.00000492096,2|2,1:2|1:3,0:0:0:0:
179,181,130682,2,0,B|189:117|189:117|225:60|225:60|235:0,1,193.50000738144,0|2,1:0|1:3,0:0:0:0:
94,74,131554,5,2,1:2:0:0:
94,74,131729,2,0,P|45:83|16:86,2,64.5000024604798,0|2|0,0:0|1:3|1:0,0:0:0:0:
155,21,132252,2,0,P|213:39|238:60,1,64.5000024604798,2|0,0:2|1:0,0:0:0:0:
293,20,132601,2,0,P|351:1|375:-20,1,64.5000024604798,2|0,1:3|0:0,0:0:0:0:
432,6,132950,2,0,P|399:67|335:92,1,129.00000492096,2|2,1:2|1:3,0:0:0:0:
282,158,133473,6,0,P|261:163|238:171,2,32.2500012302399,2|2|2,0:3|0:3|0:2,0:0:0:0:
370,185,133822,1,2,1:2:0:0:
370,185,133996,2,0,P|442:213|473:319,1,172,10|6,1:2|1:2,0:0:0:0:
332,379,134694,5,2,1:3:0:0:
292,221,135043,1,2,0:2:0:0:
292,221,135217,2,0,P|285:191|282:157,2,64.5000024604798,0|2|0,1:0|1:3|1:0,0:0:0:0:
293,299,135740,2,0,P|238:330|177:314,1,129.00000492096,2|0,1:2|1:3,1:0:0:0:
138,246,136264,2,0,P|73:202|18:216,1,129.00000492096,0|0,1:0|1:0,0:0:0:0:
2,284,136787,1,2,1:3:0:0:
92,119,137136,5,2,1:2:0:0:
92,119,137310,2,0,P|158:90|213:109,1,129.00000492096,0|0,1:0|1:0,0:0:0:0:
278,144,137833,2,0,P|340:137|384:91,1,129.00000492096,2|2,1:2|1:3,0:0:0:0:
466,78,138357,1,0,0:0:0:0:
466,78,138531,2,0,P|454:48|456:7,1,64.5000024604798,2|0,1:2|1:0,0:0:0:0:
500,233,139054,2,0,P|461:284|406:316,1,129.00000492096,2|0,1:2|1:0,0:0:0:0:
326,324,139578,1,2,1:3:0:0:
161,292,139926,5,6,1:2:0:0:
161,292,140101,2,0,P|128:295|97:302,2,64.5000024604798,0|2|0,0:0|1:3|0:0,0:0:0:0:
232,256,140624,1,2,0:2:0:0:
139,121,140973,1,0,1:3:0:0:
0,222,141322,6,0,P|33:225|64:232,1,64.5000024604798,2|0,1:2|0:0,0:0:0:0:
98,302,141671,2,0,P|130:299|161:292,1,64.5000024604798,2|0,1:3|0:0,0:0:0:0:
229,249,142019,2,0,P|219:202|248:113,1,129.00000492096,2|2,0:2|1:3,0:0:0:0:
418,126,142717,6,0,P|321:167|231:113,1,219.300004182816,6|2,1:2|1:3,1:0:0:0:
201,40,143415,1,2,1:2:0:0:
350,1,143764,1,10,1:2:0:0:
240,125,144112,2,0,P|129:160|61:66,1,219.300004182816,2|2,1:2|1:3,1:0:0:0:
99,27,144810,1,2,1:2:0:0:
232,113,145159,2,0,P|270:151|322:167,1,109.650002091408,10|0,1:2|0:0,1:0:0:0:
346,166,145508,6,0,P|425:120|445:30,1,154.799995275879,2|8,1:2|1:2,0:0:0:0:
512,0,146031,1,0,0:0:0:0:
512,0,146205,2,0,P|484:38|449:70,1,77.3999976379395,0|0,1:0|0:0,0:0:0:0:
512,155,146554,2,0,P|465:149|419:135,1,77.3999976379395,8|0,1:2|0:0,0:0:0:0:
346,166,146903,5,0,1:0:0:0:
346,166,147078,1,2,0:3:0:0:
405,254,147252,1,0,1:0:0:0:
405,254,147426,1,2,0:3:0:0:
358,343,147601,1,0,1:0:0:0:
358,343,147775,2,0,L|345:397,2,43,2|0|0,1:3|1:0|1:0,1:0:0:0:
229,353,148124,6,0,L|184:339,2,47.3000014434815,2|0|6,0:2|0:0|0:3,0:0:0:0:
278,272,148450,2,0,L|323:258,2,47.3000014434815,2|0|6,0:2|0:0|0:3,0:0:0:0:
214,201,148798,2,0,L|169:187,2,47.3000014434815,2|0|6,0:2|0:0|0:3,0:0:0:0:
274,127,149147,2,0,L|319:113,2,47.3000014434815,2|0|6,0:2|0:0|0:3,0:0:0:0:
211,56,149496,2,0,L|166:42,2,47.3000014434815,2|0|6,0:2|0:0|0:3,0:0:0:0:
302,22,149868,1,2,0:2:0:0:
393,39,150042,1,2,0:2:0:0:
424,126,150216,1,10,0:3:0:0:
498,180,150391,1,6,0:3:0:0:
436,358,150740,6,0,L|327:326,1,86,2|2,0:3|0:3,0:0:0:0:
263,304,151088,1,6,0:3:0:0:
181,351,151262,1,2,0:3:0:0:
88,328,151436,2,0,L|5:303,1,86,10|2,0:3|0:3,0:0:0:0:
59,226,151785,1,6,0:3:0:0:
153,229,151960,2,0,L|163:270,2,43,2|2|10,0:2|0:2|0:3,0:0:0:0:
214,159,152308,6,2,P|258:72|357:72,1,206.399993701172,2|8,0:0|0:3,0:0:0:0:
374,89,152744,1,0,0:0:0:0:
385,110,152832,2,0,P|382:170|409:221,1,103.199996850586,8|0,0:3|0:0,0:0:0:0:
419,224,153093,1,0,0:0:0:0:
443,215,153181,2,2,P|483:170|495:114,1,103.199996850586,4|0,0:3|0:0,0:2:0:0:
471,31,153529,1,4,0:3:0:0:
385,0,153704,1,4,0:2:0:0:
247,94,154053,5,4,0:3:0:0:
70,18,154401,5,0,0:0:0:0:
70,18,154576,1,4,0:3:0:0:
70,18,154750,2,0,P|77:91|62:133,1,103.199996850586,0|8,0:0|0:3,0:0:0:0:
0,194,155099,1,2,0:3:0:0:
170,148,155448,5,0,0:0:0:0:
170,148,155622,1,4,0:3:0:0:
170,148,155797,2,0,P|162:221|177:263,1,103.199996850586,0|8,0:0|0:3,0:0:0:0:
239,324,156146,1,2,0:3:0:0:
414,327,156494,5,0,0:0:0:0:
414,327,156669,2,2,P|370:334|328:349,1,86,6|2,0:3|0:2,0:0:0:0:
239,324,157018,2,2,P|196:338|153:346,1,86,6|2,0:3|0:2,0:0:0:0:
59,360,157367,1,2,0:2:0:0:
59,360,157541,2,2,B|86:265,1,86,2|10,0:2|3:3,0:0:0:0:
156,221,157890,1,2,0:2:0:0:
156,221,158064,2,2,B|128:126,1,86,2|10,0:2|3:3,0:0:0:0:
57,90,158413,1,2,0:2:0:0:
57,90,158588,2,2,B|84:-4,1,86,2|10,0:2|3:3,0:0:0:0:
229,134,159111,6,2,B|282:164|282:0|331:22,1,172,6|4,0:3|0:2,0:2:0:0:
502,95,159808,5,2,0:2:0:0:
502,95,159896,1,0,0:0:0:0:
502,95,159983,1,0,0:0:0:0:
420,138,160157,1,2,0:2:0:0:
398,230,160332,1,10,0:3:0:0:
448,309,160506,1,6,0:3:0:0:
448,309,160681,2,0,B|412:339|354:331|370:312|314:291|269:323,1,189.200005773926,2|2,0:2|0:2,0:0:0:0:
195,378,161204,1,2,0:2:0:0:
195,378,161378,1,2,0:2:0:0:
111,343,161553,1,2,0:2:0:0:
111,343,161727,1,2,0:2:0:0:
100,253,161901,2,0,L|32:233,2,43,2|2|2,0:2|0:3|0:3,0:0:0:0:
186,220,162250,6,2,B|201:181|201:181|198:138,1,86,6|0,0:2|0:0,0:0:0:0:
288,219,162599,2,0,B|327:234|327:234|370:230,1,86,0|2,0:0|0:2,0:0:0:0:
458,197,162948,1,8,0:3:0:0:
458,197,163122,2,0,P|470:155|496:121,1,86,8|0,0:3|0:0,0:0:0:0:
403,81,163471,1,8,0:3:0:0:
403,81,163646,2,0,P|362:66|320:70,1,86,12|0,0:3|0:0,0:0:0:0:
300,80,163907,1,0,0:0:0:0:
286,92,163994,1,4,0:3:0:0:
198,137,164169,2,0,P|155:141|115:127,1,86,4|0,0:3|0:0,0:0:0:0:
86,37,164518,1,4,0:3:0:0:
86,37,164692,2,2,B|113:73|96:123|67:118|45:166|70:212,1,189.200005773926,12|6,0:3|0:2,0:0:0:0:
108,304,165215,5,2,0:0:0:0:
20,331,165390,2,2,B|73:342|73:342|134:331|134:331|189:343,1,172,6|0,0:3|0:0,0:2:0:0:
243,265,165913,1,8,0:3:0:0:
338,255,166088,1,4,0:3:0:0:
292,344,166262,2,0,P|198:373|177:218,1,283.800008660889,8|10,0:3|0:3,0:0:0:0:
249,187,166960,1,0,0:0:0:0:
249,187,167134,1,4,0:3:0:0:
329,226,167308,1,4,0:3:0:0:
409,188,167483,1,8,0:3:0:0:
420,98,167657,1,10,0:3:0:0:
474,271,168006,6,0,L|512:290,2,43,2|0|2,0:3|0:0|0:3,0:0:0:0:
388,300,168355,1,2,0:2:0:0:
329,226,168529,2,0,L|326:184,2,43,2|0|2,0:3|0:0|0:3,0:0:0:0:
230,236,168878,2,0,P|173:210|153:151,1,129,6|0,0:2|0:0,0:0:0:0:
156,121,169227,5,6,0:3:0:0:
157,114,169314,1,8,0:3:0:0:
159,107,169401,1,8,0:3:0:0:
161,100,169489,1,8,0:3:0:0:
163,93,169576,2,0,L|147:46,3,43,4|8|8|8,0:3|0:3|0:3|0:3,0:0:0:0:
116,40,169925,2,0,L|100:-6,3,43,4|8|8|8,0:3|0:3|0:3|0:3,0:0:0:0:
66,0,170274,2,2,B|55:19|36:33|36:33|43:57|35:81,1,94.600002886963,6|2,0:1|0:2,0:0:0:0:
35,181,170622,6,0,P|108:145|178:188,1,172,6|8,1:2|1:2,1:0:0:0:
141,271,171146,2,0,B|180:296|231:278|216:257|268:250|304:278,1,172,2|2,1:2|1:2,1:0:0:0:
378,337,171669,2,0,P|418:347|460:337,1,86,8|0,1:2|0:0,0:0:0:0:
512,247,172018,1,2,1:3:0:0:
512,247,172192,1,2,0:3:0:0:
417,259,172367,2,0,P|390:226|376:186,1,86,10|0,1:2|0:0,1:0:0:0:
437,120,172715,2,0,P|422:160|394:192,1,86,0|0,1:0|0:0,1:0:0:0:
306,172,173064,2,0,P|349:165|391:174,1,86,8|2,1:2|0:3,1:0:0:0:
215,185,173413,6,0,B|204:144|225:103|244:124|272:72|248:25,1,172,2|8,1:3|1:2,1:0:0:0:
174,6,173936,2,0,B|214:40|214:40|350:22,1,172,2|2,1:2|1:2,1:0:0:0:
431,7,174460,2,0,L|444:101,1,86,8|0,1:2|0:0,0:0:0:0:
391,174,174808,1,2,1:2:0:0:
391,174,174983,1,2,0:2:0:0:
286,169,175157,1,10,1:2:0:0:
286,169,175332,1,2,0:3:0:0:
206,232,175506,2,0,L|189:335,1,86,2|0,1:2|0:0,1:0:0:0:
289,352,175855,1,8,1:2:0:0:
289,352,176029,1,2,0:3:0:0:
280,257,176204,6,0,B|244:226|244:226|96:247,1,172,6|8,1:2|1:2,1:0:0:0:
102,330,176727,2,0,B|93:267|93:267|108:220|108:220|101:160,1,172,2|2,1:2|1:2,1:0:0:0:
4,142,177250,2,0,B|46:148|46:148|87:138,1,86,8|0,1:2|0:0,0:0:0:0:
189,128,177599,1,2,1:3:0:0:
189,128,177774,1,2,0:3:0:0:
275,160,177948,2,0,B|290:120|290:120|291:78,1,86,10|0,1:2|0:0,1:0:0:0:
201,6,178297,2,0,B|227:39|227:39|263:62,1,86,0|0,1:0|0:0,1:0:0:0:
370,19,178646,2,0,B|326:25|326:25|289:46,1,86,8|2,1:2|0:3,1:0:0:0:
275,160,178994,6,0,B|335:167|335:167|376:193|376:193|437:200,1,172,2|8,1:3|1:2,1:0:0:0:
505,113,179518,2,0,P|432:138|439:237,1,172,2|2,1:2|1:2,1:0:0:0:
483,315,180041,1,8,1:2:0:0:
483,315,180215,1,0,0:0:0:0:
386,347,180390,5,2,1:2:0:0:
386,347,180564,2,0,P|361:311|347:268,1,86,2|10,0:2|1:2,1:0:0:0:
459,233,180913,1,2,0:2:0:0:
459,233,181088,2,0,P|476:272|483:317,1,86,2|2,1:3|0:3,1:0:0:0:
374,366,181436,2,0,P|330:369|286:360,1,86,10|2,1:2|0:3,1:0:0:0:
204,296,181785,5,6,1:2:0:0:
204,296,181960,1,2,0:2:0:0:
116,272,182134,2,0,P|93:310|91:364,1,86,8|2,1:2|0:2,0:0:0:0:
189,384,182483,1,2,1:2:0:0:
189,384,182657,1,2,0:2:0:0:
279,343,182832,2,0,P|257:304|211:275,1,86,8|2,1:2|0:2,0:0:0:0:
139,261,183181,5,2,1:2:0:0:
54,272,183355,1,2,0:2:0:0:
4,202,183529,1,10,1:2:0:0:
44,125,183704,1,2,0:2:0:0:
140,142,183878,2,0,B|158:136|182:139|182:139|199:126|221:121,1,86,2|2,1:3|0:2,1:0:0:0:
155,44,184227,2,0,B|136:34|112:33|112:33|98:16|78:9,1,86,10|2,1:2|0:2,1:0:0:0:
256,29,184576,6,0,P|238:95|299:176,1,172,2|8,1:2|1:2,0:0:0:0:
331,87,185099,2,0,P|306:175|291:264,1,172,2|2,1:2|1:2,0:0:0:0:
341,353,185622,2,0,P|297:350|255:361,1,86,8|0,1:2|0:0,0:0:0:0:
169,384,185971,1,2,1:3:0:0:
169,384,186146,1,2,0:3:0:0:
86,342,186320,2,0,B|106:304|106:304|140:277,1,86,10|0,1:2|0:0,1:0:0:0:
112,187,186669,2,0,B|155:185|155:185|195:201,1,86,0|0,1:0|0:0,1:0:0:0:
259,134,187018,2,0,B|282:170|282:170|289:212,1,86,8|2,1:2|0:3,0:0:0:0:
232,283,187367,6,0,P|314:259|399:244,1,172,6|10,1:2|1:2,1:0:0:0:
485,266,187890,2,0,P|399:217|388:135,1,172,2|2,1:2|1:2,1:0:0:0:
406,57,188413,1,8,1:2:0:0:
406,57,188588,1,0,0:0:0:0:
309,79,188762,2,0,P|290:117|281:159,1,86,2|2,1:3|0:2,0:0:0:0:
358,232,189111,2,0,P|376:193|384:151,1,86,8|2,1:2|0:2,0:0:0:0:
221,62,189460,2,0,L|141:31,1,86,2|0,1:3|0:0,0:0:0:0:
183,140,189808,2,0,L|264:170,1,86,10|2,1:2|0:3,0:0:0:0:
178,242,190157,6,0,P|114:215|79:155,1,141.900004330444,4|0,1:2|0:0,1:0:0:0:
77,134,190506,2,0,P|90:83|122:43,1,103.199996850586,6|0,1:3|0:0,1:0:0:0:
120,43,191029,5,6,1:3:0:0:
94,241,191378,2,2,P|195:362|345:312,1,309.599990551758,6|4,1:2|0:3,1:2:0:0:
369,263,192076,1,2,1:3:0:0:
341,339,192250,2,0,P|185:380|88:286,1,309.599990551758,2|0,1:3|1:0,3:0:0:0:
82,267,192861,1,0,1:0:0:0:
84,245,192948,5,4,1:0:0:0:
228,97,193297,1,8,1:2:0:0:
228,97,193471,2,0,P|136:160|87:132,1,172,2|2,0:3|0:3,1:0:0:0:
21,76,193994,2,0,P|3:115|4:158,1,86,8|2,1:2|0:3,0:0:0:0:
72,226,194343,5,2,1:2:0:0:
62,318,194518,2,0,P|40:355|9:384,1,86,2|8,1:2|1:2,0:0:0:0:
151,315,194867,1,2,1:3:0:0:
151,315,195041,2,0,B|201:187|278:231|278:231,1,172,0|8,1:0|1:2,1:0:0:0:
356,278,195564,1,2,0:3:0:0:
344,373,195739,6,0,P|365:323|375:268,1,86,4|2,1:2|0:3,1:0:0:0:
463,282,196088,2,0,P|447:230|419:181,1,86,8|2,1:2|0:3,1:0:0:0:
495,135,196436,2,0,P|450:105|397:86,1,86,0|2,1:0|0:3,1:0:0:0:
425,2,196785,2,0,P|371:8|318:27,1,86,8|2,1:2|0:3,1:0:0:0:
285,95,197134,5,0,1:0:0:0:
285,95,197308,1,2,0:3:0:0:
203,140,197483,2,0,P|159:138|94:111,1,86,8|2,1:2|0:3,0:0:0:0:
53,62,197832,2,0,P|107:124|118:217,1,172,2|8,1:2|1:2,1:0:0:0:
95,305,198355,1,2,0:3:0:0:
6,282,198529,6,0,B|-11:274|-21:257|-21:257|46:222|116:226,1,172,4|8,1:2|1:2,0:0:0:0:
198,268,199053,2,0,B|277:301|277:223|366:266,1,172,2|2,0:3|0:3,1:0:0:0:
449,311,199576,2,0,P|459:264|449:221,1,86,8|2,1:2|0:3,0:0:0:0:
375,170,199925,1,2,1:2:0:0:
375,170,200099,6,0,P|375:124|389:80,1,86,2|8,1:2|1:2,0:0:0:0:
445,18,200448,1,2,0:3:0:0:
445,18,200622,2,0,B|400:26|379:68|379:68|344:38|299:44,1,172,0|8,1:0|1:2,1:0:0:0:
208,104,201146,1,0,0:0:0:0:
208,104,201320,6,0,P|166:118|124:124,1,86,0|2,1:0|0:3,1:0:0:0:
43,50,201669,2,0,P|84:35|126:29,1,86,8|2,1:2|0:3,1:0:0:0:
56,227,202018,2,0,L|35:143,1,86,0|2,1:0|0:3,1:0:0:0:
138,138,202367,2,0,L|158:221,1,86,8|2,1:2|0:3,1:0:0:0:
55,325,202715,5,2,1:2:0:0:
143,309,202890,1,2,1:2:0:0:
228,291,203064,1,10,1:2:0:0:
205,374,203239,1,2,1:3:0:0:
291,382,203413,2,0,P|344:263|269:184,1,223.599989764405,2|8,1:2|1:2,1:0:0:0:
228,122,203936,1,2,1:3:0:0:
215,93,204024,1,0,1:0:0:0:
219,63,204111,5,4,1:0:0:0:
416,110,204460,1,8,1:2:0:0:
416,110,204634,2,0,P|331:122|323:210,1,172,2|2,0:3|0:3,1:0:0:0:
328,297,205157,2,0,P|309:337|277:365,1,86,8|2,1:2|0:3,0:0:0:0:
174,376,205506,5,2,1:2:0:0:
218,302,205681,1,2,1:2:0:0:
165,234,205855,1,10,1:2:0:0:
112,302,206029,1,2,1:3:0:0:
17,324,206204,2,0,P|34:284|37:241,1,86,0|2,1:0|1:3,1:0:0:0:
99,169,206553,2,0,P|82:129|79:86,1,86,8|0,1:2|0:0,1:0:0:0:
0,64,206901,6,0,B|62:46|67:45|97:89|102:89|164:69,1,172,4|8,1:2|1:2,1:0:0:0:
245,21,207425,1,2,0:3:0:0:
315,87,207599,2,0,P|350:111|391:125,1,86,0|2,1:0|0:3,1:0:0:0:
478,74,207948,2,0,P|437:87|402:111,1,86,8|2,1:2|0:3,1:0:0:0:
377,207,208297,6,0,L|389:316,1,86,0|2,1:0|0:3,0:0:0:0:
448,366,208646,1,8,1:2:0:0:
448,366,208820,2,0,P|394:296|258:358,1,258,2|8,0:3|1:2,1:0:0:0:
159,377,209518,1,2,1:3:0:0:
129,374,209605,1,0,1:0:0:0:
107,355,209692,5,4,1:0:0:0:
246,213,210041,1,8,1:2:0:0:
246,212,210215,2,0,P|176:261|89:247,1,172,2|2,0:3|0:3,1:0:0:0:
12,206,210739,2,0,P|41:176|84:160,1,86,8|2,1:2|0:3,0:0:0:0:
181,141,211088,5,0,1:0:0:0:
181,141,211262,1,2,0:3:0:0:
246,212,211436,2,0,P|288:219|329:208,1,86,8|2,1:2|0:3,0:0:0:0:
408,144,211785,2,0,B|444:28|444:28|421:48|400:54,1,172,0|8,1:0|1:2,1:0:0:0:
303,72,212308,1,2,0:3:0:0:
303,72,212483,6,0,P|260:60|224:36,1,86,6|2,1:2|0:3,1:0:0:0:
137,58,212832,1,8,1:2:0:0:
137,58,213006,1,2,0:3:0:0:
167,150,213181,2,0,P|122:153|80:143,1,86,2|2,1:2|0:3,1:0:0:0:
0,198,213529,1,8,1:2:0:0:
0,198,213704,1,2,0:3:0:0:
23,289,213878,6,0,B|87:278|87:278|121:254|121:254|185:242,1,172,0|8,1:0|1:2,0:0:0:0:
271,215,214401,1,2,0:3:0:0:
271,215,214576,2,0,P|174:270|253:350,1,258,0|2,1:0|0:3,1:0:0:0:
348,290,215274,5,4,1:1:0:0:
348,290,215448,1,2,0:3:0:0:
284,220,215622,2,0,P|300:181|335:156,1,86,2|2,1:2|0:3,0:0:0:0:
411,209,215971,1,2,1:3:0:0:
411,209,216146,1,2,0:3:0:0:
360,283,216320,2,0,P|357:325|376:363,1,86,2|2,1:2|0:2,0:0:0:0:
460,359,216669,6,0,P|477:320|472:278,1,86,2|2,1:3|0:3,0:0:0:0:
411,209,217018,1,2,1:2:0:0:
411,209,217192,1,2,0:3:0:0:
335,156,217367,2,0,P|317:117|322:75,1,86,2|2,1:3|0:3,0:0:0:0:
369,0,217715,1,2,1:2:0:0:
369,0,217890,1,2,0:3:0:0:
306,78,218064,6,0,P|255:126|186:131,1,141.900004330444,4|0,1:1|0:0,1:0:0:0:
161,117,218413,2,0,P|138:70|138:19,1,103.199996850586,6|0,1:3|0:0,1:0:0:0:
137,19,218936,5,6,1:3:0:0:
62,221,219285,2,2,P|151:107|287:157,1,309.599990551758,6|4,1:2|1:3,1:2:0:0:
364,218,219983,1,2,1:3:0:0:
364,218,220157,2,0,P|322:247|272:258,1,86,2|0,1:3|0:0,0:0:0:0:
199,252,220506,2,0,P|158:265|123:290,1,86,8|2,1:2|1:2,0:0:0:0:
106,310,220768,1,2,1:2:0:0:
102,337,220855,5,4,1:1:0:0:
248,374,221204,1,10,1:2:0:0:
330,243,221553,1,2,1:3:0:0:
485,273,221901,1,8,1:2:0:0:
485,273,222076,2,0,B|509:246|507:204|487:209|484:170|507:144,2,137.6,2|8|2,1:3|1:2|1:3,1:0:0:0:
427,342,222948,2,0,P|395:356|358:353,1,68.8,2|2,1:3|0:3,0:0:0:0:
199,252,223471,1,2,1:2:0:0:
199,252,223558,1,2,1:2:0:0:
199,252,223646,6,0,P|133:236|66:260,2,137.6,2|10|2,1:3|1:2|1:3,1:0:0:0:
379,266,224692,1,8,1:2:0:0:
379,266,224867,2,0,P|434:236|451:171,2,120.399996325684,2|8|2,1:3|1:2|1:3,1:0:0:0:
290,231,225739,2,0,P|271:207|262:178,1,60.1999981628419,2|2,1:3|0:3,0:0:0:0:
426,66,226262,6,0,L|459:72,2,34.4,2|2|6,1:2|1:2|1:2,0:0:0:0:
336,14,226611,2,0,B|315:38|315:38|301:75,1,68.8,0|8,0:0|1:2,0:0:0:0:
347,148,226960,2,0,B|337:117|337:117|312:87,1,68.8,0|0,0:0|1:0,0:0:0:0:
132,156,227483,1,8,1:2:0:0:
132,156,227657,2,0,B|81:163|81:163|47:148|47:148|0:158,2,137.6,2|8|2,1:3|1:2|1:3,1:0:0:0:
213,216,228529,2,0,B|234:216|234:216|259:225|259:225|280:225,1,68.8,2|2,1:3|0:3,0:0:0:0:
81,356,229053,1,2,1:2:0:0:
81,356,229140,1,2,1:2:0:0:
81,356,229227,6,0,B|40:345|76:288|74:284|16:277|35:235,2,137.6,0|8|0,1:0|1:2|1:0,1:0:0:0:
213,216,230274,1,8,1:2:0:0:
213,216,230448,2,0,B|204:170|233:94|267:109|265:138,2,137.6,2|8|2,1:3|1:2|1:3,1:0:0:0:
220,307,231320,2,0,B|221:343|247:375|247:375,1,68.8,2|2,1:3|0:3,0:0:0:0:
358,368,231669,6,2,P|306:241|379:141,1,223.599989764405,2|4,1:2|1:2,3:1:0:0:
512,305,232367,6,0,L|499:350,2,47.3000014434815,2|0|2,1:2|0:0|0:3,1:0:0:0:
425,268,232715,2,0,L|412:222,2,47.3000014434815,2|0|2,1:2|0:0|0:3,1:0:0:0:
355,336,233064,2,0,L|342:381,2,47.3000014434815,2|0|2,1:2|0:0|0:3,1:0:0:0:
303,251,233413,2,0,L|290:205,2,47.3000014434815,2|0|2,1:2|0:0|0:3,1:0:0:0:
220,307,233762,2,0,L|207:352,2,47.3000014434815,2|0|2,1:2|0:0|0:3,1:0:0:0:
137,259,234111,1,2,1:2:0:0:
137,259,234285,1,2,1:3:0:0:
0,142,234634,6,0,P|90:98|75:-2,1,215,0|2,1:0|0:3,1:0:0:0:
15,59,235157,2,0,P|48:85|88:101,1,86,0|2,1:0|0:3,1:0:0:0:
184,125,235506,2,0,P|225:112|269:79,1,86,0|2,1:0|0:3,1:0:0:0:
301,3,235855,1,2,1:2:0:0:
301,3,236029,1,2,1:2:0:0:
386,55,236204,2,0,L|452:63,1,64.5000024604798,2|2,1:2|0:2,0:0:0:0:
383,149,236553,2,0,L|316:157,1,64.5000024604798,2|2,1:2|0:3,0:0:0:0:
443,222,236901,1,2,1:3:0:0:
443,222,237076,1,2,0:3:0:0:
399,305,237250,2,2,L|390:371,1,64.5000024604798,6|2,1:2|0:2,0:2:0:0:
305,302,237599,2,0,L|296:235,1,64.5000024604798,6|2,1:2|0:3,0:0:0:0:
232,362,237948,1,2,1:3:0:0:
232,362,238122,1,2,0:3:0:0:
149,318,238297,2,2,L|82:309,1,64.5000024604798,2|2,1:2|0:2,0:2:0:0:
152,224,238646,2,0,L|218:215,1,64.5000024604798,2|2,1:2|0:3,0:0:0:0:
92,151,238994,1,2,1:3:0:0:
92,151,239169,1,2,0:3:0:0:
160,74,239343,2,2,L|168:7,1,64.5000024604798,2|2,1:2|0:2,0:2:0:0:
254,77,239692,1,2,1:2:0:0:
254,77,240041,6,0,B|210:91|210:91|174:89|174:89|153:110|153:110|96:129,1,172,2|0,1:3|1:0,1:0:0:0:
20,314,240739,6,0,L|1:276,2,32.2500012302399,6|0|0,1:2|0:0|0:0,0:0:0:0:
85,384,241088,1,0,1:0:0:0:
194,258,241436,5,0,1:0:0:0:
194,258,241611,1,6,0:2:0:0:
326,384,241960,5,2,0:2:0:0:
374,331,242134,1,2,0:2:0:0:
376,260,242308,1,2,0:2:0:0:
314,224,242483,1,2,0:2:0:0:
314,294,242657,1,2,0:2:0:0:
486,310,243006,6,0,L|510:255,1,43,2|4,0:2|0:2,1:0:0:0:
