osu file format v14

[General]
AudioFilename: audio.mp3
AudioLeadIn: 0
PreviewTime: 170571
Countdown: 1
SampleSet: Soft
StackLeniency: 0.7
Mode: 0
LetterboxInBreaks: 0
WidescreenStoryboard: 1

[Editor]
Bookmarks: 103071,148245,149640,162722,189582,229175
DistanceSpacing: 1.4
BeatDivisor: 4
GridSize: 4
TimelineZoom: 1

[Metadata]
Title:oddloop
TitleUnicode:オドループ
Artist:Frederic
ArtistUnicode:フレデリック
Creator:Komore
Version:hard
Source:山田くんと7人の魔女
Tags:Yamada-kun to 7-nin no Majo Koji Mihara odoru to dance oddl∞p ova full ending ed wajinshu dailycare
BeatmapID:1260680
BeatmapSetID:595899

[Difficulty]
HPDrainRate:5
CircleSize:3.8
OverallDifficulty:6.5
ApproachRate:8
SliderMultiplier:1.2
SliderTickRate:1

[Events]
//Background and Video events
0,0,"countryside-30639-1920x1200.jpg",0,0
Video,-140,"opto.flv"
//Break Periods
2,78731,88944
//Storyboard Layer 0 (Background)
//Storyboard Layer 1 (Fail)
//Storyboard Layer 2 (Pass)
//Storyboard Layer 3 (Foreground)
//Storyboard Sound Samples

[TimingPoints]
392,348.837209302326,4,2,1,60,1,0
22717,-111.111111111111,4,2,1,60,0,0
45043,-100,4,2,1,60,0,1
67368,-100,4,2,1,60,0,0
89694,-111.111111111111,4,2,1,60,0,0
100857,-100,4,2,1,60,0,1
123182,-111.111111111111,4,2,1,60,0,0
148124,-100,4,2,1,60,0,0
170624,-100,4,2,1,60,0,1
190159,-100,4,2,1,60,0,0
192950,-100,4,2,1,60,0,1
220857,-100,4,2,1,60,0,0

[Colours]
Combo1 : 214,171,171
Combo2 : 185,255,185
Combo3 : 255,255,121
Combo4 : 157,206,255

[HitObjects]
72,172,217,5,2,0:0:0:0:
72,172,304,1,2,0:0:0:0:
72,171,392,2,0,P|121:141|178:156,1,120,6|10,0:0|0:0,0:0:0:0:
318,249,1089,2,0,P|322:185|327:129,1,120,2|10,0:0|0:0,0:0:0:0:
370,57,1612,6,0,L|311:51,1,60,2|0,0:0|0:0,0:0:0:0:
231,78,1961,2,0,P|202:74|171:72,1,60,2|8,0:0|0:0,0:0:0:0:
92,101,2310,2,0,P|88:72|84:42,2,60,2|2|2,0:0|0:0|0:0,0:0:0:0:
38,166,2833,1,8,0:0:0:0:
98,238,3008,5,2,0:0:0:0:
98,238,3095,1,2,0:0:0:0:
98,238,3182,2,0,P|157:236|218:234,2,120,2|10|2,0:0|0:0|0:0,0:0:0:0:
5,97,4229,1,8,0:0:0:0:
68,41,4403,6,0,P|84:67|88:96,1,60,2|0,0:0|0:0,0:0:0:0:
47,169,4752,2,0,P|53:199|59:228,1,60,2|8,0:0|0:0,0:0:0:0:
112,294,5101,1,2,0:0:0:0:
58,358,5275,2,0,P|29:353|-1:352,2,60,2|2|8,0:0|0:0|0:0,0:0:0:0:
149,382,5798,5,2,0:0:0:0:
149,382,5886,1,2,0:0:0:0:
149,381,5973,2,0,P|204:361|261:376,1,120,2|10,0:0|0:0,0:0:0:0:
405,288,6671,2,0,P|421:231|406:174,1,120,2|10,0:0|0:0,0:0:0:0:
337,126,7194,6,0,P|340:96|343:66,1,60,2|0,0:0|0:0,0:0:0:0:
271,21,7543,2,0,P|268:51|265:81,1,60,2|8,0:0|0:0,0:0:0:0:
192,122,7892,1,2,0:0:0:0:
115,88,8066,1,2,0:0:0:0:
56,148,8240,2,0,P|59:179|63:212,1,60,2|8,0:0|0:0,0:0:0:0:
24,288,8589,5,2,0:0:0:0:
24,288,8676,1,2,0:0:0:0:
24,287,8764,2,0,P|68:253|126:266,2,120,2|10|2,0:0|0:0|0:0,0:0:0:0:
180,349,9810,1,10,0:0:0:0:
244,295,9985,6,0,P|244:265|238:235,1,60,2|0,0:0|0:0,0:0:0:0:
294,172,10333,2,0,P|286:144|271:118,1,60,2|8,0:0|0:0,0:0:0:0:
199,75,10682,2,0,L|206:7,2,60,2|2|2,0:0|0:0|0:0,0:0:0:0:
129,122,11205,1,8,0:0:0:0:
186,196,11380,5,2,0:0:0:0:
186,196,11467,1,2,0:0:0:0:
186,196,11554,2,0,P|245:192|305:190,1,120,6|10,0:0|0:0,0:0:0:0:
441,91,12252,2,0,P|382:84|323:75,1,120,2|10,0:0|0:0,0:0:0:0:
245,39,12775,6,0,P|218:51|189:56,1,60,2|0,0:0|0:0,0:0:0:0:
110,26,13124,2,0,P|106:57|103:85,1,60,2|8,0:0|0:0,0:0:0:0:
28,124,13473,1,2,0:0:0:0:
28,124,13647,1,2,0:0:0:0:
61,201,13822,2,0,P|89:194|119:191,1,60,2|8,0:0|0:0,0:0:0:0:
194,246,14171,5,2,0:0:0:0:
194,246,14258,1,2,0:0:0:0:
194,246,14345,2,0,B|261:234|243:268|316:255,2,120,2|8|2,0:0|0:0|0:0,0:0:0:0:
70,130,15392,1,10,0:0:0:0:
9,70,15566,6,0,P|34:53|63:45,1,60,2|0,0:0|0:0,0:0:0:0:
145,31,15915,2,0,P|174:37|204:34,1,60,2|8,0:0|0:0,0:0:0:0:
286,14,16264,1,2,0:0:0:0:
354,62,16438,2,0,P|350:91|346:121,1,60,2|2,0:0|0:0,0:0:0:0:
397,188,16787,1,8,0:0:0:0:
330,236,16961,5,2,0:0:0:0:
330,236,17048,1,2,0:0:0:0:
329,235,17136,2,0,P|275:212|218:225,1,120,6|10,0:0|0:0,0:0:0:0:
61,166,17833,2,0,P|118:158|144:107,1,120,2|10,0:0|0:0,0:0:0:0:
195,39,18357,6,0,P|224:34|254:31,1,60,2|0,0:0|0:0,0:0:0:0:
328,69,18705,2,0,P|354:77|387:76,1,60,2|8,0:0|0:0,0:0:0:0:
468,56,19054,1,2,0:0:0:0:
440,135,19229,1,2,0:0:0:0:
492,200,19403,2,0,L|501:259,1,60,2|8,0:0|0:0,0:0:0:0:
436,313,19752,5,2,0:0:0:0:
436,313,19839,1,2,0:0:0:0:
436,313,19926,2,0,L|316:302,2,120,2|10|2,0:0|0:0|0:0,0:0:0:0:
318,191,20973,1,10,0:0:0:0:
256,134,21147,6,0,P|252:106|249:74,2,60,2|0|2,0:0|0:0|0:0,0:0:0:0:
183,177,21671,2,0,P|151:173|121:168,1,60,4|0,1:0|0:0,0:0:0:0:
51,210,22019,2,0,L|54:239,1,30,10|8,0:0|0:0,0:0:0:0:
28,276,22194,2,0,L|23:313,1,30,10|8,0:0|0:0,0:0:0:0:
50,337,22368,2,0,P|79:332|109:331,1,60,8|8,0:0|0:0,0:0:0:0:
189,358,22717,6,0,P|235:335|286:350,1,107.999996704102,6|8,0:0|0:0,0:0:0:0:
356,308,23240,2,0,P|363:255|356:202,1,107.999996704102,2|2,0:0|0:0,0:0:0:0:
307,135,23764,2,0,L|310:81,1,53.9999983520508,8|2,0:0|0:0,0:0:0:0:
373,30,24112,6,0,P|414:52|485:24,2,107.999996704102,4|8|4,3:0|0:0|3:0,0:0:0:0:
295,3,24985,1,2,0:0:0:0:
261,76,25159,2,0,P|263:104|265:129,1,53.9999983520508,8|0,0:0|0:0,0:0:0:0:
222,198,25508,6,0,P|168:190|114:188,1,107.999996704102,2|8,0:0|0:0,0:0:0:0:
41,223,26031,2,0,P|32:164|26:117,1,107.999996704102,2|2,0:0|0:0,0:0:0:0:
66,45,26554,2,0,P|93:42|120:37,1,53.9999983520508,8|2,0:0|0:0,0:0:0:0:
196,11,26903,6,0,P|248:18|303:20,1,107.999996704102,4|8,3:0|0:0,0:0:0:0:
449,92,27601,2,0,P|465:142|456:195,1,107.999996704102,4|8,3:0|0:0,0:0:0:0:
396,250,28124,1,2,0:0:0:0:
326,291,28298,6,0,P|298:285|266:282,1,53.9999983520508,4|2,3:0|0:0,0:0:0:0:
201,244,28647,2,0,P|198:217|195:190,1,53.9999983520508,8|2,0:0|0:0,0:0:0:0:
151,121,28996,2,0,P|153:95|156:68,1,53.9999983520508,4|2,3:0|0:0,0:0:0:0:
224,24,29345,2,0,P|251:19|278:20,1,53.9999983520508,8|2,0:0|0:0,0:0:0:0:
351,50,29694,6,0,P|402:65|450:42,2,107.999996704102,4|8|4,3:0|0:0|3:0,0:0:0:0:
277,19,30566,1,2,0:0:0:0:
216,72,30740,2,0,P|189:65|163:61,1,53.9999983520508,8|2,0:0|0:0,0:0:0:0:
88,29,31089,6,0,P|108:78|101:130,1,107.999996704102,4|8,3:0|0:0,0:0:0:0:
43,187,31612,2,0,P|48:214|53:241,1,53.9999983520508,2|4,0:0|3:0,0:0:0:0:
119,288,31961,2,0,P|114:314|110:341,1,53.9999983520508,2|8,0:0|0:0,0:0:0:0:
34,368,32310,1,2,0:0:0:0:
182,374,32485,6,0,P|209:370|236:368,1,53.9999983520508,4|2,3:0|0:0,0:0:0:0:
302,321,32833,2,0,P|328:327|354:331,1,53.9999983520508,8|0,0:0|3:0,0:0:0:0:
354,331,33095,1,2,3:0:0:0:
354,331,33182,1,6,3:0:0:0:
424,289,33357,1,2,3:0:0:0:
386,216,33531,2,0,P|388:190|391:163,1,53.9999983520508,10|0,0:0|0:0,0:0:0:0:
431,91,33880,6,0,P|383:115|334:97,1,107.999996704102,4|8,3:0|0:0,0:0:0:0:
266,53,34403,2,0,P|257:106|250:159,1,107.999996704102,2|2,0:0|0:0,0:0:0:0:
184,208,34926,2,0,P|187:234|190:261,1,53.9999983520508,8|2,0:0|0:0,0:0:0:0:
245,321,35275,6,0,P|298:313|352:308,2,107.999996704102,4|8|4,3:0|0:0|3:0,0:0:0:0:
173,281,36147,1,2,0:0:0:0:
227,220,36322,2,0,P|229:193|231:166,1,53.9999983520508,8|0,0:0|0:0,0:0:0:0:
173,107,36671,6,0,P|120:118|66:119,1,107.999996704102,4|8,3:0|0:0,0:0:0:0:
20,186,37194,2,0,P|6:237|18:289,1,107.999996704102,2|2,0:0|0:0,0:0:0:0:
86,343,37717,1,8,0:0:0:0:
86,343,37892,1,2,0:0:0:0:
164,356,38066,6,0,P|190:348|217:346,1,53.9999983520508,4|2,3:0|0:0,0:0:0:0:
297,362,38415,2,0,P|298:335|301:308,1,53.9999983520508,8|0,0:0|0:0,0:0:0:0:
356,249,38764,2,0,P|375:199|364:147,1,107.999996704102,4|8,3:0|0:0,0:0:0:0:
304,91,39287,1,2,3:0:0:0:
232,128,39461,6,0,P|178:134|124:134,1,107.999996704102,4|8,3:0|0:0,0:0:0:0:
1,230,40159,1,4,3:0:0:0:
80,245,40333,1,2,0:0:0:0:
137,302,40508,2,0,P|135:328|133:355,1,53.9999983520508,8|2,0:0|0:0,0:0:0:0:
213,368,40857,6,0,P|259:343|312:349,1,107.999996704102,4|8,3:0|0:0,0:0:0:0:
452,268,41554,1,4,3:0:0:0:
394,209,41729,2,0,P|396:183|399:156,1,53.9999983520508,2|10,0:0|0:0,0:0:0:0:
442,88,42078,6,0,P|392:104|346:79,1,107.999996704102,2|2,0:0|0:0,0:0:0:0:
281,31,42601,1,8,0:0:0:0:
226,90,42775,2,0,L|239:197,1,107.999996704102,2|2,0:0|0:0,0:0:0:0:
196,266,43298,1,8,0:0:0:0:
122,300,43473,6,0,P|68:292|14:289,1,107.999996704102,2|2,0:0|0:0,0:0:0:0:
9,208,43996,1,4,1:0:0:0:
72,156,44171,1,0,0:0:0:0:
152,164,44345,2,0,L|178:159,3,26.9999991760254,8|8|8|8,0:0|0:0|0:0|0:0,0:0:0:0:
216,143,44694,2,0,L|242:147,3,26.9999991760254,8|8|8|8,0:0|0:0|0:0|0:0,0:0:0:0:
283,166,45043,6,0,P|337:144|395:155,1,120,4|10,0:0|0:0,0:0:0:0:
460,208,45566,1,2,0:0:0:0:
399,265,45740,2,0,L|403:324,1,60,4|2,3:0|0:0,0:0:0:0:
327,362,46089,2,0,P|299:353|269:349,1,60,10|0,0:0|0:0,0:0:0:0:
190,377,46438,6,0,P|186:347|183:317,1,60,4|2,3:0|0:0,0:0:0:0:
134,247,46787,2,0,P|137:218|140:188,1,60,10|0,0:0|0:0,0:0:0:0:
199,128,47136,2,0,P|228:117|257:117,1,60,4|0,3:0|0:0,0:0:0:0:
337,146,47485,1,10,0:0:0:0:
310,225,47659,1,0,0:0:0:0:
359,291,47833,6,0,P|408:260|464:275,1,120,4|8,3:0|0:0,0:0:0:0:
508,203,48357,1,2,0:0:0:0:
455,137,48531,2,0,L|461:77,1,60,4|2,3:0|0:0,0:0:0:0:
411,16,48880,1,8,0:0:0:0:
411,16,49054,1,0,0:0:0:0:
335,54,49229,6,0,P|305:50|275:46,1,60,4|2,3:0|0:0,0:0:0:0:
204,91,49578,2,0,P|175:99|144:98,1,60,10|2,0:0|0:0,0:0:0:0:
66,69,49926,2,0,P|69:38|71:9,1,60,4|0,3:0|0:0,0:0:0:0:
0,123,50275,2,0,P|2:152|5:182,1,60,8|0,0:0|0:0,0:0:0:0:
78,223,50624,6,0,P|137:217|197:214,1,120,4|8,3:0|0:0,0:0:0:0:
257,153,51147,2,0,P|273:97|248:44,1,120,2|2,0:0|0:0,0:0:0:0:
164,44,51671,2,0,L|169:103,1,60,8|0,0:0|0:0,0:0:0:0:
117,170,52019,5,4,3:0:0:0:
77,244,52194,1,2,0:0:0:0:
118,316,52368,2,0,P|146:306|175:304,1,60,10|0,0:0|0:0,0:0:0:0:
258,323,52717,2,0,L|262:262,1,60,4|0,3:0|0:0,0:0:0:0:
304,190,53066,2,0,P|303:161|300:129,1,60,8|0,0:0|0:0,0:0:0:0:
264,53,53415,6,0,P|318:72|371:48,1,120,4|8,3:0|0:0,0:0:0:0:
445,7,53938,1,2,0:0:0:0:
493,75,54112,2,0,L|483:134,1,60,0|2,0:0|0:0,0:0:0:0:
434,202,54461,2,0,L|443:261,1,60,8|0,0:0|0:0,0:0:0:0:
474,339,54810,5,4,3:0:0:0:
398,376,54985,1,2,0:0:0:0:
315,362,55159,1,10,0:0:0:0:
269,291,55333,1,2,0:0:0:0:
248,209,55508,2,0,P|252:178|257:145,1,60,4|2,3:0|0:0,0:0:0:0:
296,75,55857,2,0,P|292:45|287:15,1,60,10|2,0:0|0:0,0:0:0:0:
209,47,56205,6,0,P|179:54|149:56,1,60,4|0,1:0|0:0,0:0:0:0:
73,90,56554,2,0,P|76:120|80:150,1,60,8|0,0:0|0:0,0:0:0:0:
29,217,56903,2,0,P|24:247|29:277,1,60,4|0,3:0|0:0,0:0:0:0:
82,341,57252,2,0,P|111:332|141:331,1,60,8|0,0:0|0:0,0:0:0:0:
221,357,57601,5,4,3:0:0:0:
295,318,57775,1,2,0:0:0:0:
241,252,57950,2,0,L|245:192,1,60,10|2,0:0|0:0,0:0:0:0:
307,135,58298,2,0,P|332:125|378:124,1,60,4|0,3:0|0:0,0:0:0:0:
442,156,58647,1,10,0:0:0:0:
510,107,58822,1,0,0:0:0:0:
458,40,58996,6,0,P|399:37|339:31,1,120,4|8,3:0|0:0,0:0:0:0:
266,75,59519,2,0,P|214:49|156:58,1,120,2|2,0:0|0:0,0:0:0:0:
78,92,60043,2,0,P|73:62|69:32,1,60,10|0,0:0|0:0,0:0:0:0:
21,182,60392,6,0,P|49:173|79:172,1,60,4|2,3:0|0:0,0:0:0:0:
158,200,60740,2,0,P|155:229|151:259,1,60,10|0,0:0|0:0,0:0:0:0:
206,323,61089,1,4,3:0:0:0:
288,341,61264,1,0,0:0:0:0:
362,305,61438,2,0,P|392:299|422:298,1,60,10|0,0:0|0:0,0:0:0:0:
482,238,61787,6,0,P|498:182|474:128,1,120,4|8,0:0|0:0,0:0:0:0:
396,95,62310,2,0,B|329:83|347:117|274:104,1,120,2|2,0:0|0:0,0:0:0:0:
208,69,62833,1,10,0:0:0:0:
208,69,63008,1,2,0:0:0:0:
146,124,63182,6,0,P|147:154|150:184,1,60,4|0,3:0|0:0,0:0:0:0:
198,254,63531,2,0,P|196:283|193:313,1,60,10|0,0:0|0:0,0:0:0:0:
128,367,63880,2,0,P|180:341|239:349,1,120,4|8,3:0|0:0,0:0:0:0:
319,376,64403,1,0,0:0:0:0:
388,327,64578,6,0,P|391:267|395:207,1,120,4|8,3:0|0:0,0:0:0:0:
436,133,65101,1,0,0:0:0:0:
370,79,65275,2,0,P|315:96|264:67,1,120,4|4,3:0|3:0,0:0:0:0:
198,15,65798,1,4,0:0:0:0:
131,66,65973,6,0,P|100:58|59:56,1,60,2|0,0:0|0:0,0:0:0:0:
13,116,66322,2,0,P|16:145|19:175,1,60,8|0,0:0|0:0,0:0:0:0:
78,236,66671,2,0,P|74:265|71:295,1,60,2|0,0:0|0:0,0:0:0:0:
15,358,67019,1,8,0:0:0:0:
105,383,67194,5,10,0:0:0:0:
105,383,67281,1,10,0:0:0:0:
105,383,67368,2,0,P|164:380|224:378,1,120,2|10,0:0|0:0,0:0:0:0:
382,317,68066,2,0,P|395:260|373:205,1,120,2|10,0:0|0:0,0:0:0:0:
304,157,68589,6,0,P|306:127|308:97,1,60,2|0,0:0|0:0,0:0:0:0:
231,63,68938,2,0,P|228:92|226:122,1,60,2|8,0:0|0:0,0:0:0:0:
154,167,69287,1,2,0:0:0:0:
78,130,69461,2,0,P|48:123|18:123,2,60,2|2|8,0:0|0:0|0:0,0:0:0:0:
143,75,69985,5,2,0:0:0:0:
143,75,70072,1,2,0:0:0:0:
143,75,70159,2,0,P|200:79|240:37,2,120,2|10|2,0:0|0:0|0:0,0:0:0:0:
10,178,71205,1,8,0:0:0:0:
76,229,71380,6,0,P|103:223|135:222,1,60,2|0,0:0|0:0,0:0:0:0:
215,247,71729,2,0,L|210:306,1,60,2|8,0:0|0:0,0:0:0:0:
281,362,72078,1,2,0:0:0:0:
281,362,72252,1,2,0:0:0:0:
353,319,72426,2,0,L|348:241,1,60,2|8,0:0|0:0,0:0:0:0:
287,201,72775,5,6,0:0:0:0:
287,201,72862,1,2,0:0:0:0:
287,201,72950,2,0,B|220:189|238:223|165:210,1,120,2|10,0:0|0:0,0:0:0:0:
43,99,73647,2,0,P|51:158|58:217,1,120,2|10,0:0|0:0,0:0:0:0:
24,294,74171,6,0,P|56:301|82:312,1,60,2|0,0:0|0:0,0:0:0:0:
157,274,74519,2,0,P|187:271|219:270,1,60,2|8,0:0|0:0,0:0:0:0:
294,238,74868,1,2,0:0:0:0:
357,293,75043,1,2,0:0:0:0:
423,243,75217,2,0,P|430:209|421:170,1,60,2|8,0:0|0:0,0:0:0:0:
372,119,75566,5,2,0:0:0:0:
372,119,75653,1,2,0:0:0:0:
371,119,75740,2,0,L|381:0,2,120,2|10|2,0:0|0:0|0:0,0:0:0:0:
418,280,76787,1,10,0:0:0:0:
343,318,76961,6,0,P|312:313|283:310,1,60,2|0,0:0|0:0,0:0:0:0:
206,275,77310,2,0,P|202:244|197:215,1,60,2|8,0:0|0:0,0:0:0:0:
159,141,77659,1,10,0:0:0:0:
159,141,77746,1,8,0:0:0:0:
159,141,77833,5,4,3:0:0:0:
244,148,78008,1,8,3:0:0:0:
318,110,78182,1,4,3:0:0:0:
335,27,78357,1,8,3:0:0:0:
407,113,78531,5,4,0:0:0:0:
91,37,89694,6,0,P|118:32|145:31,1,53.9999983520508,6|0,0:0|0:0,0:0:0:0:
216,70,90043,1,8,0:0:0:0:
91,174,90392,2,0,P|94:201|97:228,1,53.9999983520508,2|0,0:0|0:0,0:0:0:0:
147,290,90740,2,0,P|145:316|142:343,1,53.9999983520508,10|0,0:0|0:0,0:0:0:0:
216,373,91089,6,0,P|263:347|315:357,2,107.999996704102,2|10|2,0:0|0:0|0:0,0:0:0:0:
141,343,91961,1,2,0:0:0:0:
111,267,92136,1,8,0:0:0:0:
156,200,92310,1,2,0:0:0:0:
237,203,92485,6,0,P|290:206|344:202,1,107.999996704102,2|10,0:0|0:0,0:0:0:0:
420,232,93008,2,0,P|417:258|414:285,1,53.9999983520508,2|0,0:0|0:0,0:0:0:0:
492,197,93357,2,0,P|489:170|484:143,1,53.9999983520508,2|8,0:0|0:0,0:0:0:0:
433,81,93705,1,2,0:0:0:0:
358,113,93880,6,0,P|331:110|304:106,1,53.9999983520508,2|0,0:0|0:0,0:0:0:0:
235,62,94229,2,0,P|188:88|137:76,1,107.999996704102,10|2,0:0|0:0,0:0:0:0:
100,58,94665,1,0,0:0:0:0:
100,58,94752,2,0,L|102:31,2,26.9999991760254,0|0|10,0:0|0:0|0:0,0:0:0:0:
41,113,95101,1,0,0:0:0:0:
41,113,95188,1,0,0:0:0:0:
41,113,95275,6,0,P|48:166|54:220,1,107.999996704102,4|8,0:0|0:0,0:0:0:0:
127,255,95798,2,0,P|168:222|221:227,1,107.999996704102,2|0,0:0|0:0,0:0:0:0:
290,183,96322,2,0,P|292:156|294:129,1,53.9999983520508,10|0,0:0|0:0,0:0:0:0:
343,64,96671,5,2,0:0:0:0:
266,38,96845,1,2,0:0:0:0:
188,60,97019,2,0,P|161:55|134:50,1,53.9999983520508,10|0,0:0|0:0,0:0:0:0:
56,70,97368,1,2,0:0:0:0:
6,134,97543,1,2,0:0:0:0:
2,214,97717,2,0,P|6:243|11:267,1,53.9999983520508,10|0,0:0|0:0,0:0:0:0:
70,329,98066,5,2,0:0:0:0:
138,371,98240,1,0,0:0:0:0:
205,327,98415,2,0,P|235:328|259:335,1,53.9999983520508,10|2,0:0|0:0,0:0:0:0:
325,287,98764,2,0,L|318:233,1,53.9999983520508,2|2,0:0|0:0,0:0:0:0:
359,163,99112,2,0,L|365:109,1,53.9999983520508,10|2,0:0|0:0,0:0:0:0:
305,55,99461,6,0,P|278:49|251:49,1,53.9999983520508,2|2,0:0|0:0,0:0:0:0:
175,83,99810,2,0,P|148:83|121:85,1,53.9999983520508,10|2,0:0|0:0,0:0:0:0:
53,130,100159,2,0,L|57:156,3,26.9999991760254,8|8|8|8,0:0|0:0|0:0|0:0,0:0:0:0:
41,194,100508,2,0,L|35:220,3,26.9999991760254,8|8|8|8,0:0|0:0|0:0|0:0,0:0:0:0:
39,262,100857,6,0,P|95:243|152:258,1,120,4|10,0:0|0:0,0:0:0:0:
227,296,101380,2,0,P|231:237|220:178,1,120,2|2,0:0|0:0,0:0:0:0:
174,106,101903,1,10,0:0:0:0:
203,26,102078,1,0,0:0:0:0:
284,36,102252,6,0,P|314:36|343:28,1,60,4|2,3:0|0:0,0:0:0:0:
426,9,102601,2,0,P|421:39|417:69,1,60,10|0,0:0|0:0,0:0:0:0:
470,134,102950,2,0,P|476:163|478:193,1,60,4|0,3:0|0:0,0:0:0:0:
426,258,103298,2,0,P|397:253|367:249,1,60,10|0,0:0|0:0,0:0:0:0:
292,209,103647,6,0,P|237:228|179:214,1,120,4|8,3:0|0:0,0:0:0:0:
112,162,104171,1,2,0:0:0:0:
52,221,104345,2,0,P|57:253|62:283,1,60,4|2,3:0|0:0,0:0:0:0:
131,325,104694,2,0,P|158:311|188:309,1,60,8|0,0:0|0:0,0:0:0:0:
266,340,105043,5,4,3:0:0:0:
347,360,105217,1,2,0:0:0:0:
419,316,105392,2,0,P|422:286|426:256,1,60,10|2,0:0|0:0,0:0:0:0:
384,183,105740,2,0,P|380:153|375:123,1,60,4|0,3:0|0:0,0:0:0:0:
420,52,106089,1,8,0:0:0:0:
420,52,106264,1,0,0:0:0:0:
338,30,106438,6,0,B|271:18|289:52|216:39,1,120,4|8,0:0|0:0,0:0:0:0:
138,21,106961,2,0,P|146:75|155:146,1,120,2|2,0:0|0:0,0:0:0:0:
86,191,107485,2,0,P|57:185|27:182,1,60,8|0,0:0|0:0,0:0:0:0:
151,253,107833,6,0,P|180:246|210:243,1,60,4|2,3:0|0:0,0:0:0:0:
285,280,108182,2,0,P|280:311|277:339,1,60,10|0,0:0|0:0,0:0:0:0:
352,379,108531,2,0,P|357:351|359:319,1,60,4|0,3:0|0:0,0:0:0:0:
414,255,108880,2,0,P|410:224|400:196,1,60,8|0,0:0|0:0,0:0:0:0:
338,139,109229,6,0,P|395:147|441:110,1,120,4|8,3:3|0:0,0:0:0:0:
501,51,109752,1,2,0:0:0:0:
422,22,109926,2,0,P|392:24|362:28,1,60,4|2,3:0|0:0,0:0:0:0:
282,55,110275,2,0,P|252:60|223:54,1,60,8|0,0:0|0:0,0:0:0:0:
141,35,110624,5,4,3:0:0:0:
118,115,110798,1,2,0:0:0:0:
153,191,110973,1,10,0:0:0:0:
125,270,111147,1,2,0:0:0:0:
173,338,111322,2,0,P|203:331|233:328,1,60,4|2,3:0|0:0,0:0:0:0:
304,284,111671,2,0,P|334:288|364:288,1,60,10|2,0:0|0:0,0:0:0:0:
439,250,112019,6,0,P|470:299|461:357,2,120,4|8|4,0:0|0:0|3:0,0:0:0:0:
377,191,112892,1,0,0:0:0:0:
307,237,113066,2,0,P|277:231|247:228,1,60,8|0,0:0|0:0,0:0:0:0:
173,187,113415,5,4,3:0:0:0:
173,187,113589,1,2,0:0:0:0:
91,210,113764,1,10,0:0:0:0:
91,210,113938,1,2,0:0:0:0:
15,169,114112,2,0,P|12:140|16:110,1,60,4|0,3:0|0:0,0:0:0:0:
59,38,114461,2,0,P|106:46|127:45,1,60,10|0,0:0|0:0,0:0:0:0:
198,21,114810,6,0,P|191:80|198:142,1,120,4|8,3:0|0:0,0:0:0:0:
268,184,115333,2,0,P|315:150|373:158,1,120,2|2,0:0|0:0,0:0:0:0:
439,210,115857,2,0,P|435:240|432:270,1,60,10|0,0:0|0:0,0:0:0:0:
444,351,116205,6,0,P|416:344|386:340,1,60,4|2,3:0|0:0,0:0:0:0:
316,291,116554,2,0,P|289:302|259:307,1,60,10|0,0:0|0:0,0:0:0:0:
186,266,116903,1,4,3:0:0:0:
146,191,117078,1,0,0:0:0:0:
190,119,117252,2,0,L|194:59,1,60,10|0,0:0|0:0,0:0:0:0:
271,24,117601,6,0,P|329:35|389:39,1,120,4|8,0:0|0:0,0:0:0:0:
467,8,118124,2,0,P|430:52|441:109,1,120,2|2,0:0|0:0,0:0:0:0:
493,175,118647,1,10,0:0:0:0:
430,232,118822,1,2,0:0:0:0:
352,201,118996,6,0,P|322:197|292:196,1,60,4|0,3:0|0:0,0:0:0:0:
215,230,119345,2,0,P|219:260|222:290,1,60,10|0,0:0|0:0,0:0:0:0:
157,344,119694,2,0,P|102:360|52:330,1,120,4|8,3:0|0:0,0:0:0:0:
16,254,120217,1,0,0:0:0:0:
69,188,120392,6,0,B|136:176|118:210|191:197,1,120,4|8,3:0|0:0,0:0:0:0:
255,148,120915,1,0,0:0:0:0:
327,189,121089,2,0,P|351:242|335:299,1,120,4|4,3:0|3:0,0:0:0:0:
278,361,121612,1,2,0:0:0:0:
360,376,121787,6,0,P|389:371|419:368,1,60,2|0,0:0|0:0,0:0:0:0:
489,323,122136,2,0,P|492:293|490:263,1,60,8|0,0:0|0:0,0:0:0:0:
441,194,122485,2,0,P|438:164|440:134,1,60,2|0,0:0|0:0,0:0:0:0:
483,62,122833,1,8,0:0:0:0:
483,62,123008,1,2,0:0:0:0:
408,31,123182,6,0,P|354:38|300:38,1,107.999996704102,2|10,0:0|0:0,0:0:0:0:
178,145,123880,1,2,0:0:0:0:
234,201,124054,2,0,P|231:228|228:255,2,53.9999983520508,4|10|0,3:0|0:0|0:0,0:0:0:0:
294,146,124578,6,0,P|345:132|396:147,1,107.999996704102,2|10,0:0|0:0,0:0:0:0:
462,196,125101,2,0,P|454:247|446:302,1,107.999996704102,2|4,0:0|3:0,0:0:0:0:
486,373,125624,1,10,0:0:0:0:
332,319,125973,5,4,0:3:0:0:
262,277,126147,2,0,P|258:248|254:223,2,53.9999983520508,2|0|2,0:0|0:0|0:0,0:0:0:0:
208,338,126671,2,0,P|154:329|101:321,1,107.999996704102,2|10,0:0|0:0,0:0:0:0:
41,266,127194,1,0,0:0:0:0:
76,193,127368,6,0,P|125:209|173:186,1,107.999996704102,2|10,0:0|0:0,0:0:0:0:
251,209,127892,2,0,P|297:183|350:188,1,107.999996704102,2|4,0:0|3:0,0:0:0:0:
416,235,128415,1,10,0:0:0:0:
481,187,128589,1,0,0:0:0:0:
481,187,128764,6,0,P|478:133|473:79,1,107.999996704102,2|10,0:0|0:0,0:0:0:0:
411,27,129287,2,0,P|358:27|326:68,1,107.999996704102,2|4,0:0|3:0,0:0:0:0:
341,148,129810,1,10,0:0:0:0:
283,205,129985,1,0,0:0:0:0:
283,205,130159,6,0,P|229:198|175:194,1,107.999996704102,2|10,0:0|0:0,0:0:0:0:
106,149,130682,2,0,P|90:99|107:48,1,107.999996704102,2|4,0:0|3:0,0:0:0:0:
181,15,131205,1,10,0:0:0:0:
333,71,131554,5,2,0:0:0:0:
394,121,131729,2,0,P|392:148|387:175,1,53.9999983520508,2|10,0:0|0:0,0:0:0:0:
335,237,132078,2,0,P|338:264|343:291,1,53.9999983520508,2|2,0:0|0:0,0:0:0:0:
401,347,132426,1,4,3:0:0:0:
322,369,132601,2,0,P|295:363|268:363,1,53.9999983520508,10|2,0:0|0:0,0:0:0:0:
198,320,132950,6,0,P|145:332|91:326,1,107.999996704102,2|10,0:0|0:0,0:0:0:0:
32,285,133473,1,0,0:0:0:0:
32,285,133560,1,0,0:0:0:0:
32,285,133647,2,0,L|3:279,2,26.9999991760254,2|0|0,0:0|0:0|0:0,0:0:0:0:
98,237,133996,2,0,P|125:230|151:226,1,53.9999983520508,8|0,0:0|0:0,0:0:0:0:
221,265,134345,6,0,P|225:290|229:318,1,53.9999983520508,2|0,0:0|0:0,0:0:0:0:
300,356,134694,2,0,L|353:349,1,53.9999983520508,10|0,0:0|0:0,0:0:0:0:
431,371,135043,1,2,0:0:0:0:
490,316,135217,2,0,P|495:289|499:262,2,53.9999983520508,4|10|0,3:0|0:0|0:0,0:0:0:0:
431,371,135740,6,0,P|390:337|337:332,1,107.999996704102,2|10,0:0|0:0,0:0:0:0:
263,366,136264,2,0,P|258:312|252:258,1,107.999996704102,2|4,0:0|3:0,0:0:0:0:
221,183,136787,1,10,0:0:0:0:
325,60,137136,5,4,0:3:0:0:
392,104,137310,2,0,P|418:98|444:92,2,53.9999983520508,2|8|2,0:0|0:0|0:0,0:0:0:0:
341,167,137833,2,0,P|290:153|237:161,1,107.999996704102,2|10,0:0|0:0,0:0:0:0:
162,193,138357,1,0,0:0:0:0:
95,147,138531,6,0,P|92:122|89:93,2,53.9999983520508,2|0|10,0:0|0:0|0:0,0:0:0:0:
47,213,139054,2,0,P|34:264|44:317,1,107.999996704102,2|4,0:0|3:0,0:0:0:0:
107,369,139578,1,10,0:0:0:0:
107,369,139752,1,0,0:0:0:0:
181,341,139926,5,6,0:0:0:0:
258,364,140101,2,0,P|288:361|315:360,2,53.9999983520508,0|10|2,0:0|0:0|0:0,0:0:0:0:
181,341,140624,2,0,P|177:314|177:287,1,53.9999983520508,2|4,0:0|3:0,0:0:0:0:
232,227,140973,2,0,P|235:200|235:173,1,53.9999983520508,10|0,0:0|0:0,0:0:0:0:
198,100,141322,6,0,P|144:105|90:109,1,107.999996704102,2|10,0:0|0:0,0:0:0:0:
24,256,142019,2,0,P|77:250|131:246,1,107.999996704102,2|10,0:0|0:0,0:0:0:0:
205,281,142543,1,0,0:0:0:0:
271,326,142717,6,0,P|323:338|370:314,1,107.999996704102,6|8,0:0|0:0,0:0:0:0:
428,259,143240,1,2,0:0:0:0:
386,189,143415,2,0,L|377:81,1,107.999996704102,2|8,0:0|0:0,0:0:0:0:
237,163,144112,6,0,L|245:270,1,107.999996704102,2|8,0:0|0:0,0:0:0:0:
199,337,144636,1,2,0:0:0:0:
134,286,144810,2,0,P|89:259|36:262,1,107.999996704102,2|8,0:0|0:0,0:0:0:0:
9,102,145508,6,0,P|36:98|63:94,1,53.9999983520508,4|0,0:0|0:0,0:0:0:0:
136,129,145857,2,0,P|162:125|189:121,1,53.9999983520508,8|0,0:0|0:0,0:0:0:0:
262,157,146205,1,0,0:0:0:0:
295,231,146380,1,4,3:0:0:0:
235,285,146554,2,0,P|208:280|181:277,1,53.9999983520508,8|0,0:0|0:0,0:0:0:0:
116,228,146903,5,4,0:0:0:0:
35,237,147078,1,0,0:0:0:0:
31,139,147252,5,4,0:0:0:0:
112,148,147427,1,0,0:0:0:0:
114,50,147601,5,0,1:0:0:0:
33,59,147776,1,0,0:0:0:0:
33,59,147862,1,8,0:0:0:0:
33,59,147950,1,8,0:0:0:0:
112,148,148124,6,0,L|141:144,2,30,10|2|4,0:0|0:0|0:0,0:0:0:0:
37,188,148473,2,0,L|7:184,2,30,2|2|8,0:0|0:0|0:0,0:0:0:0:
106,236,148822,2,0,L|135:232,2,30,2|2|4,0:0|0:0|3:0,0:0:0:0:
33,279,149171,2,0,L|3:275,2,30,2|2|8,0:0|0:0|0:0,0:0:0:0:
100,328,149519,2,0,L|129:324,1,30,2|2,0:0|0:0,0:0:0:0:
167,305,149694,5,4,3:0:0:0:
238,348,149868,1,2,0:0:0:0:
318,323,150043,2,0,P|326:283|333:255,1,60,10|2,0:0|0:0,0:0:0:0:
354,183,150392,1,2,0:0:0:0:
329,160,150740,6,0,L|334:115,1,30,10|0,0:0|0:0,0:0:0:0:
253,106,150915,2,0,L|248:143,1,30,2|0,0:0|0:0,0:0:0:0:
172,190,151089,6,0,L|177:241,3,30,2|0|2|0,0:0|0:0|0:0|0:0,0:0:0:0:
201,253,151438,2,0,L|198:282,3,30,10|0|2|0,0:0|0:0|0:0|0:0,0:0:0:0:
174,317,151787,1,2,0:0:0:0:
260,361,151961,1,2,0:0:0:0:
260,361,152048,1,0,0:0:0:0:
260,361,152136,1,10,0:0:0:0:
338,317,152310,6,0,P|366:305|396:303,1,60,2|0,0:0|0:0,0:0:0:0:
474,273,152659,1,2,0:0:0:0:
448,193,152833,2,0,L|439:133,1,60,10|2,0:0|0:0,0:0:0:0:
415,98,153095,1,0,0:0:0:0:
415,98,153182,2,0,P|417:68|422:38,1,60,2|4,0:0|3:0,0:0:0:0:
498,3,153531,1,8,0:0:0:0:
335,37,153705,6,0,B|268:25|286:59|213:46,1,120,6|2,0:0|0:0,0:0:0:0:
133,32,154229,2,0,P|137:62|141:92,1,60,10|2,0:0|0:0,0:0:0:0:
90,159,154578,1,2,0:0:0:0:
144,221,154752,2,0,P|174:215|204:213,1,60,2|10,0:0|0:0,0:0:0:0:
271,162,155101,6,0,P|329:173|389:175,1,120,2|2,0:0|0:0,0:0:0:0:
457,125,155624,1,2,0:0:0:0:
511,202,155798,1,2,0:0:0:0:
511,202,155886,1,0,0:0:0:0:
511,202,155973,2,0,L|505:261,1,60,2|2,0:0|0:0,0:0:0:0:
448,324,156322,1,10,0:0:0:0:
368,298,156496,1,2,0:0:0:0:
295,340,156671,6,0,L|298:369,2,30,2|2|2,0:0|0:0|0:0,0:0:0:0:
234,281,157019,2,0,L|237:251,2,30,10|2|2,0:0|0:0|0:0,0:0:0:0:
161,324,157368,5,2,0:0:0:0:
96,269,157543,2,0,L|105:193,1,60,2|10,0:0|0:0,0:0:0:0:
169,156,157892,5,2,0:0:0:0:
105,101,158066,2,0,P|75:105|40:111,1,60,2|2,0:0|0:0,0:0:0:0:
185,67,158415,6,0,L|181:34,3,30,10|0|2|0,0:0|0:0|0:0|0:0,0:0:0:0:
219,19,158764,2,0,P|255:16|293:13,1,60,2|0,0:0|0:0,0:0:0:0:
346,62,159112,1,10,0:0:0:0:
394,130,159287,6,0,P|389:191|385:249,1,120,4|2,0:0|0:0,0:0:0:0:
447,321,159810,1,10,0:0:0:0:
447,321,159897,1,2,0:0:0:0:
447,321,159985,1,2,0:0:0:0:
380,375,160159,2,0,P|340:368|306:370,1,60,2|2,0:0|0:0,0:0:0:0:
237,381,160508,1,10,0:0:0:0:
158,351,160682,6,0,P|140:296|163:242,1,120,2|2,0:0|0:0,0:0:0:0:
212,172,161205,2,0,P|208:138|204:107,1,60,10|2,0:0|0:0,0:0:0:0:
174,33,161554,1,2,0:0:0:0:
255,53,161729,1,2,0:0:0:0:
335,29,161903,2,0,L|332:0,2,30,8|2|2,0:0|0:0|0:0,0:0:0:0:
407,72,162252,6,0,P|436:67|466:63,1,60,2|2,0:0|0:0,0:0:0:0:
486,144,162601,2,0,P|456:148|426:152,1,60,10|2,0:0|0:0,0:0:0:0:
343,137,162950,1,2,0:0:0:0:
311,214,163124,2,0,P|308:243|306:273,1,60,2|10,0:0|0:0,0:0:0:0:
338,351,163473,1,2,0:0:0:0:
255,367,163647,6,0,P|200:362|135:367,1,120,2|10,0:0|0:0,0:0:0:0:
75,303,164171,2,0,P|70:234|61:179,1,120,2|2,0:0|0:0,0:0:0:0:
31,105,164694,1,10,0:0:0:0:
206,146,164868,6,0,P|244:146|280:138,1,60,4|0,0:0|0:0,0:0:0:0:
340,100,165217,1,2,0:0:0:0:
412,142,165392,2,0,P|436:195|421:252,1,120,10|2,0:0|0:0,0:0:0:0:
355,304,165915,2,0,P|301:293|287:293,1,60,2|10,0:0|0:0,0:0:0:0:
214,313,166264,6,0,P|208:253|201:193,1,120,2|0,0:0|0:0,0:0:0:0:
159,119,166787,2,0,P|143:63|171:11,1,120,8|2,0:0|0:0,0:0:0:0:
253,29,167310,1,2,0:0:0:0:
336,17,167485,1,10,0:0:0:0:
411,53,167659,6,0,L|399:172,1,120,2|2,0:0|0:0,0:0:0:0:
399,172,168095,1,2,0:0:0:0:
399,172,168182,1,10,0:0:0:0:
343,236,168357,1,2,0:0:0:0:
273,189,168531,2,0,L|269:159,2,30,2|2|2,0:0|0:0|0:0,0:0:0:0:
204,238,168880,2,0,P|175:233|145:233,1,60,14|2,0:0|0:0,0:0:0:0:
74,187,169229,6,0,L|69:157,3,30,10|8|10|8,0:0|0:0|0:0|0:0,0:0:0:0:
85,118,169578,2,0,L|89:88,3,30,10|8|10|8,0:0|0:0|0:0|0:0,0:0:0:0:
117,56,169926,2,0,L|157:50,1,30,8|8,0:0|0:0,0:0:0:0:
185,66,170101,2,0,L|214:61,1,30,10|8,0:0|0:0,0:0:0:0:
252,42,170275,2,0,P|282:46|312:47,1,60,8|10,0:0|0:0,0:0:0:0:
393,26,170624,6,0,P|383:84|386:144,1,120,4|10,0:0|0:0,0:0:0:0:
421,221,171147,2,0,P|419:253|416:284,1,60,2|0,0:0|0:0,0:0:0:0:
367,349,171496,1,2,0:0:0:0:
284,329,171671,2,0,P|247:316|204:318,1,60,10|0,0:0|0:0,0:0:0:0:
148,286,172019,6,0,P|143:256|140:226,1,60,4|2,3:0|0:0,0:0:0:0:
93,156,172368,2,0,P|101:126|111:98,1,60,10|0,0:0|0:0,0:0:0:0:
170,39,172717,1,4,3:0:0:0:
170,39,172892,1,0,0:0:0:0:
247,70,173066,1,10,0:0:0:0:
247,70,173240,1,0,0:0:0:0:
323,34,173415,6,0,P|352:29|382:27,1,60,4|0,3:0|0:0,0:0:0:0:
459,60,173764,1,8,0:0:0:0:
497,134,173938,1,2,0:0:0:0:
448,202,174112,2,0,P|445:231|444:261,1,60,4|2,3:0|0:0,0:0:0:0:
464,342,174461,2,0,P|436:334|406:330,1,60,8|0,0:0|0:0,0:0:0:0:
324,351,174810,5,4,3:0:0:0:
242,372,174985,1,2,0:0:0:0:
169,328,175159,2,0,P|163:299|164:269,1,60,10|2,0:0|0:0,0:0:0:0:
212,200,175508,2,0,P|214:169|212:140,1,60,4|0,3:0|0:0,0:0:0:0:
159,74,175857,1,8,0:0:0:0:
80,102,176031,1,0,0:0:0:0:
44,178,176205,6,0,P|49:237|55:297,1,120,4|8,0:0|0:0,0:0:0:0:
116,355,176729,2,0,P|159:316|217:317,1,120,2|2,0:0|0:0,0:0:0:0:
290,359,177252,2,0,L|349:352,1,60,8|0,0:0|0:0,0:0:0:0:
432,369,177601,5,4,3:0:0:0:
496,315,177775,1,2,0:0:0:0:
504,230,177950,2,0,P|499:201|492:172,1,60,10|0,0:0|0:0,0:0:0:0:
428,117,178298,1,4,3:0:0:0:
344,108,178473,1,0,0:0:0:0:
272,151,178647,2,0,P|241:145|213:139,1,60,8|0,0:0|0:0,0:0:0:0:
146,88,178996,6,0,P|92:67|41:95,1,120,4|8,3:0|0:0,0:0:0:0:
2,169,179519,2,0,P|5:199|10:229,1,60,2|4,0:0|3:0,0:0:0:0:
49,302,179868,1,2,0:0:0:0:
128,329,180043,2,0,P|152:322|187:318,1,60,8|0,0:0|0:0,0:0:0:0:
251,263,180392,5,4,3:0:0:0:
230,182,180566,1,2,0:0:0:0:
273,109,180740,1,10,0:0:0:0:
354,88,180915,1,2,0:0:0:0:
427,131,181089,1,4,3:0:0:0:
447,213,181264,1,2,0:0:0:0:
405,285,181438,1,10,0:0:0:0:
323,305,181612,1,2,0:0:0:0:
250,263,181787,6,0,P|191:268|132:278,1,120,4|8,0:0|0:0,0:0:0:0:
52,250,182310,1,0,0:0:0:0:
92,175,182485,2,0,P|86:145|80:116,1,60,4|0,3:0|0:0,0:0:0:0:
106,36,182833,2,0,P|135:26|165:22,1,60,8|0,0:0|0:0,0:0:0:0:
239,59,183182,5,4,3:0:0:0:
318,31,183357,1,2,0:0:0:0:
396,60,183531,1,10,0:0:0:0:
477,39,183705,1,2,0:0:0:0:
508,117,183880,2,0,P|506:144|500:176,1,60,4|0,3:0|0:0,0:0:0:0:
443,238,184229,2,0,P|413:231|384:227,1,60,10|0,0:0|0:0,0:0:0:0:
303,203,184578,6,0,P|243:212|183:213,1,120,4|8,3:0|0:0,0:0:0:0:
111,169,185101,2,0,P|133:220|126:287,1,120,2|2,0:0|0:0,0:0:0:0:
70,344,185624,1,10,0:0:0:0:
144,381,185798,1,0,0:0:0:0:
221,345,185973,6,0,P|249:337|279:333,1,60,4|2,3:0|0:0,0:0:0:0:
362,349,186322,2,0,P|363:319|365:289,1,60,10|0,0:0|0:0,0:0:0:0:
406,215,186671,1,4,3:0:0:0:
381,134,186845,1,0,0:0:0:0:
308,90,187019,2,0,P|279:83|248:82,1,60,10|0,0:0|0:0,0:0:0:0:
177,125,187368,6,0,B|110:113|128:147|55:134,1,120,4|8,0:0|0:0,0:0:0:0:
3,198,187892,2,0,P|9:254|16:317,1,120,2|2,0:0|0:0,0:0:0:0:
90,354,188415,2,0,P|120:347|150:347,1,60,10|2,0:0|0:0,0:0:0:0:
232,364,188764,6,0,P|226:331|223:304,1,60,4|0,3:0|0:0,0:0:0:0:
269,234,189112,2,0,P|276:181|274:158,1,60,10|0,0:0|0:0,0:0:0:0:
241,97,189461,2,0,P|298:110|352:88,1,120,4|8,3:0|0:0,0:0:0:0:
408,24,189985,1,0,0:0:0:0:
469,80,190159,6,0,L|457:199,2,120,8|8|4,0:0|0:0|3:0,0:0:0:0:
407,24,191031,2,0,P|378:31|349:36,1,60,4|0,0:0|0:0,0:0:0:0:
276,79,191380,6,0,P|227:47|167:44,1,120,6|2,0:0|0:0,0:0:0:0:
90,11,191903,1,2,0:0:0:0:
41,80,192078,2,0,P|31:138|47:196,1,120,4|2,0:0|0:0,0:0:0:0:
98,262,192601,1,8,0:0:0:0:
55,334,192775,1,8,0:0:0:0:
55,334,192862,1,8,0:0:0:0:
55,334,192950,6,0,P|114:326|174:319,1,120,4|10,0:0|0:0,0:0:0:0:
249,282,193473,2,0,P|246:249|241:222,1,60,2|4,0:0|3:0,0:0:0:0:
197,150,193822,1,2,0:0:0:0:
243,80,193996,2,0,P|273:74|303:69,1,60,10|0,0:0|0:0,0:0:0:0:
376,107,194345,6,0,P|372:136|368:167,1,60,4|2,3:0|0:0,0:0:0:0:
422,232,194694,1,10,0:0:0:0:
403,313,194868,1,0,0:0:0:0:
321,338,195043,2,0,P|292:333|262:332,1,60,4|0,3:0|0:0,0:0:0:0:
192,286,195392,2,0,P|162:291|132:292,1,60,10|2,0:0|0:0,0:0:0:0:
92,280,195653,1,2,0:0:0:0:
91,279,195740,6,0,P|70:224|81:166,1,120,4|8,3:0|0:0,0:0:0:0:
141,107,196264,2,0,P|171:111|201:113,1,60,2|4,0:0|3:0,0:0:0:0:
266,61,196612,1,2,0:0:0:0:
330,114,196787,2,0,P|324:143|319:173,1,60,8|0,0:0|0:0,0:0:0:0:
378,232,197136,5,4,3:0:0:0:
398,313,197310,1,2,0:0:0:0:
332,366,197485,1,10,0:0:0:0:
249,353,197659,1,2,0:0:0:0:
167,335,197833,2,0,P|136:338|108:346,1,60,4|0,3:0|0:0,0:0:0:0:
33,307,198182,1,8,0:0:0:0:
85,241,198357,1,2,0:0:0:0:
85,241,198444,1,2,0:0:0:0:
85,241,198531,6,0,P|79:181|70:121,1,120,4|8,0:0|0:0,0:0:0:0:
22,53,199054,2,0,P|78:68|128:38,1,120,2|2,0:0|0:0,0:0:0:0:
209,61,199578,2,0,P|239:55|269:51,1,60,8|0,0:0|0:0,0:0:0:0:
347,77,199926,6,0,P|341:109|339:136,1,60,4|2,3:0|0:0,0:0:0:0:
380,209,200275,2,0,P|377:238|375:268,1,60,10|0,0:0|0:0,0:0:0:0:
325,337,200624,1,4,3:0:0:0:
243,356,200798,1,0,0:0:0:0:
164,321,200973,2,0,P|135:320|105:325,1,60,8|2,0:0|0:0,0:0:0:0:
65,340,201235,1,2,0:0:0:0:
65,339,201322,6,0,P|59:280|52:220,1,120,4|8,3:0|0:0,0:0:0:0:
16,144,201845,1,2,0:0:0:0:
75,86,202019,2,0,P|103:73|132:69,1,60,4|2,3:0|0:0,0:0:0:0:
211,99,202368,2,0,P|240:106|269:105,1,60,8|0,0:0|0:0,0:0:0:0:
346,70,202717,5,4,3:0:0:0:
367,151,202892,1,2,0:0:0:0:
451,212,203066,5,10,0:0:0:0:
430,293,203241,1,2,0:0:0:0:
343,349,203415,5,4,3:0:0:0:
262,325,203589,1,2,0:0:0:0:
172,273,203764,5,10,0:0:0:0:
97,296,203938,1,2,0:0:0:0:
97,296,204025,1,2,0:0:0:0:
96,295,204112,6,0,P|72:240|82:182,2,120,4|8|4,0:0|0:0|3:0,0:0:0:0:
162,347,204985,1,0,0:0:0:0:
232,301,205159,2,0,P|230:271|226:241,1,60,8|0,0:0|0:0,0:0:0:0:
189,165,205508,5,4,3:0:0:0:
189,165,205682,1,2,0:0:0:0:
255,85,205857,5,10,0:0:0:0:
255,85,206031,1,2,0:0:0:0:
173,22,206205,5,4,3:0:0:0:
92,45,206380,1,0,0:0:0:0:
17,116,206554,5,10,0:0:0:0:
36,207,206729,1,2,0:0:0:0:
36,207,206816,1,2,0:0:0:0:
36,207,206903,6,0,P|94:193|153:185,1,120,4|8,3:0|0:0,0:0:0:0:
219,133,207426,2,0,P|275:150|330:129,1,120,2|2,0:0|0:0,0:0:0:0:
388,68,207950,2,0,P|384:38|381:8,1,60,10|0,0:0|0:0,0:0:0:0:
479,117,208298,5,4,3:0:0:0:
502,197,208473,1,2,0:0:0:0:
460,269,208647,1,10,0:0:0:0:
376,276,208822,1,0,0:0:0:0:
298,240,208996,2,0,P|269:235|239:233,1,60,4|0,3:0|0:0,0:0:0:0:
162,268,209345,1,10,0:0:0:0:
104,223,209519,1,2,0:0:0:0:
104,223,209607,1,2,0:0:0:0:
104,223,209694,6,0,P|108:159|112:104,1,120,4|8,0:0|0:0,0:0:0:0:
166,38,210217,2,0,P|220:33|234:87,1,120,2|2,0:0|0:0,0:0:0:0:
209,167,210740,1,10,0:0:0:0:
286,200,210915,1,2,0:0:0:0:
358,157,211089,6,0,L|353:97,1,60,4|0,3:0|0:0,0:0:0:0:
413,38,211438,1,10,0:0:0:0:
491,68,211612,1,0,0:0:0:0:
510,149,211787,2,0,P|508:179|504:217,1,60,4|0,3:0|0:0,0:0:0:0:
457,278,212136,2,0,P|459:308|463:346,1,60,8|0,0:0|0:0,0:0:0:0:
488,370,212397,1,0,0:0:0:0:
488,370,212485,6,0,P|420:350|358:360,1,120,4|8,3:0|0:0,0:0:0:0:
299,313,213008,1,0,0:0:0:0:
350,246,213182,2,0,L|352:126,1,120,4|4,3:0|3:0,0:0:0:0:
302,58,213705,1,2,0:0:0:0:
229,101,213880,6,0,P|193:114|170:113,1,60,2|0,0:0|0:0,0:0:0:0:
88,101,214229,2,0,P|94:132|99:166,1,60,8|0,0:0|0:0,0:0:0:0:
52,230,214578,2,0,P|107:211|163:230,1,120,2|8,0:0|0:0,0:0:0:0:
224,288,215101,1,2,0:0:0:0:
279,350,215275,6,0,P|338:339|397:332,1,120,4|8,0:0|0:0,0:0:0:0:
462,279,215798,2,0,P|470:249|472:219,1,60,2|0,0:0|0:0,0:0:0:0:
418,155,216147,1,2,0:0:0:0:
470,88,216322,2,0,P|465:55|461:15,1,60,8|0,0:0|0:0,0:0:0:0:
382,55,216671,6,0,L|323:64,1,60,4|2,3:0|0:0,0:0:0:0:
243,37,217019,2,0,P|188:31|166:31,1,60,8|0,0:0|0:0,0:0:0:0:
106,64,217368,2,0,P|96:93|93:123,1,60,4|0,3:0|0:0,0:0:0:0:
122,202,217717,2,0,P|131:230|134:260,1,60,8|0,0:0|0:0,0:0:0:0:
75,320,218066,6,0,P|123:287|181:295,1,120,4|8,3:0|0:0,0:0:0:0:
250,343,218589,1,2,0:0:0:0:
323,302,218764,2,0,P|316:236|309:171,1,120,4|8,3:0|0:0,0:0:0:0:
274,106,219287,1,2,0:0:0:0:
341,56,219461,6,0,P|403:57|413:115,1,120,4|8,3:0|0:0,0:0:0:0:
358,166,219985,1,4,0:0:0:0:
279,194,220159,2,0,P|249:191|209:189,1,60,4|0,3:0|0:0,0:0:0:0:
140,218,220508,1,8,0:0:0:0:
70,170,220682,1,2,0:0:0:0:
70,170,220769,1,2,0:0:0:0:
69,169,220857,6,0,P|49:114|68:58,2,120,2|10|2,0:0|0:0|0:0,0:0:0:0:
203,271,221903,1,10,0:0:0:0:
280,303,222078,6,0,P|334:295|357:295,1,60,2|0,0:0|0:0,0:0:0:0:
408,248,222426,2,0,P|412:210|403:182,1,60,2|8,0:0|0:0,0:0:0:0:
356,121,222775,2,0,P|359:93|363:60,2,60,2|2|2,0:0|0:0|0:0,0:0:0:0:
288,171,223298,1,8,0:0:0:0:
225,132,223473,5,2,0:0:0:0:
225,132,223560,1,2,0:0:0:0:
225,132,223647,2,0,B|158:120|176:154|103:141,1,120,2|10,0:0|0:0,0:0:0:0:
170,297,224345,2,0,P|199:291|229:287,1,60,2|0,0:0|0:0,0:0:0:0:
307,318,224694,1,8,0:0:0:0:
363,255,224868,6,0,P|366:226|370:196,1,60,2|0,0:0|0:0,0:0:0:0:
337,119,225217,2,0,P|333:89|328:59,1,60,2|8,0:0|0:0,0:0:0:0:
251,25,225566,1,2,0:0:0:0:
251,25,225740,1,2,0:0:0:0:
174,60,225915,2,0,P|130:60|101:47,1,60,2|8,0:0|0:0,0:0:0:0:
41,96,226264,1,2,0:0:0:0:
41,96,226351,1,2,0:0:0:0:
41,96,226438,6,0,P|66:149|56:207,2,120,2|10|2,0:0|0:0|0:0,0:0:0:0:
196,32,227485,1,10,0:0:0:0:
255,89,227659,6,0,P|254:118|247:148,1,60,2|0,0:0|0:0,0:0:0:0:
302,211,228008,2,0,P|293:239|277:264,1,60,2|8,0:0|0:0,0:0:0:0:
198,295,228357,1,2,0:0:0:0:
116,274,228531,1,2,0:0:0:0:
44,318,228705,2,0,L|49:377,1,60,2|8,0:0|0:0,0:0:0:0:
138,383,229054,5,2,0:0:0:0:
138,383,229142,1,2,0:0:0:0:
138,383,229229,2,0,P|197:379|257:377,1,120,2|10,0:0|0:0,0:0:0:0:
386,269,229926,2,0,P|401:212|385:155,1,120,2|10,0:0|0:0,0:0:0:0:
331,89,230450,6,0,P|301:96|271:100,1,60,2|0,0:0|0:0,0:0:0:0:
191,76,230798,2,0,P|161:70|121:71,1,60,2|8,0:0|0:0,0:0:0:0:
69,127,231147,1,2,0:0:0:0:
50,209,231322,2,0,P|54:239|58:269,1,60,2|2,0:0|0:0,0:0:0:0:
27,347,231671,1,8,0:0:0:0:
115,372,231845,5,10,0:0:0:0:
115,372,231932,1,10,0:0:0:0:
115,372,232019,2,0,B|182:360|164:394|237:381,3,120,4|10|2|10,0:0|0:0|0:0|0:0,0:0:0:0:
303,336,233240,1,0,0:0:0:0:
249,270,233415,6,0,L|219:263,2,30,2|2|2,0:0|0:0|0:0,0:0:0:0:
322,228,233764,2,0,L|351:221,2,30,10|2|2,0:0|0:0|0:0,0:0:0:0:
251,182,234112,1,2,0:0:0:0:
309,118,234287,1,2,0:0:0:0:
309,118,234374,1,0,0:0:0:0:
309,118,234461,1,10,0:0:0:0:
242,65,234636,6,0,P|182:64|123:58,1,120,2|0,0:0|0:0,0:0:0:0:
45,90,235159,2,0,P|51:120|55:150,1,60,10|0,0:0|0:0,0:0:0:0:
23,227,235508,1,2,0:0:0:0:
106,218,235682,1,2,0:0:0:0:
186,243,235857,1,10,0:0:0:0:
270,216,236031,1,2,0:0:0:0:
270,216,236118,1,0,0:0:0:0:
270,216,236205,6,0,P|266:180|257:137,1,60,2|2,0:0|0:0,0:0:0:0:
221,82,236554,1,10,0:0:0:0:
262,8,236729,1,2,0:0:0:0:
345,18,236903,1,2,0:0:0:0:
403,78,237078,2,0,P|431:70|461:64,1,60,6|6,0:0|0:0,0:0:0:0:
512,144,237426,1,2,0:0:0:0:
512,144,237514,1,2,0:0:0:0:
512,144,237601,5,2,0:0:0:0:
256,192,237688,12,0,240392,0:0:0:0:
