osu file format v14

[General]
AudioFilename: audio.mp3
AudioLeadIn: 0
PreviewTime: 170571
Countdown: 1
SampleSet: Soft
StackLeniency: 0.7
Mode: 0
LetterboxInBreaks: 0
WidescreenStoryboard: 1

[Editor]
Bookmarks: 56326,67489,123303,148245,170745,193071,220978
DistanceSpacing: 1
BeatDivisor: 4
GridSize: 4
TimelineZoom: 1

[Metadata]
Title:oddloop
TitleUnicode:オドループ
Artist:Frederic
ArtistUnicode:フレデリック
Creator:Komore
Version:collab standard feat. wajinshu
Source:山田くんと7人の魔女
Tags:Yamada-kun to 7-nin no Majo Koji Mihara odoru to dance oddl∞p ova full ending ed wajinshu dailycare
BeatmapID:1268407
BeatmapSetID:595899

[Difficulty]
HPDrainRate:3
CircleSize:3
OverallDifficulty:3
ApproachRate:4
SliderMultiplier:1
SliderTickRate:1

[Events]
//Background and Video events
0,0,"countryside-30639-1920x1200.jpg",0,0
Video,-140,"opto.flv"
//Break Periods
2,78731,88374
//Storyboard Layer 0 (Background)
//Storyboard Layer 1 (Fail)
//Storyboard Layer 2 (Pass)
//Storyboard Layer 3 (Foreground)
//Storyboard Sound Samples

[TimingPoints]
392,348.837209302326,4,2,1,60,1,0
22717,-100,4,2,1,60,0,0
45043,-100,4,2,1,60,0,1
67368,-100,4,2,1,60,0,0
89694,-100,4,2,1,60,0,0
100857,-100,4,2,1,60,0,1
123182,-100,4,2,1,60,0,0
148124,-100,4,2,1,60,0,0
170624,-100,4,2,1,60,0,1
190159,-100,4,2,1,60,0,0
192950,-100,4,2,1,60,0,1
220857,-100,4,2,1,60,0,0

[Colours]
Combo1 : 214,171,171
Combo2 : 185,255,185
Combo3 : 255,255,121
Combo4 : 157,206,255

[HitObjects]
191,356,392,6,0,P|197:317|215:247,1,100,6|10,0:0|0:0,0:0:0:0:
292,199,1089,2,0,P|286:160|268:90,1,100,2|10,0:0|0:0,0:0:0:0:
171,105,1787,2,0,P|190:42|312:10,1,200,0|2,0:0|0:0,0:0:0:0:
398,53,2833,1,8,0:0:0:0:
397,153,3182,6,0,P|413:226|426:267,1,100,2|10,0:0|0:0,0:0:0:0:
455,344,3880,2,0,P|388:334|349:331,1,100,2|8,0:0|0:0,0:0:0:0:
255,331,4578,2,0,B|212:331|175:347|175:347|112:330|112:246,1,200,0|2,0:0|0:0,0:0:0:0:
114,157,5624,1,8,0:0:0:0:
189,91,5973,6,0,L|299:77,1,100,2|10,0:0|0:0,0:0:0:0:
334,167,6671,2,0,L|444:181,1,100,2|10,0:0|0:0,0:0:0:0:
471,271,7368,2,0,B|338:242|379:313|261:270,1,200,0|2,0:0|0:0,0:0:0:0:
178,251,8415,1,8,0:0:0:0:
88,205,8764,6,0,P|72:140|70:94,1,100,2|10,0:0|0:0,0:0:0:0:
161,66,9461,2,0,P|211:70|265:67,1,100,2|10,0:0|0:0,0:0:0:0:
354,31,10159,2,0,P|341:109|333:233,1,200,0|2,0:0|0:0,0:0:0:0:
373,321,11205,2,0,P|331:316|304:314,1,50,8|2,0:0|0:0,0:0:0:0:
273,310,11554,6,0,P|219:306|171:311,1,100,6|10,0:0|0:0,0:0:0:0:
74,327,12252,2,0,P|66:272|65:215,1,100,2|10,0:0|0:0,0:0:0:0:
141,162,12950,2,0,B|201:157|201:157|235:175|235:175|278:151|356:160,1,200,0|2,0:0|0:0,0:0:0:0:
433,167,13996,1,8,0:0:0:0:
423,266,14345,6,0,B|381:296|381:296|317:308,1,100,2|8,0:0|0:0,0:0:0:0:
240,268,15043,2,0,B|192:276|192:276|150:306,1,100,2|10,0:0|0:0,0:0:0:0:
81,379,15740,2,0,P|55:329|115:211,1,200,0|2,0:0|0:0,0:0:0:0:
204,165,16787,1,8,0:0:0:0:
303,170,17136,6,0,P|351:177|412:164,1,100,6|10,0:0|0:0,0:0:0:0:
346,84,17833,2,0,P|296:75|247:82,1,100,2|10,0:0|0:0,0:0:0:0:
155,122,18531,2,0,B|124:175|129:225|129:225|163:267|224:273,1,200,0|2,0:0|0:0,0:0:0:0:
306,281,19578,1,8,0:0:0:0:
375,208,19926,6,0,L|492:180,1,100,2|10,0:0|0:0,0:0:0:0:
422,97,20624,2,0,L|305:69,1,100,2|10,0:0|0:0,0:0:0:0:
225,58,21322,1,0,0:0:0:0:
191,152,21671,2,0,L|210:253,1,100,4|10,1:0|0:0,0:0:0:0:
277,323,22368,1,8,0:0:0:0:
341,246,22717,6,0,L|359:147,1,100,6|8,0:0|0:0,0:0:0:0:
400,118,23240,2,0,L|381:19,1,100,2|2,0:0|0:0,0:0:0:0:
332,9,23764,1,8,0:0:0:0:
264,82,24112,1,4,3:0:0:0:
174,38,24461,2,0,P|147:77|120:130,1,100,8|4,0:0|3:0,0:0:0:0:
104,222,25159,1,8,0:0:0:0:
161,303,25508,6,0,P|96:320|18:274,2,150,2|2|8,0:0|0:0|0:0,0:0:0:0:
235,236,26903,1,4,3:0:0:0:
333,220,27252,2,0,P|385:207|441:198,1,100,8|4,0:0|3:0,0:0:0:0:
500,127,27950,1,8,0:0:0:0:
416,71,28298,6,0,P|437:50|456:34,2,50,4|2|8,3:0|0:0|0:0,0:0:0:0:
326,116,28996,1,4,3:0:0:0:
227,99,29345,2,0,P|202:102|177:108,1,50,8|2,0:0|0:0,0:0:0:0:
131,127,29694,2,0,P|116:188|108:228,1,100,4|8,3:0|0:0,0:0:0:0:
198,269,30392,2,0,P|235:253|295:235,1,100,4|8,3:0|0:0,0:0:0:0:
389,220,31089,6,0,P|376:289|313:335,2,150,4|2|8,3:0|0:0|0:0,0:0:0:0:
316,150,32485,1,4,3:0:0:0:
317,50,32833,1,8,0:0:0:0:
416,53,33182,2,0,L|471:42,2,50,6|2|10,3:0|3:0|0:0,0:0:0:0:
369,142,33880,6,0,P|301:134|254:130,1,100,4|8,3:0|0:0,0:0:0:0:
219,125,34403,1,2,0:0:0:0:
219,125,34578,2,0,P|230:168|239:227,1,100,0|8,0:0|0:0,0:0:0:0:
205,317,35275,1,4,3:0:0:0:
304,336,35624,2,0,P|334:296|366:258,1,100,8|4,0:0|3:0,0:0:0:0:
443,193,36322,1,8,0:0:0:0:
404,100,36671,6,0,P|472:100|532:155,2,150,4|2|8,3:0|0:0|0:0,0:0:0:0:
315,146,38066,2,0,P|298:107|293:92,2,50,4|2|8,3:0|0:0|0:0,0:0:0:0:
285,242,38764,2,0,P|233:228|176:218,1,100,4|8,3:0|0:0,0:0:0:0:
117,291,39461,6,0,B|75:297|40:314|40:314|11:260|27:184,1,200,4|4,3:0|3:0,0:0:0:0:
81,115,40508,1,8,0:0:0:0:
171,158,40857,2,0,P|210:166|272:168,1,100,4|8,3:0|0:0,0:0:0:0:
358,121,41554,1,4,3:0:0:0:
450,158,41903,2,0,P|462:192|474:220,1,50,10|2,0:0|0:0,0:0:0:0:
454,253,42252,6,0,P|414:245|348:230,1,100,4|8,3:0|0:0,0:0:0:0:
307,245,42775,2,0,P|258:256|209:266,1,100,2|2,0:0|0:0,0:0:0:0:
164,289,43298,1,8,0:0:0:0:
101,210,43647,1,0,0:0:0:0:
168,136,43996,2,0,P|214:116|265:108,1,100,4|8,1:0|0:0,0:0:0:0:
363,101,44694,2,0,P|379:139|385:157,1,50,8|8,0:0|0:0,0:0:0:0:
377,197,45043,6,0,P|372:248|370:311,1,100,4|10,0:0|0:0,0:0:0:0:
368,346,45566,2,0,P|310:337|267:331,1,100,2|2,0:0|0:0,0:0:0:0:
218,329,46089,1,10,0:0:0:0:
119,314,46438,2,0,P|103:262|90:209,1,100,4|10,3:0|0:0,0:0:0:0:
101,117,47136,1,4,3:0:0:0:
203,125,47485,1,10,0:0:0:0:
280,188,47833,6,0,P|331:183|394:181,1,100,4|8,3:0|0:0,0:0:0:0:
429,179,48356,2,0,P|420:121|414:78,1,100,2|2,0:0|0:0,0:0:0:0:
412,29,48879,1,8,0:0:0:0:
320,70,49229,1,4,3:0:0:0:
228,29,49578,1,10,0:0:0:0:
144,83,49926,2,0,P|134:122|124:188,1,100,4|8,3:0|0:0,0:0:0:0:
131,281,50624,6,0,P|72:271|24:199,2,150,4|2|8,3:0|0:0|0:0,0:0:0:0:
124,180,52019,2,0,P|177:161|231:153,1,100,4|10,3:0|0:0,0:0:0:0:
305,206,52717,1,4,3:0:0:0:
389,258,53066,1,8,0:0:0:0:
451,336,53415,6,0,P|486:271|470:200,2,150,4|2|8,3:0|0:0|0:0,0:0:0:0:
350,338,54810,2,0,P|295:329|248:325,1,100,4|10,3:0|0:0,0:0:0:0:
153,348,55508,1,4,3:0:0:0:
133,247,55857,1,10,0:0:0:0:
57,182,56205,6,0,B|88:147|131:137|187:161|187:161|159:133|159:91,1,200,4|4,1:0|3:0,0:0:0:0:
258,88,57252,1,8,0:0:0:0:
309,173,57601,2,0,P|316:247|316:288,1,100,4|10,3:0|0:0,0:0:0:0:
219,298,58298,2,0,P|220:248|226:198,1,100,4|10,3:0|0:0,0:0:0:0:
237,98,58996,6,0,P|279:71|382:92,2,150,4|2|10,3:0|0:0|0:0,0:0:0:0:
312,163,60392,2,0,P|325:226|323:265,1,100,4|10,3:0|0:0,0:0:0:0:
261,339,61089,1,4,3:0:0:0:
168,300,61438,1,10,0:0:0:0:
76,259,61787,6,0,P|59:208|56:149,1,100,4|8,0:0|0:0,0:0:0:0:
75,116,62310,2,0,P|136:126|177:126,1,100,2|2,0:0|0:0,0:0:0:0:
223,115,62833,1,10,0:0:0:0:
303,174,63182,2,0,L|291:273,1,100,4|10,3:0|0:0,0:0:0:0:
194,298,63880,2,0,P|157:283|97:272,1,100,4|8,3:0|0:0,0:0:0:0:
40,190,64578,6,0,P|89:182|138:174,1,100,4|8,3:0|0:0,0:0:0:0:
225,124,65275,2,0,P|231:97|238:63,2,50,4|0|4,3:0|0:0|3:0,0:0:0:0:
264,155,65798,2,0,P|327:164|363:239,1,150,4|8,0:0|0:0,0:0:0:0:
436,304,66671,1,2,0:0:0:0:
365,374,67019,1,8,0:0:0:0:
269,343,67368,6,0,P|218:336|164:344,1,100,2|10,0:0|0:0,0:0:0:0:
84,290,68066,2,0,P|75:232|84:180,1,100,2|10,0:0|0:0,0:0:0:0:
155,124,68764,2,0,B|206:124|249:104|249:104|286:124|351:129,1,200,0|2,0:0|0:0,0:0:0:0:
443,97,69810,1,8,0:0:0:0:
482,189,70159,6,0,P|475:243|459:289,1,100,2|10,0:0|0:0,0:0:0:0:
382,349,70857,2,0,P|332:331|274:335,1,100,2|8,0:0|0:0,0:0:0:0:
217,259,71554,2,0,P|140:286|26:241,1,200,0|2,0:0|0:0,0:0:0:0:
8,150,72601,2,0,P|12:125|19:92,1,50,8|6,0:0|0:0,0:0:0:0:
58,71,72950,6,0,P|107:78|163:73,1,100,2|10,0:0|0:0,0:0:0:0:
248,114,73647,2,0,P|292:103|346:96,1,100,2|10,0:0|0:0,0:0:0:0:
439,59,74345,2,0,P|426:154|419:264,1,200,0|2,0:0|0:0,0:0:0:0:
463,347,75392,1,8,0:0:0:0:
366,372,75740,6,0,P|318:356|249:357,1,100,2|10,0:0|0:0,0:0:0:0:
181,304,76438,2,0,P|118:317|64:316,1,100,2|10,0:0|0:0,0:0:0:0:
19,239,77136,2,0,B|33:101|33:101|47:146|81:161,1,200,0|4,0:0|3:0,0:0:0:0:
161,123,78182,1,4,3:0:0:0:
259,141,78531,5,4,0:0:0:0:
0,130,89694,6,0,P|52:123|120:112,1,100,6|8,0:0|0:0,0:0:0:0:
185,166,90392,2,0,P|245:168|286:182,1,100,2|10,0:0|0:0,0:0:0:0:
363,121,91089,2,0,P|356:72|346:12,2,100,2|10|2,0:0|0:0|0:0,0:0:0:0:
417,205,92136,2,0,P|413:232|409:267,1,50,8|2,0:0|0:0,0:0:0:0:
383,297,92485,6,0,P|300:284|224:313,2,150,2|2|8,0:0|0:0|0:0,0:0:0:0:
463,237,93880,1,2,0:0:0:0:
398,160,94229,2,0,P|403:102|411:39,1,100,10|2,0:0|0:0,0:0:0:0:
493,8,94926,1,10,0:0:0:0:
408,60,95275,6,0,B|358:55|335:37|335:37|290:55|242:43,2,150,4|2|10,0:0|0:0|0:0,0:0:0:0:
468,139,96671,2,0,P|465:162|459:194,2,50,2|2|10,0:0|0:0|0:0,0:0:0:0:
408,60,97368,2,0,P|404:33|399:10,2,50,2|2|10,0:0|0:0|0:0,0:0:0:0:
329,122,98066,6,0,P|272:135|221:119,1,100,2|10,0:0|0:0,0:0:0:0:
142,81,98764,2,0,P|133:129|124:198,1,100,2|10,0:0|0:0,0:0:0:0:
110,278,99461,2,0,B|234:257|176:334|302:309,1,200,2|8,0:0|0:0,0:0:0:0:
372,241,100508,2,0,L|379:182,1,50,8|8,0:0|0:0,0:0:0:0:
374,141,100857,6,0,P|433:146|493:68,2,150,4|2|10,0:0|0:0|0:0,0:0:0:0:
285,95,102252,2,0,P|215:113|179:113,1,100,4|10,3:0|0:0,0:0:0:0:
89,94,102950,2,0,P|81:138|77:210,1,100,4|10,3:0|0:0,0:0:0:0:
146,264,103647,6,0,P|214:242|300:251,2,150,4|2|8,3:0|0:0|0:0,0:0:0:0:
54,305,105043,1,4,3:0:0:0:
10,215,105392,1,10,0:0:0:0:
62,129,105740,2,0,P|58:87|52:24,1,100,4|8,3:0|0:0,0:0:0:0:
147,62,106438,6,0,B|205:48|205:48|232:60|232:60|292:50,2,150,4|2|8,0:0|0:0|0:0,0:0:0:0:
69,124,107833,2,0,P|57:176|66:233,1,100,4|10,3:0|0:0,0:0:0:0:
141,283,108531,2,0,P|191:274|248:271,1,100,4|8,3:0|0:0,0:0:0:0:
317,207,109229,6,0,B|361:205|400:226|400:226|430:208|444:179,2,150,4|2|8,3:3|0:0|0:0,0:0:0:0:
226,164,110624,2,0,P|229:141|233:110,2,50,4|2|10,3:0|0:0|0:0,0:0:0:0:
130,195,111322,1,4,3:0:0:0:
34,166,111671,1,10,0:0:0:0:
9,262,112019,6,0,B|1:312|30:342|30:342|81:303|157:318,1,200,4|4,0:0|3:0,0:0:0:0:
230,354,113066,1,8,0:0:0:0:
306,288,113415,2,0,P|301:236|289:176,1,100,4|10,3:0|0:0,0:0:0:0:
229,112,114112,2,0,P|234:58|244:-1,1,100,4|10,3:0|0:0,0:0:0:0:
335,46,114810,6,0,P|404:57|477:8,2,150,4|2|10,3:0|0:0|0:0,0:0:0:0:
241,12,116205,1,4,3:0:0:0:
209,106,116554,1,10,0:0:0:0:
282,173,116903,2,0,P|336:161|398:156,1,100,4|10,3:0|0:0,0:0:0:0:
472,195,117601,6,0,P|466:116|458:34,2,150,4|2|10,0:0|0:0|0:0,0:0:0:0:
395,259,118996,2,0,P|342:246|292:241,1,100,4|10,3:0|0:0,0:0:0:0:
218,179,119694,2,0,P|126:191|102:188,1,100,4|8,3:0|0:0,0:0:0:0:
30,144,120392,6,0,P|36:193|43:258,1,100,4|8,3:0|0:0,0:0:0:0:
112,314,121089,2,0,P|109:341|106:376,2,50,4|0|4,3:0|0:0|3:0,0:0:0:0:
210,281,121787,2,0,P|264:270|318:265,1,100,2|8,0:0|0:0,0:0:0:0:
386,201,122485,2,0,P|399:143|382:99,1,100,2|8,0:0|0:0,0:0:0:0:
296,60,123182,6,0,P|282:107|296:155,2,100,2|10|2,0:0|0:0|0:0,0:0:0:0:
388,20,124229,1,10,0:0:0:0:
427,111,124578,2,0,L|451:232,1,100,2|10,0:0|0:0,0:0:0:0:
393,293,125275,2,0,P|347:290|325:288,2,50,0|4|10,0:0|3:0|0:0,0:0:0:0:
355,199,125973,6,0,L|254:193,1,100,4|0,0:3|0:0,0:0:0:0:
160,159,126671,2,0,P|158:181|152:221,1,50,2|4,0:0|3:0,0:0:0:0:
133,253,127019,1,10,0:0:0:0:
46,203,127368,2,0,L|34:96,1,100,2|10,0:0|0:0,0:0:0:0:
104,33,128066,2,0,P|68:12|55:7,2,50,2|4|10,0:0|3:0|0:0,0:0:0:0:
182,95,128764,6,0,B|231:85|274:118|274:118|299:93|292:50,2,150,2|2|10,0:0|0:0|0:0,0:0:0:0:
112,166,130159,2,0,B|63:176|20:143|20:143|-5:168|2:211,2,150,2|2|10,0:0|0:0|0:0,0:0:0:0:
211,155,131554,6,0,P|220:191|232:254,1,100,2|10,0:0|0:0,0:0:0:0:
228,303,132078,1,2,0:0:0:0:
228,303,132252,2,0,P|269:298|328:296,1,100,2|10,0:0|0:0,0:0:0:0:
420,332,132950,2,0,P|420:276|425:227,1,100,2|10,0:0|0:0,0:0:0:0:
458,195,133473,2,0,P|458:139|453:90,1,100,0|0,0:0|0:0,0:0:0:0:
430,50,133996,1,8,0:0:0:0:
331,64,134345,6,0,L|214:54,2,100,2|10|2,0:0|0:0|0:0,0:0:0:0:
369,156,135392,1,10,0:0:0:0:
329,247,135740,2,0,L|212:257,1,100,2|10,0:0|0:0,0:0:0:0:
137,295,136438,2,0,L|86:279,2,50,0|4|10,0:0|3:0|0:0,0:0:0:0:
214,358,137136,6,0,L|313:366,1,100,4|0,0:3|0:0,0:0:0:0:
378,290,137833,2,0,P|397:258|406:241,1,50,2|4,0:0|3:0,0:0:0:0:
423,200,138182,1,10,0:0:0:0:
416,100,138531,2,0,L|472:87,2,50,2|0|10,0:0|0:0|0:0,0:0:0:0:
366,91,139054,2,0,P|285:80|259:76,1,100,2|4,0:0|3:0,0:0:0:0:
216,70,139578,1,10,0:0:0:0:
125,111,139926,6,0,L|115:221,1,100,6|10,0:0|0:0,0:0:0:0:
178,289,140624,2,0,P|230:273|281:265,1,100,2|10,0:0|0:0,0:0:0:0:
373,283,141322,2,0,P|367:208|361:165,2,100,2|10|2,0:0|0:0|0:0,0:0:0:0:
311,361,142368,1,10,0:0:0:0:
215,329,142717,6,0,P|131:308|100:303,1,100,6|8,0:0|0:0,0:0:0:0:
67,304,143240,2,0,P|52:270|40:236,1,50,2|2,0:0|0:0,0:0:0:0:
71,160,143764,1,8,0:0:0:0:
169,145,144112,2,0,P|253:124|284:119,1,100,2|8,0:0|0:0,0:0:0:0:
316,126,144635,2,0,P|331:160|343:194,1,50,2|2,0:0|0:0,0:0:0:0:
306,267,145159,1,8,0:0:0:0:
231,333,145508,6,0,B|170:322|92:350|92:350|112:291|119:246|103:193,1,300,4|8,0:0|0:0,0:0:0:0:
122,96,146903,1,12,0:0:0:0:
216,128,147252,1,12,0:0:0:0:
308,89,147601,1,2,1:2:0:0:
386,151,147950,2,0,P|361:177|340:203,1,50,8|10,0:0|0:0,0:0:0:0:
333,233,148298,6,0,P|339:283|346:345,1,100,4|8,0:0|0:0,0:0:0:0:
247,357,148996,2,0,P|171:332|141:338,1,100,4|8,3:0|0:0,0:0:0:0:
64,286,149694,2,0,L|57:221,1,50,4|2,3:0|0:0,0:0:0:0:
88,196,150043,2,0,P|91:145|95:90,1,100,10|2,0:0|0:0,0:0:0:0:
170,31,150740,1,10,0:0:0:0:
260,73,151089,6,0,P|312:68|375:60,1,100,2|10,0:0|0:0,0:0:0:0:
421,141,151787,2,0,P|412:175|402:239,1,100,2|10,0:0|0:0,0:0:0:0:
414,287,152310,2,0,P|345:265|270:294,1,150,2|10,0:0|0:0,0:0:0:0:
191,346,153182,2,0,P|141:342|86:338,1,100,2|8,0:0|0:0,0:0:0:0:
49,310,153705,5,6,0:0:0:0:
9,217,154054,2,0,P|34:196|100:198,1,100,2|2,0:0|0:0,0:0:0:0:
145,178,154578,2,0,P|194:171|243:163,1,100,2|10,0:0|0:0,0:0:0:0:
290,183,155101,2,0,B|316:269|264:251|285:331,1,150,2|2,0:0|0:0,0:0:0:0:
378,362,155973,2,0,P|433:345|491:343,1,100,2|10,0:0|0:0,0:0:0:0:
503,245,156671,6,0,P|490:197|349:199,1,200,2|2,0:0|0:0,0:0:0:0:
272,232,157717,1,10,0:0:0:0:
190,173,158066,2,0,P|195:124|202:66,1,100,2|10,0:0|0:0,0:0:0:0:
113,25,158764,2,0,P|73:29|28:69,1,100,2|10,0:0|0:0,0:0:0:0:
12,114,159287,6,0,P|22:184|31:264,1,150,4|10,0:0|0:0,0:0:0:0:
113,318,160159,2,0,P|211:303|233:303,1,100,2|10,0:0|0:0,0:0:0:0:
259,318,160682,2,0,P|324:335|402:291,1,150,2|10,0:0|0:0,0:0:0:0:
439,209,161554,2,0,P|426:128|420:94,1,100,2|8,0:0|0:0,0:0:0:0:
340,52,162252,6,0,L|284:63,2,50,2|2|10,0:0|0:0|0:0,0:0:0:0:
422,110,162950,2,0,L|478:121,2,50,2|2|10,0:0|0:0|0:0,0:0:0:0:
345,174,163647,2,0,P|337:226|340:276,1,100,2|10,0:0|0:0,0:0:0:0:
354,321,164171,2,0,B|298:342|298:342|257:318|201:331,1,150,2|10,0:0|0:0,0:0:0:0:
164,348,164868,6,0,P|110:343|46:340,1,100,4|2,0:0|0:0,0:0:0:0:
25,309,165392,2,0,P|12:267|22:198,1,100,10|2,0:0|0:0,0:0:0:0:
98,153,166089,1,10,0:0:0:0:
127,193,166264,2,0,B|216:170|187:225|273:205,1,150,2|8,0:0|0:0,0:0:0:0:
369,181,167136,2,0,L|364:121,2,50,2|2|10,0:0|0:0|0:0,0:0:0:0:
406,214,167659,5,2,0:0:0:0:
458,299,168008,2,0,P|487:299|514:299,2,50,2|10|2,0:0|0:0|0:0,0:0:0:0:
417,328,168531,2,0,P|373:327|313:339,1,100,2|14,0:0|0:0,0:0:0:0:
247,268,169229,2,0,B|237:212|275:164|275:164|171:113|86:174,1,300,10|8,0:0|0:0,0:0:0:0:
44,254,170624,6,0,P|64:304|79:358,1,100,4|10,0:0|0:0,0:0:0:0:
120,372,171147,2,0,P|178:363|221:357,1,100,2|2,0:0|0:0,0:0:0:0:
269,359,171670,1,10,0:0:0:0:
360,317,172019,2,0,P|376:265|389:212,1,100,4|10,3:0|0:0,0:0:0:0:
412,123,172717,1,4,3:0:0:0:
324,74,173066,1,10,0:0:0:0:
237,126,173415,6,0,P|186:121|129:116,1,100,4|8,3:0|0:0,0:0:0:0:
90,132,173938,2,0,P|73:166|83:237,1,100,2|2,0:0|0:0,0:0:0:0:
103,269,174460,1,8,0:0:0:0:
182,329,174810,1,4,3:0:0:0:
271,285,175159,1,10,0:0:0:0:
363,323,175508,2,0,P|378:251|380:213,1,100,4|8,3:0|0:0,0:0:0:0:
372,124,176205,6,0,P|432:138|480:221,2,150,4|2|8,0:0|0:0|0:0,0:0:0:0:
274,147,177601,2,0,P|223:157|166:160,1,100,4|10,3:0|0:0,0:0:0:0:
79,131,178298,1,4,3:0:0:0:
52,227,178647,1,8,0:0:0:0:
132,286,178996,6,0,P|84:320|-16:297,2,150,4|2|8,3:0|0:0|0:0,0:0:0:0:
192,206,180391,2,0,P|247:197|294:193,1,100,4|10,3:0|0:0,0:0:0:0:
383,232,181089,1,4,3:0:0:0:
381,332,181438,1,10,0:0:0:0:
282,313,181787,6,0,B|153:280|203:357|73:314,1,200,4|4,0:0|3:0,0:0:0:0:
26,239,182833,1,8,0:0:0:0:
69,149,183182,2,0,P|119:124|164:111,1,100,4|10,3:0|0:0,0:0:0:0:
253,151,183880,2,0,P|303:176|348:189,1,100,4|10,3:0|0:0,0:0:0:0:
411,113,184577,6,0,P|438:155|417:258,2,150,4|2|10,3:0|0:0|0:0,0:0:0:0:
321,68,185973,2,0,P|265:63|215:60,1,100,4|10,3:0|0:0,0:0:0:0:
122,73,186670,1,4,3:0:0:0:
82,164,187019,1,10,0:0:0:0:
154,232,187368,6,0,P|168:289|177:344,1,100,4|8,0:0|0:0,0:0:0:0:
154,375,187892,2,0,P|228:359|267:354,1,100,2|2,0:0|0:0,0:0:0:0:
301,358,188414,1,10,0:0:0:0:
390,311,188764,2,0,P|396:250|403:193,1,100,4|10,3:0|0:0,0:0:0:0:
445,121,189461,2,0,P|390:110|349:88,1,100,4|8,3:0|0:0,0:0:0:0:
261,134,190159,6,0,P|268:179|277:243,1,100,8|8,0:0|0:0,0:0:0:0:
146,310,191031,2,0,P|86:285|42:292,1,100,4|6,0:0|0:0,0:0:0:0:
22,192,191729,2,0,L|31:130,1,50,2|2,0:0|0:0,0:0:0:0:
59,102,192078,2,0,P|109:97|159:93,1,100,4|2,0:0|0:0,0:0:0:0:
205,72,192601,1,8,0:0:0:0:
282,135,192950,6,0,P|338:144|390:127,1,100,4|10,0:0|0:0,0:0:0:0:
424,112,193473,2,0,P|415:180|414:233,1,100,2|2,0:0|0:0,0:0:0:0:
420,261,193996,1,10,0:0:0:0:
334,312,194345,2,0,P|251:307|222:313,1,100,4|10,3:0|0:0,0:0:0:0:
154,249,195043,2,0,P|74:264|39:268,1,100,4|10,3:0|0:0,0:0:0:0:
7,178,195740,6,0,P|0:125|17:70,1,100,4|8,3:0|0:0,0:0:0:0:
49,46,196264,2,0,P|98:51|148:50,1,100,2|2,0:0|0:0,0:0:0:0:
193,27,196787,1,8,0:0:0:0:
272,87,197136,2,0,P|269:136|267:186,1,100,4|10,3:0|0:0,0:0:0:0:
337,258,197833,2,0,P|386:253|436:249,1,100,4|8,3:0|0:0,0:0:0:0:
489,164,198531,6,0,B|479:131|445:106|445:106|410:132|353:127,2,150,4|2|8,0:0|0:0|0:0,0:0:0:0:
436,249,199926,1,4,3:0:0:0:
339,222,200275,1,10,0:0:0:0:
246,261,200624,2,0,L|260:369,1,100,4|8,3:0|0:0,0:0:0:0:
164,325,201322,6,0,B|80:311|111:363|16:346,2,150,4|2|8,3:0|0:0|0:0,0:0:0:0:
258,360,202717,2,0,P|332:351|371:354,1,100,4|10,3:0|0:0,0:0:0:0:
429,282,203415,2,0,L|488:285,2,50,4|2|10,3:0|0:0|0:0,0:0:0:0:
354,215,204112,6,0,P|348:160|343:110,1,100,4|8,0:0|0:0,0:0:0:0:
262,57,204810,2,0,P|212:46|155:56,1,100,4|8,3:0|0:0,0:0:0:0:
79,105,205508,2,0,P|91:179|95:218,1,100,4|10,3:0|0:0,0:0:0:0:
26,278,206205,1,4,3:0:0:0:
108,334,206554,1,10,0:0:0:0:
195,285,206903,6,0,P|276:291|316:364,2,150,4|2|10,3:0|0:0|0:0,0:0:0:0:
118,220,208298,2,0,P|120:170|124:120,1,100,4|10,3:0|0:0,0:0:0:0:
188,42,208996,2,0,P|238:50|287:46,1,100,4|10,3:0|0:0,0:0:0:0:
386,35,209694,6,0,P|376:83|382:132,1,100,4|8,0:0|0:0,0:0:0:0:
411,174,210217,2,0,P|408:220|404:291,1,100,2|2,0:0|0:0,0:0:0:0:
428,318,210740,1,10,0:0:0:0:
336,357,211089,2,0,P|273:344|214:345,1,100,4|10,3:0|0:0,0:0:0:0:
153,288,211787,2,0,P|70:300|49:303,1,100,4|8,3:0|0:0,0:0:0:0:
12,210,212485,6,0,P|6:152|22:100,1,100,4|8,3:0|0:0,0:0:0:0:
98,55,213182,1,4,3:0:0:0:
190,93,213531,1,4,3:0:0:0:
282,54,213880,2,0,P|331:57|381:60,1,100,2|8,0:0|0:0,0:0:0:0:
454,129,214578,2,0,P|451:176|445:238,1,100,2|8,0:0|0:0,0:0:0:0:
377,301,215275,6,0,B|301:251|235:277|235:277|253:302|264:324,1,200,4|0,0:0|0:0,0:0:0:0:
166,350,216322,1,8,0:0:0:0:
108,269,216671,2,0,P|98:206|110:149,1,100,4|8,3:0|0:0,0:0:0:0:
156,85,217368,2,0,P|231:93|269:93,1,100,4|8,3:0|0:0,0:0:0:0:
347,53,218066,6,0,P|341:91|334:167,1,100,4|8,3:0|0:0,0:0:0:0:
385,293,218938,2,0,P|353:272|280:286,1,100,4|2,0:0|0:0,0:0:0:0:
219,344,219636,2,0,P|189:341|155:339,1,50,0|8,0:0|0:0,0:0:0:0:
119,339,219985,2,0,P|116:289|104:228,1,100,4|0,0:0|0:0,0:0:0:0:
80,197,220508,1,8,0:0:0:0:
178,182,220857,6,0,P|241:166|286:156,1,100,2|10,0:0|0:0,0:0:0:0:
272,58,221554,2,0,P|209:42|164:32,1,100,2|10,0:0|0:0,0:0:0:0:
74,27,222252,2,0,B|61:94|61:94|76:143|76:143|68:236,1,200,0|2,0:0|0:0,0:0:0:0:
72,323,223298,1,8,0:0:0:0:
170,345,223647,6,0,P|223:322|270:317,1,100,2|10,0:0|0:0,0:0:0:0:
362,339,224345,2,0,P|415:362|462:367,1,100,2|8,0:0|0:0,0:0:0:0:
493,273,225043,2,0,B|493:200|430:183|430:183|393:199|350:199,1,200,0|2,0:0|0:0,0:0:0:0:
252,183,226089,2,0,P|230:148|219:129,1,50,8|2,0:0|0:0,0:0:0:0:
189,105,226438,6,0,L|89:92,1,100,2|10,0:0|0:0,0:0:0:0:
41,180,227136,2,0,L|53:279,1,100,2|10,0:0|0:0,0:0:0:0:
153,281,227833,2,0,P|236:236|321:285,1,200,0|2,0:0|0:0,0:0:0:0:
235,336,228880,1,8,0:0:0:0:
142,375,229229,6,0,P|97:360|57:313,1,100,2|10,0:0|0:0,0:0:0:0:
47,223,229926,2,0,P|45:158|43:116,1,100,2|10,0:0|0:0,0:0:0:0:
111,49,230624,2,0,B|236:24|189:84|312:61,1,200,0|2,0:0|0:0,0:0:0:0:
307,162,231671,2,0,P|303:201|301:232,1,50,8|10,0:0|0:0,0:0:0:0:
309,261,232019,6,0,L|413:245,1,100,4|10,0:0|0:0,0:0:0:0:
473,170,232717,2,0,L|477:70,1,100,2|10,0:0|0:0,0:0:0:0:
391,17,233415,2,0,B|335:9|292:33|292:33|258:15|258:15|198:20,1,200,2|2,0:0|0:0,0:0:0:0:
99,29,234461,1,10,0:0:0:0:
30,101,234810,6,0,L|41:206,1,100,0|10,0:0|0:0,0:0:0:0:
140,203,235508,2,0,L|129:302,1,100,2|10,0:0|0:0,0:0:0:0:
216,352,236205,2,0,B|295:351|295:351|345:371|345:371|420:371,1,200,2|2,0:0|0:0,0:0:0:0:
462,284,237252,1,6,0:0:0:0:
434,187,237601,5,2,0:0:0:0:
256,192,237775,12,0,240392,0:0:0:0:
