osu file format v14

[General]
AudioFilename: audio.mp3
AudioLeadIn: 0
PreviewTime: 170571
Countdown: 1
SampleSet: Soft
StackLeniency: 0.7
Mode: 0
LetterboxInBreaks: 0
WidescreenStoryboard: 1

[Editor]
Bookmarks: 67489,123303,148245,170745,193071,220978
DistanceSpacing: 1
BeatDivisor: 4
GridSize: 4
TimelineZoom: 1

[Metadata]
Title:oddloop
TitleUnicode:オドループ
Artist:Frederic
ArtistUnicode:フレデリック
Creator:Komore
Version:collab insane feat. dailycare
Source:山田くんと7人の魔女
Tags:Yamada-kun to 7-nin no Majo Koji Mihara odoru to dance oddl∞p ova full ending ed wajinshu dailycare
BeatmapID:1262582
BeatmapSetID:595899

[Difficulty]
HPDrainRate:6
CircleSize:3.8
OverallDifficulty:7
ApproachRate:8.3
SliderMultiplier:1.35
SliderTickRate:1

[Events]
//Background and Video events
0,0,"countryside-30639-1920x1200.jpg",0,0
Video,-140,"opto.flv"
//Break Periods
2,78731,88990
//Storyboard Layer 0 (Background)
//Storyboard Layer 1 (Fail)
//Storyboard Layer 2 (Pass)
//Storyboard Layer 3 (Foreground)
//Storyboard Sound Samples

[TimingPoints]
392,348.837209302326,4,2,1,60,1,0
22717,-111.111111111111,4,2,1,60,0,0
45043,-100,4,2,1,60,0,1
67368,-100,4,2,1,60,0,0
89694,-111.111111111111,4,2,1,60,0,0
100857,-100,4,2,1,60,0,1
123182,-111.111111111111,4,2,1,60,0,0
148124,-100,4,2,1,60,0,0
170624,-100,4,2,1,60,0,1
190159,-100,4,2,1,60,0,0
192950,-100,4,2,1,60,0,1
220857,-100,4,2,1,60,0,0

[Colours]
Combo1 : 214,171,171
Combo2 : 185,255,185
Combo3 : 255,255,121
Combo4 : 157,206,255

[HitObjects]
142,105,218,5,2,0:0:0:0:
142,105,305,1,2,0:0:0:0:
142,104,392,2,0,P|127:170|147:234,2,135,6|10|2,0:0|0:0|0:0,0:0:0:0:
331,240,1438,1,10,0:0:0:0:
331,240,1612,6,0,P|325:273|320:306,1,67.5,2|0,0:0|0:0,0:0:0:0:
435,218,1961,2,0,P|429:184|411:156,1,67.5,2|8,0:0|0:0,0:0:0:0:
328,116,2310,1,2,0:0:0:0:
478,52,2485,1,2,0:0:0:0:
390,12,2659,2,0,P|394:45|399:78,1,67.5,2|8,0:0|0:0,0:0:0:0:
288,195,3008,5,2,0:0:0:0:
288,195,3095,1,2,0:0:0:0:
288,195,3182,2,0,B|212:175|230:229|154:208,1,135,2|10,0:0|0:0,0:0:0:0:
67,28,3880,2,0,P|129:46|141:109,1,135,2|8,0:0|0:0,0:0:0:0:
46,166,4403,6,0,P|48:199|51:233,1,67.5,2|0,0:0|0:0,0:0:0:0:
262,169,4752,2,0,P|222:167|172:150,1,67.5,2|8,0:0|0:0,0:0:0:0:
119,90,5101,1,2,0:0:0:0:
286,186,5275,1,2,0:0:0:0:
125,284,5450,2,0,P|130:246|138:202,1,67.5,2|8,0:0|0:0,0:0:0:0:
300,317,5798,5,2,0:0:0:0:
300,317,5886,1,2,0:0:0:0:
299,316,5973,2,0,P|364:333|424:306,2,135,2|10|2,0:0|0:0|0:0,0:0:0:0:
176,158,7019,1,10,0:0:0:0:
258,112,7194,6,0,P|268:144|267:177,1,67.5,2|0,0:0|0:0,0:0:0:0:
118,69,7543,2,0,P|122:37|127:1,1,67.5,2|8,0:0|0:0,0:0:0:0:
206,51,7892,1,2,0:0:0:0:
82,164,8066,1,2,0:0:0:0:
82,164,8240,2,0,P|49:159|16:157,1,67.5,2|8,0:0|0:0,0:0:0:0:
153,275,8589,5,2,0:0:0:0:
153,275,8676,1,2,0:0:0:0:
152,275,8764,2,0,P|218:260|284:272,1,135,2|10,0:0|0:0,0:0:0:0:
455,175,9461,2,0,P|471:110|448:48,1,135,2|10,0:0|0:0,0:0:0:0:
356,87,9985,6,0,P|361:118|365:154,1,67.5,2|0,0:0|0:0,0:0:0:0:
230,66,10333,2,0,P|233:31|239:0,1,67.5,2|8,0:0|0:0,0:0:0:0:
284,164,10682,2,0,P|250:166|217:172,1,67.5,2|2,0:0|0:0,0:0:0:0:
112,59,11031,1,2,0:0:0:0:
203,85,11205,1,8,0:0:0:0:
78,164,11380,5,2,0:0:0:0:
78,164,11467,1,2,0:0:0:0:
78,164,11554,2,0,L|94:298,2,135,6|10|2,0:0|0:0|0:0,0:0:0:0:
240,253,12601,1,10,0:0:0:0:
293,340,12775,6,0,P|259:344|225:348,1,67.5,2|0,0:0|0:0,0:0:0:0:
137,213,13124,2,0,P|144:245|151:278,1,67.5,2|8,0:0|0:0,0:0:0:0:
226,159,13473,1,2,0:0:0:0:
196,58,13647,1,2,0:0:0:0:
338,159,13822,2,0,P|370:152|404:148,1,67.5,2|8,0:0|0:0,0:0:0:0:
483,330,14171,5,2,0:0:0:0:
483,330,14258,1,2,0:0:0:0:
483,330,14345,2,0,P|425:297|359:307,1,135,2|8,0:0|0:0,0:0:0:0:
131,221,15043,2,0,P|199:214|266:206,1,135,2|10,0:0|0:0,0:0:0:0:
368,150,15566,6,0,P|369:116|363:83,1,67.5,2|0,0:0|0:0,0:0:0:0:
283,237,15915,2,0,P|316:238|349:244,1,67.5,2|8,0:0|0:0,0:0:0:0:
191,187,16264,2,0,P|167:209|140:247,1,67.5,2|2,0:0|0:0,0:0:0:0:
283,150,16612,1,2,0:0:0:0:
201,72,16787,1,8,0:0:0:0:
227,302,16961,5,2,0:0:0:0:
227,302,17048,1,2,0:0:0:0:
227,302,17136,2,0,B|303:282|285:336|361:315,2,135,6|10|2,0:0|0:0|0:0,0:0:0:0:
44,157,18182,1,10,0:0:0:0:
96,74,18357,6,0,P|65:62|32:60,1,67.5,2|0,0:0|0:0,0:0:0:0:
197,119,18705,2,0,P|201:85|205:51,1,67.5,2|8,0:0|0:0,0:0:0:0:
84,167,19054,1,2,0:0:0:0:
84,167,19229,1,2,0:0:0:0:
209,213,19403,2,0,P|241:204|275:199,1,67.5,2|8,0:0|0:0,0:0:0:0:
450,111,19752,5,2,0:0:0:0:
450,111,19839,1,2,0:0:0:0:
450,111,19926,2,0,P|382:107|315:99,1,135,2|10,0:0|0:0,0:0:0:0:
151,231,20624,2,0,P|208:198|273:211,1,135,2|10,0:0|0:0,0:0:0:0:
233,45,21147,6,0,P|224:73|221:111,1,67.5,2|0,0:0|0:0,0:0:0:0:
315,99,21496,1,2,0:0:0:0:
143,59,21671,2,0,P|79:67|8:71,1,135,4|10,1:0|0:0,0:0:0:0:
0,111,22107,1,8,0:0:0:0:
0,111,22194,2,0,P|3:134|6:156,1,33.75,10|8,0:0|0:0,0:0:0:0:
80,216,22368,2,0,P|112:206|145:202,1,67.5,8|8,0:0|0:0,0:0:0:0:
226,133,22717,6,0,P|284:147|345:146,1,121.499996292114,6|8,0:0|0:0,0:0:0:0:
444,92,23240,2,0,P|433:152|428:213,1,121.499996292114,2|2,0:0|0:0,0:0:0:0:
451,312,23764,2,0,P|422:304|392:299,1,60.7499981460572,8|2,0:0|0:0,0:0:0:0:
292,225,24112,6,0,P|239:252|180:245,2,121.499996292114,4|8|4,3:0|0:0|3:0,0:0:0:0:
422,138,24985,1,2,0:0:0:0:
335,84,25159,2,0,L|327:144,1,60.7499981460572,8|0,0:0|0:0,0:0:0:0:
196,205,25508,6,0,P|135:197|75:192,1,121.499996292114,2|8,0:0|0:0,0:0:0:0:
0,81,26031,2,0,P|49:47|108:53,1,121.499996292114,2|2,0:0|0:0,0:0:0:0:
206,101,26554,2,0,L|266:91,1,60.7499981460572,8|2,0:0|0:0,0:0:0:0:
372,158,26903,6,0,P|378:98|386:38,2,121.499996292114,4|8|4,3:0|0:0|3:0,0:0:0:0:
462,70,27775,1,0,0:0:0:0:
286,94,27950,2,0,P|257:88|227:83,1,60.7499981460572,8|2,0:0|0:0,0:0:0:0:
102,29,28298,5,4,3:0:0:0:
154,117,28473,1,2,0:0:0:0:
59,178,28647,2,0,P|62:147|66:117,1,60.7499981460572,8|2,0:0|0:0,0:0:0:0:
135,271,28996,2,0,P|95:294|67:300,1,60.7499981460572,4|2,3:0|0:0,0:0:0:0:
220,181,29345,2,0,P|250:186|280:194,1,60.7499981460572,8|2,0:0|0:0,0:0:0:0:
429,91,29694,6,0,P|375:122|319:112,2,121.499996292114,4|8|4,3:0|0:0|3:0,0:0:0:0:
360,26,30566,1,2,0:0:0:0:
497,10,30740,2,0,P|501:39|506:69,1,60.7499981460572,8|2,0:0|0:0,0:0:0:0:
430,187,31089,6,0,P|371:176|310:169,1,121.499996292114,4|8,3:0|0:0,0:0:0:0:
227,83,31612,2,0,P|231:52|235:22,1,60.7499981460572,2|4,0:0|3:0,0:0:0:0:
129,163,31961,2,0,P|133:193|137:223,1,60.7499981460572,2|8,0:0|0:0,0:0:0:0:
24,118,32310,1,2,0:0:0:0:
239,168,32485,5,4,3:0:0:0:
220,263,32659,1,2,0:0:0:0:
200,359,32833,1,8,0:0:0:0:
61,306,33008,2,0,L|98:296,2,30.3749990730286,0|2|6,3:0|3:0|3:0,0:0:0:0:
123,195,33357,1,2,3:0:0:0:
29,148,33531,2,0,P|32:178|37:208,1,60.7499981460572,10|0,0:0|0:0,0:0:0:0:
127,108,33880,6,0,P|185:106|217:58,1,121.499996292114,4|8,3:0|0:0,0:0:0:0:
285,184,34403,2,0,L|271:309,1,121.499996292114,2|2,0:0|0:0,0:0:0:0:
379,229,34926,1,8,0:0:0:0:
350,128,35101,1,2,0:0:0:0:
496,171,35275,6,0,P|465:167|435:162,1,60.7499981460572,4|0,3:0|0:0,0:0:0:0:
296,70,35624,2,0,P|300:40|306:10,1,60.7499981460572,8|0,0:0|0:0,0:0:0:0:
377,112,35973,1,4,3:0:0:0:
246,169,36147,2,0,P|217:161|187:157,2,60.7499981460572,2|8|0,0:0|0:0|0:0,0:0:0:0:
370,262,36671,6,0,P|430:251|490:245,1,121.499996292114,4|8,3:0|0:0,0:0:0:0:
373,55,37194,2,0,P|343:106|355:165,1,121.499996292114,2|2,0:0|0:0,0:0:0:0:
469,65,37717,2,0,P|464:34|459:5,1,60.7499981460572,8|2,0:0|0:0,0:0:0:0:
354,165,38066,6,0,P|386:166|415:172,1,60.7499981460572,4|2,3:0|0:0,0:0:0:0:
208,207,38415,2,0,P|195:234|177:258,1,60.7499981460572,8|0,0:0|0:0,0:0:0:0:
273,145,38764,2,0,P|263:84|252:25,1,121.499996292114,4|8,3:0|0:0,0:0:0:0:
349,54,39287,1,2,3:0:0:0:
170,108,39461,6,0,P|111:115|60:85,2,121.499996292114,4|8|4,3:0|0:0|3:0,0:0:0:0:
310,141,40333,1,2,0:0:0:0:
253,16,40508,2,0,P|249:46|246:76,1,60.7499981460572,8|2,0:0|0:0,0:0:0:0:
345,217,40857,6,0,P|406:211|465:205,2,121.499996292114,4|8|4,3:0|0:0|3:0,0:0:0:0:
373,53,41729,1,2,0:0:0:0:
449,128,41903,1,10,0:0:0:0:
277,135,42078,6,0,P|279:104|284:71,1,60.7499981460572,2|4,0:0|3:0,0:0:0:0:
166,169,42426,2,0,P|167:199|172:229,1,60.7499981460572,2|8,0:0|0:0,0:0:0:0:
302,306,42775,2,0,P|332:300|363:299,1,60.7499981460572,2|4,0:0|3:0,0:0:0:0:
169,365,43124,2,0,P|134:359|84:360,1,60.7499981460572,2|8,0:0|0:0,0:0:0:0:
0,261,43473,6,0,P|22:210|78:217,1,121.499996292114,2|2,0:0|0:0,0:0:0:0:
171,144,43996,2,0,P|174:113|177:83,1,60.7499981460572,4|0,1:0|0:0,0:0:0:0:
298,248,44345,1,8,0:0:0:0:
278,271,44432,1,8,0:0:0:0:
249,281,44519,1,8,0:0:0:0:
218,277,44607,1,8,0:0:0:0:
190,264,44694,2,0,L|198:219,3,30.3749990730286,8|8|8|8,0:0|0:0|0:0|0:0,0:0:0:0:
169,203,45043,6,0,P|177:269|184:337,1,135,4|10,0:0|0:0,0:0:0:0:
23,275,45566,2,0,P|53:259|87:260,1,67.5,2|4,0:0|3:0,0:0:0:0:
196,179,45915,1,2,0:0:0:0:
107,73,46089,2,0,P|102:107|96:151,1,67.5,10|0,0:0|0:0,0:0:0:0:
272,254,46438,6,0,P|305:246|339:243,1,67.5,4|2,3:0|0:0,0:0:0:0:
481,147,46787,2,0,P|447:143|414:136,1,67.5,10|0,0:0|0:0,0:0:0:0:
307,65,47136,1,4,3:0:0:0:
329,157,47310,1,0,0:0:0:0:
438,251,47485,1,10,0:0:0:0:
416,343,47659,1,0,0:0:0:0:
289,280,47833,6,0,P|228:253|164:271,1,135,4|8,3:0|0:0,0:0:0:0:
6,180,48357,2,0,P|68:174|144:163,1,135,2|2,0:0|0:0,0:0:0:0:
83,332,48880,2,0,L|72:265,1,67.5,8|0,0:0|0:0,0:0:0:0:
214,97,49229,5,4,3:0:0:0:
56,171,49403,1,2,0:0:0:0:
218,194,49578,1,10,0:0:0:0:
95,83,49752,1,2,0:0:0:0:
196,290,49926,2,0,B|272:294|252:245|325:252,1,135,4|8,3:0|0:0,0:0:0:0:
411,297,50450,1,0,0:0:0:0:
501,162,50624,6,0,P|448:182|371:135,1,135,4|8,3:0|0:0,0:0:0:0:
286,38,51147,2,0,P|321:27|359:21,1,67.5,2|0,0:0|0:0,0:0:0:0:
443,93,51496,1,2,0:0:0:0:
306,167,51671,2,0,P|270:157|233:150,1,67.5,8|0,0:0|0:0,0:0:0:0:
205,294,52019,6,0,P|202:260|199:226,1,67.5,4|2,3:0|0:0,0:0:0:0:
339,81,52368,2,0,P|336:114|333:148,1,67.5,10|0,0:0|0:0,0:0:0:0:
181,25,52717,1,4,3:0:0:0:
256,124,52892,1,0,0:0:0:0:
107,177,53066,2,0,P|75:169|41:167,1,67.5,8|0,0:0|0:0,0:0:0:0:
168,325,53415,6,0,P|230:348|283:310,1,135,4|8,3:0|0:0,0:0:0:0:
402,239,53938,1,2,0:0:0:0:
316,169,54112,2,0,P|321:203|326:241,1,67.5,0|2,0:0|0:0,0:0:0:0:
459,354,54461,2,0,P|461:324|468:287,1,67.5,8|0,0:0|0:0,0:0:0:0:
476,126,54810,5,4,3:0:0:0:
316,169,54985,1,2,0:0:0:0:
487,205,55159,1,10,0:0:0:0:
400,52,55333,1,2,0:0:0:0:
385,235,55508,5,4,3:0:0:0:
312,294,55682,1,2,0:0:0:0:
219,272,55857,1,10,0:0:0:0:
169,191,56031,1,2,0:0:0:0:
267,111,56205,6,0,P|292:97|328:88,1,67.5,4|0,1:0|0:0,0:0:0:0:
137,180,56554,2,0,P|112:166|75:157,1,67.5,8|0,0:0|0:0,0:0:0:0:
274,233,56903,2,0,P|299:219|335:210,1,67.5,4|0,3:0|0:0,0:0:0:0:
144,302,57252,2,0,P|119:288|82:279,1,67.5,8|0,0:0|0:0,0:0:0:0:
272,374,57601,5,4,3:0:0:0:
254,281,57775,1,2,0:0:0:0:
438,313,57950,1,10,0:0:0:0:
457,220,58124,1,2,0:0:0:0:
358,316,58298,2,0,L|367:382,1,67.5,4|0,3:0|0:0,0:0:0:0:
228,261,58647,2,0,P|230:228|237:195,1,67.5,10|0,0:0|0:0,0:0:0:0:
240,370,58996,6,0,P|178:345|112:355,1,135,4|8,3:0|0:0,0:0:0:0:
11,251,59519,2,0,P|-7:186|6:121,1,135,2|2,0:0|0:0,0:0:0:0:
122,206,60043,2,0,P|119:240|116:274,1,67.5,10|0,0:0|0:0,0:0:0:0:
243,194,60392,5,4,3:0:0:0:
219,88,60566,1,2,0:0:0:0:
349,212,60740,2,0,P|382:203|416:198,1,67.5,10|0,0:0|0:0,0:0:0:0:
267,339,61089,2,0,P|234:330|200:325,1,67.5,4|0,3:0|0:0,0:0:0:0:
410,384,61438,1,10,0:0:0:0:
410,384,61612,1,0,0:0:0:0:
495,294,61787,6,0,P|427:287|361:271,1,135,4|8,0:0|0:0,0:0:0:0:
213,179,62310,2,0,L|229:312,1,135,2|2,0:0|0:0,0:0:0:0:
319,187,62833,1,10,0:0:0:0:
283,89,63008,1,2,0:0:0:0:
420,188,63182,6,0,P|415:223|404:261,1,67.5,4|0,3:0|0:0,0:0:0:0:
498,87,63531,2,0,P|509:126|512:161,1,67.5,10|0,0:0|0:0,0:0:0:0:
385,59,63880,2,0,P|324:86|261:66,1,135,4|8,3:0|0:0,0:0:0:0:
121,134,64403,1,0,0:0:0:0:
171,13,64578,6,0,P|176:46|182:79,1,67.5,4|0,3:0|0:0,0:0:0:0:
48,181,64926,1,8,0:0:0:0:
56,79,65101,1,0,0:0:0:0:
121,250,65275,2,0,P|94:273|62:282,1,67.5,4|0,3:0|0:0,0:0:0:0:
231,178,65624,2,0,P|254:202|269:232,1,67.5,4|4,3:0|0:0,0:0:0:0:
119,127,65973,5,2,0:0:0:0:
155,15,66147,1,0,0:0:0:0:
30,125,66322,2,0,P|35:156|41:195,1,67.5,8|0,0:0|0:0,0:0:0:0:
192,302,66671,2,0,P|249:268|321:287,1,135,2|8,0:0|0:0,0:0:0:0:
267,53,67194,5,10,0:0:0:0:
267,53,67281,1,10,0:0:0:0:
267,53,67368,2,0,P|261:125|256:193,2,135,2|10|2,0:0|0:0|0:0,0:0:0:0:
411,203,68415,1,10,0:0:0:0:
411,203,68589,6,0,L|337:199,1,67.5,2|0,0:0|0:0,0:0:0:0:
459,345,68938,2,0,P|475:300|477:263,1,67.5,2|8,0:0|0:0,0:0:0:0:
382,117,69287,1,2,0:0:0:0:
390,287,69461,1,2,0:0:0:0:
262,223,69636,2,0,L|187:230,1,67.5,2|8,0:0|0:0,0:0:0:0:
304,85,69985,5,2,0:0:0:0:
304,85,70072,1,2,0:0:0:0:
304,85,70159,2,0,P|214:75|148:67,2,135,2|10|2,0:0|0:0|0:0,0:0:0:0:
129,157,71205,1,8,0:0:0:0:
129,157,71380,6,0,P|89:147|54:137,1,67.5,2|0,0:0|0:0,0:0:0:0:
87,309,71729,2,0,P|127:319|162:329,1,67.5,2|8,0:0|0:0,0:0:0:0:
221,231,72078,2,0,L|214:144,1,67.5,2|2,0:0|0:0,0:0:0:0:
150,75,72426,1,2,0:0:0:0:
134,238,72601,1,8,0:0:0:0:
299,121,72775,5,6,0:0:0:0:
299,121,72862,1,2,0:0:0:0:
299,121,72950,2,0,P|354:114|435:177,2,135,2|10|2,0:0|0:0|0:0,0:0:0:0:
134,238,73996,1,10,0:0:0:0:
134,238,74171,6,0,L|124:152,1,67.5,2|0,0:0|0:0,0:0:0:0:
212,57,74519,2,0,L|219:124,1,67.5,2|8,0:0|0:0,0:0:0:0:
308,308,74868,1,2,0:0:0:0:
346,193,75043,1,2,0:0:0:0:
436,264,75217,2,0,L|528:272,1,67.5,2|8,0:0|0:0,0:0:0:0:
279,232,75566,5,2,0:0:0:0:
279,232,75653,1,2,0:0:0:0:
279,232,75740,2,0,P|189:242|123:250,2,135,2|10|2,0:0|0:0|0:0,0:0:0:0:
454,138,76787,1,10,0:0:0:0:
454,138,76961,6,0,P|403:127|369:116,1,67.5,2|0,0:0|0:0,0:0:0:0:
254,72,77310,2,0,L|263:158,1,67.5,2|8,0:0|0:0,0:0:0:0:
384,295,77659,1,10,0:0:0:0:
387,270,77746,1,8,0:0:0:0:
391,244,77833,1,4,3:0:0:0:
309,346,78008,5,8,3:0:0:0:
475,278,78182,1,4,3:0:0:0:
329,184,78357,1,8,3:0:0:0:
433,372,78531,5,4,0:0:0:0:
433,372,89694,6,0,P|435:312|449:241,1,121.499996292114,6|8,0:0|0:0,0:0:0:0:
509,124,90217,2,0,B|427:132|470:169|383:176,1,121.499996292114,0|0,0:0|0:0,0:0:0:0:
309,118,90740,1,10,0:0:0:0:
346,243,90915,1,0,0:0:0:0:
390,94,91089,6,0,L|391:25,1,60.7499981460572,2|0,0:0|0:0,0:0:0:0:
238,162,91438,2,0,P|246:212|251:298,1,121.499996292114,10|2,0:0|0:0,0:0:0:0:
401,173,91961,1,2,0:0:0:0:
265,79,92136,1,8,0:0:0:0:
323,218,92310,1,2,0:0:0:0:
383,91,92485,6,0,L|389:23,1,60.7499981460572,2|0,0:0|0:0,0:0:0:0:
163,115,92833,1,10,0:0:0:0:
238,162,93008,2,0,L|243:222,1,60.7499981460572,2|0,0:0|0:0,0:0:0:0:
86,159,93357,2,0,P|75:122|84:79,1,60.7499981460572,2|8,0:0|0:0,0:0:0:0:
178,291,93705,1,2,0:0:0:0:
101,249,93880,6,0,P|68:241|23:242,1,60.7499981460572,2|0,0:0|0:0,0:0:0:0:
206,373,94229,2,0,P|236:371|265:363,1,60.7499981460572,10|4,0:0|3:0,0:0:0:0:
384,250,94578,2,0,L|392:210,3,30.3749990730286,2|0|0|0,0:0|0:0|0:0|0:0,0:0:0:0:
379,193,94926,1,10,0:0:0:0:
357,342,95101,1,0,0:0:0:0:
288,223,95275,6,0,P|236:216|150:209,1,121.499996292114,4|8,0:0|0:0,0:0:0:0:
44,288,95798,2,0,P|73:256|56:159,1,121.499996292114,2|0,0:0|0:0,0:0:0:0:
168,60,96322,2,0,P|168:90|171:123,1,60.7499981460572,10|0,0:0|0:0,0:0:0:0:
343,78,96671,5,2,0:0:0:0:
253,91,96845,1,2,0:0:0:0:
168,60,97019,2,0,L|87:69,1,60.7499981460572,10|0,0:0|0:0,0:0:0:0:
234,0,97368,5,2,0:0:0:0:
253,91,97543,1,2,0:0:0:0:
187,156,97717,2,0,P|173:191|180:228,1,60.7499981460572,10|0,0:0|0:0,0:0:0:0:
220,365,98066,5,2,0:0:0:0:
304,217,98240,1,2,0:0:0:0:
98,252,98415,1,10,0:0:0:0:
239,277,98589,1,2,0:0:0:0:
103,174,98764,5,2,0:0:0:0:
162,308,98938,1,2,0:0:0:0:
46,240,99112,1,10,0:0:0:0:
233,193,99286,1,2,0:0:0:0:
34,126,99461,5,2,0:0:0:0:
223,176,99636,1,2,0:0:0:0:
85,35,99810,1,10,0:0:0:0:
253,18,99985,1,2,0:0:0:0:
132,139,100159,5,8,0:0:0:0:
123,169,100246,1,8,0:0:0:0:
126,202,100333,1,8,0:0:0:0:
143,231,100421,1,8,0:0:0:0:
171,249,100508,2,0,P|193:256|224:249,3,30.3749990730286,8|8|8|8,0:0|0:0|0:0|0:0,0:0:0:0:
227,281,100857,6,0,P|231:225|242:122,1,135,4|10,0:0|0:0,0:0:0:0:
161,0,101380,2,0,P|170:37|175:74,1,67.5,2|4,0:0|3:0,0:0:0:0:
324,192,101729,1,2,0:0:0:0:
338,90,101903,2,0,L|329:16,1,67.5,10|0,0:0|0:0,0:0:0:0:
434,90,102252,5,4,3:0:0:0:
247,131,102426,1,2,0:0:0:0:
394,242,102601,2,0,L|465:232,1,67.5,10|0,0:0|0:0,0:0:0:0:
338,90,102950,6,0,P|329:122|327:156,1,67.5,4|0,3:0|0:0,0:0:0:0:
374,325,103298,1,10,0:0:0:0:
278,252,103473,1,0,0:0:0:0:
182,343,103647,6,0,P|157:366|34:362,1,135,4|8,3:0|0:0,0:0:0:0:
14,163,104171,2,0,P|46:172|84:203,1,67.5,2|4,0:0|3:0,0:0:0:0:
198,261,104519,1,2,0:0:0:0:
124,124,104694,1,8,0:0:0:0:
284,99,104868,1,0,0:0:0:0:
194,21,105043,5,4,3:0:0:0:
172,186,105217,1,2,0:0:0:0:
13,87,105392,1,10,0:0:0:0:
35,252,105566,1,2,0:0:0:0:
121,89,105740,2,0,P|182:76|263:127,1,135,4|8,3:0|0:0,0:0:0:0:
274,190,106264,1,0,0:0:0:0:
463,105,106438,6,0,P|426:99|321:78,1,135,4|8,0:0|0:0,0:0:0:0:
395,195,106961,2,0,P|399:236|400:273,1,67.5,2|0,0:0|0:0,0:0:0:0:
242,100,107310,1,2,0:0:0:0:
181,219,107485,2,0,L|113:230,1,67.5,10|0,0:0|0:0,0:0:0:0:
138,18,107833,5,4,3:0:0:0:
242,100,108008,1,2,0:0:0:0:
59,77,108182,2,0,P|48:47|40:-10,1,67.5,10|0,0:0|0:0,0:0:0:0:
183,174,108531,6,0,L|170:258,1,67.5,4|0,3:0|0:0,0:0:0:0:
81,355,108880,1,8,0:0:0:0:
49,249,109054,1,0,0:0:0:0:
223,310,109229,6,0,B|295:293|276:343|375:315,1,135,4|8,3:3|0:0,0:0:0:0:
505,218,109752,1,2,0:0:0:0:
445,336,109926,2,0,P|434:292|438:258,1,67.5,4|2,3:0|0:0,0:0:0:0:
388,133,110275,2,0,P|388:166|378:198,1,67.5,8|0,0:0|0:0,0:0:0:0:
167,135,110624,5,4,3:0:0:0:
339,64,110798,1,2,0:0:0:0:
224,202,110973,1,10,0:0:0:0:
199,23,111147,1,2,0:0:0:0:
302,179,111322,5,4,3:0:0:0:
393,201,111496,1,2,0:0:0:0:
478,155,111671,1,10,0:0:0:0:
499,63,111845,1,2,0:0:0:0:
338,2,112019,6,0,L|332:69,1,67.5,4|0,0:0|0:0,0:0:0:0:
380,257,112368,2,0,L|385:189,1,67.5,8|0,0:0|0:0,0:0:0:0:
229,29,112717,2,0,L|223:96,1,67.5,4|0,3:0|0:0,0:0:0:0:
275,299,113066,2,0,L|280:231,1,67.5,8|0,0:0|0:0,0:0:0:0:
107,138,113415,5,4,3:0:0:0:
13,150,113589,1,2,0:0:0:0:
104,269,113764,1,10,0:0:0:0:
198,281,113938,1,2,0:0:0:0:
21,330,114112,2,0,L|13:247,1,67.5,4|0,3:0|0:0,0:0:0:0:
121,119,114461,2,0,L|114:186,1,67.5,10|0,0:0|0:0,0:0:0:0:
165,367,114810,6,0,P|218:375|278:313,1,135,4|8,3:0|0:0,0:0:0:0:
335,171,115333,2,0,P|288:160|202:151,1,135,2|2,0:0|0:0,0:0:0:0:
340,258,115857,1,10,0:0:0:0:
414,115,116031,1,0,0:0:0:0:
444,250,116205,5,4,3:0:0:0:
258,196,116380,1,2,0:0:0:0:
373,313,116554,2,0,P|381:350|382:389,1,67.5,10|0,0:0|0:0,0:0:0:0:
337,217,116903,6,0,P|338:183|346:150,1,67.5,4|0,3:0|0:0,0:0:0:0:
510,105,117252,1,10,0:0:0:0:
480,9,117426,1,0,0:0:0:0:
439,165,117601,6,0,P|446:224|476:320,1,135,4|8,0:0|0:0,0:0:0:0:
335,373,118124,2,0,P|344:328|346:288,1,67.5,2|4,0:0|3:0,0:0:0:0:
355,169,118473,1,2,0:0:0:0:
233,200,118648,2,0,L|165:205,1,67.5,10|0,0:0|0:0,0:0:0:0:
274,287,118996,5,4,3:0:0:0:
193,113,119171,1,0,0:0:0:0:
340,76,119345,2,0,L|428:83,1,67.5,10|0,0:0|0:0,0:0:0:0:
233,200,119694,2,0,P|180:226|89:210,1,135,4|8,3:0|0:0,0:0:0:0:
30,97,120217,1,0,0:0:0:0:
121,58,120392,6,0,L|116:125,1,67.5,4|0,3:0|0:0,0:0:0:0:
56,294,120740,1,8,0:0:0:0:
17,179,120915,1,0,0:0:0:0:
184,209,121089,2,0,P|226:204|269:179,1,67.5,4|0,3:0|0:0,0:0:0:0:
199,355,121438,2,0,P|167:342|134:339,1,67.5,4|2,3:0|0:0,0:0:0:0:
105,201,121787,5,2,0:0:0:0:
260,286,121961,1,0,0:0:0:0:
195,119,122136,2,0,L|203:187,1,67.5,8|0,0:0|0:0,0:0:0:0:
356,326,122485,2,0,P|382:294|383:194,1,135,2|8,0:0|0:0,0:0:0:0:
324,118,123008,1,2,0:0:0:0:
417,67,123182,6,0,P|414:98|411:136,1,60.7499981460572,2|0,0:0|0:0,0:0:0:0:
301,204,123531,2,0,P|298:173|295:143,1,60.7499981460572,10|0,0:0|0:0,0:0:0:0:
189,61,123880,2,0,P|186:92|183:130,1,60.7499981460572,2|4,0:0|3:0,0:0:0:0:
73,198,124229,2,0,P|70:167|67:137,1,60.7499981460572,10|0,0:0|0:0,0:0:0:0:
168,272,124578,6,0,P|108:280|33:299,1,121.499996292114,2|10,0:0|0:0,0:0:0:0:
275,332,125101,2,0,P|292:275|264:206,1,121.499996292114,2|4,0:0|3:0,0:0:0:0:
168,305,125624,2,0,L|173:365,1,60.7499981460572,10|0,0:0|0:0,0:0:0:0:
230,130,125973,5,4,0:3:0:0:
39,242,126147,2,0,P|101:223|159:214,1,121.499996292114,2|2,0:0|0:0,0:0:0:0:
87,73,126671,2,0,P|88:100|93:134,1,60.7499981460572,2|4,0:0|3:0,0:0:0:0:
247,256,127019,2,0,P|251:225|252:195,1,60.7499981460572,10|0,0:0|0:0,0:0:0:0:
91,347,127368,6,0,P|127:311|195:334,1,121.499996292114,2|10,0:0|0:0,0:0:0:0:
372,215,127892,2,0,P|312:208|231:189,1,121.499996292114,2|4,0:0|3:0,0:0:0:0:
156,142,128415,1,10,0:0:0:0:
203,294,128589,1,0,0:0:0:0:
72,224,128764,6,0,P|57:163|78:95,1,121.499996292114,2|10,0:0|0:0,0:0:0:0:
189,256,129287,2,0,P|184:313|176:395,1,121.499996292114,2|4,0:0|3:0,0:0:0:0:
30,321,129810,2,0,P|61:308|109:304,1,60.7499981460572,10|0,0:0|0:0,0:0:0:0:
297,357,130159,6,0,P|372:356|433:336,1,121.499996292114,2|10,0:0|0:0,0:0:0:0:
505,147,130682,2,0,L|485:289,1,121.499996292114,2|4,0:0|3:0,0:0:0:0:
333,184,131205,2,0,P|370:182|413:164,1,60.7499981460572,10|0,0:0|0:0,0:0:0:0:
448,76,131554,5,2,0:0:0:0:
232,17,131729,1,2,0:0:0:0:
317,72,131903,1,10,0:0:0:0:
317,72,132078,1,2,0:0:0:0:
190,138,132252,5,2,0:0:0:0:
370,11,132426,1,4,3:0:0:0:
209,41,132601,1,10,0:0:0:0:
241,206,132775,1,2,0:0:0:0:
352,259,132950,6,0,P|411:245|471:236,1,121.499996292114,2|10,0:0|0:0,0:0:0:0:
324,131,133473,1,0,0:0:0:0:
324,131,133560,1,0,0:0:0:0:
324,131,133647,2,0,L|313:92,2,30.3749990730286,2|0|0,0:0|0:0|0:0,0:0:0:0:
471,26,133996,2,0,P|466:45|459:90,1,60.7499981460572,8|0,0:0|0:0,0:0:0:0:
429,188,134345,6,0,P|462:193|496:204,1,60.7499981460572,2|0,0:0|0:0,0:0:0:0:
316,102,134694,2,0,P|370:87|397:87,1,60.7499981460572,10|0,0:0|0:0,0:0:0:0:
224,194,135043,2,0,P|257:199|291:210,1,60.7499981460572,2|4,0:0|3:0,0:0:0:0:
126,110,135392,2,0,P|180:95|207:95,1,60.7499981460572,10|0,0:0|0:0,0:0:0:0:
108,240,135740,6,0,P|71:196|12:198,1,121.499996292114,2|10,0:0|0:0,0:0:0:0:
154,320,136264,2,0,P|261:305|303:304,1,121.499996292114,2|4,0:0|3:0,0:0:0:0:
241,162,136787,2,0,L|233:242,1,60.7499981460572,10|0,0:0|0:0,0:0:0:0:
361,322,137136,5,4,0:3:0:0:
506,201,137310,2,0,P|442:211|391:162,1,121.499996292114,2|2,0:0|0:0,0:0:0:0:
328,66,137833,2,0,P|357:56|395:52,1,60.7499981460572,2|4,0:0|3:0,0:0:0:0:
252,162,138182,2,0,P|240:134|226:98,1,60.7499981460572,10|0,0:0|0:0,0:0:0:0:
373,163,138531,5,2,0:0:0:0:
240,265,138705,2,0,P|203:259|168:253,1,60.7499981460572,0|10,0:0|0:0,0:0:0:0:
58,148,139054,2,0,P|95:142|130:136,1,60.7499981460572,2|0,0:0|0:0,0:0:0:0:
81,244,139403,1,4,3:0:0:0:
215,156,139578,2,0,P|210:126|204:96,1,60.7499981460572,10|0,0:0|0:0,0:0:0:0:
107,15,139926,5,6,0:0:0:0:
285,68,140101,1,0,0:0:0:0:
121,176,140275,2,0,P|82:170|38:169,1,60.7499981460572,10|2,0:0|0:0,0:0:0:0:
271,213,140624,2,0,P|332:209|392:208,1,121.499996292114,2|10,0:0|0:0,0:0:0:0:
93,354,141322,6,0,P|82:301|95:236,1,121.499996292114,2|10,0:0|0:0,0:0:0:0:
201,145,141845,1,0,0:0:0:0:
104,87,142019,2,0,P|97:122|91:154,1,60.7499981460572,2|4,0:0|3:0,0:0:0:0:
263,60,142368,2,0,P|261:28|252:-9,1,60.7499981460572,10|0,0:0|0:0,0:0:0:0:
224,172,142717,6,0,P|292:159|369:149,1,121.499996292114,6|8,0:0|0:0,0:0:0:0:
435,205,143240,1,2,0:0:0:0:
512,52,143415,2,0,P|458:80|384:56,1,121.499996292114,2|8,0:0|0:0,0:0:0:0:
273,245,144112,6,0,P|220:217|161:228,1,121.499996292114,2|8,0:0|0:0,0:0:0:0:
62,132,144636,1,2,0:0:0:0:
164,24,144810,2,0,P|157:88|151:165,1,121.499996292114,2|8,0:0|0:0,0:0:0:0:
442,312,145508,6,0,P|406:295|376:282,1,60.7499981460572,4|0,0:0|0:0,0:0:0:0:
241,313,145857,2,0,P|234:347|227:388,1,60.7499981460572,8|0,0:0|0:0,0:0:0:0:
359,202,146205,2,0,P|355:174|347:142,1,60.7499981460572,0|4,0:0|3:0,0:0:0:0:
213,36,146554,2,0,P|205:65|201:95,1,60.7499981460572,8|0,0:0|0:0,0:0:0:0:
241,313,146903,5,12,0:0:0:0:
5,198,147078,1,4,0:3:0:0:
261,154,147252,5,12,0:0:0:0:
106,315,147426,1,4,0:3:0:0:
309,237,147601,5,2,1:2:0:0:
140,147,147775,1,0,0:0:0:0:
235,345,147950,1,8,0:0:0:0:
339,165,148124,6,0,L|396:158,2,33.75,10|2|4,0:0|0:0|0:0,0:0:0:0:
205,224,148473,2,0,L|148:217,2,33.75,2|2|8,0:0|0:0|0:0,0:0:0:0:
379,272,148822,2,0,L|436:265,2,33.75,2|2|4,0:0|0:0|3:0,0:0:0:0:
203,339,149171,2,0,L|146:332,2,33.75,2|2|8,0:0|0:0|0:0,0:0:0:0:
297,262,149520,5,2,0:0:0:0:
297,262,149607,1,2,0:0:0:0:
297,262,149694,2,0,P|302:229|302:170,1,67.5,4|2,3:0|0:0,0:0:0:0:
300,169,149955,2,0,L|353:177,1,33.75,2|10,0:0|0:0,0:0:0:0:
210,266,150217,1,2,0:0:0:0:
199,85,150392,1,2,0:0:0:0:
199,85,150740,6,0,P|176:92|148:91,1,33.75,10|0,0:0|0:0,0:0:0:0:
141,200,150915,2,0,P|164:193|192:194,1,33.75,2|0,0:0|0:0,0:0:0:0:
281,132,151089,5,2,0:0:0:0:
160,16,151264,1,2,0:0:0:0:
345,74,151438,1,10,0:0:0:0:
251,211,151612,5,2,0:0:0:0:
405,130,151787,1,2,0:0:0:0:
236,75,151961,2,0,P|230:29|230:4,1,67.5,2|10,0:0|0:0,0:0:0:0:
339,187,152310,6,0,L|333:343,1,135,2|2,0:0|0:0,0:0:0:0:
343,340,152746,1,2,0:0:0:0:
356,353,152833,2,0,L|424:341,1,67.5,10|2,0:0|0:0,0:0:0:0:
213,286,153182,1,2,0:0:0:0:
213,286,153531,5,8,0:0:0:0:
339,187,153705,2,0,L|327:88,1,67.5,6|0,0:0|0:0,0:0:0:0:
200,21,154054,6,0,B|173:96|223:79|193:176,1,135,2|2,0:0|0:0,0:0:0:0:
82,120,154578,1,2,0:0:0:0:
124,285,154752,2,0,P|126:318|127:352,1,67.5,2|10,0:0|0:0,0:0:0:0:
0,216,155101,6,0,P|45:205|162:204,1,135,2|2,0:0|0:0,0:0:0:0:
302,315,155624,1,2,0:0:0:0:
277,166,155798,1,2,0:0:0:0:
205,281,155973,1,2,0:0:0:0:
382,251,156147,2,0,P|433:246|477:244,1,67.5,2|10,0:0|0:0,0:0:0:0:
507,139,156496,1,2,0:0:0:0:
475,322,156671,5,2,0:0:0:0:
397,171,156846,1,2,0:0:0:0:
320,304,157019,5,10,0:0:0:0:
354,101,157194,1,2,0:0:0:0:
215,192,157368,5,2,0:0:0:0:
382,251,157543,1,2,0:0:0:0:
249,330,157717,1,10,0:0:0:0:
300,153,157892,6,0,L|394:146,1,67.5,2|2,0:0|0:0,0:0:0:0:
486,190,158240,1,2,0:0:0:0:
286,252,158415,6,0,L|192:245,1,67.5,10|2,0:0|0:0,0:0:0:0:
101,287,158763,1,2,0:0:0:0:
101,287,159112,5,10,0:0:0:0:
178,170,159287,2,0,P|194:129|189:36,1,135,4|2,0:0|0:0,0:0:0:0:
279,136,159810,6,0,P|331:128|372:129,1,67.5,10|2,0:0|0:0,0:0:0:0:
434,255,160159,1,2,0:0:0:0:
501,135,160333,2,0,L|506:63,1,67.5,2|10,0:0|0:0,0:0:0:0:
314,0,160682,6,0,P|283:22|260:115,1,135,2|2,0:0|0:0,0:0:0:0:
236,309,161205,2,0,P|225:254|206:217,1,67.5,10|2,0:0|0:0,0:0:0:0:
54,194,161554,1,2,0:0:0:0:
183,93,161729,1,2,0:0:0:0:
71,16,161903,2,0,L|66:83,1,67.5,8|2,0:0|0:0,0:0:0:0:
129,244,162252,6,0,L|213:235,1,67.5,2|2,0:0|0:0,0:0:0:0:
336,149,162601,2,0,P|341:106|338:67,1,67.5,10|2,0:0|0:0,0:0:0:0:
183,93,162950,1,2,0:0:0:0:
274,248,163124,2,0,L|285:336,1,67.5,2|10,0:0|0:0,0:0:0:0:
187,370,163473,5,2,0:0:0:0:
215,190,163647,2,0,L|226:102,1,67.5,2|2,0:0|0:0,0:0:0:0:
108,83,163996,1,10,0:0:0:0:
139,227,164171,2,0,L|150:315,2,67.5,2|2|2,0:0|0:0|0:0,0:0:0:0:
251,167,164694,1,10,0:0:0:0:
42,223,164868,6,0,P|8:265|23:348,1,135,4|2,0:0|0:0,0:0:0:0:
166,383,165392,2,0,P|175:329|148:288,1,101.25,10|0,0:0|0:0,0:0:0:0:
133,285,165740,1,2,0:0:0:0:
78,152,165915,2,0,P|129:147|175:141,1,67.5,2|10,0:0|0:0,0:0:0:0:
322,103,166264,6,0,P|291:69|184:77,1,135,2|0,0:0|0:0,0:0:0:0:
234,203,166787,2,0,L|239:277,1,67.5,8|2,0:0|0:0,0:0:0:0:
384,347,167136,2,0,P|392:313|394:270,1,67.5,2|2,0:0|0:0,0:0:0:0:
317,187,167485,1,10,0:0:0:0:
386,57,167659,6,0,P|448:51|509:123,1,135,2|2,0:0|0:0,0:0:0:0:
504,113,168095,1,2,0:0:0:0:
503,131,168182,2,0,L|507:231,1,67.5,10|2,0:0|0:0,0:0:0:0:
386,281,168531,2,0,L|380:328,2,33.75,2|2|2,0:0|0:0|0:0,0:0:0:0:
357,153,168880,5,14,0:0:0:0:
499,283,169054,1,2,0:0:0:0:
304,287,169229,5,10,0:0:0:0:
281,279,169316,1,8,0:0:0:0:
255,282,169403,1,10,0:0:0:0:
234,294,169490,1,8,0:0:0:0:
221,315,169578,1,10,0:0:0:0:
207,335,169665,1,8,0:0:0:0:
184,345,169752,1,10,0:0:0:0:
159,347,169839,1,8,0:0:0:0:
137,340,169926,2,0,L|126:294,3,33.75,8|8|10|8,0:0|0:0|0:0|0:0,0:0:0:0:
111,280,170275,5,8,0:0:0:0:
288,370,170450,1,10,0:0:0:0:
376,300,170624,6,0,P|396:225|360:153,1,135,4|10,0:0|0:0,0:0:0:0:
199,282,171147,2,0,P|240:285|281:294,1,67.5,2|0,0:0|0:0,0:0:0:0:
198,175,171496,1,2,0:0:0:0:
89,305,171671,2,0,L|104:384,1,67.5,10|0,0:0|0:0,0:0:0:0:
87,180,172019,6,0,P|53:173|20:171,1,67.5,4|2,3:0|0:0,0:0:0:0:
199,282,172368,2,0,B|275:286|255:237|328:244,1,135,10|4,0:0|3:0,0:0:0:0:
446,177,172892,1,0,0:0:0:0:
351,94,173066,2,0,P|355:127|361:176,1,67.5,10|0,0:0|0:0,0:0:0:0:
482,290,173415,6,0,P|423:264|401:264,1,67.5,4|0,3:0|0:0,0:0:0:0:
259,362,173764,1,8,0:0:0:0:
357,324,173938,1,2,0:0:0:0:
253,205,174112,2,0,P|259:237|267:297,1,67.5,4|2,3:0|0:0,0:0:0:0:
401,107,174461,2,0,P|395:139|387:199,1,67.5,8|0,0:0|0:0,0:0:0:0:
271,86,174810,6,0,P|236:90|176:98,1,67.5,4|2,3:0|0:0,0:0:0:0:
74,204,175159,2,0,P|80:239|87:284,1,67.5,10|2,0:0|0:0,0:0:0:0:
78,22,175508,2,0,P|23:47|30:126,1,135,4|8,3:0|0:0,0:0:0:0:
144,162,176031,1,0,0:0:0:0:
67,298,176205,6,0,P|184:282|227:279,1,135,4|8,0:0|0:0,0:0:0:0:
404,153,176729,2,0,P|347:119|280:144,1,135,2|2,0:0|0:0,0:0:0:0:
118,42,177252,1,8,0:0:0:0:
229,67,177426,1,0,0:0:0:0:
74,203,177601,6,0,P|66:154|70:122,1,67.5,4|2,3:0|0:0,0:0:0:0:
235,321,177950,2,0,B|153:312|186:358|106:348,1,135,10|4,0:0|3:0,0:0:0:0:
21,275,178473,1,0,0:0:0:0:
164,153,178647,2,0,P|177:179|189:226,1,67.5,8|0,0:0|0:0,0:0:0:0:
1,118,178996,6,0,P|61:112|109:35,1,135,4|8,3:0|0:0,0:0:0:0:
256,132,179519,1,2,0:0:0:0:
141,241,179694,2,0,P|144:207|149:157,1,67.5,4|2,3:0|0:0,0:0:0:0:
323,268,180043,2,0,P|326:301|329:335,1,67.5,8|0,0:0|0:0,0:0:0:0:
396,165,180392,5,4,3:0:0:0:
236,302,180566,1,2,0:0:0:0:
421,246,180740,1,10,0:0:0:0:
211,220,180915,1,2,0:0:0:0:
244,80,181089,5,4,3:0:0:0:
306,208,181264,1,2,0:0:0:0:
244,80,181438,1,10,0:0:0:0:
306,208,181612,1,2,0:0:0:0:
94,154,181787,6,0,P|130:149|166:144,1,67.5,4|0,0:0|0:0,0:0:0:0:
332,66,182136,2,0,P|296:64|258:51,1,67.5,8|0,0:0|0:0,0:0:0:0:
313,165,182485,1,4,3:0:0:0:
160,61,182659,1,0,0:0:0:0:
410,16,182833,2,0,P|413:52|419:101,1,67.5,8|0,0:0|0:0,0:0:0:0:
421,278,183182,5,4,3:0:0:0:
485,149,183357,1,2,0:0:0:0:
305,269,183531,1,10,0:0:0:0:
412,365,183705,1,2,0:0:0:0:
212,232,183880,2,0,P|223:177|232:149,1,67.5,4|0,3:0|0:0,0:0:0:0:
330,363,184229,2,0,P|272:375|247:373,1,67.5,10|0,0:0|0:0,0:0:0:0:
375,204,184578,6,0,P|445:211|509:221,1,135,4|8,3:0|0:0,0:0:0:0:
368,99,185101,2,0,L|234:118,1,135,2|2,0:0|0:0,0:0:0:0:
80,15,185624,1,10,0:0:0:0:
214,44,185798,1,0,0:0:0:0:
123,188,185973,6,0,P|116:150|109:89,1,67.5,4|2,3:0|0:0,0:0:0:0:
147,331,186322,2,0,P|113:363|20:348,1,135,10|4,0:0|3:0,0:0:0:0:
16,249,186845,1,0,0:0:0:0:
239,301,187019,2,0,P|232:333|225:373,1,67.5,10|0,0:0|0:0,0:0:0:0:
400,244,187368,6,0,P|389:132|378:89,1,135,4|8,0:0|0:0,0:0:0:0:
176,247,187892,2,0,P|250:264|299:220,1,135,2|2,0:0|0:0,0:0:0:0:
132,148,188415,2,0,P|57:169|42:171,1,67.5,10|2,0:0|0:0,0:0:0:0:
266,146,188764,5,4,3:0:0:0:
213,33,188938,1,0,0:0:0:0:
366,118,189112,2,0,P|362:150|357:198,1,67.5,10|0,0:0|0:0,0:0:0:0:
198,274,189461,2,0,P|154:262|106:269,1,67.5,4|0,3:0|0:0,0:0:0:0:
393,349,189810,2,0,P|437:337|485:344,1,67.5,8|0,0:0|0:0,0:0:0:0:
301,258,190159,6,0,P|289:182|279:123,2,135,8|8|4,0:0|0:0|3:0,0:0:0:0:
440,153,191031,2,0,P|371:145|347:134,1,67.5,4|0,0:0|0:0,0:0:0:0:
285,361,191380,2,0,P|386:338|431:347,1,135,6|2,0:0|0:0,0:0:0:0:
493,228,191903,5,2,0:0:0:0:
312,82,192078,2,0,P|288:133|315:213,1,135,4|2,0:0|0:0,0:0:0:0:
174,289,192601,2,0,P|140:281|93:274,1,67.5,8|8,0:0|0:0,0:0:0:0:
89,277,192862,1,8,0:0:0:0:
73,286,192950,6,0,P|72:325|86:370,1,67.5,4|0,0:0|0:0,0:0:0:0:
127,194,193298,1,10,0:0:0:0:
273,304,193473,2,0,P|312:293|352:286,1,67.5,2|4,0:0|3:0,0:0:0:0:
447,159,193822,2,0,P|413:152|381:142,1,67.5,2|10,0:0|0:0,0:0:0:0:
220,229,194171,1,0,0:0:0:0:
417,345,194345,5,4,3:0:0:0:
315,208,194519,1,2,0:0:0:0:
469,234,194694,2,0,L|461:166,1,67.5,10|0,0:0|0:0,0:0:0:0:
339,41,195043,6,0,P|338:77|322:134,1,67.5,4|0,3:0|0:0,0:0:0:0:
207,257,195392,2,0,P|208:221|224:164,1,67.5,10|2,0:0|0:0,0:0:0:0:
205,175,195653,1,2,0:0:0:0:
191,166,195740,6,0,P|143:155|57:218,1,135,4|8,3:0|0:0,0:0:0:0:
170,343,196264,1,2,0:0:0:0:
296,309,196438,2,0,P|290:262|287:218,1,67.5,4|2,3:0|0:0,0:0:0:0:
252,27,196787,2,0,P|248:60|244:94,1,67.5,8|0,0:0|0:0,0:0:0:0:
359,186,197136,6,0,L|427:178,1,67.5,4|2,3:0|0:0,0:0:0:0:
504,125,197485,1,10,0:0:0:0:
324,69,197659,1,2,0:0:0:0:
436,3,197833,6,0,P|431:40|428:87,1,67.5,4|0,3:0|0:0,0:0:0:0:
470,251,198182,1,8,0:0:0:0:
359,186,198357,1,2,0:0:0:0:
287,301,198531,6,0,L|366:288,1,67.5,4|0,0:0|0:0,0:0:0:0:
444,151,198880,1,8,0:0:0:0:
313,108,199054,2,0,L|239:102,1,67.5,2|0,0:0|0:0,0:0:0:0:
190,276,199403,2,0,P|204:212|206:188,1,67.5,2|8,0:0|0:0,0:0:0:0:
176,47,199752,1,0,0:0:0:0:
277,169,199926,5,4,3:0:0:0:
114,240,200101,1,2,0:0:0:0:
272,300,200275,2,0,L|287:387,1,67.5,10|0,0:0|0:0,0:0:0:0:
151,324,200624,6,0,L|60:314,1,67.5,4|0,3:0|0:0,0:0:0:0:
194,180,200973,2,0,L|285:170,1,67.5,8|2,0:0|0:0,0:0:0:0:
280,169,201235,1,2,0:0:0:0:
299,160,201322,6,0,P|337:181|348:284,1,135,4|8,3:0|0:0,0:0:0:0:
205,263,201845,1,2,0:0:0:0:
245,95,202019,2,0,L|232:25,1,67.5,4|2,3:0|0:0,0:0:0:0:
374,162,202368,2,0,P|411:166|447:167,1,67.5,8|0,0:0|0:0,0:0:0:0:
499,295,202717,5,4,3:0:0:0:
321,231,202892,1,2,0:0:0:0:
510,122,203066,1,10,0:0:0:0:
416,245,203240,1,2,0:0:0:0:
285,140,203415,6,0,P|278:67|272:-1,1,135,4|10,3:0|0:0,0:0:0:0:
360,239,203938,2,0,L|355:294,1,33.75,2|2,0:0|0:0,0:0:0:0:
396,351,204112,6,0,P|362:352|328:356,1,67.5,4|0,0:0|0:0,0:0:0:0:
212,216,204461,2,0,P|245:219|279:221,1,67.5,8|0,0:0|0:0,0:0:0:0:
448,275,204810,1,4,3:0:0:0:
357,151,204985,1,0,0:0:0:0:
228,301,205159,2,0,L|237:368,1,67.5,8|0,0:0|0:0,0:0:0:0:
335,264,205508,5,4,3:0:0:0:
141,224,205682,1,2,0:0:0:0:
260,120,205857,1,10,0:0:0:0:
179,312,206031,1,2,0:0:0:0:
54,182,206205,2,0,L|45:114,1,67.5,4|0,3:0|0:0,0:0:0:0:
195,11,206554,2,0,P|192:51|183:104,1,67.5,10|2,0:0|0:0,0:0:0:0:
107,249,206903,6,0,P|151:220|243:239,1,135,4|8,3:0|0:0,0:0:0:0:
374,201,207426,1,2,0:0:0:0:
305,121,207601,5,0,0:0:0:0:
338,296,207775,1,2,0:0:0:0:
468,190,207950,2,0,P|471:156|477:114,1,67.5,10|0,0:0|0:0,0:0:0:0:
426,281,208298,5,4,3:0:0:0:
393,106,208472,1,2,0:0:0:0:
263,212,208647,2,0,P|260:246|254:288,1,67.5,10|0,0:0|0:0,0:0:0:0:
352,371,208996,6,0,L|344:280,1,67.5,4|0,3:0|0:0,0:0:0:0:
153,224,209345,2,0,L|158:291,1,67.5,10|2,0:0|0:0,0:0:0:0:
165,309,209607,1,2,0:0:0:0:
176,327,209694,6,0,P|133:315|38:298,1,135,4|8,0:0|0:0,0:0:0:0:
239,259,210217,2,0,L|320:249,1,67.5,2|4,0:0|3:0,0:0:0:0:
188,178,210566,2,0,P|154:172|112:156,1,67.5,2|10,0:0|0:0,0:0:0:0:
252,107,210915,1,2,0:0:0:0:
128,261,211089,5,4,3:0:0:0:
105,61,211264,1,0,0:0:0:0:
0,182,211438,2,0,P|6:219|9:258,1,67.5,10|0,0:0|0:0,0:0:0:0:
190,333,211787,2,0,P|226:277|198:200,1,135,4|8,3:0|0:0,0:0:0:0:
282,84,212310,1,0,0:0:0:0:
344,182,212485,6,0,L|354:279,1,67.5,4|0,3:0|0:0,0:0:0:0:
145,266,212833,1,8,0:0:0:0:
269,308,213008,1,0,0:0:0:0:
193,135,213182,2,0,L|183:38,1,67.5,4|0,3:0|0:0,0:0:0:0:
363,37,213531,2,0,L|456:43,1,67.5,4|2,3:0|0:0,0:0:0:0:
327,180,213880,5,2,0:0:0:0:
273,29,214054,1,0,0:0:0:0:
182,140,214229,2,0,L|109:131,1,67.5,8|0,0:0|0:0,0:0:0:0:
254,265,214578,2,0,P|285:244|394:255,1,135,2|8,0:0|0:0,0:0:0:0:
266,126,215101,1,2,0:0:0:0:
180,306,215275,6,0,P|140:295|47:281,1,135,4|8,0:0|0:0,0:0:0:0:
260,374,215798,2,0,P|267:323|277:293,1,67.5,2|0,0:0|0:0,0:0:0:0:
195,172,216147,2,0,L|128:181,1,67.5,2|8,0:0|0:0,0:0:0:0:
280,216,216496,1,0,0:0:0:0:
401,113,216671,5,4,3:0:0:0:
354,270,216845,1,2,0:0:0:0:
258,113,217019,2,0,L|252:29,1,67.5,8|0,0:0|0:0,0:0:0:0:
439,34,217368,2,0,P|493:105|474:159,1,135,4|8,3:0|0:0,0:0:0:0:
439,260,217892,1,0,0:0:0:0:
303,102,218066,6,0,L|386:90,1,67.5,4|0,3:0|0:0,0:0:0:0:
439,260,218415,2,0,L|430:349,1,67.5,8|2,0:0|0:0,0:0:0:0:
158,159,218764,6,0,L|241:147,1,67.5,4|0,3:0|0:0,0:0:0:0:
304,286,219113,2,0,L|295:375,1,67.5,8|2,0:0|0:0,0:0:0:0:
7,130,219461,6,0,L|90:118,1,67.5,4|0,3:0|0:0,0:0:0:0:
169,311,219810,2,0,L|160:400,1,67.5,8|4,0:0|0:0,0:0:0:0:
83,212,220159,5,4,3:0:0:0:
134,56,220333,1,0,0:0:0:0:
288,114,220508,1,8,0:0:0:0:
245,269,220682,1,2,0:0:0:0:
245,269,220769,1,2,0:0:0:0:
245,269,220857,6,0,B|327:253|298:301|384:285,2,135,2|10|2,0:0|0:0|0:0,0:0:0:0:
63,154,221903,1,10,0:0:0:0:
158,118,222078,6,0,L|151:192,1,67.5,2|0,0:0|0:0,0:0:0:0:
6,72,222426,2,0,P|68:63|88:57,1,67.5,2|8,0:0|0:0,0:0:0:0:
246,141,222775,1,2,0:0:0:0:
134,125,222950,1,2,0:0:0:0:
210,0,223124,2,0,P|213:35|218:78,1,67.5,2|8,0:0|0:0,0:0:0:0:
334,189,223473,5,2,0:0:0:0:
334,189,223560,1,2,0:0:0:0:
334,189,223647,2,0,P|396:197|454:150,1,135,2|10,0:0|0:0,0:0:0:0:
329,305,224345,2,0,P|243:298|192:300,1,135,2|8,0:0|0:0,0:0:0:0:
90,247,224868,6,0,L|81:173,1,67.5,2|0,0:0|0:0,0:0:0:0:
168,80,225217,2,0,L|176:146,1,67.5,2|8,0:0|0:0,0:0:0:0:
16,102,225566,2,0,P|52:98|99:91,1,67.5,2|2,0:0|0:0,0:0:0:0:
173,226,225915,2,0,P|206:221|239:217,1,67.5,2|8,0:0|0:0,0:0:0:0:
353,121,226264,5,2,0:0:0:0:
353,121,226351,1,2,0:0:0:0:
353,121,226438,2,0,P|399:147|475:109,2,135,2|10|2,0:0|0:0|0:0,0:0:0:0:
196,38,227485,1,10,0:0:0:0:
284,8,227659,6,0,P|288:53|280:79,1,67.5,2|0,0:0|0:0,0:0:0:0:
159,181,228008,2,0,P|154:144|149:100,1,67.5,2|8,0:0|0:0,0:0:0:0:
293,230,228357,2,0,P|289:263|284:296,1,67.5,2|2,0:0|0:0,0:0:0:0:
190,251,228705,1,2,0:0:0:0:
336,159,228880,1,8,0:0:0:0:
426,344,229054,5,2,0:0:0:0:
426,344,229142,1,2,0:0:0:0:
426,344,229229,2,0,P|361:333|268:325,1,135,2|10,0:0|0:0,0:0:0:0:
112,215,229926,2,0,P|156:171|244:194,1,135,2|10,0:0|0:0,0:0:0:0:
310,112,230450,6,0,L|320:32,1,67.5,2|0,0:0|0:0,0:0:0:0:
413,187,230798,2,0,P|351:199|320:218,1,67.5,2|8,0:0|0:0,0:0:0:0:
206,80,231147,1,2,0:0:0:0:
310,112,231322,1,2,0:0:0:0:
209,233,231496,2,0,L|197:159,1,67.5,2|8,0:0|0:0,0:0:0:0:
309,313,231845,5,10,0:0:0:0:
309,313,231932,1,10,0:0:0:0:
309,313,232019,2,0,B|390:301|365:344|441:334,3,135,4|10|2|10,0:0|0:0|0:0|0:0,0:0:0:0:
278,216,233415,6,0,L|285:169,2,33.75,2|2|2,0:0|0:0|0:0,0:0:0:0:
411,130,233764,2,0,L|404:83,2,33.75,10|2|2,0:0|0:0|0:0,0:0:0:0:
275,72,234112,1,2,0:0:0:0:
388,226,234287,2,0,P|421:217|454:213,1,67.5,2|10,0:0|0:0,0:0:0:0:
223,278,234636,6,0,P|140:297|84:255,1,135,2|0,0:0|0:0,0:0:0:0:
18,154,235159,2,0,P|52:147|99:140,1,67.5,10|0,0:0|0:0,0:0:0:0:
198,65,235508,1,2,0:0:0:0:
67,31,235682,1,2,0:0:0:0:
192,169,235857,2,0,P|187:201|180:258,1,67.5,10|2,0:0|0:0,0:0:0:0:
97,317,236205,5,2,0:0:0:0:
274,257,236380,1,2,0:0:0:0:
95,193,236554,1,10,0:0:0:0:
213,346,236729,1,2,0:0:0:0:
357,196,236903,2,0,P|312:163|275:158,1,67.5,2|6,0:0|0:0,0:0:0:0:
182,235,237252,1,6,0:0:0:0:
377,328,237426,1,2,0:0:0:0:
377,328,237514,1,2,0:0:0:0:
377,328,237601,5,2,0:0:0:0:
256,192,237688,12,0,240392,0:0:0:0:
