osu file format v14

[General]
AudioFilename: audio.mp3
AudioLeadIn: 0
PreviewTime: 45114
Countdown: 1
SampleSet: Normal
StackLeniency: 0.7
Mode: 0
LetterboxInBreaks: 0
WidescreenStoryboard: 0

[Editor]
Bookmarks: 44416
DistanceSpacing: 1.4
BeatDivisor: 4
GridSize: 8
TimelineZoom: 0.8999999

[Metadata]
Title:oddloop
TitleUnicode:オドループ
Artist:Frederic
ArtistUnicode:フレデリック
Creator:Ayako
Version:Shiranai
Source:
Tags:oddloop weird dance band frederic
BeatmapID:921831
BeatmapSetID:426979

[Difficulty]
HPDrainRate:7
CircleSize:4
OverallDifficulty:8
ApproachRate:9
SliderMultiplier:1.7
SliderTickRate:2

[Events]
//Background and Video events
Video,0,"フレデリック「オドループ」Music Video - Frederic -oddloop- (1).mp4"
0,0,"kappakanoddloop.jpg",0,0
//Break Periods
2,11825,21142
2,66941,76956
//Storyboard Layer 0 (Background)
//Storyboard Layer 1 (Fail)
//Storyboard Layer 2 (Pass)
//Storyboard Layer 3 (Foreground)
//Storyboard Sound Samples

[TimingPoints]
463,348.837209302326,4,1,0,100,1,0
2381,-133.333333333333,4,1,0,100,0,0
3079,-100,4,1,0,100,0,0
5172,-133.333333333333,4,1,0,100,0,0
10230,-100,4,1,0,100,0,0
23311,-133.333333333333,4,1,0,100,0,0
24183,-86.9565217391303,4,1,0,100,0,0
25230,-68.9655172413793,4,1,0,100,0,0
25579,-200,4,1,0,100,0,0
26974,-133.333333333333,4,1,0,100,0,0
28718,-66.6666666666667,4,1,0,100,0,0
29067,-100,4,1,0,100,0,0
33602,-133.333333333333,4,1,0,100,0,0
33951,-100,4,1,0,100,0,0
35869,-76.9230769230769,4,1,0,100,0,0
36742,-100,4,1,0,100,0,0
37265,-83.3333333333333,4,1,0,100,0,0
37788,-100,4,1,0,100,0,0
38835,-133.333333333333,4,1,0,100,0,0
39532,-100,4,1,0,100,0,0
42149,-66.6666666666667,4,1,0,100,0,0
42672,-100,4,1,0,100,0,0
43893,-133.333333333333,4,1,0,100,0,0
45114,-133.333333333333,4,1,0,100,0,1
45288,-71.4285714285714,4,1,0,100,0,1
47119,-66.6666666666667,4,1,0,100,0,1
47556,-76.9230769230769,4,1,0,100,0,1
47904,-133.333333333333,4,1,0,100,0,1
49300,-66.6666666666667,4,1,0,100,0,1
50695,-133.333333333333,4,1,0,100,0,1
51393,-66.6666666666667,4,1,0,100,0,1
52090,-133.333333333333,4,1,0,100,0,1
52439,-100,4,1,0,100,0,1
53486,-153.846153846153,4,1,0,100,0,1
54881,-100,4,1,0,100,0,1
56276,-66.6666666666667,4,1,0,100,0,1
56974,-100,4,1,0,100,0,1
57323,-66.6666666666667,4,1,0,100,0,1
58718,-100,4,1,0,100,0,1
59590,-66.6666666666667,4,1,0,100,0,1
60811,-100,4,1,0,100,0,1
61858,-133.333333333333,4,1,0,100,0,1
63602,-66.6666666666667,4,1,0,100,0,1
64649,-100,4,1,0,100,0,1
66218,-66.6666666666667,4,1,0,100,0,0
77381,-100,4,1,0,100,0,0
79038,-133.333333333333,4,1,0,100,0,0
79997,-100,4,1,0,100,0,0
80521,-133.333333333333,4,1,0,100,0,0
81044,-100,4,1,0,100,0,0
81567,-133.333333333333,4,1,0,100,0,0
84707,-181.818181818181,4,1,0,100,0,0
86974,-133.333333333333,4,1,0,100,0,0
88021,-153.846153846153,4,1,0,100,0,0
91160,-117.647058823529,4,1,0,100,0,0
93951,-100,4,1,0,100,0,0
95869,-133.333333333333,4,1,0,100,0,0
100928,-133.333333333333,4,1,0,100,0,1
102323,-105.263157894737,4,1,0,100,0,1
103718,-133.333333333333,4,1,0,100,0,1
104242,-100,4,1,0,100,0,1
106509,-133.333333333333,4,1,0,100,0,1
107381,-100,4,1,0,100,0,1
108253,-90.9090909090909,4,1,0,100,0,1
109300,-133.333333333333,4,1,0,100,0,1
109997,-100,4,1,0,100,0,1
115404,-133.333333333333,4,1,0,100,0,1
116800,-100,4,1,0,100,0,1
117672,-133.333333333333,4,1,0,100,0,1
118369,-105.263157894737,4,1,0,100,0,1
119765,-133.333333333333,4,1,0,100,0,1
121858,-100,4,1,0,100,0,1
122375,-133.333333333333,4,1,0,100,0,1
122904,-133.333333333333,4,1,0,100,0,0
124649,-83.3333333333333,4,1,0,100,0,0
129358,-100,4,1,0,100,0,0
132149,-111.111111111111,4,1,0,100,0,0
135811,-133.333333333333,4,1,0,100,0,0
136858,-100,4,1,0,100,0,0
137381,-111.111111111111,4,1,0,100,0,0
138602,-100,4,1,0,100,0,0
140172,-125,4,1,0,100,0,0
142788,-153.846153846153,4,1,0,100,0,0
143666,-133.333333333333,4,1,0,100,0,0
144183,-153.846153846153,4,1,0,100,0,0
144707,-105.263157894737,4,1,0,100,0,0
145579,-100,4,1,0,100,0,0
150811,-76.9230769230769,4,1,0,100,0,0
152207,-90.9090909090909,4,1,0,100,0,0
154649,-100,4,1,0,100,0,0
155346,-90.9090909090909,4,1,0,100,0,0
159009,-100,4,1,0,100,0,0
165463,-90.9090909090909,4,1,0,100,0,0
170695,-133.333333333333,4,1,0,100,0,1
172090,-105.263157894737,4,1,0,100,0,1
173402,-133.333333333333,4,1,0,100,0,1
174361,-100,4,1,0,100,0,1
176276,-133.333333333333,4,1,0,100,0,1
177323,-100,4,1,0,100,0,1
178980,-133.333333333333,4,1,0,100,0,1
180026,-100,4,1,0,100,0,1
185085,-133.333333333333,4,1,0,100,0,1
186567,-100,4,1,0,100,0,1
187438,-133.333333333333,4,1,0,100,0,1
187963,-133.333333333333,4,1,0,100,0,1
188835,-100,4,1,0,100,0,1
189532,-133.333333333333,4,1,0,100,0,1
191625,-100,4,1,0,100,0,1
192149,-133.333333333333,4,1,0,100,0,1
211160,-125,4,1,0,100,0,0

[HitObjects]
32,168,288,5,0,0:0:0:0:
40,176,375,1,0,0:0:0:0:
48,184,463,2,0,P|92:196|168:200,1,85
320,176,811,2,0,P|296:136|224:112,1,85
192,264,1160,2,0,P|216:304|272:336,1,85
368,128,1509,1,0,0:0:0:0:
264,232,1683,1,0,0:0:0:0:
296,344,1858,6,0,L|200:328,1,85
232,208,2207,1,0,0:0:0:0:
120,136,2381,2,0,P|104:176|96:208,1,63.7500024318696
88,216,2730,1,0,0:0:0:0:
280,144,2904,1,0,0:0:0:0:
432,252,3079,5,0,0:0:0:0:
428,268,3166,1,0,0:0:0:0:
424,280,3253,2,0,P|320:256|256:264,1,170
220,168,3776,1,0,0:0:0:0:
336,156,3951,1,0,0:0:0:0:
196,316,4125,2,0,P|168:280|152:240,1,85
228,204,4474,1,0,0:0:0:0:
184,88,4649,6,0,L|280:96,1,85
344,168,4997,1,0,0:0:0:0:
408,252,5172,1,0,0:0:0:0:
392,324,5346,2,0,P|408:284|416:264,1,63.7500024318696
104,128,5695,1,0,0:0:0:0:
160,208,5869,6,0,L|192:240,2,31.8750012159348
273,352,6218,1,0,0:0:0:0:
273,352,6393,2,0,L|320:288,1,63.7500024318696
392,252,6742,1,0,0:0:0:0:
280,136,6916,1,0,0:0:0:0:
224,80,7090,2,0,P|260:103|280:128,1,63.7500024318696
224,260,7439,6,0,P|188:264|160:240,1,63.7500024318696
124,160,7788,1,0,0:0:0:0:
339,173,7963,1,0,0:0:0:0:
355,185,8050,1,0,0:0:0:0:
368,200,8137,2,0,P|392:236|392:256,1,63.7500024318696
300,328,8486,1,0,0:0:0:0:
136,256,8660,5,0,0:0:0:0:
124,240,8747,1,0,0:0:0:0:
120,224,8835,1,0,0:0:0:0:
180,112,9009,1,0,0:0:0:0:
264,200,9183,1,0,0:0:0:0:
184,308,9358,1,0,0:0:0:0:
300,296,9532,1,0,0:0:0:0:
120,180,9707,5,0,0:0:0:0:
260,72,9881,1,0,0:0:0:0:
244,208,10056,1,0,0:0:0:0:
368,216,10230,1,0,0:0:0:0:
368,224,10404,2,0,P|357:289|344:304,1,85
104,104,10753,5,0,0:0:0:0:
108,120,10840,1,0,0:0:0:0:
112,136,10928,2,0,P|144:192|160:200,1,85
368,296,11276,1,0,0:0:0:0:
256,152,11451,1,0,0:0:0:0:
236,192,11538,1,0,0:0:0:0:
276,192,11625,1,0,0:0:0:0:
184,72,21742,6,0,P|244:76|264:88,1,85
344,168,22090,1,0,0:0:0:0:
344,184,22178,1,0,0:0:0:0:
340,200,22265,1,0,0:0:0:0:
336,216,22352,1,0,0:0:0:0:
332,232,22439,1,0,0:0:0:0:
172,328,22614,5,0,0:0:0:0:
96,208,22788,2,0,L|184:232,1,85
264,176,23137,1,0,0:0:0:0:
208,88,23311,2,0,P|232:68|288:64,1,63.7500024318696
400,248,23660,1,0,0:0:0:0:
400,256,23835,2,0,L|328:256,1,63.7500024318696
236,188,24183,5,0,0:0:0:0:
304,40,24358,1,0,0:0:0:0:
428,48,24532,2,0,P|444:104|432:144,1,97.7500018644333
384,232,24881,1,0,0:0:0:0:
384,232,24968,1,0,0:0:0:0:
384,232,25056,1,0,0:0:0:0:
248,168,25230,2,0,L|304:296,1,123.250003761292
160,88,25579,6,0,P|144:116|144:144,1,42.5
160,288,25928,1,0,0:0:0:0:
220,160,26102,1,0,0:0:0:0:
56,152,26276,1,0,0:0:0:0:
48,180,26364,1,0,0:0:0:0:
52,212,26451,1,0,0:0:0:0:
112,332,26625,2,0,L|136:280,1,42.5
240,232,26974,1,0,0:0:0:0:
308,152,27149,5,0,0:0:0:0:
300,320,27323,1,0,0:0:0:0:
224,192,27497,1,0,0:0:0:0:
188,292,27672,1,0,0:0:0:0:
188,292,27759,1,0,0:0:0:0:
188,292,27846,1,0,0:0:0:0:
228,56,28021,1,0,0:0:0:0:
312,112,28195,5,0,0:0:0:0:
128,136,28369,2,0,L|184:192,1,63.7500024318696
192,264,28718,2,0,L|56:240,1,127.500004863739
264,184,29067,1,0,0:0:0:0:
344,336,29242,1,0,0:0:0:0:
392,260,29416,1,0,0:0:0:0:
264,256,29590,1,0,0:0:0:0:
120,248,29765,5,0,0:0:0:0:
120,248,29939,2,0,P|88:192|104:152,1,85
288,56,30288,5,0,0:0:0:0:
144,144,30463,1,0,0:0:0:0:
248,80,30637,1,0,0:0:0:0:
248,88,30811,2,0,L|328:128,1,85
220,344,31160,5,0,0:0:0:0:
400,180,31335,1,0,0:0:0:0:
256,232,31509,1,0,0:0:0:0:
384,324,31683,1,0,0:0:0:0:
320,104,31858,2,0,L|288:144,2,42.5
192,160,32207,5,0,0:0:0:0:
248,48,32381,1,0,0:0:0:0:
72,136,32556,2,0,L|112:220,1,85
336,232,32904,1,0,0:0:0:0:
256,160,33079,1,0,0:0:0:0:
200,324,33253,1,0,0:0:0:0:
172,192,33428,1,0,0:0:0:0:
80,88,33602,2,0,P|104:72|144:72,1,63.7500024318696
328,72,33951,6,0,P|360:128|336:168,1,85
232,160,34300,1,0,0:0:0:0:
352,248,34474,1,0,0:0:0:0:
360,256,34561,1,0,0:0:0:0:
368,264,34649,1,0,0:0:0:0:
276,340,34823,2,0,P|208:336|176:328,1,85
144,148,35172,2,0,L|200:224,1,85
280,248,35521,5,0,0:0:0:0:
376,164,35695,1,0,0:0:0:0:
256,80,35869,2,0,L|320:56,2,55.2499974708558
196,324,36218,5,0,0:0:0:0:
208,320,36393,2,0,L|320:272,1,110.499994941712
120,232,36742,1,0,0:0:0:0:
200,80,36916,1,0,0:0:0:0:
80,120,37090,1,0,0:0:0:0:
232,272,37265,1,0,0:0:0:0:
384,120,37439,1,0,0:0:0:0:
272,152,37614,1,0,0:0:0:0:
64,96,37788,6,0,L|72:184,1,85
160,272,38137,1,0,0:0:0:0:
288,280,38311,1,0,0:0:0:0:
288,280,38486,2,0,L|360:224,1,85
312,80,38835,2,0,L|296:144,1,63.7500024318696
144,152,39183,2,0,L|208:128,1,63.7500024318696
352,184,39532,6,0,P|356:232|320:280,1,85
336,272,39881,1,0,0:0:0:0:
328,280,39968,1,0,0:0:0:0:
320,288,40056,1,0,0:0:0:0:
232,48,40230,2,0,L|320:64,1,85
288,136,40579,2,0,L|200:168,1,85
296,336,40928,5,0,0:0:0:0:
168,264,41102,1,0,0:0:0:0:
268,264,41276,1,0,0:0:0:0:
248,104,41451,1,0,0:0:0:0:
388,276,41625,1,0,0:0:0:0:
416,64,41800,2,0,L|352:128,1,85
160,168,42149,2,0,P|120:96|128:40,1,127.500004863739
240,108,42497,1,0,0:0:0:0:
152,256,42672,6,0,P|196:268|224:296,1,85
312,220,43021,5,0,0:0:0:0:
316,228,43195,2,0,L|368:296,1,85
452,72,43544,1,0,0:0:0:0:
276,132,43718,1,0,0:0:0:0:
320,32,43893,1,0,0:0:0:0:
168,48,44067,2,0,P|112:72|104:88,1,63.7500024318696
112,88,44416,1,0,0:0:0:0:
120,108,44503,1,0,0:0:0:0:
124,128,44590,1,0,0:0:0:0:
120,144,44678,5,0,0:0:0:0:
112,164,44765,1,0,0:0:0:0:
112,180,44852,1,0,0:0:0:0:
112,196,44939,1,0,0:0:0:0:
116,208,45026,1,0,0:0:0:0:
224,128,45114,6,0,P|296:116|352:152,1,127.500004863739
376,164,45637,1,0,0:0:0:0:
296,272,45811,6,0,P|196:292|168:272,1,118.999996368408
248,120,46160,2,0,P|288:64|344:48,1,118.999996368408
416,124,46509,1,0,0:0:0:0:
336,316,46683,1,0,0:0:0:0:
204,244,46858,2,0,P|152:228|72:232,1,118.999996368408
136,40,47207,2,0,P|224:61|280:112,1,127.500004863739
376,144,47556,2,0,P|392:184|344:272,1,110.499994941712
224,208,47904,6,0,L|304:320,1,127.500004863739
116,336,48428,1,0,0:0:0:0:
76,172,48602,1,0,0:0:0:0:
56,272,48776,1,0,0:0:0:0:
200,116,48951,1,0,0:0:0:0:
272,272,49125,1,0,0:0:0:0:
360,88,49300,6,0,P|404:124|392:200,1,127.500004863739
208,192,49649,2,0,P|120:174|96:128,1,127.500004863739
144,284,49997,1,0,0:0:0:0:
256,88,50172,1,0,0:0:0:0:
256,88,50346,1,0,0:0:0:0:
220,240,50521,5,0,0:0:0:0:
220,240,50695,2,0,P|236:284|312:280,1,127.500004863739
308,108,51218,1,0,0:0:0:0:
80,104,51393,6,0,P|109:50|184:48,1,127.500004863739
312,208,51742,2,0,P|252:248|168:232,1,127.500004863739
144,168,52090,6,0,P|112:200|104:232,1,63.7500024318696
284,332,52439,2,0,P|344:320|360:288,1,85
352,224,52788,1,0,0:0:0:0:
336,192,52875,1,0,0:0:0:0:
312,168,52963,1,0,0:0:0:0:
208,64,53137,2,0,L|192:152,1,85
184,312,53486,6,0,L|80:240,1,110.499994941712
88,76,54009,1,0,0:0:0:0:
324,176,54183,1,0,0:0:0:0:
244,88,54358,1,0,0:0:0:0:
260,260,54532,1,0,0:0:0:0:
104,168,54707,1,0,0:0:0:0:
352,72,54881,2,0,L|440:128,2,85
300,168,55404,1,0,0:0:0:0:
180,84,55579,5,0,0:0:0:0:
176,104,55666,1,0,0:0:0:0:
176,124,55753,1,0,0:0:0:0:
176,140,55840,1,0,0:0:0:0:
184,160,55928,1,0,0:0:0:0:
192,176,56015,1,0,0:0:0:0:
200,192,56102,1,0,0:0:0:0:
192,320,56276,6,0,P|128:328|72:280,1,127.500004863739
324,160,56625,2,0,P|360:216|328:272,1,127.500004863739
176,112,56974,6,0,L|256:80,1,85
184,240,57323,6,0,P|112:224|80:160,1,127.500004863739
272,136,57672,1,0,0:0:0:0:
344,304,57846,1,0,0:0:0:0:
372,184,58021,1,0,0:0:0:0:
232,276,58195,1,0,0:0:0:0:
224,152,58369,1,0,0:0:0:0:
136,56,58544,1,0,0:0:0:0:
136,56,58631,1,0,0:0:0:0:
136,56,58718,2,0,P|200:40|232:64,1,85
272,144,59067,5,0,0:0:0:0:
177,210,59242,1,0,0:0:0:0:
297,256,59416,1,0,0:0:0:0:
432,224,59590,2,0,B|416:128|392:88|360:64|328:48|288:40|248:40,1,255.000009727478
200,136,60114,6,0,P|280:136|320:184,1,127.500004863739
160,256,60463,1,0,0:0:0:0:
272,240,60637,1,0,0:0:0:0:
240,96,60811,2,0,P|192:64|160:72,1,85
88,136,61160,2,0,P|64:200|88:240,1,85
264,176,61509,1,0,0:0:0:0:
224,328,61683,1,0,0:0:0:0:
424,48,61858,6,0,L|424:184,1,127.500004863739
384,304,62381,1,0,0:0:0:0:
112,160,62556,1,0,0:0:0:0:
280,184,62730,1,0,0:0:0:0:
120,304,62904,1,0,0:0:0:0:
216,88,63079,1,0,0:0:0:0:
248,312,63253,5,0,0:0:0:0:
248,312,63340,1,0,0:0:0:0:
248,312,63428,1,0,0:0:0:0:
360,184,63602,2,0,L|216:168,1,127.500004863739
376,320,63951,2,0,P|448:288|448:232,1,127.500004863739
296,64,64300,2,0,P|224:128|240:176,1,127.500004863739
112,296,64649,6,0,L|208:296,1,85
256,192,64997,1,0,0:0:0:0:
256,192,65172,1,0,0:0:0:0:
400,88,65346,2,0,L|304:88,1,85
256,192,65695,1,0,0:0:0:0:
256,192,65869,1,0,0:0:0:0:
112,88,66044,2,0,P|88:144|104:176,2,85
336,288,66567,2,0,L|216:240,1,127.500004863739
160,88,77556,5,0,0:0:0:0:
144,112,77643,1,0,0:0:0:0:
136,144,77730,1,0,0:0:0:0:
136,168,77817,1,0,0:0:0:0:
152,200,77904,1,0,0:0:0:0:
320,280,78079,1,0,0:0:0:0:
104,208,78253,2,0,L|104:112,1,85
231,90,78602,6,0,P|278:98|379:179,1,170
288,248,79125,2,0,P|208:232|176:192,1,127.500004863739
80,120,79649,1,0,0:0:0:0:
80,264,79823,1,0,0:0:0:0:
352,248,79997,6,0,P|352:200|288:88,1,170
192,152,80520,2,0,P|208:232|280:288,1,170
384,104,81044,6,0,L|288:104,1,85
184,120,81393,1,0,0:0:0:0:
304,240,81567,1,0,0:0:0:0:
192,272,81742,1,0,0:0:0:0:
184,272,81916,2,0,P|128:264|104:200,1,127.500004863739
176,48,82439,2,0,L|248:48,1,63.7500024318696
352,88,82788,1,0,0:0:0:0:
216,192,82963,1,0,0:0:0:0:
352,88,83137,5,0,0:0:0:0:
176,104,83311,1,0,0:0:0:0:
336,192,83486,1,0,0:0:0:0:
176,288,83660,1,0,0:0:0:0:
448,224,83835,5,0,0:0:0:0:
88,152,84009,1,0,0:0:0:0:
208,56,84183,1,0,0:0:0:0:
208,56,84358,2,0,L|288:56,1,63.7500024318696
288,144,84707,1,0,0:0:0:0:
408,120,84881,2,0,P|416:176|416:184,1,46.7500014266968
264,264,85230,1,0,0:0:0:0:
264,264,85404,1,0,0:0:0:0:
256,264,85579,2,0,L|368:288,1,93.5000028533936
232,344,86102,5,0,0:0:0:0:
72,264,86276,1,0,0:0:0:0:
112,112,86451,1,0,0:0:0:0:
144,88,86538,1,0,0:0:0:0:
184,88,86625,1,0,0:0:0:0:
312,112,86800,1,0,0:0:0:0:
416,176,86974,6,0,P|366:230|308:231,1,127.500004863739
144,208,87497,2,0,P|168:138|221:114,1,127.500004863739
384,128,88021,2,0,L|376:184,1,55.2499974708558
200,304,88369,5,0,0:0:0:0:
176,128,88544,1,0,0:0:0:0:
264,216,88718,1,0,0:0:0:0:
64,144,88893,1,0,0:0:0:0:
112,256,89067,5,0,0:0:0:0:
248,56,89242,1,0,0:0:0:0:
376,192,89416,1,0,0:0:0:0:
208,168,89590,1,0,0:0:0:0:
80,288,89765,6,0,P|112:320|144:328,1,55.2499974708558
224,272,90114,1,0,0:0:0:0:
224,280,90288,2,0,L|288:312,1,55.2499974708558
408,120,90637,1,0,0:0:0:0:
408,128,90811,2,0,L|408:192,1,55.2499974708558
328,256,91160,2,0,P|288:224|272:200,1,72.2500013780594
152,64,91509,2,0,P|192:96|208:120,1,72.2500013780594
128,200,92032,5,0,0:0:0:0:
128,208,92207,2,0,L|128:280,1,72.2500013780594
224,256,92556,1,0,0:0:0:0:
256,224,92643,1,0,0:0:0:0:
272,176,92730,1,0,0:0:0:0:
160,128,92904,1,0,0:0:0:0:
288,32,93079,2,0,B|320:64|352:128|352:160,1,144.500002756119
168,224,93776,5,0,0:0:0:0:
80,312,93951,2,0,L|184:312,1,85
384,224,94300,2,0,P|384:296|360:320,1,85
176,32,94649,2,0,P|243:56|258:87,1,85
192,208,94997,2,0,P|236:151|270:147,1,85
88,104,95346,5,0,0:0:0:0:
144,184,95521,2,0,L|240:184,1,85
320,96,95869,1,0,0:0:0:0:
320,96,96044,2,0,P|360:144|360:168,1,63.7500024318696
288,248,96393,2,0,P|240:288|216:288,1,63.7500024318696
112,152,96742,5,0,0:0:0:0:
304,56,96916,1,0,0:0:0:0:
360,208,97090,1,0,0:0:0:0:
128,64,97265,1,0,0:0:0:0:
232,304,97439,5,0,0:0:0:0:
424,112,97614,1,0,0:0:0:0:
192,200,97788,1,0,0:0:0:0:
400,240,97963,1,0,0:0:0:0:
240,40,98137,6,0,P|194:62|172:96,1,63.7500024318696
272,160,98486,2,0,P|310:192|350:200,1,63.7500024318696
400,88,98835,5,0,0:0:0:0:
112,160,99009,1,0,0:0:0:0:
368,208,99183,1,0,0:0:0:0:
80,280,99358,1,0,0:0:0:0:
456,280,99532,5,0,0:0:0:0:
160,64,99707,1,0,0:0:0:0:
296,88,99881,1,0,0:0:0:0:
104,168,100056,1,0,0:0:0:0:
328,184,100230,5,0,0:0:0:0:
320,200,100317,1,0,0:0:0:0:
312,216,100404,1,0,0:0:0:0:
304,232,100492,1,0,0:0:0:0:
296,248,100579,5,0,0:0:0:0:
288,264,100666,1,0,0:0:0:0:
280,280,100753,1,0,0:0:0:0:
88,208,100928,6,0,P|80:160|112:88,1,127.500004863739
216,64,101451,1,0,0:0:0:0:
288,192,101625,1,0,0:0:0:0:
416,96,101800,1,0,0:0:0:0:
424,104,101974,2,0,P|440:144|424:184,1,63.7500024318696
368,264,102323,6,0,P|328:296|288:288,1,80.7499978437424
160,160,102672,2,0,L|240:160,1,80.7499978437424
320,96,103021,1,0,0:0:0:0:
200,240,103195,1,0,0:0:0:0:
344,320,103369,1,0,0:0:0:0:
216,144,103544,1,0,0:0:0:0:
272,48,103718,6,0,P|312:72|328:160,1,127.500004863739
232,256,104242,1,0,0:0:0:0:
424,216,104416,1,0,0:0:0:0:
424,224,104590,2,0,P|424:272|392:304,1,85
232,336,104939,1,0,0:0:0:0:
144,128,105114,5,0,0:0:0:0:
176,240,105288,1,0,0:0:0:0:
320,80,105463,1,0,0:0:0:0:
312,272,105637,1,0,0:0:0:0:
40,160,105811,1,0,0:0:0:0:
64,296,105986,1,0,0:0:0:0:
80,320,106073,1,0,0:0:0:0:
120,336,106160,1,0,0:0:0:0:
264,336,106335,5,0,0:0:0:0:
264,328,106509,2,0,L|336:208,1,127.500004863739
336,112,107032,1,0,0:0:0:0:
304,96,107119,1,0,0:0:0:0:
264,96,107207,1,0,0:0:0:0:
136,136,107381,1,0,0:0:0:0:
304,208,107556,2,0,L|208:232,1,85
64,224,107904,6,0,P|96:296|112:312,1,85
328,232,108253,2,0,L|232:272,1,93.5000028533936
144,320,108602,1,0,0:0:0:0:
88,144,108776,1,0,0:0:0:0:
176,224,108951,1,0,0:0:0:0:
232,56,109125,5,0,0:0:0:0:
400,64,109300,2,0,P|432:120|448:208,1,127.500004863739
344,200,109823,1,0,0:0:0:0:
200,88,109997,1,0,0:0:0:0:
200,88,110085,1,0,0:0:0:0:
200,88,110172,1,0,0:0:0:0:
144,192,110346,2,0,L|208:256,1,85
408,272,110695,5,0,0:0:0:0:
352,128,110869,1,0,0:0:0:0:
296,232,111044,1,0,0:0:0:0:
280,48,111218,1,0,0:0:0:0:
192,208,111393,1,0,0:0:0:0:
448,144,111567,1,0,0:0:0:0:
400,288,111742,2,0,P|352:328|312:336,1,85
104,296,112090,5,0,0:0:0:0:
176,152,112265,1,0,0:0:0:0:
232,264,112439,1,0,0:0:0:0:
64,112,112614,1,0,0:0:0:0:
280,56,112788,2,0,P|316:118|320:160,1,85
304,256,113137,2,0,P|241:292|200:296,1,85
88,176,113486,5,0,0:0:0:0:
96,192,113573,1,0,0:0:0:0:
112,208,113660,1,0,0:0:0:0:
224,240,113835,2,0,P|256:208|264:152,1,85
320,48,114183,1,0,0:0:0:0:
96,104,114358,1,0,0:0:0:0:
352,176,114532,1,0,0:0:0:0:
192,224,114707,1,0,0:0:0:0:
456,224,114881,5,0,0:0:0:0:
456,224,114968,1,0,0:0:0:0:
456,224,115055,1,0,0:0:0:0:
384,80,115230,1,0,0:0:0:0:
256,104,115404,2,0,B|216:136|200:176|200:224,1,127.500004863739
136,304,115928,2,0,L|192:312,2,31.8750012159348
304,328,116276,5,0,0:0:0:0:
144,200,116451,1,0,0:0:0:0:
104,328,116625,1,0,0:0:0:0:
72,112,116800,2,0,P|96:72|144:64,1,85
280,112,117149,1,0,0:0:0:0:
288,128,117236,1,0,0:0:0:0:
296,152,117323,1,0,0:0:0:0:
416,264,117497,5,0,0:0:0:0:
408,272,117672,2,0,P|360:304|288:304,1,127.500004863739
128,240,118195,1,0,0:0:0:0:
160,96,118369,2,0,P|208:104|224:136,1,80.7499978437424
280,56,118718,2,0,P|300:99|283:131,1,80.7499978437424
240,224,119067,2,0,L|336:256,1,80.7499978437424
328,344,119416,1,0,0:0:0:0:
200,328,119590,1,0,0:0:0:0:
112,136,119765,2,0,P|80:184|88:280,1,127.500004863739
256,192,120462,5,0,0:0:0:0:
392,128,120637,1,0,0:0:0:0:
408,152,120724,1,0,0:0:0:0:
408,184,120811,1,0,0:0:0:0:
344,312,120986,6,0,L|280:272,1,63.7500024318696
200,112,121335,1,0,0:0:0:0:
200,112,121422,1,0,0:0:0:0:
200,112,121509,1,0,0:0:0:0:
104,216,121683,1,0,0:0:0:0:
168,296,121858,2,0,P|240:304|320:232,1,170
256,96,122381,2,0,L|256:152,2,31.8750012159348
256,96,123253,5,0,0:0:0:0:
192,224,123428,1,0,0:0:0:0:
320,224,123602,1,0,0:0:0:0:
128,112,123776,1,0,0:0:0:0:
112,304,123951,5,0,0:0:0:0:
304,208,124125,1,0,0:0:0:0:
208,48,124300,1,0,0:0:0:0:
160,272,124474,1,0,0:0:0:0:
320,64,124649,6,0,P|368:112|368:160,1,101.999996887207
352,288,124997,2,0,L|272:224,1,101.999996887207
128,96,125346,1,0,0:0:0:0:
272,288,125521,1,0,0:0:0:0:
304,160,125695,1,0,0:0:0:0:
149,343,125870,1,0,0:0:0:0:
160,176,126044,5,0,0:0:0:0:
302,189,126219,1,0,0:0:0:0:
256,70,126393,1,0,0:0:0:0:
220,289,126567,1,0,0:0:0:0:
408,232,126742,5,0,0:0:0:0:
247,91,126916,1,0,0:0:0:0:
132,238,127091,1,0,0:0:0:0:
358,202,127265,1,0,0:0:0:0:
176,48,127439,6,0,P|112:128|112:128,1,101.999996887207
64,272,127788,2,0,P|112:320|160:336,1,101.999996887207
192,160,128137,1,0,0:0:0:0:
320,240,128311,1,0,0:0:0:0:
208,256,128486,1,0,0:0:0:0:
432,256,128660,1,0,0:0:0:0:
416,80,128835,6,0,P|336:64|208:80,1,203.999993774414
96,128,129358,2,0,L|128:208,1,85
272,224,129707,1,0,0:0:0:0:
272,224,129794,1,0,0:0:0:0:
272,224,129881,1,0,0:0:0:0:
352,320,130056,5,0,0:0:0:0:
352,320,130230,2,0,P|399:285|400:160,1,170
352,64,130753,2,0,L|266:104,1,85
176,144,131102,1,0,0:0:0:0:
176,144,131189,1,0,0:0:0:0:
176,144,131277,1,0,0:0:0:0:
192,272,131451,1,0,0:0:0:0:
384,208,131625,5,0,0:0:0:0:
384,208,131800,2,0,P|416:272|400:304,1,85
288,320,132149,2,0,L|240:256,1,76.4999976654053
144,80,132497,1,0,0:0:0:0:
144,80,132672,2,0,L|224:80,1,76.4999976654053
368,144,133021,5,0,0:0:0:0:
176,256,133195,1,0,0:0:0:0:
96,64,133369,1,0,0:0:0:0:
256,176,133544,1,0,0:0:0:0:
96,224,133718,5,0,0:0:0:0:
240,64,133893,1,0,0:0:0:0:
368,240,134067,1,0,0:0:0:0:
192,160,134242,1,0,0:0:0:0:
336,64,134416,6,0,P|400:96|416:112,1,76.4999976654053
384,272,134765,2,0,P|336:320|320:320,1,76.4999976654053
288,208,135114,1,0,0:0:0:0:
160,272,135288,2,0,P|128:224|144:176,1,76.4999976654053
160,64,135637,1,0,0:0:0:0:
208,48,135811,2,0,P|272:48|320:112,1,127.500004863739
400,208,136335,2,0,L|336:240,1,63.7500024318696
96,224,136683,5,0,0:0:0:0:
112,256,136771,1,0,0:0:0:0:
128,272,136858,2,0,P|160:304|208:304,1,85
288,160,137207,5,0,0:0:0:0:
336,64,137381,2,0,L|240:64,1,76.4999976654053
112,48,137730,1,0,0:0:0:0:
112,48,137904,2,0,P|96:96|96:128,1,76.4999976654053
128,256,138253,2,0,L|176:192,1,76.4999976654053
384,64,138602,6,0,L|384:160,1,85
288,272,138951,1,0,0:0:0:0:
96,112,139125,1,0,0:0:0:0:
304,160,139300,1,0,0:0:0:0:
160,192,139474,5,0,0:0:0:0:
384,224,139649,1,0,0:0:0:0:
112,304,139823,1,0,0:0:0:0:
80,144,139997,5,0,0:0:0:0:
96,128,140172,2,0,P|128:112|176:112,1,68
288,160,140521,1,0,0:0:0:0:
288,160,140608,1,0,0:0:0:0:
288,160,140695,2,0,P|304:208|272:288,1,136
112,288,141393,2,0,P|160:336|224:352,1,136
304,288,141916,1,0,0:0:0:0:
436,228,142090,5,0,0:0:0:0:
436,228,142265,1,0,0:0:0:0:
432,224,142440,2,0,L|336:224,1,68
120,72,142788,2,0,P|88:136|88:200,1,110.499994941712
144,256,143311,1,0,0:0:0:0:
144,256,143399,1,0,0:0:0:0:
144,256,143486,1,0,0:0:0:0:
272,176,143660,5,0,0:0:0:0:
392,240,143835,2,0,L|392:168,1,63.7500024318696
200,80,144183,2,0,P|168:144|168:208,1,110.499994941712
144,288,144707,2,0,L|224:312,1,80.7499978437424
296,168,145056,1,0,0:0:0:0:
376,328,145230,1,0,0:0:0:0:
200,184,145404,1,0,0:0:0:0:
288,48,145579,6,0,P|344:48|416:136,1,170
400,248,146102,2,0,L|328:296,1,85
296,192,146451,1,0,0:0:0:0:
288,200,146625,2,0,L|216:248,1,85
160,160,146974,5,0,0:0:0:0:
64,224,147149,1,0,0:0:0:0:
200,248,147323,1,0,0:0:0:0:
64,64,147497,1,0,0:0:0:0:
144,144,147672,5,0,0:0:0:0:
172,175,147759,1,0,0:0:0:0:
212,189,147846,1,0,0:0:0:0:
254,187,147933,1,0,0:0:0:0:
295,177,148020,1,0,0:0:0:0:
416,96,148195,5,0,0:0:0:0:
368,96,148282,1,0,0:0:0:0:
320,96,148369,1,0,0:0:0:0:
304,176,148544,5,0,0:0:0:0:
256,176,148631,1,0,0:0:0:0:
208,176,148718,1,0,0:0:0:0:
192,256,148893,5,0,0:0:0:0:
144,256,148980,1,0,0:0:0:0:
96,256,149067,1,0,0:0:0:0:
32,96,149242,2,0,L|96:96,2,42.5
240,96,149590,5,0,0:0:0:0:
264,104,149678,1,0,0:0:0:0:
288,120,149765,2,0,P|320:152|312:192,1,85
256,272,150114,2,0,P|208:296|144:296,1,85
72,208,150463,1,0,0:0:0:0:
336,64,150811,6,0,L|176:80,1,110.499994941712
312,152,151160,2,0,L|160:168,1,110.499994941712
72,96,151509,1,0,0:0:0:0:
240,312,151683,1,0,0:0:0:0:
296,112,151858,1,0,0:0:0:0:
176,224,152032,1,0,0:0:0:0:
384,184,152207,1,0,0:0:0:0:
376,192,152381,2,0,L|256:248,1,93.5000028533936
184,264,152730,5,0,0:0:0:0:
144,256,152817,1,0,0:0:0:0:
112,224,152904,1,0,0:0:0:0:
144,88,153079,1,0,0:0:0:0:
416,256,153253,1,0,0:0:0:0:
232,184,153428,1,0,0:0:0:0:
440,128,153602,2,0,L|360:72,1,93.5000028533936
320,184,153951,5,0,0:0:0:0:
312,192,154125,2,0,L|232:248,1,93.5000028533936
168,128,154474,1,0,0:0:0:0:
280,48,154649,2,0,P|336:40|376:64,1,85
376,64,154997,1,0,0:0:0:0:
352,240,155172,6,0,L|256:240,1,85
104,96,155521,1,0,0:0:0:0:
112,112,155695,2,0,P|149:165|204:177,1,93.5000028533936
320,240,156044,2,0,P|373:202|385:147,1,93.5000028533936
224,112,156567,5,0,0:0:0:0:
80,224,156742,1,0,0:0:0:0:
96,240,156829,1,0,0:0:0:0:
128,256,156916,1,0,0:0:0:0:
272,280,157090,1,0,0:0:0:0:
294,282,157177,1,0,0:0:0:0:
329,275,157264,1,0,0:0:0:0:
352,96,157439,5,0,0:0:0:0:
352,96,157614,1,0,0:0:0:0:
160,288,157788,1,0,0:0:0:0:
160,96,157963,5,0,0:0:0:0:
160,96,158137,1,0,0:0:0:0:
352,288,158311,1,0,0:0:0:0:
320,192,158486,6,0,L|384:224,1,46.7500014266968
232,248,158660,2,0,L|296:280,1,46.7500014266968
416,336,158835,1,0,0:0:0:0:
440,200,159183,2,0,P|424:120|320:72,1,170
256,160,159707,1,0,0:0:0:0:
120,80,159881,1,0,0:0:0:0:
104,112,159968,1,0,0:0:0:0:
104,152,160056,1,0,0:0:0:0:
136,272,160230,1,0,0:0:0:0:
136,272,160404,2,0,P|192:312|240:312,1,85
312,128,160753,6,0,P|264:88|128:88,1,170
64,176,161276,1,0,0:0:0:0:
280,224,161451,1,0,0:0:0:0:
176,136,161625,1,0,0:0:0:0:
384,304,161800,1,0,0:0:0:0:
272,104,161974,1,0,0:0:0:0:
272,104,162061,1,0,0:0:0:0:
272,104,162149,1,0,0:0:0:0:
104,184,162323,6,0,P|128:240|168:264,1,85
328,248,162672,2,0,P|376:232|392:192,1,85
400,56,163021,1,0,0:0:0:0:
288,104,163195,1,0,0:0:0:0:
104,80,163544,5,0,0:0:0:0:
368,256,163718,1,0,0:0:0:0:
384,120,164067,5,0,0:0:0:0:
40,312,164242,1,0,0:0:0:0:
104,112,164590,1,0,0:0:0:0:
104,104,164764,2,0,L|208:104,1,85
328,56,165288,5,0,0:0:0:0:
384,144,165463,2,0,L|224:256,1,187.000005706787
80,192,165986,1,0,0:0:0:0:
80,192,166160,1,0,0:0:0:0:
80,192,166335,2,0,B|136:136|168:128|200:152|232:152|271:128|287:96|279:112,1,187.000005706787
392,192,166858,5,0,0:0:0:0:
248,200,167032,1,0,0:0:0:0:
352,288,167207,2,0,L|256:304,1,93.5000028533936
160,160,167556,2,0,L|264:192,1,93.5000028533936
400,120,167904,5,0,0:0:0:0:
248,88,168079,1,0,0:0:0:0:
248,88,168166,1,0,0:0:0:0:
248,88,168253,1,0,0:0:0:0:
96,120,168428,5,0,0:0:0:0:
216,208,168602,1,0,0:0:0:0:
240,240,168689,1,0,0:0:0:0:
264,272,168776,1,0,0:0:0:0:
408,280,168951,5,0,0:0:0:0:
344,192,169125,1,0,0:0:0:0:
320,160,169212,1,0,0:0:0:0:
296,128,169299,1,0,0:0:0:0:
120,96,169474,5,0,0:0:0:0:
104,176,169649,1,0,0:0:0:0:
112,200,169736,1,0,0:0:0:0:
128,224,169823,1,0,0:0:0:0:
144,240,169910,5,0,0:0:0:0:
168,256,169997,1,0,0:0:0:0:
200,264,170085,1,0,0:0:0:0:
224,272,170172,1,0,0:0:0:0:
256,272,170259,5,0,0:0:0:0:
288,264,170346,1,0,0:0:0:0:
320,248,170433,1,0,0:0:0:0:
344,224,170521,1,0,0:0:0:0:
101,292,170695,6,0,P|150:322|231:335,1,127.500004863739
286,317,171218,1,0,0:0:0:0:
209,192,171392,1,0,0:0:0:0:
85,292,171567,1,0,0:0:0:0:
76,284,171741,2,0,P|59:245|73:204,1,63.7500024318696
126,123,172090,6,0,P|165:89|205:96,1,80.7499978437424
338,219,172439,2,0,L|258:222,1,80.7499978437424
181,289,172788,1,0,0:0:0:0:
295,141,172962,1,0,0:0:0:0:
149,65,173136,1,0,0:0:0:0:
283,237,173311,1,0,0:0:0:0:
230,336,173486,6,0,P|189:313|184:224,1,127.500004863739
263,126,174009,1,0,0:0:0:0:
72,172,174183,1,0,0:0:0:0:
72,164,174357,2,0,P|70:116|93:91,1,63.7500024318696
260,46,174706,1,0,0:0:0:0:
355,251,174881,5,0,0:0:0:0:
319,139,175055,1,0,0:0:0:0:
181,304,175230,1,0,0:0:0:0:
183,112,175404,1,0,0:0:0:0:
458,215,175578,1,0,0:0:0:0:
430,80,175753,1,0,0:0:0:0:
412,56,175840,1,0,0:0:0:0:
372,42,175927,1,0,0:0:0:0:
228,47,176102,5,0,0:0:0:0:
229,55,176276,2,0,L|161:177,1,127.500004863739
164,273,176799,1,0,0:0:0:0:
197,288,176886,1,0,0:0:0:0:
237,287,176974,1,0,0:0:0:0:
363,242,177148,1,0,0:0:0:0:
192,177,177323,2,0,L|287:149,1,85
432,152,177671,6,0,P|397:81|381:66,1,85
167,153,178020,2,0,L|254:118,1,85
348,59,178369,1,0,0:0:0:0:
411,232,178543,1,0,0:0:0:0:
319,156,178718,1,0,0:0:0:0:
270,325,178892,5,0,0:0:0:0:
102,324,179067,2,0,P|68:269|49:181,1,127.500004863739
153,186,179590,1,0,0:0:0:0:
301,292,179764,1,0,0:0:0:0:
301,292,179852,1,0,0:0:0:0:
301,292,179939,1,0,0:0:0:0:
353,187,180113,2,0,L|286:125,1,85
86,117,180462,5,0,0:0:0:0:
147,258,180636,1,0,0:0:0:0:
200,151,180811,1,0,0:0:0:0:
222,335,180985,1,0,0:0:0:0:
304,173,181160,1,0,0:0:0:0:
51,246,181334,1,0,0:0:0:0:
94,100,181509,2,0,P|140:58|180:49,1,85
389,82,181857,5,0,0:0:0:0:
280,344,182032,1,0,0:0:0:0:
208,96,182206,1,0,0:0:0:0:
432,296,182381,1,0,0:0:0:0:
168,336,182555,2,0,P|130:275|125:233,1,85
200,120,182904,2,0,P|262:81|302:76,1,85
410,201,183253,5,0,0:0:0:0:
401,185,183340,1,0,0:0:0:0:
384,170,183427,1,0,0:0:0:0:
272,141,183602,2,0,P|241:175|235:231,1,85
182,337,183950,1,0,0:0:0:0:
416,296,184125,1,0,0:0:0:0:
152,208,184299,1,0,0:0:0:0:
304,156,184474,1,0,0:0:0:0:
48,72,184648,5,0,0:0:0:0:
48,72,184735,1,0,0:0:0:0:
48,72,184822,1,0,0:0:0:0:
117,307,184997,1,0,0:0:0:0:
240,288,185172,2,0,B|279:254|294:214|300:153,1,127.500004863739
357,74,185695,2,0,L|301:68,2,31.8750012159348
188,56,186043,5,0,0:0:0:0:
352,179,186218,1,0,0:0:0:0:
388,49,186392,1,0,0:0:0:0:
440,288,186567,2,0,P|417:329|370:339,1,85
220,272,186916,1,0,0:0:0:0:
211,256,187003,1,0,0:0:0:0:
202,232,187090,1,0,0:0:0:0:
78,124,187264,5,0,0:0:0:0:
86,117,187439,2,0,P|133:83|205:80,1,127.500004863739
367,138,187962,1,0,0:0:0:0:
340,283,188136,2,0,P|292:277|275:245,1,63.7500024318696
222,328,188485,2,0,P|201:285|212:256,1,63.7500024318696
256,158,188834,2,0,L|167:129,1,63.7500024318696
164,41,189183,1,0,0:0:0:0:
292,53,189357,1,0,0:0:0:0:
387,242,189532,2,0,P|418:193|406:97,1,127.500004863739
241,190,190229,5,0,0:0:0:0:
107,259,190404,1,0,0:0:0:0:
90,236,190491,1,0,0:0:0:0:
89,204,190578,1,0,0:0:0:0:
149,73,190753,6,0,L|214:111,1,63.7500024318696
300,269,191102,1,0,0:0:0:0:
300,269,191189,1,0,0:0:0:0:
300,269,191276,1,0,0:0:0:0:
392,161,191450,1,0,0:0:0:0:
325,84,191625,2,0,P|253:79|176:153,1,170
245,287,192148,2,0,L|242:223,2,42.5
144,336,192672,5,0,0:0:0:0:
96,232,192846,1,0,0:0:0:0:
80,192,192933,1,0,0:0:0:0:
80,152,193021,2,0,P|96:104|120:80,1,63.7500024318696
232,56,193369,1,0,0:0:0:0:
336,248,193544,1,0,0:0:0:0:
208,264,193718,2,0,P|176:224|176:200,1,63.7500024318696
368,104,194067,1,0,0:0:0:0:
96,200,194242,1,0,0:0:0:0:
144,72,194416,6,0,P|184:48|208:48,1,63.7500024318696
280,168,194765,1,0,0:0:0:0:
280,168,194939,2,0,P|251:205|211:209,1,63.7500024318696
72,208,195288,1,0,0:0:0:0:
72,216,195463,2,0,L|104:288,1,63.7500024318696
384,216,195811,6,0,P|360:280|296:304,1,127.500004863739
208,224,196335,2,0,P|176:184|176:152,1,63.7500024318696
248,40,196683,1,0,0:0:0:0:
304,200,196858,1,0,0:0:0:0:
376,88,197032,1,0,0:0:0:0:
432,232,197207,2,0,L|368:280,1,63.7500024318696
256,208,197556,2,0,L|200:160,1,63.7500024318696
128,48,197904,5,0,0:0:0:0:
96,296,198079,1,0,0:0:0:0:
192,312,198253,1,0,0:0:0:0:
168,160,198428,5,0,0:0:0:0:
168,152,198602,2,0,P|248:104|248:104,1,63.7500024318696
336,64,198951,2,0,L|400:104,1,63.7500024318696
448,208,199300,1,0,0:0:0:0:
160,288,199474,1,0,0:0:0:0:
384,272,199649,1,0,0:0:0:0:
216,152,199823,1,0,0:0:0:0:
400,120,199997,5,0,0:0:0:0:
400,120,200172,2,0,L|336:88,1,63.7500024318696
232,112,200521,1,0,0:0:0:0:
232,112,200696,2,0,L|168:80,1,63.7500024318696
72,208,201218,1,0,0:0:0:0:
72,208,201305,1,0,0:0:0:0:
72,208,201392,2,0,L|144:264,1,63.7500024318696
232,304,201742,2,0,P|280:312|312:304,1,63.7500024318696
376,200,202090,2,0,P|328:160|304:152,1,63.7500024318696
112,176,202439,5,0,0:0:0:0:
256,240,202614,1,0,0:0:0:0:
208,56,202788,2,0,L|136:56,1,63.7500024318696
256,128,203137,2,0,L|320:128,1,63.7500024318696
448,200,203486,1,0,0:0:0:0:
440,64,203660,1,0,0:0:0:0:
304,88,203835,5,0,0:0:0:0:
296,96,203922,1,0,0:0:0:0:
280,104,204009,1,0,0:0:0:0:
264,112,204096,1,0,0:0:0:0:
80,112,204183,6,0,L|136:160,1,63.7500024318696
376,256,204532,1,0,0:0:0:0:
176,248,204707,1,0,0:0:0:0:
384,136,204881,1,0,0:0:0:0:
176,80,205056,1,0,0:0:0:0:
296,312,205230,1,0,0:0:0:0:
408,208,205404,5,0,0:0:0:0:
224,152,205579,2,0,P|168:128|144:128,1,63.7500024318696
64,200,205928,2,0,P|48:240|56:288,1,63.7500024318696
160,320,206276,1,0,0:0:0:0:
104,160,206451,1,0,0:0:0:0:
272,256,206625,1,0,0:0:0:0:
288,104,206800,1,0,0:0:0:0:
152,144,206974,6,0,P|184:192|208:200,1,63.7500024318696
376,280,207323,1,0,0:0:0:0:
400,152,207497,2,0,P|360:96|296:80,1,127.500004863739
96,144,208021,1,0,0:0:0:0:
232,200,208195,1,0,0:0:0:0:
192,304,208369,2,0,P|160:320|128:312,1,63.7500024318696
112,168,208718,6,0,P|152:144|192:160,1,63.7500024318696
360,192,209067,2,0,P|384:160|368:112,1,63.7500024318696
272,64,209416,1,0,0:0:0:0:
120,72,209590,5,0,0:0:0:0:
115,78,209678,1,0,0:0:0:0:
110,84,209765,2,0,P|87:127|92:160,1,63.7500024318696
144,264,210114,5,0,0:0:0:0:
448,192,210288,1,0,0:0:0:0:
240,152,210463,1,0,0:0:0:0:
408,312,210637,1,0,0:0:0:0:
72,344,210811,1,0,0:0:0:0:
336,224,210986,1,0,0:0:0:0:
360,88,211160,6,0,P|304:64|280:64,1,68
112,88,211509,1,0,0:0:0:0:
112,96,211683,1,0,0:0:0:0:
112,104,211858,2,0,L|112:240,1,136
240,328,212556,5,0,0:0:0:0:
344,256,212730,1,0,0:0:0:0:
368,240,212817,1,0,0:0:0:0:
392,216,212904,1,0,0:0:0:0:
384,112,213079,6,0,L|304:72,1,68
216,64,213427,1,0,0:0:0:0:
184,80,213514,1,0,0:0:0:0:
152,96,213602,1,0,0:0:0:0:
128,208,213776,2,0,L|181:279,1,68
256,288,214125,1,0,0:0:0:0:
392,336,214300,2,0,L|296:336,1,68
312,336,214649,1,0,0:0:0:0:
128,232,214997,5,0,0:0:0:0:
288,64,215172,1,0,0:0:0:0:
296,64,215347,2,0,P|344:80|408:160,1,136
408,256,215869,1,0,0:0:0:0:
112,216,216044,1,0,0:0:0:0:
456,160,216218,1,0,0:0:0:0:
160,120,216393,1,0,0:0:0:0:
336,320,216567,1,0,0:0:0:0:
296,64,216742,5,0,0:0:0:0:
184,304,216916,1,0,0:0:0:0:
256,168,217090,1,0,0:0:0:0:
352,240,217265,1,0,0:0:0:0:
192,88,217439,2,0,P|128:104|96:168,1,136
112,336,218137,5,0,0:0:0:0:
224,336,218486,2,0,L|304:336,1,68
168,168,218835,5,0,0:0:0:0:
296,240,219184,2,0,L|376:288,1,68
320,40,219532,5,0,0:0:0:0:
409,200,219881,2,0,L|454:278,1,68
64,336,220230,5,0,0:0:0:0:
168,96,220404,1,0,0:0:0:0:
464,344,220579,2,0,P|416:320|376:328,1,68
448,56,220928,5,0,0:0:0:0:
