osu file format v14

[General]
AudioFilename: audio.mp3
AudioLeadIn: 0
PreviewTime: 62620
Countdown: 0
SampleSet: None
StackLeniency: 0.7
Mode: 0
LetterboxInBreaks: 0
WidescreenStoryboard: 1

[Editor]
DistanceSpacing: 0.5
BeatDivisor: 2
GridSize: 16
TimelineZoom: 1.7

[Metadata]
Title:TOGENKYO
TitleUnicode:「TOGENKYO」
Artist:frederic
ArtistUnicode:フレデリック
Creator:Kento
Version:TOGENKYO
Source:
Tags:frederic フレデリック TOGENKYO Enerugii Flake [Hypotato]
BeatmapID:1831743
BeatmapSetID:675582

[Difficulty]
HPDrainRate:6.2
CircleSize:4
OverallDifficulty:7.9
ApproachRate:9
SliderMultiplier:2
SliderTickRate:1

[Events]
//Background and Video events
0,0,"background.png",0,0
//Break Periods
//Storyboard Layer 0 (Background)
//Storyboard Layer 1 (Fail)
//Storyboard Layer 2 (Pass)
//Storyboard Layer 3 (Foreground)
//Storyboard Sound Samples

[TimingPoints]
7954,333.333333333333,4,2,0,20,1,0
8287,-200,4,2,0,20,0,0
16611,-333.333333333333,4,2,0,20,0,0
17287,-200,4,2,0,60,0,0
18620,-200,4,3,0,50,0,0
19953,-200,4,2,0,70,0,0
19954,-200,4,2,0,70,0,0
20287,-200,4,2,0,70,0,0
21620,-133.333333333333,4,2,0,70,0,0
22620,-133.333333333333,4,2,0,70,0,0
22953,-133.333333333333,4,2,0,70,0,0
25287,-200,4,2,0,70,0,0
25620,-200,4,2,0,70,0,0
26953,-133.333333333333,4,2,0,70,0,0
27787,-100,4,2,0,70,0,0
27954,-133.333333333333,4,2,0,70,0,0
28287,-166.666666666667,4,2,0,70,0,0
30620,-181.818181818182,4,2,0,50,0,0
31953,-200,4,2,0,50,0,0
33287,-200,4,2,0,50,0,0
34620,-250,4,2,0,50,0,0
34954,-133.333333333333,4,2,0,50,0,0
40120,-181.818181818181,4,2,0,50,0,0
41287,-181.818181818181,4,2,0,50,0,0
42620,-133.333333333333,4,2,0,50,0,0
43287,-181.818181818181,4,2,0,50,0,0
44954,-133.333333333333,4,2,0,50,0,0
45287,-200,4,2,0,50,0,0
48620,-200,4,2,0,50,0,0
49120,-200,4,2,0,50,0,0
50620,-66.6666666666667,4,2,0,50,0,0
51620,-66.6666666666667,4,1,0,60,0,0
51953,-133.333333333333,4,2,0,70,0,0
52287,-133.333333333333,4,2,0,70,0,0
59953,-133.333333333333,4,2,0,70,0,0
62620,-100,4,2,0,80,0,1
63454,-133.333333333333,4,2,0,80,0,1
83953,-133.333333333333,4,2,0,80,0,1
84120,-133.333333333333,4,2,0,80,0,1
84287,-133.333333333333,4,2,0,70,0,0
86953,-133.333333333333,4,2,0,70,0,0
88953,-133.333333333333,4,2,0,70,0,0
89620,-133.333333333333,4,2,0,70,0,0
92287,-133.333333333333,4,2,0,70,0,0
93787,-500,4,2,0,20,0,0
94120,-500,4,2,0,5,0,0

[Colours]
Combo1 : 155,0,206
Combo2 : 205,205,205
Combo3 : 255,85,85

[HitObjects]
133,123,7953,5,2,0:0:0:0:
84,195,8119,1,0,0:0:0:0:
134,260,8286,1,0,0:0:0:0:
134,260,8453,1,0,0:0:0:0:
134,260,8619,1,2,0:0:0:0:
186,163,8786,1,2,0:0:0:0:
306,174,8953,1,0,0:0:0:0:
241,69,9119,1,0,0:0:0:0:
371,90,9286,1,2,0:0:0:0:
362,236,10120,6,4,L|387:287,1,50,0|0,0:0|0:0,0:0:0:0:
314,351,10453,2,4,L|291:306,1,50,0|2,0:0|0:0,0:0:0:0:
189,306,10787,1,0,0:0:0:0:
135,222,10954,1,0,0:0:0:0:
172,129,11120,1,0,0:0:0:0:
272,125,11287,2,4,P|321:134|368:170,1,100,2|0,0:0|0:0,0:0:0:0:
263,264,11953,1,2,0:0:0:0:
263,264,12287,1,0,0:0:0:0:
294,131,12620,1,0,0:0:0:0:
294,131,12953,1,0,0:0:0:0:
379,261,13287,5,2,0:0:0:0:
428,189,13453,1,2,0:0:0:0:
378,124,13620,1,0,0:0:0:0:
378,124,13787,1,0,0:0:0:0:
378,124,13953,1,2,0:0:0:0:
326,221,14120,1,2,0:0:0:0:
206,210,14287,1,0,0:0:0:0:
271,315,14453,1,0,0:0:0:0:
141,294,14620,1,2,0:0:0:0:
150,148,15453,6,4,L|125:97,1,50,0|0,0:0|0:0,0:0:0:0:
194,19,15786,2,4,L|219:70,1,50,0|2,0:0|0:0,0:0:0:0:
150,148,16120,1,2,0:0:0:0:
285,84,16287,1,0,0:0:0:0:
349,220,16453,1,0,0:0:0:0:
213,283,16620,2,4,P|181:275|152:251,1,59.9999981689454,2|0,0:0|0:0,0:0:0:0:
97,40,17287,5,14,0:0:0:0:
278,173,17454,1,0,0:0:0:0:
113,327,17620,1,0,0:0:0:0:
215,35,17787,5,14,0:0:0:0:
248,257,17954,1,0,0:0:0:0:
22,248,18120,1,0,0:0:0:0:
302,115,18287,5,14,0:0:0:0:
169,296,18454,1,0,0:0:0:0:
16,131,18620,2,2,P|40:94|71:76,1,50,14|0,0:0|0:0,0:0:0:0:
256,240,18954,6,8,P|231:276|200:294,1,50,10|2,0:0|0:0,0:0:0:0:
39,281,19287,1,10,0:0:0:0:
16,131,19453,5,2,0:0:0:0:
16,131,19620,2,2,L|16:200,1,50,10|0,0:0|0:0,0:0:0:0:
192,304,19954,6,8,B|161:251|183:191,1,100,6|8,0:0|0:0,0:0:0:0:
265,99,20454,1,8,0:0:0:0:
326,236,20620,1,0,0:0:0:0:
179,345,20787,1,0,0:0:0:0:
179,345,20954,6,8,P|108:294|94:238,1,100,8|2,0:0|0:0,0:0:0:0:
77,218,21453,1,0,0:0:0:0:
131,165,21620,1,8,0:0:0:0:
131,165,21787,2,8,P|208:140|230:142,1,75.0000028610231,2|0,0:0|0:0,0:0:0:0:
304,152,22120,2,8,B|280:225,1,75.0000028610231,0|8,0:0|0:0,0:0:0:0:
368,272,22453,1,2,0:0:0:0:
368,272,22537,1,2,0:0:0:0:
368,272,22620,6,8,B|330:344|223:323,1,150.000005722046,2|8,0:0|0:0,0:0:0:0:
125,295,23120,1,8,0:0:0:0:
234,171,23287,1,0,0:0:0:0:
66,171,23453,1,0,0:0:0:0:
113,43,23620,6,8,P|154:26|197:53,1,75.0000028610231,8|0,0:0|0:0,0:0:0:0:
152,141,23953,1,2,0:0:0:0:
406,212,24119,1,0,0:0:0:0:
194,106,24286,1,8,0:0:0:0:
388,171,24453,1,2,0:0:0:0:
173,202,24619,1,0,0:0:0:0:
360,257,24786,1,0,0:0:0:0:
276,366,24953,1,8,0:0:0:0:
251,266,25120,1,2,0:0:0:0:
251,266,25203,1,2,0:0:0:0:
251,266,25287,6,8,B|215:222|240:153,1,100,2|8,0:0|0:0,0:0:0:0:
339,203,25787,1,8,0:0:0:0:
316,334,25953,1,0,0:0:0:0:
179,345,26120,1,0,0:0:0:0:
179,345,26287,6,8,P|108:294|94:238,1,100,8|2,0:0|0:0,0:0:0:0:
49,185,26787,1,0,0:0:0:0:
131,106,26953,1,8,0:0:0:0:
131,106,27120,2,8,P|163:82|228:71,1,75.0000028610231,2|0,0:0|0:0,0:0:0:0:
297,146,27453,2,8,B|268:236,1,75.0000028610231,0|8,0:0|0:0,0:0:0:0:
339,323,27787,1,2,0:0:0:0:
339,323,27870,1,2,0:0:0:0:
339,323,27954,6,8,B|267:349|174:338,1,150.000005722046,2|8,0:0|0:0,0:0:0:0:
104,244,28454,1,8,0:0:0:0:
260,211,28620,1,0,0:0:0:0:
175,53,28787,1,0,0:0:0:0:
175,53,28953,6,8,P|207:51|251:66,1,59.9999981689454,8|0,0:0|0:0,0:0:0:0:
313,147,29287,1,2,0:0:0:0:
104,244,29453,1,0,0:0:0:0:
175,53,29620,1,8,0:0:0:0:
260,211,29787,1,6,0:0:0:0:
101,127,29953,1,0,0:0:0:0:
217,295,30120,1,0,0:0:0:0:
217,295,30203,1,0,0:0:0:0:
217,295,30287,2,8,P|283:268|286:265,1,59.9999981689454,8|0,0:0|0:0,0:0:0:0:
329,204,30620,6,8,P|324:146|294:101,1,110.000003356934,4|0,0:0|0:0,0:0:0:0:
197,193,31120,1,0,0:0:0:0:
80,159,31287,2,0,P|114:102|161:76,1,110.000003356934,0|0,0:0|0:0,0:0:0:0:
299,51,31954,2,8,B|361:46|389:100,1,100,0|0,0:0|0:0,0:0:0:0:
391,189,32453,1,0,0:0:0:0:
301,158,32620,2,8,B|282:216|326:255,1,100,0|0,0:0|0:0,0:0:0:0:
413,297,33120,1,0,0:0:0:0:
336,336,33287,6,8,B|279:344|245:296,1,100,0|0,0:0|0:0,0:0:0:0:
161,273,33787,1,0,0:0:0:0:
77,317,33953,2,0,P|61:268|88:216,1,100
163,186,34453,1,0,0:0:0:0:
67,134,34620,2,8,L|34:83,2,40,0|0|0,0:0|0:0|0:0,0:0:0:0:
163,186,35120,2,8,P|223:215|304:208,1,150.000005722046,0|0,0:0|0:0,0:0:0:0:
238,142,35620,1,0,0:0:0:0:
82,16,35954,6,8,P|141:56|184:130,1,150.000005722046,0|0,0:0|0:0,0:0:0:0:
121,186,36454,1,0,0:0:0:0:
292,136,36620,6,8,P|351:176|400:240,1,150.000005722046,0|0,0:0|0:0,0:0:0:0:
313,255,37120,1,0,0:0:0:0:
500,169,37287,6,8,P|468:152|404:145,1,75.0000028610231,0|0,0:0|0:0,0:0:0:0:
313,255,37620,2,8,P|280:277|221:292,1,75.0000028610231,0|0,0:0|0:0,0:0:0:0:
34,159,37953,1,0,0:0:0:0:
188,198,38120,1,0,0:0:0:0:
225,44,38287,1,0,0:0:0:0:
73,6,38453,1,0,0:0:0:0:
153,103,38620,6,8,L|68:241,1,150.000005722046,0|0,0:0|0:0,0:0:0:0:
143,308,39120,1,0,0:0:0:0:
240,311,39287,2,8,B|275:331|330:317,1,75.0000028610231,0|0,0:0|0:0,0:0:0:0:
420,320,39620,1,0,0:0:0:0:
429,209,39787,1,0,0:0:0:0:
328,203,39954,1,0,0:0:0:0:
328,203,40120,2,8,L|264:267,2,55.0000016784669,0|0|0,0:0|0:0|0:0,0:0:0:0:
208,128,40620,2,8,L|272:112,1,55.0000016784668,0|0,0:0|0:0,0:0:0:0:
378,138,40953,1,0,0:0:0:0:
378,138,41120,1,0,0:0:0:0:
304,320,41287,6,8,P|256:272|240:224,1,110.000003356934,0|2,0:0|0:0,0:0:0:0:
260,143,41787,1,0,0:0:0:0:
192,304,41954,6,8,P|144:256|128:192,1,110.000003356934,0|0,0:0|0:0,0:0:0:0:
148,131,42454,1,0,0:0:0:0:
304,80,42620,6,8,P|366:146|400:198,1,150.000005722046,0|2,0:0|0:0,0:0:0:0:
363,290,43120,1,0,0:0:0:0:
272,320,43287,2,8,L|240:384,2,55.0000016784669,0|0|2,0:0|0:0|0:0,0:0:0:0:
208,224,43787,1,0,0:0:0:0:
80,288,43954,2,8,L|32:368,2,55.0000016784669,0|2|0,0:0|0:0|0:0,0:0:0:0:
146,163,44453,1,0,0:0:0:0:
304,246,44620,1,0,0:0:0:0:
147,339,44787,1,0,0:0:0:0:
79,134,44954,6,8,P|120:143|153:172,1,75.0000028610231,2|0,0:0|0:0,0:0:0:0:
104,271,45287,1,0,0:0:0:0:
334,190,45453,1,2,0:0:0:0:
198,305,45620,1,2,0:0:0:0:
238,98,45787,1,0,0:0:0:0:
322,298,45954,1,0,0:0:0:0:
144,208,46120,2,8,B|64:224|64:224,2,50,0|2|0,0:0|0:0|0:0,0:0:0:0:
384,192,46620,6,8,P|336:144|320:112,1,100,0|2,0:0|0:0,0:0:0:0:
223,176,47120,1,0,0:0:0:0:
63,98,47287,2,8,P|111:146|127:178,1,100,0|2,0:0|0:0,0:0:0:0:
300,228,47787,1,0,0:0:0:0:
99,286,47953,5,0,0:0:0:0:
331,314,48120,1,0,0:0:0:0:
96,304,48287,1,2,0:0:0:0:
332,283,48453,1,0,0:0:0:0:
185,311,48620,2,0,L|171:248,1,50,0|0,0:0|0:0,0:0:0:0:
161,159,48953,1,2,0:0:0:0:
323,90,49120,5,0,0:0:0:0:
323,90,49287,2,8,P|344:114|349:154,1,50,0|0,0:0|0:0,0:0:0:0:
312,236,49620,1,2,0:0:0:0:
192,256,49787,1,2,0:0:0:0:
192,256,49953,2,8,P|171:232|166:192,1,50,0|0,0:0|0:0,0:0:0:0:
161,71,50287,2,0,L|160:135,1,50,2|2,0:0|0:0,0:0:0:0:
128,222,50620,5,0,0:0:0:0:
399,275,50787,1,0,0:0:0:0:
124,297,50954,1,2,0:0:0:0:
395,201,51120,1,0,0:0:0:0:
122,262,51287,1,0,0:0:0:0:
401,242,51454,1,0,0:0:0:0:
100,289,51620,5,2,0:0:0:0:
89,266,51703,1,0,0:0:0:0:
82,242,51786,1,0,0:0:0:0:
78,218,51870,1,0,0:0:0:0:
79,195,51953,2,8,B|127:83|207:35,1,150.000005722046,4|10,0:0|0:0,0:0:0:0:
250,26,52454,1,0,0:0:0:0:
336,80,52620,2,8,P|416:112|416:112,2,75.0000028610231,0|0|8,0:0|0:0|0:0,0:0:0:0:
200,215,53120,2,4,P|261:251|234:191,1,150.000005722046,6|0,0:0|0:0,0:0:0:0:
176,96,53620,1,8,0:0:0:0:
128,288,53954,5,0,0:0:0:0:
261,204,54120,1,0,0:0:0:0:
176,96,54287,2,8,P|256:48|271:43,1,75.0000028610231,10|0,0:0|0:0,0:0:0:0:
325,33,54620,1,6,0:0:0:0:
325,134,54787,1,0,0:0:0:0:
261,204,54954,1,8,0:0:0:0:
261,204,55120,1,0,0:0:0:0:
384,192,55287,2,8,L|448:144,2,75.0000028610231,0|0|8,0:0|0:0|0:0,0:0:0:0:
289,297,55787,1,6,0:0:0:0:
160,256,55954,2,8,P|32:160|32:160,1,150.000005722046,0|8,0:0|0:0,0:0:0:0:
41,58,56453,5,0,0:0:0:0:
144,64,56620,2,8,L|192:0,2,75.0000028610231,2|0|10,0:0|0:0|0:0,0:0:0:0:
168,162,57120,1,0,0:0:0:0:
240,224,57287,2,8,P|336:192|384:160,1,150.000005722046,6|8,0:0|0:0,0:0:0:0:
444,115,57787,1,0,0:0:0:0:
192,352,57954,6,8,P|288:320|336:288,1,150.000005722046,2|0,0:0|0:0,0:0:0:0:
417,248,58454,1,0,0:0:0:0:
376,165,58620,2,12,P|300:134|221:118,1,150.000005722046,6|8,0:0|0:0,0:0:0:0:
115,177,59120,1,0,0:0:0:0:
307,226,59287,1,2,0:0:0:0:
112,206,59454,1,2,0:0:0:0:
304,256,59620,1,8,0:0:0:0:
108,235,59787,1,2,0:0:0:0:
264,155,59953,2,0,P|280:117|282:79,1,75.0000028610231,6|0,0:0|0:0,0:0:0:0:
367,102,60287,2,0,P|366:63|378:28,1,75.0000028610231,8|0,0:0|0:0,0:0:0:0:
481,85,60620,6,8,P|467:151|417:223,1,150.000005722046,2|8,0:0|0:0,0:0:0:0:
303,153,61120,1,6,0:0:0:0:
83,282,61287,1,0,0:0:0:0:
304,320,61454,1,0,0:0:0:0:
112,144,61620,1,8,0:0:0:0:
192,336,61787,1,0,0:0:0:0:
240,112,61954,1,0,0:0:0:0:
76,262,62120,5,2,0:0:0:0:
215,244,62287,1,2,0:0:0:0:
112,144,62453,1,2,0:0:0:0:
433,139,62620,1,6,0:0:0:0:
245,161,62787,1,0,0:0:0:0:
448,160,62954,1,8,0:0:0:0:
224,144,63120,1,0,0:0:0:0:
416,144,63287,5,0,0:0:0:0:
320,304,63454,1,0,0:0:0:0:
384,112,63620,1,8,0:0:0:0:
336,320,63787,1,0,0:0:0:0:
352,96,63954,1,0,0:0:0:0:
128,240,64120,1,0,0:0:0:0:
320,176,64287,5,8,0:0:0:0:
80,224,64453,1,0,0:0:0:0:
368,208,64620,1,0,0:0:0:0:
80,256,64787,1,0,0:0:0:0:
288,319,64953,2,0,P|263:291|258:227,1,75.0000028610231,8|0,0:0|0:0,0:0:0:0:
337,84,65287,5,6,0:0:0:0:
258,23,65453,1,0,0:0:0:0:
186,98,65620,2,8,P|161:168|168:257,1,150.000005722046,8|0,0:0|0:0,0:0:0:0:
178,342,66120,1,0,0:0:0:0:
456,227,66287,1,8,0:0:0:0:
186,98,66454,1,6,0:0:0:0:
302,336,66620,1,0,0:0:0:0:
394,84,66787,1,0,0:0:0:0:
461,331,66953,1,8,0:0:0:0:
247,110,67120,1,0,0:0:0:0:
302,336,67287,2,0,P|250:302|238:284,1,75.0000028610231,0|0,0:0|0:0,0:0:0:0:
179,349,67620,2,0,P|127:315|115:297,1,75.0000028610231,4|0,0:0|0:0,0:0:0:0:
48,256,67953,6,8,P|93:187|184:171,1,150.000005722046,0|8,0:0|0:0,0:0:0:0:
283,175,68453,1,0,0:0:0:0:
168,50,68620,1,0,0:0:0:0:
141,262,68787,1,0,0:0:0:0:
345,238,68953,1,8,0:0:0:0:
154,167,69120,1,0,0:0:0:0:
279,350,69287,5,0,0:0:0:0:
303,157,69453,1,0,0:0:0:0:
83,322,69620,1,8,0:0:0:0:
379,233,69787,1,0,0:0:0:0:
20,203,69953,1,0,0:0:0:0:
390,268,70120,1,0,0:0:0:0:
45,167,70287,1,8,0:0:0:0:
192,320,70453,1,0,0:0:0:0:
192,320,70620,6,2,L|184:238,2,75.0000028610231,0|0|0,0:0|0:0|0:0,0:0:0:0:
57,231,71120,1,0,0:0:0:0:
288,128,71287,1,0,0:0:0:0:
217,241,71454,1,0,0:0:0:0:
16,192,71620,1,8,0:0:0:0:
320,128,71787,1,6,0:0:0:0:
123,278,71953,1,0,0:0:0:0:
346,276,72120,1,2,0:0:0:0:
80,192,72287,6,8,L|155:169,2,75.0000028610231,0|6|0,0:0|0:0|0:0,0:0:0:0:
208,240,72787,1,0,0:0:0:0:
139,78,72953,1,2,0:0:0:0:
288,64,73120,1,2,0:0:0:0:
288,64,73287,6,2,L|309:166,1,75.0000028610231,6|0,0:0|0:0,0:0:0:0:
79,245,73620,1,8,0:0:0:0:
267,223,73787,1,0,0:0:0:0:
64,224,73954,1,0,0:0:0:0:
288,240,74120,1,0,0:0:0:0:
96,240,74287,5,8,0:0:0:0:
192,80,74454,1,0,0:0:0:0:
128,272,74620,1,0,0:0:0:0:
176,64,74787,1,0,0:0:0:0:
160,288,74954,1,8,0:0:0:0:
384,144,75120,1,0,0:0:0:0:
192,208,75287,5,0,0:0:0:0:
432,160,75453,1,0,0:0:0:0:
144,176,75620,1,8,0:0:0:0:
432,128,75787,1,0,0:0:0:0:
208,48,75954,2,2,L|240:128,1,75.0000028610231,6|0,0:0|0:0,0:0:0:0:
279,214,76287,1,8,0:0:0:0:
160,320,76453,1,0,0:0:0:0:
160,320,76620,6,8,L|138:240,2,75.0000028610231,0|0|8,0:0|0:0|0:0,0:0:0:0:
240,176,77120,1,6,0:0:0:0:
80,224,77287,1,0,0:0:0:0:
260,240,77454,1,0,0:0:0:0:
144,112,77620,1,8,0:0:0:0:
128,320,77787,1,0,0:0:0:0:
260,240,77953,2,0,P|288:220|308:184,1,75.0000028610231,0|0,0:0|0:0,0:0:0:0:
283,69,78287,1,4,0:0:0:0:
176,32,78453,1,0,0:0:0:0:
176,32,78620,6,2,L|128:176,1,150.000005722046,0|8,0:0|0:0,0:0:0:0:
146,257,79119,5,0,0:0:0:0:
114,337,79287,1,0,0:0:0:0:
258,209,79453,1,0,0:0:0:0:
340,336,79620,1,8,0:0:0:0:
146,161,79787,1,6,0:0:0:0:
57,299,79954,1,0,0:0:0:0:
274,113,80120,1,0,0:0:0:0:
338,225,80287,1,8,0:0:0:0:
130,65,80454,1,6,0:0:0:0:
72,180,80620,2,8,L|-14:256,2,75.0000028610231,0|0|8,0:0|0:0|0:0,0:0:0:0:
225,202,81120,1,0,0:0:0:0:
99,304,81287,6,8,P|175:340|254:352,1,150.000005722046,6|8,0:0|0:0,0:0:0:0:
332,289,81787,1,0,0:0:0:0:
124,205,81954,1,0,0:0:0:0:
336,192,82120,1,0,0:0:0:0:
99,304,82287,1,8,0:0:0:0:
388,281,82453,1,0,0:0:0:0:
147,97,82620,5,0,0:0:0:0:
204,343,82787,1,0,0:0:0:0:
375,126,82953,1,8,0:0:0:0:
124,205,83120,1,0,0:0:0:0:
393,284,83287,1,2,0:0:0:0:
93,38,83453,5,2,0:0:0:0:
204,343,83620,1,2,0:0:0:0:
284,8,83787,1,2,0:0:0:0:
316,342,83953,5,6,0:0:0:0:
316,342,84037,1,0,0:0:0:0:
316,342,84120,1,0,0:0:0:0:
203,264,84287,2,8,P|192:227|202:177,1,75.0000028610231,8|8,0:0|0:0,0:0:0:0:
275,75,84620,1,0,0:0:0:0:
326,215,84953,1,8,0:0:0:0:
197,191,85287,2,2,P|174:225|123:247,1,75.0000028610231,2|0,0:0|0:0,0:0:0:0:
45,292,85620,1,8,0:0:0:0:
45,292,85787,1,2,0:0:0:0:
193,349,86120,1,0,0:0:0:0:
193,349,86287,1,8,0:0:0:0:
193,349,86453,1,2,0:0:0:0:
326,314,86620,5,2,0:0:0:0:
326,314,86703,1,0,0:0:0:0:
326,314,86787,1,0,0:0:0:0:
397,190,86953,2,8,P|401:152|390:108,1,75.0000028610231,8|8,0:0|0:0,0:0:0:0:
288,159,87287,1,0,0:0:0:0:
342,3,87620,1,8,0:0:0:0:
108,73,87953,1,2,0:0:0:0:
288,159,88286,1,8,0:0:0:0:
288,159,88453,1,2,0:0:0:0:
133,193,88620,2,2,P|102:218|94:255,1,75.0000028610231,0|0,0:0|0:0,0:0:0:0:
134,330,88953,2,2,P|163:307|173:272,1,75.0000028610231,8|2,0:0|0:0,0:0:0:0:
133,193,89287,5,2,0:0:0:0:
133,193,89370,1,0,0:0:0:0:
133,193,89453,1,0,0:0:0:0:
174,102,89620,2,8,P|213:82|254:80,1,75.0000028610231,8|8,0:0|0:0,0:0:0:0:
246,206,89953,1,0,0:0:0:0:
347,298,90287,1,8,0:0:0:0:
427,114,90620,2,2,L|415:194,1,75.0000028610231,2|0,0:0|0:0,0:0:0:0:
336,129,90953,2,2,L|324:209,1,75.0000028610231,8|2,0:0|0:0,0:0:0:0:
380,351,91453,1,0,0:0:0:0:
380,351,91620,1,8,0:0:0:0:
380,351,91787,1,2,0:0:0:0:
326,223,91953,5,2,0:0:0:0:
367,108,92287,2,8,P|314:74|271:58,1,75.0000028610231,8|8,0:0|0:0,0:0:0:0:
246,118,92620,2,8,P|182:116|144:124,1,75.0000028610231,0|0,0:0|0:0,0:0:0:0:
149,189,92953,2,8,P|81:238|68:256,1,75.0000028610231,8|0,0:0|0:0,0:0:0:0:
73,305,93287,1,2,0:0:0:0:
228,357,93620,1,8,0:0:0:0:
228,357,93787,2,2,P|250:351|271:339,1,40,6|0,0:0|0:0,0:0:0:0:
