osu file format v14

[General]
AudioFilename: audio.mp3
AudioLeadIn: 0
PreviewTime: 62620
Countdown: 0
SampleSet: None
StackLeniency: 0.7
Mode: 0
LetterboxInBreaks: 0
WidescreenStoryboard: 0

[Editor]
DistanceSpacing: 1
BeatDivisor: 4
GridSize: 16
TimelineZoom: 1

[Metadata]
Title:TOGENKYO
TitleUnicode:「TOGENKYO」
Artist:frederic
ArtistUnicode:フレデリック
Creator:Kento
Version:Normal
Source:
Tags:frederic フレデリック TOGENKYO Enerugii Flake [Hypotato]
BeatmapID:1831741
BeatmapSetID:675582

[Difficulty]
HPDrainRate:2
CircleSize:3
OverallDifficulty:2
ApproachRate:3
SliderMultiplier:1
SliderTickRate:1

[Events]
//Background and Video events
0,0,"background.png",0,0
//Break Periods
//Storyboard Layer 0 (Background)
//Storyboard Layer 1 (Fail)
//Storyboard Layer 2 (Pass)
//Storyboard Layer 3 (Foreground)
//Storyboard Sound Samples

[TimingPoints]
7954,333.333333333333,4,3,0,100,1,0
7954,-100,4,3,0,100,0,0
62620,-100,4,3,0,100,0,1
84120,-100,4,3,0,100,0,0

[HitObjects]
123,165,7953,5,0,0:0:0:0:
211,118,8287,2,0,P|260:109|309:115,1,100
394,168,8953,2,0,L|417:235,2,50
150,111,10120,2,0,L|134:161,2,50
139,62,10620,1,0,0:0:0:0:
41,82,10953,2,0,P|34:149|36:183,1,100
35,181,11620,1,0,0:0:0:0:
38,280,11953,2,0,P|70:296|117:347,1,100
119,241,12620,2,0,P|127:201|151:241,1,100
196,321,13287,5,0,0:0:0:0:
291,290,13620,2,0,L|294:178,1,100
218,128,14287,2,0,L|211:60,2,50
97,346,15453,2,0,L|47:356,2,50
121,302,15953,1,0,0:0:0:0:
225,130,16620,1,0,0:0:0:0:
309,311,17287,6,0,L|361:224,1,100
380,179,17787,1,0,0:0:0:0:
272,74,18287,2,0,L|161:97,1,100
127,111,18787,1,0,0:0:0:0:
136,210,19120,2,0,L|145:280,3,50
92,345,19953,5,0,0:0:0:0:
190,325,20287,1,0,0:0:0:0:
289,310,20620,2,0,L|342:211,1,100
356,127,21287,1,0,0:0:0:0:
280,61,21620,2,0,P|229:76|216:84,1,50
244,175,22120,2,0,L|229:242,2,50
136,70,22953,5,0,0:0:0:0:
68,144,23287,2,0,L|52:246,1,100
119,316,23953,1,0,0:0:0:0:
206,267,24287,2,0,B|170:256|156:224,1,50
232,106,24953,2,0,L|342:59,1,100
421,43,25620,5,0,0:0:0:0:
474,133,25953,1,0,0:0:0:0:
474,133,26287,2,0,L|375:153,1,100
299,217,26953,2,0,L|313:278,1,50
210,265,27453,2,0,L|190:329,2,50
195,217,27953,5,0,0:0:0:0:
113,159,28287,1,0,0:0:0:0:
178,83,28620,2,0,L|281:143,1,100
266,228,29287,1,0,0:0:0:0:
358,189,29620,1,0,0:0:0:0:
236,101,30120,2,0,L|215:32,2,50
237,151,30620,5,0,0:0:0:0:
118,312,31287,1,0,0:0:0:0:
317,319,31953,2,0,L|347:260,2,50
229,270,32620,1,0,0:0:0:0:
156,83,33287,2,0,L|221:110,2,50
109,171,33953,1,0,0:0:0:0:
79,268,34287,1,0,0:0:0:0:
176,244,34620,2,0,L|275:233,1,100
357,288,35287,1,0,0:0:0:0:
446,243,35620,1,0,0:0:0:0:
424,145,35953,5,0,0:0:0:0:
229,191,36620,1,0,0:0:0:0:
52,284,37287,2,0,L|157:338,1,100
235,315,37953,1,0,0:0:0:0:
321,264,38287,2,0,L|386:185,1,100
409,97,38953,1,0,0:0:0:0:
506,73,39287,1,0,0:0:0:0:
512,173,39620,2,0,L|463:272,1,100
387,323,40287,2,0,L|377:377,2,50
206,240,41287,5,0,0:0:0:0:
364,118,41953,1,0,0:0:0:0:
174,53,42620,2,0,P|107:110|61:218,1,200
236,309,43953,2,0,P|345:247|388:169,1,200
343,94,44953,1,0,0:0:0:0:
245,71,45287,2,0,L|131:86,1,100
83,159,45953,1,0,0:0:0:0:
86,259,46287,1,0,0:0:0:0:
181,308,46620,6,0,L|295:327,1,100
378,310,47287,2,0,L|406:361,2,50
350,214,47953,1,0,0:0:0:0:
261,260,48287,2,0,B|155:217|155:217,1,100
126,135,48953,1,0,0:0:0:0:
202,70,49287,6,0,P|284:51|308:47,1,100
395,77,49953,2,0,L|435:170,1,100
372,247,50620,2,0,L|383:313,2,50
302,174,51287,1,0,0:0:0:0:
265,81,51620,6,0,L|159:58,1,100
89,114,52287,2,0,L|48:212,1,100
105,288,52953,2,0,L|188:342,1,100
238,347,53453,1,0,0:0:0:0:
285,329,53620,2,0,L|308:373,2,50
259,232,54287,1,0,0:0:0:0:
176,176,54620,1,0,0:0:0:0:
160,77,54953,6,0,L|274:51,1,100
355,72,55620,2,0,L|395:25,2,50
314,163,56287,1,0,0:0:0:0:
368,247,56620,1,0,0:0:0:0:
323,336,56953,1,0,0:0:0:0:
223,346,57287,6,0,L|106:330,1,100
47,275,57953,1,0,0:0:0:0:
44,174,58287,2,0,L|10:133,2,50
138,207,58953,1,0,0:0:0:0:
209,136,59287,2,0,L|289:71,1,100
385,70,59953,5,0,0:0:0:0:
319,145,60287,1,0,0:0:0:0:
396,208,60620,1,0,0:0:0:0:
318,266,60953,2,0,L|298:318,2,50
266,180,61620,1,0,0:0:0:0:
130,116,62120,2,0,L|64:97,2,50
179,123,62620,6,0,L|169:178,1,50
181,221,62953,2,0,P|260:217|302:223,1,100
380,230,63620,2,0,L|388:288,1,50
393,329,63953,2,0,P|309:331|291:340,1,100
196,329,64620,6,0,L|226:267,2,50
96,318,65287,1,0,0:0:0:0:
71,221,65620,1,0,0:0:0:0:
169,203,65953,2,0,L|192:144,1,50
205,109,66287,2,0,P|275:102|312:106,1,100
385,164,66953,2,0,L|415:213,2,50
286,180,67620,1,0,0:0:0:0:
319,273,67953,6,0,L|326:329,1,50
325,373,68287,2,0,P|248:383|221:377,1,100
153,310,68953,1,0,0:0:0:0:
194,281,69120,2,0,P|212:196|208:163,1,100
192,137,69620,2,0,L|167:84,2,50
289,112,70287,2,0,P|356:154|377:179,1,100
357,270,70953,1,0,0:0:0:0:
280,206,71287,2,0,P|234:195|175:204,1,100
273,320,72120,1,0,0:0:0:0:
325,76,72953,5,0,0:0:0:0:
382,149,73287,2,0,L|388:201,1,50
400,247,73620,2,0,P|322:243|285:231,1,100
201,247,74287,2,0,L|188:306,1,50
184,345,74620,2,0,P|255:369|281:372,1,100
370,329,75287,2,0,L|423:303,2,50
279,287,75953,1,0,0:0:0:0:
250,190,76287,6,0,L|277:138,1,50
286,97,76620,2,0,P|242:53|196:40,1,100
162,63,77120,1,0,0:0:0:0:
124,155,77453,2,0,L|67:188,2,50
171,172,77953,1,0,0:0:0:0:
244,240,78287,1,0,0:0:0:0:
273,144,78620,5,0,0:0:0:0:
223,59,78953,2,0,L|285:38,1,50
320,37,79287,2,0,P|341:60|367:75,1,50
388,108,79620,2,0,P|368:157|364:160,2,50
311,173,80287,1,0,0:0:0:0:
233,235,80620,2,0,L|177:265,2,50
229,135,81287,6,0,P|166:64|154:58,1,100
68,94,81953,2,0,L|57:144,1,50
54,193,82287,2,0,P|121:195|154:204,1,100
196,227,82787,1,0,0:0:0:0:
144,312,83120,1,0,0:0:0:0:
239,342,83453,2,0,L|194:390,2,50
296,293,83953,2,0,P|225:244|210:223,1,100
224,134,84620,2,0,L|271:36,1,100
367,37,85287,1,0,0:0:0:0:
397,138,85620,1,0,0:0:0:0:
397,138,85787,1,0,0:0:0:0:
340,220,86120,2,0,L|362:272,2,50
290,213,86620,5,0,0:0:0:0:
257,307,86953,1,0,0:0:0:0:
171,254,87287,2,0,L|100:166,1,100
132,79,87953,1,0,0:0:0:0:
231,64,88287,1,0,0:0:0:0:
231,64,88453,1,0,0:0:0:0:
253,161,88787,2,0,L|304:180,2,50
210,188,89287,5,0,0:0:0:0:
135,254,89620,1,0,0:0:0:0:
206,323,89953,2,0,L|304:278,1,100
374,217,90620,1,0,0:0:0:0:
314,144,90953,1,0,0:0:0:0:
314,144,91120,1,0,0:0:0:0:
252,223,91453,2,0,L|213:280,2,50
246,173,91953,5,0,0:0:0:0:
193,87,92287,1,0,0:0:0:0:
120,155,92620,2,0,L|101:266,1,100
169,328,93287,1,0,0:0:0:0:
263,288,93620,1,0,0:0:0:0:
263,288,93787,1,0,0:0:0:0:
301,195,94120,1,0,0:0:0:0:
