osu file format v14

[General]
AudioFilename: audio.mp3
AudioLeadIn: 0
PreviewTime: 62620
Countdown: 0
SampleSet: None
StackLeniency: 0.7
Mode: 0
LetterboxInBreaks: 0
WidescreenStoryboard: 1

[Editor]
Bookmarks: 19953,25287
DistanceSpacing: 0.7
BeatDivisor: 4
GridSize: 8
TimelineZoom: 1.6

[Metadata]
Title:TOGENKYO
TitleUnicode:「TOGENKYO」
Artist:frederic
ArtistUnicode:フレデリック
Creator:Kento
Version:Hard
Source:
Tags:frederic フレデリック TOGENKYO Enerugii Flake [Hypotato]
BeatmapID:1831738
BeatmapSetID:675582

[Difficulty]
HPDrainRate:5
CircleSize:4
OverallDifficulty:7.8
ApproachRate:8.7
SliderMultiplier:1.4
SliderTickRate:1

[Events]
//Background and Video events
0,0,"background.png",0,0
//Break Periods
//Storyboard Layer 0 (Background)
//Storyboard Layer 1 (Fail)
//Storyboard Layer 2 (Pass)
//Storyboard Layer 3 (Foreground)
//Storyboard Sound Samples

[TimingPoints]
7954,333.333333333333,4,2,0,20,1,0
7954,-100,4,2,0,20,0,0
17287,-285.714285714284,4,2,0,60,0,0
18620,-285.714285714284,4,3,0,50,0,0
19453,-133.333333333333,4,3,0,50,0,0
19953,-100,4,2,0,70,0,0
20203,-100,4,2,0,5,0,0
20287,-100,4,2,0,70,0,0
22870,-100,4,2,0,5,0,0
22953,-100,4,2,0,70,0,0
24953,-50,4,2,0,70,0,0
25287,-100,4,2,0,70,0,0
25537,-100,4,2,0,5,0,0
25620,-100,4,2,0,70,0,0
28203,-100,4,2,0,5,0,0
28287,-100,4,2,0,70,0,0
30620,-100,4,2,0,40,0,0
35287,-66.6666666666667,4,2,0,40,0,0
35953,-100,4,2,0,40,0,0
45953,-66.6666666666667,4,2,0,40,0,0
46620,-100,4,2,0,40,0,0
51620,-100,4,1,0,50,0,0
51953,-100,4,2,0,70,0,0
51964,-100,4,2,0,70,0,0
62620,-83.3333333333333,4,2,0,80,0,1
75787,-133.333333333333,4,2,0,80,0,1
76287,-83.3333333333333,4,2,0,80,0,1
83953,-133.333333333333,4,2,0,80,0,0
84203,-133.333333333333,4,2,0,5,0,0
84287,-133.333333333333,4,2,0,70,0,0
86870,-133.333333333333,4,2,0,5,0,0
86953,-133.333333333333,4,2,0,70,0,0
89537,-133.333333333333,4,2,0,5,0,0
89620,-133.333333333333,4,2,0,70,0,0
92203,-133.333333333333,4,2,0,5,0,0
92287,-133.333333333333,4,2,0,70,0,0
93787,-133.333333333333,4,2,0,20,0,0
94120,-133.333333333333,4,2,0,5,0,0

[Colours]
Combo1 : 155,0,206
Combo2 : 205,205,205
Combo3 : 255,85,85

[HitObjects]
97,90,7953,6,8,P|155:76|183:80,1,70,2|2,0:0|0:0,0:0:0:0:
181,126,8287,2,8,P|127:152|108:173,1,70,0|0,0:0|0:0,0:0:0:0:
114,219,8620,2,8,P|167:189|115:163,1,140,2|0,0:0|0:0,0:0:0:0:
39,191,9287,1,2,0:0:0:0:
160,305,10120,6,8,B|168:350|190:378|180:377,2,70,0|0|0,0:0|0:0|0:0,0:0:0:0:
167,228,10620,1,2,0:0:0:0:
315,193,11287,1,2,0:0:0:0:
254,71,11953,2,8,P|263:11|283:4,1,70,2|2,0:0|0:0,0:0:0:0:
254,71,12287,2,8,P|286:50|305:59,1,70,0|0,0:0|0:0,0:0:0:0:
254,71,12620,2,8,P|283:94|291:114,1,70,0|0,0:0|0:0,0:0:0:0:
254,71,12953,2,8,P|258:119|249:138,1,70,0|0,0:0|0:0,0:0:0:0:
415,293,13287,6,8,P|382:305|347:307,1,70,2|2,0:0|0:0,0:0:0:0:
330,258,13620,2,8,P|363:246|391:225,1,70,0|0,0:0|0:0,0:0:0:0:
398,165,13953,2,8,P|345:189|392:223,1,140,2|0,0:0|0:0,0:0:0:0:
473,193,14620,1,2,0:0:0:0:
352,79,15453,6,8,B|344:34|322:6|332:7,2,70,0|0|0,0:0|0:0|0:0,0:0:0:0:
345,156,15953,1,2,0:0:0:0:
197,191,16620,1,2,0:0:0:0:
92,280,17287,2,8,P|120:309|132:315,1,48.9999985046387,14|0,0:0|0:0,0:0:0:0:
212,298,17787,1,14,0:0:0:0:
298,346,18120,2,8,L|314:377,2,24.4999992523194,0|14|0,0:0|0:0|0:0,0:0:0:0:
348,269,18620,1,14,0:0:0:0:
145,251,19120,1,2,0:0:0:0:
201,119,19453,2,2,L|226:93,1,26.2500010013581,2|0,0:0|0:0,0:0:0:0:
272,105,19620,2,2,L|293:82,1,26.2500010013581,10|0,0:0|0:0,0:0:0:0:
251,268,19953,5,6,0:0:0:0:
265,164,20287,2,8,P|304:180|346:183,1,70,8|8,0:0|0:0,0:0:0:0:
377,244,20620,1,0,0:0:0:0:
316,311,20953,2,8,P|281:295|250:302,1,70,8|0,0:0|0:0,0:0:0:0:
191,254,21287,1,2,0:0:0:0:
94,224,21620,1,8,0:0:0:0:
94,224,21787,1,2,0:0:0:0:
161,47,21953,2,8,L|137:133,1,70,0|0,0:0|0:0,0:0:0:0:
94,224,22287,1,8,0:0:0:0:
152,293,22620,5,2,0:0:0:0:
233,240,22953,2,8,P|233:181|222:166,1,70,8|8,0:0|0:0,0:0:0:0:
271,132,23287,1,0,0:0:0:0:
424,157,23620,2,8,P|462:219|468:222,1,70,8|0,0:0|0:0,0:0:0:0:
444,278,23953,1,2,0:0:0:0:
240,279,24287,1,8,0:0:0:0:
305,193,24453,1,2,0:0:0:0:
118,181,24953,2,4,P|69:196|127:205,1,140,8|2,0:0|0:0,0:0:0:0:
261,116,25287,5,2,0:0:0:0:
247,220,25620,2,8,P|208:204|166:201,1,70,8|8,0:0|0:0,0:0:0:0:
135,140,25953,1,0,0:0:0:0:
196,73,26287,2,8,P|257:83|272:71,1,70,8|0,0:0|0:0,0:0:0:0:
321,130,26620,1,2,0:0:0:0:
431,143,26953,1,8,0:0:0:0:
431,143,27120,1,2,0:0:0:0:
338,295,27287,2,8,L|362:209,1,70,0|0,0:0|0:0,0:0:0:0:
431,143,27620,1,8,0:0:0:0:
360,91,27953,5,2,0:0:0:0:
279,144,28287,2,8,P|279:203|290:218,1,70,8|8,0:0|0:0,0:0:0:0:
233,270,28620,1,0,0:0:0:0:
88,227,28953,2,8,P|50:165|44:162,1,70,8|0,0:0|0:0,0:0:0:0:
79,93,29287,1,2,0:0:0:0:
232,80,29620,1,8,0:0:0:0:
179,174,29787,1,6,0:0:0:0:
336,178,30120,2,8,L|376:159,1,35,0|0,0:0|0:0,0:0:0:0:
397,212,30287,2,8,L|445:225,1,35,8|0,0:0|0:0,0:0:0:0:
460,173,30453,2,8,L|500:154,1,35,0|0,0:0|0:0,0:0:0:0:
470,297,30620,5,4,0:0:0:0:
399,354,30787,1,0,0:0:0:0:
387,273,30953,2,8,P|343:275|311:260,1,70,0|0,0:0|0:0,0:0:0:0:
204,179,31287,1,0,0:0:0:0:
319,185,31453,1,0,0:0:0:0:
255,276,31620,2,8,L|223:349,1,70,0|0,0:0|0:0,0:0:0:0:
288,343,31953,1,0,0:0:0:0:
374,244,32120,1,0,0:0:0:0:
260,233,32287,1,0,0:0:0:0:
408,328,32453,2,2,L|450:354,4,35,0|0|0|0|0,0:0|0:0|0:0|0:0|0:0,0:0:0:0:
383,250,32953,1,0,0:0:0:0:
383,250,33287,5,0,0:0:0:0:
204,191,33453,1,0,0:0:0:0:
266,275,33620,1,0,0:0:0:0:
313,158,33787,1,0,0:0:0:0:
354,285,33953,2,4,L|344:357,1,70,0|0,0:0|0:0,0:0:0:0:
266,352,34287,2,4,L|269:282,1,70,0|0,0:0|0:0,0:0:0:0:
201,277,34620,2,4,L|184:355,1,70,0|0,0:0|0:0,0:0:0:0:
111,342,34953,2,4,L|108:259,1,70,0|0,0:0|0:0,0:0:0:0:
95,158,35287,2,2,P|102:84|112:166,1,210.000008010865,0|0,0:0|0:0,0:0:0:0:
185,242,35953,5,0,0:0:0:0:
246,285,36120,1,0,0:0:0:0:
316,268,36287,2,4,P|366:245|397:243,1,70,0|0,0:0|0:0,0:0:0:0:
441,175,36620,1,0,0:0:0:0:
484,237,36787,1,0,0:0:0:0:
434,289,36953,2,4,L|412:355,1,70,0|0,0:0|0:0,0:0:0:0:
481,365,37287,1,0,0:0:0:0:
370,266,37453,1,0,0:0:0:0:
346,347,37620,1,0,0:0:0:0:
485,268,37787,1,0,0:0:0:0:
418,202,37953,2,4,P|446:158|465:149,1,70,0|0,0:0|0:0,0:0:0:0:
411,87,38287,5,0,0:0:0:0:
309,123,38453,1,0,0:0:0:0:
203,123,38620,2,4,P|194:77|180:55,1,70,0|0,0:0|0:0,0:0:0:0:
309,123,38953,2,4,P|318:77|332:55,1,70,0|0,0:0|0:0,0:0:0:0:
203,123,39287,2,4,P|194:77|180:55,1,70,0|0,0:0|0:0,0:0:0:0:
309,123,39620,2,4,P|318:77|332:55,1,70,0|0,0:0|0:0,0:0:0:0:
247,19,39953,2,4,L|256:176,1,140,0|0,0:0|0:0,0:0:0:0:
246,254,40453,2,2,L|266:310,4,35,0|0|0|0|0,0:0|0:0|0:0|0:0|0:0,0:0:0:0:
89,260,41287,5,0,0:0:0:0:
64,172,41453,1,2,0:0:0:0:
125,111,41620,2,4,P|169:109|201:124,1,70,2|0,0:0|0:0,0:0:0:0:
271,211,41953,1,0,0:0:0:0:
146,202,42120,1,2,0:0:0:0:
257,108,42287,2,4,L|289:35,1,70,2|0,0:0|0:0,0:0:0:0:
198,33,42620,1,0,0:0:0:0:
121,147,42787,1,2,0:0:0:0:
272,167,42953,1,2,0:0:0:0:
136,76,43120,2,0,L|94:50,4,35,0|0|0|0|0,0:0|0:0|0:0|0:0|0:0,0:0:0:0:
129,134,43620,1,2,0:0:0:0:
129,134,43953,5,0,0:0:0:0:
333,190,44120,1,2,0:0:0:0:
289,94,44287,1,2,0:0:0:0:
223,231,44453,1,0,0:0:0:0:
158,99,44620,2,4,L|168:27,1,70,0|0,0:0|0:0,0:0:0:0:
246,32,44953,2,4,L|243:102,1,70,2|0,0:0|0:0,0:0:0:0:
311,107,45287,2,4,L|328:29,1,70,0|2,0:0|0:0,0:0:0:0:
401,42,45620,2,4,L|404:125,1,70,2|0,0:0|0:0,0:0:0:0:
417,226,45953,2,2,P|410:300|400:218,1,210.000008010865,0|2,0:0|0:0,0:0:0:0:
327,142,46620,5,0,0:0:0:0:
266,99,46787,1,2,0:0:0:0:
196,115,46953,2,4,P|165:133|131:140,1,70,2|0,0:0|0:0,0:0:0:0:
71,209,47287,1,0,0:0:0:0:
37,147,47453,1,2,0:0:0:0:
78,95,47620,2,4,L|100:29,1,70,2|0,0:0|0:0,0:0:0:0:
31,19,47953,1,0,0:0:0:0:
142,118,48120,1,0,0:0:0:0:
166,37,48287,1,2,0:0:0:0:
27,116,48453,1,0,0:0:0:0:
101,297,48953,5,2,0:0:0:0:
201,240,49120,1,0,0:0:0:0:
309,260,49287,2,4,P|313:295|329:326,1,70,0|0,0:0|0:0,0:0:0:0:
202,260,49620,2,2,P|198:295|182:326,1,70,2|2,0:0|0:0,0:0:0:0:
309,260,49953,2,4,P|313:295|329:326,1,70,0|0,0:0|0:0,0:0:0:0:
202,260,50287,2,2,P|198:295|182:326,1,70,2|2,0:0|0:0,0:0:0:0:
265,365,50620,2,4,L|256:225,1,140,0|2,0:0|0:0,0:0:0:0:
266,130,51120,2,2,L|254:97,4,35,0|0|0|0|0,0:0|0:0|0:0|0:0|0:0,0:0:0:0:
130,270,51953,6,4,P|168:302|195:316,1,70,4|0,0:0|0:0,0:0:0:0:
270,255,52287,1,10,0:0:0:0:
303,341,52453,1,0,0:0:0:0:
360,249,52620,2,4,P|413:265|430:301,1,70,0|0,0:0|0:0,0:0:0:0:
386,348,52953,2,4,P|343:366|319:354,1,70,8|6,0:0|0:0,0:0:0:0:
258,300,53287,1,0,0:0:0:0:
162,223,53620,5,8,0:0:0:0:
174,145,53787,1,0,0:0:0:0:
250,149,53953,2,4,P|322:153|332:162,1,70,0|0,0:0|0:0,0:0:0:0:
359,75,54287,1,10,0:0:0:0:
278,28,54453,1,0,0:0:0:0:
255,102,54620,2,4,L|258:177,1,70,6|0,0:0|0:0,0:0:0:0:
332,199,54953,2,4,L|292:277,1,70,8|0,0:0|0:0,0:0:0:0:
195,233,55287,1,0,0:0:0:0:
109,352,55620,5,8,0:0:0:0:
186,369,55787,1,6,0:0:0:0:
255,341,55953,2,4,P|297:322|345:326,1,70,0|0,0:0|0:0,0:0:0:0:
384,257,56287,1,8,0:0:0:0:
266,226,56453,1,0,0:0:0:0:
377,164,56620,2,4,P|311:122|294:124,1,70,2|0,0:0|0:0,0:0:0:0:
223,97,56953,2,4,P|266:52|283:44,1,70,10|0,0:0|0:0,0:0:0:0:
379,45,57287,1,6,0:0:0:0:
334,164,57620,5,8,0:0:0:0:
245,158,57787,1,0,0:0:0:0:
257,237,57953,2,4,P|297:286|312:295,1,70,2|2,0:0|0:0,0:0:0:0:
394,314,58287,2,4,P|349:359|328:365,1,70,8|0,0:0|0:0,0:0:0:0:
239,339,58620,1,6,0:0:0:0:
272,244,58787,1,0,0:0:0:0:
197,163,58953,2,4,P|215:108|230:88,1,70,8|0,0:0|0:0,0:0:0:0:
285,32,59287,2,4,L|359:59,1,70,2|2,0:0|0:0,0:0:0:0:
394,135,59620,1,8,0:0:0:0:
340,263,59953,5,6,0:0:0:0:
264,246,60120,1,0,0:0:0:0:
244,168,60287,2,12,P|204:119|189:110,1,70,8|0,0:0|0:0,0:0:0:0:
118,70,60620,2,12,P|163:25|184:19,1,70,2|0,0:0|0:0,0:0:0:0:
273,45,60953,1,8,0:0:0:0:
329,126,61120,1,6,0:0:0:0:
315,221,61287,2,4,P|297:276|282:296,1,70,0|0,0:0|0:0,0:0:0:0:
227,352,61620,2,4,L|153:325,1,70,8|0,0:0|0:0,0:0:0:0:
111,147,62120,2,2,L|94:71,2,70,2|2|2,0:0|0:0|0:0,0:0:0:0:
135,242,62620,5,6,0:0:0:0:
126,332,62787,1,0,0:0:0:0:
217,320,62953,2,4,P|292:356|383:323,1,167.999994873047,8|0,0:0|0:0,0:0:0:0:
420,245,63453,1,0,0:0:0:0:
301,244,63620,1,8,0:0:0:0:
223,166,63787,1,0,0:0:0:0:
283,84,63954,2,4,P|312:161|300:244,1,167.999994873047,0|8,0:0|0:0,0:0:0:0:
194,288,64453,2,4,L|157:366,2,83.9999974365235,0|0|0,0:0|0:0|0:0,0:0:0:0:
139,226,64953,2,4,P|119:176|92:156,1,83.9999974365235,8|0,0:0|0:0,0:0:0:0:
132,81,65287,1,6,0:0:0:0:
265,142,65620,5,8,0:0:0:0:
345,222,65787,1,0,0:0:0:0:
213,238,65953,2,4,P|259:297|252:240,1,167.999994873047,0|8,0:0|0:0,0:0:0:0:
270,178,66453,1,6,0:0:0:0:
345,128,66620,1,0,0:0:0:0:
369,223,66787,2,4,P|377:281|374:311,1,83.9999974365235,0|8,0:0|0:0,0:0:0:0:
306,343,67120,1,0,0:0:0:0:
245,274,67287,1,0,0:0:0:0:
344,194,67620,1,4,0:0:0:0:
344,194,67953,5,0,0:0:0:0:
428,153,68120,1,0,0:0:0:0:
367,87,68287,2,4,B|345:38|345:38|321:87|301:101|277:107|250:106|232:100,1,167.999994873047,8|0,0:0|0:0,0:0:0:0:
182,115,68787,1,0,0:0:0:0:
191,213,68953,1,8,0:0:0:0:
259,278,69120,1,0,0:0:0:0:
372,236,69287,2,4,P|408:181|344:194,1,167.999994873047,0|8,0:0|0:0,0:0:0:0:
194,288,69787,2,4,L|157:366,2,83.9999974365235,0|0|0,0:0|0:0|0:0,0:0:0:0:
135,221,70287,2,4,P|115:171|88:151,1,83.9999974365235,8|0,0:0|0:0,0:0:0:0:
116,72,70620,6,2,L|145:-8,2,83.9999974365235,0|0|0,0:0|0:0|0:0,0:0:0:0:
84,200,71120,2,4,P|32:230|6:238,1,83.9999974365235,0|0,0:0|0:0,0:0:0:0:
84,200,71453,2,4,P|18:199|-5:186,1,83.9999974365235,0|8,0:0|0:0,0:0:0:0:
84,200,71787,2,4,P|38:165|30:137,1,83.9999974365235,6|0,0:0|0:0,0:0:0:0:
140,109,72120,2,2,L|185:92,4,41.9999987182618,2|0|0|0|6,0:0|0:0|0:0|0:0|0:0,0:0:0:0:
137,240,72953,6,4,P|135:287|121:328,1,83.9999974365235,2|2,0:0|0:0,0:0:0:0:
218,340,73287,1,6,0:0:0:0:
348,332,73453,1,0,0:0:0:0:
206,302,73620,1,8,0:0:0:0:
387,313,73787,1,0,0:0:0:0:
235,251,73953,1,0,0:0:0:0:
276,99,74287,5,8,0:0:0:0:
124,161,74453,1,0,0:0:0:0:
305,150,74620,1,0,0:0:0:0:
163,180,74787,1,0,0:0:0:0:
293,188,74953,1,8,0:0:0:0:
244,294,75287,5,0,0:0:0:0:
231,170,75453,2,4,P|197:202|180:240,1,83.9999974365235,0|8,0:0|0:0,0:0:0:0:
180,324,75787,1,0,0:0:0:0:
313,262,75953,2,2,P|360:265|405:218,1,105.000004005432,6|8,0:0|0:0,0:0:0:0:
491,135,76453,1,0,0:0:0:0:
394,14,76620,2,4,L|405:98,1,83.9999974365235,0|0,0:0|0:0,0:0:0:0:
442,204,76953,2,4,P|378:175|338:182,1,83.9999974365235,8|6,0:0|0:0,0:0:0:0:
361,267,77287,1,0,0:0:0:0:
239,295,77453,1,0,0:0:0:0:
322,348,77620,1,8,0:0:0:0:
306,223,77787,1,0,0:0:0:0:
221,332,77953,2,2,L|198:371,4,41.9999987182618,0|0|0|0|4,0:0|0:0|0:0|0:0|0:0,0:0:0:0:
317,247,78620,5,0,0:0:0:0:
364,157,78787,1,0,0:0:0:0:
326,60,78953,2,4,P|251:65|226:54,1,83.9999974365235,8|0,0:0|0:0,0:0:0:0:
162,103,79287,1,0,0:0:0:0:
77,168,79453,1,0,0:0:0:0:
97,259,79620,2,4,P|139:254|206:283,1,83.9999974365235,8|6,0:0|0:0,0:0:0:0:
247,306,79953,1,0,0:0:0:0:
293,200,80120,1,0,0:0:0:0:
218,108,80287,2,4,L|255:30,2,83.9999974365235,8|6|0,0:0|0:0|0:0,0:0:0:0:
332,73,80787,1,0,0:0:0:0:
373,158,80953,2,0,P|393:208|420:228,1,83.9999974365235,8|0,0:0|0:0,0:0:0:0:
341,292,81287,1,6,0:0:0:0:
206,194,81620,5,8,0:0:0:0:
292,234,81787,1,0,0:0:0:0:
299,146,81953,2,4,P|253:87|260:144,1,167.999994873047,0|8,0:0|0:0,0:0:0:0:
242,206,82453,1,0,0:0:0:0:
167,256,82620,1,0,0:0:0:0:
143,161,82787,2,4,P|135:103|138:73,1,83.9999974365235,0|8,0:0|0:0,0:0:0:0:
206,41,83120,1,0,0:0:0:0:
283,157,83287,2,4,L|332:201,2,41.9999987182618,2|0|2,0:0|0:0|0:0,0:0:0:0:
194,200,83620,2,4,L|150:159,2,41.9999987182618,2|0|2,0:0|0:0|0:0,0:0:0:0:
211,318,83953,5,6,0:0:0:0:
329,309,84287,2,8,P|362:277|384:271,1,52.5000020027161,8|8,0:0|0:0,0:0:0:0:
360,238,84620,2,8,P|374:216|379:190,1,52.5000020027161,0|0,0:0|0:0,0:0:0:0:
405,164,84953,1,8,0:0:0:0:
364,73,85287,2,8,L|353:16,2,52.5000020027161,2|0|8,0:0|0:0|0:0,0:0:0:0:
330,138,85787,2,8,L|341:195,2,52.5000020027161,2|0|0,0:0|0:0|0:0,0:0:0:0:
279,71,86287,1,8,0:0:0:0:
134,87,86620,5,2,0:0:0:0:
103,181,86953,2,8,L|89:255,1,52.5000020027161,8|8,0:0|0:0,0:0:0:0:
108,266,87287,2,8,L|125:338,1,52.5000020027161,0|0,0:0|0:0,0:0:0:0:
154,328,87620,1,8,0:0:0:0:
270,297,87953,2,8,P|301:304|331:330,2,52.5000020027161,2|0|8,0:0|0:0|0:0,0:0:0:0:
252,216,88453,2,8,P|221:209|191:183,2,52.5000020027161,2|0|0,0:0|0:0|0:0,0:0:0:0:
328,168,88953,1,8,0:0:0:0:
237,51,89287,5,2,0:0:0:0:
147,116,89620,1,8,0:0:0:0:
147,116,89787,1,8,0:0:0:0:
215,183,89953,2,8,P|273:209|283:216,1,52.5000020027161,0|0,0:0|0:0,0:0:0:0:
331,159,90287,1,8,0:0:0:0:
306,57,90620,2,8,P|348:38|365:26,2,52.5000020027161,2|0|8,0:0|0:0|0:0,0:0:0:0:
280,140,91120,2,8,P|238:159|221:171,2,52.5000020027161,2|0|0,0:0|0:0|0:0,0:0:0:0:
328,220,91620,2,2,L|322:284,1,52.5000020027161,8|2,0:0|0:0,0:0:0:0:
245,323,91953,5,2,0:0:0:0:
147,357,92287,1,8,0:0:0:0:
147,357,92453,1,8,0:0:0:0:
49,336,92620,2,8,B|49:305|29:266|29:265,1,52.5000020027161,0|0,0:0|0:0,0:0:0:0:
89,220,92953,1,8,0:0:0:0:
158,132,93287,2,8,P|116:77|122:57,1,52.5000020027161,2|0,0:0|0:0,0:0:0:0:
195,61,93620,1,8,0:0:0:0:
195,61,93787,1,6,0:0:0:0:
246,116,93953,2,8,P|278:149|275:170,1,52.5000020027161,0|0,0:0|0:0,0:0:0:0:
