osu file format v14

[General]
AudioFilename: audio.mp3
AudioLeadIn: 0
PreviewTime: 202793
Countdown: 1
SampleSet: Normal
StackLeniency: 0.7
Mode: 0
LetterboxInBreaks: 0
WidescreenStoryboard: 0

[Editor]
DistanceSpacing: 0.8
BeatDivisor: 4
GridSize: 4
TimelineZoom: 0.9000002

[Metadata]
Title:Oddloop
TitleUnicode:フレデリック「オドループ」
Artist:Frederic
ArtistUnicode:Frederic
Creator:fstapled
Version:flower
Source:
Tags:o mottenai no yoru shiranai flower frederic oddloop
BeatmapID:1750419
BeatmapSetID:835799

[Difficulty]
HPDrainRate:5.3
CircleSize:4
OverallDifficulty:7
ApproachRate:9.5
SliderMultiplier:2.3
SliderTickRate:1

[Events]
//Background and Video events
0,0,"countryside-sweden.jpg",0,0
//Break Periods
2,78807,89245
2,123458,133896
//Storyboard Layer 0 (Background)
//Storyboard Layer 1 (Fail)
//Storyboard Layer 2 (Pass)
//Storyboard Layer 3 (Foreground)
//Storyboard Sound Samples

[TimingPoints]
294,348.837209302326,4,1,0,75,1,0
468,348.837209302326,4,1,0,75,1,0
22619,-133.333333333333,4,1,0,75,0,0
27851,-200,4,1,0,75,0,0
30115,-133.333333333333,4,1,0,75,0,0
33345,-133.333333333333,4,1,0,5,0,0
33433,-133.333333333333,4,1,0,75,0,0
33520,-133.333333333333,4,1,0,5,0,0
33607,-133.333333333333,4,1,0,75,0,0
33694,-133.333333333333,4,1,0,5,0,0
33781,-133.333333333333,4,1,0,75,0,0
45119,-66.6666666666667,4,1,0,75,0,1
67444,-100,4,1,0,75,0,0
91340,-100,4,1,0,5,0,0
91514,-100,4,1,0,75,0,0
91688,-100,4,1,0,5,0,0
91863,-100,4,1,0,75,0,0
97531,-100,4,1,0,5,0,0
97619,-100,4,1,0,75,0,0
97706,-100,4,1,0,5,0,0
97793,-100,4,1,0,75,0,0
100933,-66.6666666666667,4,1,0,75,0,1
113491,-100,4,1,0,75,0,1
114363,-66.6666666666667,4,1,0,75,0,1
123258,-100,4,1,0,75,0,0
134421,-166.666666666667,4,1,0,75,0,0
138694,-166.666666666667,4,1,0,5,0,0
138781,-166.666666666667,4,1,0,75,0,0
138864,-166.666666666667,4,1,0,5,0,0
138956,-166.666666666667,4,1,0,75,0,0
139654,-100,4,1,0,75,0,0
144799,-100,4,1,0,5,0,0
144886,-100,4,1,0,75,0,0
144973,-100,4,1,0,5,0,0
145061,-100,4,1,0,75,0,0
148549,-58.8235294117647,4,1,0,75,0,0
150642,-166.666666666667,4,1,0,75,0,0
151340,-58.8235294117647,4,1,0,75,0,0
165206,-100,4,1,0,75,0,0
165816,-100,4,1,0,5,0,0
165904,-100,4,1,0,75,0,0
170700,-66.6666666666667,4,1,0,75,0,1
174886,-133.333333333333,4,1,0,75,0,1
175584,-80,4,1,0,75,0,1
180555,-80,4,1,0,5,0,1
180642,-80,4,1,0,75,0,1
180729,-80,4,1,0,5,0,1
180816,-80,4,1,0,75,0,1
190235,-133.333333333333,4,1,0,75,0,1
193026,-80,4,1,0,75,0,1
202793,-66.6666666666667,4,1,0,75,0,1
220933,-100,4,1,0,75,0,0

[HitObjects]
93,78,294,5,0,2:2:0:0:
93,78,381,1,0,2:2:0:0:
93,78,468,5,0,2:2:0:0:
186,275,642,1,0,2:0:0:0:
428,172,816,1,8,2:0:0:0:
194,97,991,2,0,P|165:162|170:222,1,115,0|0,2:0|2:0,2:0:0:0:
323,47,1340,1,0,2:0:0:0:
266,306,1514,2,0,B|329:250|329:250|344:175,1,115,8|0,2:0|2:0,2:0:0:0:
161,49,2037,2,0,P|125:89|123:155,1,115,0|8,2:0|2:0,2:0:0:0:
341,47,2386,1,0,2:0:0:0:
289,249,2561,1,0,2:0:0:0:
75,119,2735,1,0,2:0:0:0:
395,169,3084,5,0,2:2:0:0:
381,201,3171,1,0,2:2:0:0:
361,231,3258,1,0,2:2:0:0:
224,153,3433,2,0,P|177:153|175:217,1,115,0|8,2:0|2:0,2:0:0:0:
245,76,3956,1,0,2:0:0:0:
355,162,4305,1,8,2:0:0:0:
215,60,4479,2,0,B|142:98|142:98|120:162,1,115,0|0,2:0|2:0,2:0:0:0:
288,284,4828,5,0,2:0:0:0:
393,91,5002,1,8,2:0:0:0:
137,111,5177,1,0,2:0:0:0:
195,336,5351,1,0,2:0:0:0:
436,290,5526,1,0,2:0:0:0:
241,78,5874,1,0,2:2:0:0:
257,106,5962,1,0,2:2:0:0:
274,128,6049,1,0,2:2:0:0:
377,254,6223,2,0,P|338:301|287:291,1,115,0|8,2:0|2:0,2:0:0:0:
109,130,6747,5,0,2:0:0:0:
260,256,7095,1,8,2:0:0:0:
280,45,7270,1,0,2:0:0:0:
329,203,7444,2,0,L|363:316,1,115,0|0,2:0|2:0,2:0:0:0:
114,120,7793,1,8,2:0:0:0:
371,111,7968,1,0,2:0:0:0:
311,312,8142,2,0,L|250:210,1,115,0|0,2:0|2:0,2:0:0:0:
344,64,8665,5,0,2:0:0:0:
311,118,8752,1,0,2:0:0:0:
278,173,8840,1,0,2:0:0:0:
200,336,9014,2,0,B|136:328|136:328|100:264,1,115,0|8,2:0|2:0,2:0:0:0:
176,116,9363,1,0,2:0:0:0:
312,288,9537,1,0,2:0:0:0:
340,84,9886,1,8,2:0:0:0:
340,84,10060,1,0,2:0:0:0:
214,354,10235,2,0,P|158:320|141:271,1,115,0|0,2:0|2:0,2:0:0:0:
304,24,10584,1,8,2:0:0:0:
424,312,10758,5,0,2:0:0:0:
64,208,10933,1,0,2:0:0:0:
392,96,11107,1,0,2:0:0:0:
204,92,11456,6,0,B|168:96|168:96|144:108,1,57.5,0|0,2:0|2:0,2:0:0:0:
296,220,11630,1,0,2:0:0:0:
336,44,11805,1,0,2:0:0:0:
472,148,11979,1,8,2:0:0:0:
368,316,12328,1,0,2:0:0:0:
472,31,12677,1,8,2:0:0:0:
224,16,12851,1,0,2:0:0:0:
368,136,13026,5,0,2:0:0:0:
160,224,13200,1,0,2:0:0:0:
184,40,13374,2,0,B|228:80|228:80|244:152,1,115,8|0,2:0|2:0,2:0:0:0:
296,320,13723,1,0,2:0:0:0:
336,36,13898,1,0,2:0:0:0:
156,154,14247,5,0,2:2:0:0:
205,180,14334,1,0,2:2:0:0:
245,203,14421,2,8,B|244:266|244:266|207:322,1,115,0|0,2:0|2:0,2:0:0:0:
394,69,14770,1,8,2:0:0:0:
201,167,15119,1,0,2:0:0:0:
373,293,15468,1,8,2:0:0:0:
417,89,15642,1,0,2:0:0:0:
111,257,15816,2,0,P|145:311|195:322,1,115,0|0,2:0|2:0,2:0:0:0:
200,200,16165,1,8,2:0:0:0:
95,98,16340,5,0,2:0:0:0:
305,83,16514,1,0,2:0:0:0:
202,250,16688,1,0,2:0:0:0:
401,145,17037,5,0,2:0:0:0:
381,131,17124,1,0,2:0:0:0:
383,160,17212,1,0,2:0:0:0:
161,161,17386,1,0,2:0:0:0:
292,291,17561,1,8,2:0:0:0:
319,78,17735,1,0,2:0:0:0:
191,216,17909,2,0,P|220:263|283:273,1,115,0|0,2:0|2:0,2:0:0:0:
217,53,18258,1,8,2:0:0:0:
332,340,18433,1,0,2:0:0:0:
330,142,18607,5,0,2:0:0:0:
208,327,18781,1,0,2:0:0:0:
158,100,18956,1,8,2:0:0:0:
415,208,19130,1,0,2:0:0:0:
305,66,19305,1,0,2:0:0:0:
179,248,19479,1,0,2:0:0:0:
163,66,19828,1,0,2:0:0:0:
178,104,19915,1,0,2:0:0:0:
190,138,20002,1,0,2:0:0:0:
266,302,20177,6,0,B|321:272|321:272|347:206,1,115,0|8,2:0|2:0,2:0:0:0:
242,62,20700,1,0,2:0:0:0:
421,184,21049,1,0,2:0:0:0:
472,26,21223,1,0,2:0:0:0:
319,282,21572,1,0,2:0:0:0:
103,227,21747,2,0,P|78:164|104:116,1,115,8|0,2:0|2:0,2:0:0:0:
251,59,22095,1,0,3:2:0:0:
273,112,22182,1,0,3:2:0:0:
284,168,22269,1,0,3:2:0:0:
284,226,22356,1,0,3:2:0:0:
272,282,22443,1,0,3:2:0:0:
132,164,22619,5,0,2:2:0:0:
394,62,22793,1,0,2:2:0:0:
225,305,23142,2,0,P|180:297|152:248,1,86.2500032901765,8|0,2:0|2:0,2:0:0:0:
242,77,23665,1,0,2:0:0:0:
194,249,23840,1,8,2:0:0:0:
399,136,24014,1,0,2:0:0:0:
128,128,24188,2,2,P|117:205|131:309,1,172.500006580353,2|8,2:3|2:2,2:3:0:0:
275,208,25061,1,0,2:0:0:0:
395,27,25236,1,8,2:0:0:0:
246,31,25410,1,0,2:0:0:0:
407,163,25584,6,0,P|413:265|414:350,1,172.500006580353,0|8,2:0|2:0,2:0:0:0:
230,181,26107,2,0,P|195:142|139:26,1,172.500006580353,0|0,2:0|2:0,2:0:0:0:
413,91,26805,1,0,2:0:0:0:
57,328,27328,1,8,2:0:0:0:
97,136,28026,5,0,3:0:0:0:
243,220,28200,1,0,2:0:0:0:
346,94,28374,1,0,2:0:0:0:
435,321,28549,1,0,2:0:0:0:
219,300,28723,1,8,2:0:0:0:
460,102,28898,1,0,2:0:0:0:
350,7,29072,1,0,2:0:0:0:
296,180,29247,1,0,2:0:0:0:
445,231,29421,1,8,2:0:0:0:
299,44,29595,1,0,2:0:0:0:
229,202,29770,6,0,P|210:265|218:334,1,115,0|8,2:0|2:0,2:0:0:0:
351,248,30642,2,0,P|383:209|379:146,1,86.2500032901765,0|8,2:0|2:0,2:0:0:0:
302,57,30991,2,0,P|268:87|270:127,1,86.2500032901765,0|0,2:0|2:0,2:0:0:0:
429,95,31514,1,8,2:0:0:0:
193,291,31675,1,0,2:0:0:0:
211,82,32037,5,0,2:0:0:0:
88,210,32386,1,0,2:0:0:0:
302,299,32561,1,0,2:2:0:0:
387,30,32735,1,0,2:2:0:0:
133,88,32909,1,8,2:2:0:0:
185,226,33258,2,2,B|163:258|163:258|170:293,1,43.1250016450883,2|2,2:2|2:2,2:2:0:0:
311,179,33433,2,2,B|339:182|339:182|362:173,1,43.1250016450883,2|2,2:2|2:2,2:2:0:0:
192,95,33607,2,2,B|172:75|172:75|169:57,1,43.1250016450883,10|2,2:2|2:2,2:2:0:0:
337,80,33781,5,0,2:0:0:0:
397,290,33956,1,0,2:0:0:0:
117,260,34305,2,2,P|103:209|118:173,1,86.2500032901765,8|2,2:2|2:2,2:2:0:0:
266,77,34828,1,2,2:2:0:0:
273,243,35002,2,2,P|268:302|259:339,1,86.2500032901765,8|2,2:2|2:2,2:2:0:0:
143,138,35351,2,0,P|208:65|303:73,1,172.500006580353,0|8,2:2|2:2,2:2:0:0:
371,109,36223,1,0,2:0:0:0:
323,282,36398,1,0,2:0:0:0:
189,131,36572,1,0,2:0:0:0:
99,332,36747,6,0,P|173:281|255:264,1,172.500006580353,0|8,2:0|2:0,2:0:0:0:
241,46,37270,2,0,P|288:127|361:178,1,172.500006580353,0|0,2:0|2:0,2:0:0:0:
141,248,37793,1,0,2:0:0:0:
355,57,37968,1,0,2:0:0:0:
170,46,38142,1,0,2:0:0:0:
273,256,38316,1,0,2:0:0:0:
463,66,38491,1,0,2:0:0:0:
102,220,38840,5,0,2:0:0:0:
257,127,39188,5,0,2:0:0:0:
258,297,39537,5,0,2:0:0:0:
395,197,39886,1,0,2:0:0:0:
198,125,40235,2,0,P|227:88|270:71,1,86.2500032901765,0|0,2:0|2:1,2:0:0:0:
262,264,40584,1,0,2:0:0:0:
206,28,40758,1,0,2:0:0:0:
100,322,40933,2,0,P|170:353|261:314,1,172.500006580353,0|0,2:0|2:0,2:0:0:0:
183,187,41630,5,0,2:0:0:0:
243,66,41805,1,0,2:0:0:0:
285,276,41979,1,0,2:0:0:0:
320,144,42154,1,0,2:0:0:0:
168,277,42328,1,0,2:0:0:0:
103,120,42502,1,0,2:0:0:0:
252,53,42677,1,0,2:0:0:0:
106,224,42851,1,0,2:0:0:0:
457,46,43200,1,0,2:0:0:0:
292,255,43549,6,8,P|290:202|310:165,1,86.2500032901765,8|8,2:0|2:0,2:0:0:0:
160,110,43898,1,8,2:0:0:0:
457,46,44072,1,8,2:0:0:0:
314,288,44247,1,8,2:0:0:0:
352,134,44421,1,0,2:0:0:0:
344,138,44508,1,0,2:0:0:0:
336,136,44595,1,0,2:0:0:0:
330,130,44683,1,0,2:0:0:0:
330,121,44770,1,0,2:0:0:0:
336,114,44857,1,0,2:0:0:0:
344,113,44944,1,0,2:0:0:0:
352,117,45031,1,0,2:0:0:0:
356,121,45119,1,0,2:0:0:0:
154,263,45293,5,0,2:0:0:0:
143,73,45468,1,8,2:0:0:0:
360,187,45642,1,0,2:0:0:0:
150,331,45816,1,0,2:0:0:0:
170,25,45991,1,0,2:0:0:0:
363,276,46165,2,8,P|419:197|416:113,1,172.500006580353,8|0,2:0|2:0,2:0:0:0:
115,149,46514,2,0,B|152:124|152:124|162:131|173:135|173:135|174:124|186:118|186:118|198:107|205:123|205:123|215:128|221:114|221:114|230:109|230:109|323:98,1,172.500006580353,0|0,2:0|2:0,2:0:0:0:
203,346,46863,1,8,2:0:0:0:
223,100,47735,5,0,3:0:0:0:
222,303,47909,1,0,3:0:0:0:
445,308,48084,1,0,2:0:0:0:
437,91,48258,1,8,2:0:0:0:
175,223,48433,1,0,2:0:0:0:
164,29,48607,1,0,2:0:0:0:
362,260,48781,1,0,2:0:0:0:
425,88,48956,2,8,P|344:54|276:110,1,172.500006580353,8|0,2:2|2:0,2:0:0:0:
125,298,49305,6,0,P|99:202|94:111,1,172.500006580353,0|0,2:0|2:0,2:0:0:0:
240,109,49654,2,0,P|266:205|271:296,1,172.500006580353,8|0,2:0|2:0,2:0:0:0:
93,129,50002,1,0,2:0:0:0:
311,86,50526,5,0,2:0:0:0:
235,278,50700,1,8,2:0:0:0:
425,255,50874,1,0,2:0:0:0:
214,122,51049,1,0,2:0:0:0:
398,72,51223,1,0,2:0:0:0:
230,333,51398,1,8,2:0:0:0:
424,297,51572,1,0,2:0:0:0:
410,87,51747,2,0,P|319:77|238:113,1,172.500006580353,0|0,2:0|2:0,2:0:0:0:
302,273,52095,5,8,2:0:0:0:
283,28,52270,1,0,2:0:0:0:
255,340,52444,1,12,1:0:0:0:
103,218,53316,5,0,3:0:0:0:
374,113,53491,1,0,3:0:0:0:
335,94,53840,5,0,3:0:0:0:
440,365,54015,1,0,3:0:0:0:
152,149,54188,5,8,2:0:0:0:
254,17,54363,1,0,3:0:0:0:
319,219,54537,5,0,2:0:0:0:
318,77,54712,1,0,2:0:0:0:
99,258,54886,2,0,B|110:253|110:253|123:257|123:257|139:248|139:248|149:255|160:259|160:259|161:248|173:242|173:242|185:231|192:247|192:247|202:252|208:238|208:238|217:233|217:233|243:230,1,172.500006580353,8|0,2:0|2:0,2:0:0:0:
428,134,55235,1,0,2:0:0:0:
167,305,55409,1,0,2:0:0:0:
285,84,55584,1,8,2:0:0:0:
341,346,55758,1,0,2:0:0:0:
68,233,55933,1,0,2:0:0:0:
367,54,56107,1,0,2:0:0:0:
115,344,57677,6,0,P|103:238|144:180,1,172.500006580353,0|0,2:0|2:0,2:0:0:0:
273,139,58026,1,8,2:0:0:0:
228,353,58200,1,0,2:0:0:0:
67,212,58374,1,0,2:0:0:0:
259,126,58549,1,0,2:0:0:0:
182,252,58723,2,0,P|253:288|337:224,1,172.500006580353,8|0,2:0|2:0,2:0:0:0:
380,143,59073,1,0,2:0:0:0:
254,66,59247,2,0,P|218:137|282:221,1,172.500006580353,0|8,2:0|2:0,2:0:0:0:
120,271,59595,1,0,2:0:0:0:
372,222,59770,5,0,2:0:0:0:
152,195,59944,1,0,2:0:0:0:
408,132,60119,1,8,2:0:0:0:
467,44,60293,2,0,P|376:28|326:81,1,172.500006580353,0|0,2:0|2:0,2:0:0:0:
292,315,60642,2,0,L|228:139,1,172.500006580353,0|8,2:0|2:0,2:0:0:0:
175,93,61688,5,0,3:0:0:0:
175,93,61863,2,0,P|176:255|360:289,1,345.000013160706,0|0,3:0|3:0,3:0:0:0:
286,137,62386,2,0,B|284:78|250:28|250:28|342:103|365:257,1,345.000013160706,0|0,3:0|3:0,3:0:0:0:
178,236,62909,2,0,B|111:262|120:301|302:313,1,172.500006580353,0|0,3:0|3:0,3:0:0:0:
189,72,63258,1,0,3:0:0:0:
383,189,63433,1,0,3:0:0:0:
418,24,63607,1,0,3:0:0:0:
226,211,63781,1,0,3:0:0:0:
305,6,63956,1,0,3:0:0:0:
398,280,64305,5,0,2:0:0:0:
115,256,64654,2,0,P|58:210|132:195,1,172.500006580353,0|0,2:0|2:0,2:0:0:0:
202,320,64915,2,0,L|219:217,1,86.2500032901765,0|8,2:0|2:0,2:0:0:0:
245,81,65177,1,0,2:0:0:0:
290,238,65351,2,0,P|318:303|360:245,1,172.500006580353,0|0,2:0|2:0,2:0:0:0:
424,131,65612,2,0,L|321:114,1,86.2500032901765,0|8,2:0|2:0,2:0:0:0:
178,90,65874,1,0,2:0:0:0:
147,202,66049,2,0,B|77:286|77:286|166:268,1,172.500006580353,0|0,2:0|2:0,2:0:0:0:
312,251,66311,2,0,P|297:200|268:176,1,86.2500032901765,0|8,2:0|2:0,2:0:0:0:
175,132,66572,6,0,B|219:88|224:21|224:21|240:40|290:29|301:95,1,172.500006580353,0|0,3:0|0:0,0:0:0:0:
424,52,66921,1,0,0:0:0:0:
337,154,67095,1,0,3:0:0:0:
344,184,67183,1,0,3:0:0:0:
352,216,67270,1,0,3:0:0:0:
360,248,67357,1,0,3:0:0:0:
364,280,67444,1,0,3:0:0:0:
244,99,67619,2,0,P|301:101|352:128,1,115,0|0,3:0|3:0,3:0:0:0:
401,259,67968,1,0,3:0:0:0:
228,271,68142,2,0,B|198:265|198:265|142:202,1,115,0|0,3:0|3:0,3:0:0:0:
284,192,68491,1,0,3:0:0:0:
399,97,68665,2,0,P|359:61|293:59,1,115,0|0,3:0|3:0,3:0:0:0:
401,277,69014,5,0,3:0:0:0:
192,220,69189,1,0,3:0:0:0:
276,28,69363,1,0,3:0:0:0:
476,72,69537,1,0,3:0:0:0:
116,168,69712,2,0,P|130:225|189:252,1,115,0|0,2:0|2:0,2:0:0:0:
272,188,70061,1,0,2:3:0:0:
288,156,70148,1,0,2:3:0:0:
288,116,70235,1,0,2:3:0:0:
159,54,70409,2,0,P|124:122|117:190,1,115,8|0,3:0|3:0,3:0:0:0:
382,233,70933,1,0,0:0:0:0:
164,122,71281,5,0,2:0:0:0:
301,75,71456,1,0,2:0:0:0:
337,252,71805,5,0,2:0:0:0:
110,39,72154,5,0,2:0:0:0:
168,258,72328,1,0,2:0:0:0:
290,73,72502,5,0,2:0:0:0:
39,113,72677,1,0,2:0:0:0:
191,216,72851,1,0,3:0:0:0:
227,248,72938,1,0,3:0:0:0:
275,274,73025,1,0,3:0:0:0:
368,67,73374,1,0,2:0:0:0:
89,124,73722,2,0,P|90:238|184:291,1,230,0|0,2:0|2:0,2:0:0:0:
297,77,74247,1,0,2:0:0:0:
472,26,74420,1,0,2:0:0:0:
421,184,74594,1,0,2:0:0:0:
177,216,74770,5,0,2:0:0:0:
242,62,74943,1,0,2:0:0:0:
398,120,75119,1,0,2:0:0:0:
340,223,75292,2,0,B|321:272|321:272|266:302,1,115,0|0,2:0|2:0,2:0:0:0:
190,138,75641,5,0,2:0:0:0:
178,104,75728,1,0,2:0:0:0:
163,66,75815,1,0,2:0:0:0:
303,25,76165,1,0,2:0:0:0:
330,142,76513,1,0,2:0:0:0:
158,100,76862,1,0,2:0:0:0:
415,208,77036,1,0,2:0:0:0:
305,66,77211,1,0,2:0:0:0:
179,248,77385,1,0,2:0:0:0:
128,64,77561,6,0,L|62:191,1,115,8|0,0:0|3:0,0:0:0:0:
109,259,77822,1,0,3:0:0:0:
143,296,77909,1,0,3:0:0:0:
191,278,77996,1,0,3:0:0:0:
202,242,78084,1,0,3:0:0:0:
186,187,78171,1,0,3:0:0:0:
134,164,78258,1,0,3:0:0:0:
86,196,78345,1,0,3:0:0:0:
77,256,78433,1,0,3:0:0:0:
128,308,78520,6,0,B|161:318|161:318|192:302,1,57.5,0|0,3:0|3:0,3:0:0:0:
131,153,89770,5,0,3:0:0:0:
267,295,90119,1,0,3:0:0:0:
408,178,90468,1,8,2:0:0:0:
383,91,90642,1,0,2:0:0:0:
312,41,90816,1,8,2:0:0:0:
228,46,90991,1,0,2:0:0:0:
159,121,91165,2,8,P|190:188|225:244,1,115,8|0,2:0|2:0,2:0:0:0:
342,189,91514,2,8,L|308:330,1,115,8|8,2:0|2:0,2:0:0:0:
98,226,92037,5,8,2:0:0:0:
148,291,92211,5,8,3:0:0:0:
175,216,92386,5,8,2:0:0:0:
228,278,92561,5,8,1:0:0:0:
334,104,92909,1,0,3:0:0:0:
175,51,93084,1,0,3:0:0:0:
183,236,93433,1,0,3:0:0:0:
412,172,93781,1,0,3:0:0:0:
365,327,93956,1,0,3:0:0:0:
205,161,94305,1,0,3:0:0:0:
204,263,95351,1,0,2:0:0:0:
105,135,95700,6,0,L|256:111,1,115,8|0,2:0|2:0,2:0:0:0:
108,35,96049,1,0,2:0:0:0:
334,77,96223,1,0,2:0:0:0:
201,206,96398,1,8,2:0:0:0:
270,47,96572,2,0,B|300:68|300:68|350:153,1,115,0|0,2:0|2:0,2:0:0:0:
434,137,96921,2,0,P|459:169|403:171,1,115,0|8,2:0|2:0,2:0:0:0:
313,105,97270,1,0,2:0:0:0:
292,202,97444,2,0,P|257:200|203:232,1,57.5,0|0,2:0|2:0,2:0:0:0:
140,129,97619,2,0,P|177:112|208:114,1,57.5,0|0,2:0|2:0,2:0:0:0:
301,88,97793,1,8,2:0:0:0:
255,181,97968,6,0,L|182:283,1,115,0|8,2:0|2:0,2:0:0:0:
281,343,98316,2,0,P|330:327|310:281,1,115,0|8,2:0|2:0,2:0:0:0:
134,134,98665,1,0,2:0:0:0:
399,142,98840,1,8,2:0:0:0:
215,32,99014,1,0,2:0:0:0:
215,232,99188,1,8,2:0:0:0:
385,56,99363,1,0,2:0:0:0:
128,62,99537,1,8,2:0:0:0:
355,189,99712,1,0,2:0:0:0:
160,276,99886,1,8,2:0:0:0:
288,53,100061,5,0,3:0:0:0:
324,215,100235,1,0,3:0:0:0:
441,175,100322,1,0,3:0:0:0:
420,228,100409,1,0,3:0:0:0:
374,261,100496,1,0,3:0:0:0:
318,264,100583,1,0,3:0:0:0:
326,179,100671,5,0,2:0:0:0:
278,186,100758,1,0,2:0:0:0:
243,220,100845,1,0,2:0:0:0:
146,169,100933,5,0,2:0:0:0:
268,48,101107,1,0,2:0:0:0:
320,244,101281,1,0,2:0:0:0:
112,118,101456,2,0,P|88:201|130:293,1,172.500006580353,0|0,2:0|2:0,2:0:0:0:
259,53,101805,1,0,2:0:0:0:
251,284,101979,1,0,2:0:0:0:
126,204,102154,2,0,P|182:148|282:161,1,172.500006580353,0|0,2:0|2:0,2:0:0:0:
317,66,102502,2,0,P|388:133|346:211,1,172.500006580353,0|0,2:0|2:0,2:0:0:0:
179,207,103549,6,0,P|152:144|231:136,1,172.500006580353
289,304,104072,1,0,0:0:0:0:
314,111,104247,1,0,0:0:0:0:
437,214,104421,1,0,0:0:0:0:
192,149,104595,1,0,0:0:0:0:
312,3,104770,1,0,0:0:0:0:
342,252,104944,2,0,P|241:275|199:225,1,172.500006580353
225,40,105293,1,0,0:0:0:0:
206,299,105468,2,0,P|255:239|346:256,1,172.500006580353
231,155,105816,1,0,0:0:0:0:
349,80,106340,5,0,0:0:0:0:
349,80,106514,2,0,B|370:171|466:228|466:228|382:204|308:246,1,345.000013160706
174,85,107037,1,0,0:0:0:0:
61,261,107212,1,0,0:0:0:0:
162,117,107386,1,0,0:0:0:0:
225,322,107561,1,0,0:0:0:0:
165,154,107735,1,0,0:0:0:0:
50,322,107909,1,0,0:0:0:0:
323,260,108084,2,0,P|341:167|261:132,1,172.500006580353
145,60,109130,5,0,0:0:0:0:
289,228,109305,1,0,0:0:0:0:
308,111,109654,5,0,0:0:0:0:
160,264,109828,1,0,0:0:0:0:
184,138,110177,1,0,0:0:0:0:
309,291,110351,1,0,0:0:0:0:
416,131,110526,1,0,0:0:0:0:
88,58,110700,2,0,P|56:148|70:228,1,172.500006580353
183,120,111049,1,0,0:0:0:0:
250,329,111223,1,0,0:0:0:0:
437,189,111398,2,0,P|426:107|354:58,1,172.500006580353
175,77,111747,1,0,0:0:0:0:
122,249,111921,2,0,P|221:269|271:211,1,172.500006580353
170,122,112270,5,0,0:0:0:0:
339,37,112444,1,0,0:0:0:0:
335,209,112619,1,0,0:0:0:0:
223,45,112793,1,0,0:0:0:0:
407,130,112968,1,0,0:0:0:0:
215,215,113142,1,0,0:0:0:0:
385,48,113316,1,0,0:0:0:0:
128,116,113491,2,0,P|88:156|93:217,1,115
294,266,113840,2,0,P|336:306|395:299,1,115
319,83,114188,2,0,P|290:38|227:62,1,115
249,225,114537,5,0,0:0:0:0:
170,68,114712,1,0,0:0:0:0:
99,232,114886,1,0,0:0:0:0:
326,177,115061,1,0,0:0:0:0:
132,88,115235,1,0,0:0:0:0:
208,306,115409,1,0,0:0:0:0:
252,120,115584,1,0,0:0:0:0:
445,188,115758,1,0,0:0:0:0:
115,264,115933,1,0,0:0:0:0:
207,66,116107,1,0,0:0:0:0:
370,241,116281,2,0,B|320:282|290:252|290:252|257:225|212:267,1,172.500006580353
336,89,116630,5,0,0:0:0:0:
158,128,117502,5,0,0:0:0:0:
199,350,117677,1,0,0:0:0:0:
206,35,117851,1,0,0:0:0:0:
322,209,118026,1,0,0:0:0:0:
175,189,118200,1,0,0:0:0:0:
319,78,118374,1,0,0:0:0:0:
203,322,118549,1,0,0:0:0:0:
464,222,118723,1,0,0:0:0:0:
242,155,118898,1,0,0:0:0:0:
312,50,119072,2,0,P|389:30|373:95,1,172.500006580353
177,196,119421,5,0,0:0:0:0:
364,291,119595,1,0,0:0:0:0:
255,66,119770,2,0,B|316:25|409:106|409:106|279:206|445:278,2,345.000013160706
219,261,120642,2,0,P|155:182|165:112,1,172.500006580353
121,40,120904,2,0,P|79:66|74:109,1,86.2500032901765
246,154,121165,1,0,0:0:0:0:
314,44,121340,2,0,P|408:60|417:127,1,172.500006580353
283,186,121601,2,0,L|344:266,1,86.2500032901765
226,325,121863,1,0,0:0:0:0:
139,193,122037,5,0,0:0:0:0:
363,94,122212,1,0,0:0:0:0:
162,39,122386,1,0,0:0:0:0:
334,282,122561,1,0,0:0:0:0:
324,31,122735,1,0,0:0:0:0:
432,255,122909,1,0,0:0:0:0:
262,62,123084,1,0,0:0:0:0:
492,213,123258,1,0,0:0:0:0:
114,137,134421,6,0,P|138:113|178:110,1,68.9999978942872
235,293,134770,2,0,P|222:246|230:211,1,68.9999978942872
263,68,135119,1,0,0:0:0:0:
146,237,135293,1,0,0:0:0:0:
363,107,135468,2,0,P|397:140|414:179,1,68.9999978942872
122,157,135816,2,0,P|74:146|101:203,1,137.999995788574
279,66,136340,1,0,0:0:0:0:
308,213,137386,6,2,P|348:159|305:105,1,137.999995788574
162,203,137909,1,0,0:0:0:0:
239,28,138084,1,0,0:0:0:0:
239,28,138258,1,0,0:0:0:0:
76,35,138433,1,0,0:0:0:0:
206,299,138607,2,0,L|251:300,1,34.4999989471436
253,139,138781,2,0,L|205:143,1,34.4999989471436
131,85,139130,2,0,L|275:30,1,137.999995788574
155,229,139654,2,0,L|102:364,2,115
192,134,140177,5,0,0:0:0:0:
387,20,140351,1,0,0:0:0:0:
509,219,140526,1,0,0:0:0:0:
325,335,140700,1,0,0:0:0:0:
258,71,141049,6,0,P|319:79|351:146,1,115
91,244,141398,1,0,0:0:0:0:
348,284,141572,1,0,0:0:0:0:
92,177,141747,1,0,0:0:0:0:
325,338,141921,1,0,0:0:0:0:
85,311,142095,1,0,0:0:0:0:
327,199,142270,1,0,0:0:0:0:
100,158,142444,2,0,P|164:142|220:150,1,115
252,99,142793,2,0,P|269:218|224:200,1,230
168,37,143316,5,0,0:0:0:0:
123,195,143491,2,0,B|101:261|71:304|71:304|123:280|199:265,1,230
390,49,144188,2,0,B|471:29|471:29|405:171,1,230
289,82,144712,2,0,L|239:155,1,57.5
275,216,144886,2,0,L|336:185,1,57.5
121,212,145584,5,0,0:0:0:0:
444,234,145758,1,0,0:0:0:0:
111,83,145933,5,0,0:0:0:0:
418,305,146107,1,0,0:0:0:0:
79,275,146281,5,0,0:0:0:0:
429,140,146456,1,0,0:0:0:0:
76,100,146630,5,0,0:0:0:0:
421,221,146805,1,0,0:0:0:0:
122,283,146979,5,0,0:0:0:0:
219,23,147154,1,0,0:0:0:0:
277,342,147328,5,0,0:0:0:0:
160,42,147502,1,0,0:0:0:0:
195,333,147677,5,0,0:0:0:0:
305,85,147851,1,0,0:0:0:0:
320,317,148026,5,0,0:0:0:0:
210,102,148200,1,0,0:0:0:0:
194,68,148287,1,0,0:0:0:0:
179,24,148374,1,0,0:0:0:0:
151,179,148549,2,0,B|133:200|91:232|91:232|115:261,1,97.7500018644333
177,275,148723,1,0,0:0:0:0:
249,340,148898,2,0,P|286:313|257:270,1,97.7500018644333
369,195,149072,1,0,0:0:0:0:
209,179,149247,2,0,P|228:123|274:97,1,97.7500018644333
139,71,149421,1,0,0:0:0:0:
109,164,149595,6,0,B|98:199|98:199|106:208|106:208|95:218|95:218|99:226|105:224|105:224|94:241|94:241|102:247|102:247|99:268,1,97.7500018644333
203,282,149770,1,0,0:0:0:0:
297,114,149944,1,0,0:0:0:0:
321,135,150119,1,0,0:0:0:0:
269,240,150293,1,0,0:0:0:0:
249,250,150468,1,0,0:0:0:0:
328,101,150816,2,0,L|285:150,2,34.4999989471436
380,183,151078,2,0,L|418:150,2,34.4999989471436
288,251,151340,2,0,L|211:355,2,97.7500018644333
171,224,151601,2,0,L|222:112,2,97.7500018644333
310,261,151863,5,0,0:0:0:0:
451,75,152037,1,0,0:0:0:0:
457,243,152212,1,0,0:0:0:0:
132,122,152386,2,0,L|222:41,1,97.7500018644333
327,78,152561,1,0,0:0:0:0:
228,166,152735,2,0,B|255:215|223:222|168:218|168:218|225:249|246:318,1,195.500003728867
279,356,153084,1,0,0:0:0:0:
334,215,153258,2,0,P|348:124|397:23,1,195.500003728867
150,156,153607,1,0,0:0:0:0:
251,253,153781,1,0,0:0:0:0:
372,139,153956,2,0,P|386:229|360:337,1,195.500003728867
78,122,154305,6,0,P|185:87|288:91,1,195.500003728867
107,234,154654,1,0,0:0:0:0:
286,226,154828,1,0,0:0:0:0:
307,329,155002,2,0,P|189:319|105:334,1,195.500003728867
187,80,155351,1,0,0:0:0:0:
357,100,155526,2,0,B|343:155|351:238|351:238|338:193|321:168,1,195.500003728867
252,48,155874,1,0,0:0:0:0:
435,219,156049,1,0,0:0:0:0:
221,260,156223,1,0,0:0:0:0:
417,76,156398,5,0,0:0:0:0:
308,325,156572,1,0,0:0:0:0:
140,155,156747,1,0,0:0:0:0:
128,129,156834,1,0,0:0:0:0:
112,98,156921,1,0,0:0:0:0:
255,52,157095,1,0,0:0:0:0:
267,78,157182,1,0,0:0:0:0:
283,109,157269,1,0,0:0:0:0:
172,315,157444,1,0,0:0:0:0:
386,218,157619,1,0,0:0:0:0:
206,138,157793,1,0,0:0:0:0:
307,298,157968,6,0,B|329:320|329:357|329:357|443:285|344:204,1,195.500003728867
331,89,158316,1,0,0:0:0:0:
122,117,158491,2,0,P|77:189|159:227,1,195.500003728867
274,148,158840,1,0,0:0:0:0:
369,346,159188,2,0,B|373:295|373:295|364:269|364:269|380:250|380:250|366:234|366:234|375:207|375:207|375:182|375:182|381:163|381:163|383:146|383:146|387:125,1,195.500003728867
412,77,159886,5,0,0:0:0:0:
361,48,159973,1,0,0:0:0:0:
304,55,160060,1,0,0:0:0:0:
262,95,160147,1,0,0:0:0:0:
211,66,160235,1,0,0:0:0:0:
154,73,160322,1,0,0:0:0:0:
112,113,160409,1,0,0:0:0:0:
107,173,160497,1,0,0:0:0:0:
131,219,160584,1,0,0:0:0:0:
287,174,160671,6,0,L|314:294,3,97.7500018644333
176,131,161107,1,0,0:0:0:0:
259,60,161281,1,0,0:0:0:0:
368,65,161455,1,0,0:0:0:0:
445,142,161630,1,0,0:0:0:0:
201,278,161805,1,0,0:0:0:0:
410,339,161979,1,0,0:0:0:0:
187,367,162154,1,0,0:0:0:0:
418,263,162328,1,0,0:0:0:0:
172,237,162502,6,0,B|207:220|207:220|233:218|233:218|239:217|239:217|252:206|272:196|272:196|283:196|292:195|292:195|306:193|317:193|317:193|405:166,1,195.500003728867
177,126,162851,1,0,0:0:0:0:
441,212,163026,1,0,0:0:0:0:
450,47,163200,1,0,0:0:0:0:
255,231,163374,1,0,0:0:0:0:
268,38,163549,1,0,0:0:0:0:
462,233,163723,2,0,B|440:235|410:226|410:226|406:225|397:211|397:211|392:207|368:194|368:194|361:194|345:172|345:172|337:168|314:166|314:166|283:148,1,195.500003728867
459,37,164072,1,0,0:0:0:0:
249,244,164247,1,0,0:0:0:0:
283,53,164421,1,0,0:0:0:0:
463,246,164595,1,0,0:0:0:0:
293,251,164770,6,0,P|308:104|367:231,1,391.000007457733
67,273,165293,2,0,B|52:240|61:224|61:224|65:218|73:211|73:211|68:193|68:193|68:169|46:154|67:138,1,115
157,46,165555,2,0,B|150:80|150:80|139:95|139:95|138:123|138:123|143:158|143:158|129:182|129:182|166:237,1,172.5
206,319,165991,1,0,0:0:0:0:
286,108,166165,1,0,0:0:0:0:
348,329,166340,2,0,B|357:278|343:247|343:247|354:206,1,115
239,270,166688,1,0,0:0:0:0:
452,189,166863,1,0,0:0:0:0:
243,117,167037,1,0,0:0:0:0:
440,60,167212,2,0,B|377:43|293:45,1,115
113,131,167561,2,0,B|171:152|255:155,1,115
321,131,167997,5,0,0:0:0:0:
324,159,168084,1,0,0:0:0:0:
327,188,168171,1,0,0:0:0:0:
331,216,168258,1,0,0:0:0:0:
192,143,168433,1,0,0:0:0:0:
303,33,168607,1,0,0:0:0:0:
331,35,168694,1,0,0:0:0:0:
356,49,168781,1,0,0:0:0:0:
400,200,168956,2,0,L|392:287,1,57.5
297,182,169130,2,0,L|304:94,2,57.5
288,256,169479,5,0,0:0:0:0:
285,284,169566,1,0,0:0:0:0:
282,313,169653,1,0,0:0:0:0:
280,341,169740,1,0,0:0:0:0:
277,370,169827,1,0,0:0:0:0:
258,326,169915,1,0,0:0:0:0:
238,291,170002,1,0,0:0:0:0:
213,259,170089,1,0,0:0:0:0:
183,232,170176,1,0,0:0:0:0:
208,124,170264,6,0,P|292:172|320:240,1,172.5
144,296,170700,1,0,0:0:0:0:
312,72,171049,5,0,0:0:0:0:
420,304,171223,1,0,0:0:0:0:
156,188,171572,5,0,0:0:0:0:
424,120,171747,1,0,0:0:0:0:
188,40,171921,1,0,0:0:0:0:
248,260,172095,1,0,0:0:0:0:
280,40,172270,1,0,0:0:0:0:
96,144,172444,1,0,0:0:0:0:
320,128,173316,6,0,B|337:91|337:91|344:116|344:116|336:152|336:160|336:160|332:168|332:168|336:176|336:176|328:208|328:208|348:240,1,172.500006580353
320,336,173665,1,0,0:0:0:0:
136,288,173840,1,0,0:0:0:0:
424,200,174014,2,0,P|340:168|256:160,1,172.500006580353
340,296,174363,1,0,0:0:0:0:
304,48,174537,1,0,0:0:0:0:
448,128,174712,1,0,0:0:0:0:
256,156,174886,2,0,L|240:252,1,86.2500032901765
160,112,175235,2,0,L|144:208,1,86.2500032901765
316,52,175584,1,0,0:0:0:0:
65,113,176107,6,0,B|97:90|97:90|160:119|198:104,1,143.75
360,79,176456,1,0,0:0:0:0:
172,286,176630,1,0,0:0:0:0:
386,237,176805,2,0,B|406:203|406:203|420:88,1,143.75
155,61,177154,1,0,0:0:0:0:
155,61,177328,2,0,P|129:135|118:208,1,143.75
328,104,177677,1,0,0:0:0:0:
214,295,177851,1,0,0:0:0:0:
466,194,178026,1,0,0:0:0:0:
156,248,178898,6,0,B|137:187|97:169|97:169|120:175|150:163,1,143.75
331,155,179247,1,0,0:0:0:0:
210,70,179421,1,0,0:0:0:0:
232,222,179595,2,0,B|241:312|241:312|250:291|279:259,1,143.75
306,90,179944,1,0,0:0:0:0:
388,279,180119,1,0,0:0:0:0:
416,30,180293,1,0,0:0:0:0:
275,179,180468,2,0,L|307:114,1,71.875
142,238,180642,2,0,L|174:173,1,71.875
39,282,180816,5,0,0:0:0:0:
297,310,180991,1,0,0:0:0:0:
166,120,181165,1,0,0:0:0:0:
197,340,181340,1,0,0:0:0:0:
264,150,181514,1,0,0:0:0:0:
94,296,181688,1,0,0:0:0:0:
248,98,183084,5,0,0:0:0:0:
343,249,183258,1,0,0:0:0:0:
393,105,183433,1,0,0:0:0:0:
245,268,183607,1,0,0:0:0:0:
372,102,183781,1,0,0:0:0:0:
407,342,183956,1,0,0:0:0:0:
281,64,184130,1,0,0:0:0:0:
180,193,184305,1,0,0:0:0:0:
415,313,184479,2,0,P|436:246|434:152,1,143.75
418,58,184828,5,0,0:0:0:0:
216,216,185002,2,0,P|290:222|330:283,1,143.75
255,85,185351,1,0,0:0:0:0:
277,320,185526,1,0,0:0:0:0:
419,106,185700,1,0,0:0:0:0:
153,233,185874,1,0,0:0:0:0:
276,158,186049,2,0,B|348:104|348:104|336:139|361:178,1,143.75
226,322,186398,1,0,0:0:0:0:
135,53,187270,5,0,0:0:0:0:
278,229,187444,1,0,0:0:0:0:
346,48,187619,1,0,0:0:0:0:
459,226,187793,1,0,0:0:0:0:
483,66,187968,1,0,0:0:0:0:
277,287,188142,1,0,0:0:0:0:
368,63,188316,1,0,0:0:0:0:
473,277,188491,1,0,0:0:0:0:
363,189,188665,1,0,0:0:0:0:
239,93,188840,2,0,P|175:134|203:183,1,143.75
354,31,189188,6,0,P|379:99|433:148,1,143.75
282,290,189537,5,0,0:0:0:0:
212,51,189886,1,0,0:0:0:0:
144,274,190235,2,0,L|126:186,1,86.2500032901765
294,193,190584,2,0,L|270:93,1,86.2500032901765
103,55,191107,2,0,B|111:86|111:86|98:117|98:117|117:133|117:133|112:166|112:166|125:175|125:175|125:202|125:202|141:233,1,172.500006580353
231,66,191630,1,0,0:0:0:0:
181,276,191805,2,0,L|267:184,1,86.2500032901765
148,68,192154,1,0,0:0:0:0:
326,310,192328,2,0,P|379:249|356:145,1,172.500006580353
265,65,192851,5,0,0:0:0:0:
258,115,192938,1,0,0:0:0:0:
257,163,193026,1,0,0:0:0:0:
204,336,193200,2,0,L|152:177,1,143.75
121,65,193549,1,0,0:0:0:0:
403,131,193723,1,0,0:0:0:0:
241,279,193898,1,0,0:0:0:0:
235,56,194072,5,0,0:0:0:0:
348,317,194247,1,0,0:0:0:0:
415,66,194421,2,0,P|363:147|339:200,1,143.75
151,99,194770,5,0,0:0:0:0:
148,349,194944,1,0,0:0:0:0:
383,148,195119,5,0,0:0:0:0:
85,142,195293,1,0,0:0:0:0:
202,39,195468,5,0,0:0:0:0:
204,144,195642,5,0,0:0:0:0:
204,176,195729,1,0,0:0:0:0:
204,208,195816,5,0,0:0:0:0:
324,340,195991,2,0,P|372:276|356:212,1,143.75
248,80,196340,1,0,0:0:0:0:
408,320,196514,1,0,0:0:0:0:
412,88,196688,1,0,0:0:0:0:
156,212,196863,1,0,0:0:0:0:
432,260,197037,1,0,0:0:0:0:
144,292,197212,6,0,P|212:264|272:220,1,143.75
368,44,197561,6,0,P|301:71|243:112,1,143.75
376,312,197909,6,0,P|355:231|307:187,1,143.75
164,128,198258,1,0,0:0:0:0:
256,324,198433,1,0,0:0:0:0:
352,176,198607,1,0,0:0:0:0:
96,296,198781,1,0,0:0:0:0:
440,236,198956,1,0,0:0:0:0:
288,44,199130,1,0,0:0:0:0:
304,336,199305,1,0,0:0:0:0:
392,140,199479,1,0,0:0:0:0:
184,172,199654,2,0,P|165:237|234:264,1,143.75
400,88,200002,5,0,0:0:0:0:
216,44,200177,1,0,0:0:0:0:
292,252,200351,1,0,0:0:0:0:
142,145,201223,5,0,0:0:0:0:
328,65,201398,2,0,P|357:140|347:214,1,143.75
184,257,201747,1,0,0:0:0:0:
38,107,201921,2,0,P|88:62|171:81,1,143.75
92,226,202270,1,0,0:0:0:0:
346,140,202444,1,0,0:0:0:0:
219,82,202619,1,0,0:0:0:0:
259,291,202793,2,0,P|348:237|327:189,1,172.500006580353
80,240,203142,1,0,0:0:0:0:
266,15,203316,1,0,0:0:0:0:
407,161,203491,6,0,B|454:210|454:210|412:306,1,172.500006580353
129,185,203840,1,0,0:0:0:0:
375,85,204014,1,0,0:0:0:0:
202,64,205584,5,0,0:0:0:0:
235,271,205758,1,0,0:0:0:0:
297,58,205933,5,0,0:0:0:0:
348,270,206107,1,0,0:0:0:0:
182,159,206281,2,0,B|227:151|227:151|270:124|270:124|305:144|305:144|354:128,1,172.500006580353
204,44,206630,1,0,0:0:0:0:
89,197,206805,2,0,B|88:253|88:253|106:265|106:265|88:302|88:302|123:376,1,172.500006580353
338,180,207154,1,0,0:0:0:0:
170,98,207328,1,0,0:0:0:0:
265,305,207502,1,0,0:0:0:0:
351,34,207677,2,0,B|311:100|311:100|339:147|310:211,1,172.500006580353
210,279,208026,5,0,0:0:0:0:
183,48,208200,1,0,0:0:0:0:
423,129,208374,1,0,0:0:0:0:
80,191,208549,1,0,0:0:0:0:
374,36,208723,1,0,0:0:0:0:
274,316,209421,5,0,0:0:0:0:
274,316,209595,2,0,B|271:250|271:250|210:158,1,172.500006580353
130,62,209944,1,0,0:0:0:0:
346,52,210119,1,0,0:0:0:0:
274,261,210293,1,0,0:0:0:0:
215,33,210468,1,0,0:0:0:0:
158,194,210642,1,0,0:0:0:0:
387,138,210816,1,0,0:0:0:0:
261,349,210991,1,0,0:0:0:0:
67,188,211165,6,0,P|139:109|210:117,1,172.500006580353
381,250,211514,2,0,B|350:197|301:175|301:175|374:169,1,172.500006580353
270,64,211863,1,0,0:0:0:0:
371,329,212212,1,0,0:0:0:0:
132,260,212561,2,0,P|109:170|136:88,1,172.500006580353
365,225,212822,2,0,L|284:184,1,86.2500032901765
137,80,213084,1,0,0:0:0:0:
397,92,213258,2,0,P|394:193|398:275,1,172.500006580353
265,269,213519,6,0,P|268:218|264:169,1,86.2500032901765
264,50,213781,1,0,0:0:0:0:
135,213,213956,1,0,0:0:0:0:
393,234,214130,1,0,0:0:0:0:
172,72,214305,1,0,0:0:0:0:
251,308,214479,1,0,0:0:0:0:
359,61,214654,1,0,0:0:0:0:
94,209,214828,2,0,B|147:175|177:206|214:242|276:209,1,172.500006580353
153,57,215177,1,0,0:0:0:0:
191,304,215351,1,0,0:0:0:0:
358,147,215526,5,0,0:0:0:0:
72,189,215700,1,0,0:0:0:0:
312,20,215874,1,0,0:0:0:0:
303,331,216049,1,0,0:0:0:0:
419,101,216223,1,0,0:0:0:0:
197,213,216398,1,0,0:0:0:0:
420,287,216572,1,0,0:0:0:0:
419,101,216747,2,0,P|323:140|277:188,1,172.500006580353
231,353,217095,1,0,0:0:0:0:
173,140,217270,1,0,0:0:0:0:
467,368,217444,5,0,0:0:0:0:
178,74,217793,1,0,0:0:0:0:
122,217,218142,6,0,L|311:168,1,172.500006580353
237,328,218404,1,0,0:0:0:0:
260,342,218491,1,0,0:0:0:0:
170,113,218665,1,0,0:0:0:0:
274,42,218840,6,0,B|257:102|257:102|293:136|293:136|274:166|274:166|283:229,1,172.500006580353
386,305,219102,2,0,L|276:293,1,86.2500032901765
359,88,219363,1,0,0:0:0:0:
113,112,219537,2,0,P|159:172|205:274,1,172.500006580353
347,213,219799,2,0,P|303:167|285:124,1,86.2500032901765
321,31,220061,1,0,0:0:0:0:
197,196,220235,1,0,0:0:0:0:
446,219,220409,1,0,0:0:0:0:
223,65,220584,1,0,0:0:0:0:
438,66,220758,1,0,0:0:0:0:
331,304,220933,1,0,0:0:0:0:
