osu file format v14

[General]
AudioFilename: audio.mp3
AudioLeadIn: 0
PreviewTime: 40968
Countdown: 0
SampleSet: Normal
StackLeniency: 0.2
Mode: 0
LetterboxInBreaks: 0
WidescreenStoryboard: 1

[Editor]
Bookmarks: 3168,16168,28968,40968,53768,67368,80168,92968,104968,117768,131368,144168,169768,195368,207368,220968,233768,246568,256168
DistanceSpacing: 1.6
BeatDivisor: 4
GridSize: 4
TimelineZoom: 1.2

[Metadata]
Title:OWARASE NIGHT
TitleUnicode:OWARASE NIGHT
Artist:Frederic
ArtistUnicode:Frederic
Creator:n0ah
Version:OLDARASE NIGHT
Source:
Tags:CptSqBany Skubi
BeatmapID:1246534
BeatmapSetID:588832

[Difficulty]
HPDrainRate:5
CircleSize:5
OverallDifficulty:7
ApproachRate:5
SliderMultiplier:1.4
SliderTickRate:1

[Events]
//Background and Video events
0,0,"Mniszek_lekarski_vongrzanka.jpg",0,0
//Break Periods
//Storyboard Layer 0 (Background)
//Storyboard Layer 1 (Fail)
//Storyboard Layer 2 (Pass)
//Storyboard Layer 3 (Foreground)
//Storyboard Sound Samples

[TimingPoints]
168.761744966443,400,4,1,0,100,1,0
6568,-133.333333333333,4,1,0,100,0,0
9568,-100,4,1,0,100,0,0
12968,-133.333333333333,4,1,0,100,0,0
40168,-55.2486187845304,4,1,0,100,0,0
40968,-100,4,1,0,100,0,0
41768,-66.6666666666667,4,1,0,100,0,1
53768,-66.6666666666667,4,1,0,100,0,0
54568,-66.6666666666667,4,1,0,100,0,1
64168,-100,4,1,0,100,0,0
66968,-50,4,1,0,100,0,0
67168,-100,4,1,0,100,0,0
105768,-100,4,1,0,100,0,1
111768,-55.8659217877095,4,1,0,100,0,1
112168,-100,4,1,0,100,0,1
117768,-100,4,1,0,100,0,0
118568,-100,4,1,0,100,0,1
127968,-200,4,1,0,100,0,1
128168,-100,4,1,0,100,0,0
135768,-50,4,1,0,100,0,0
136968,-100,4,1,0,100,0,0
142168,-50,4,1,0,100,0,0
144168,-100,4,1,0,100,0,0
156568,-50,4,1,0,100,0,0
156768,-100,4,1,0,100,0,0
156968,-100,4,1,0,100,0,1
156993,-100,4,1,0,100,0,0
157768,-100,4,1,0,100,0,1
157793,-100,4,1,0,100,0,0
158568,-100,4,1,0,100,0,1
158593,-100,4,1,0,100,0,0
159368,-100,4,1,0,100,0,1
159393,-100,4,1,0,100,0,0
160568,-50,4,1,0,100,0,0
160768,-100,4,1,0,100,0,0
160968,-133.333333333333,4,1,0,100,0,0
161568,-133.333333333333,4,1,0,100,0,0
163168,-100,4,1,0,100,0,0
166168,-200,4,1,0,100,0,0
166193,-200,4,1,0,100,0,0
166568,-100,4,1,0,100,0,0
166768,-100,4,1,0,100,0,1
166793,-100,4,1,0,100,0,0
167268,-100,4,1,0,100,0,1
167293,-100,4,1,0,100,0,0
167768,-100,4,1,0,100,0,1
167793,-100,4,1,0,100,0,0
169368,-200,4,1,0,100,0,0
174568,-100,4,1,0,100,0,0
176168,-200,4,1,0,100,0,0
180568,-100,4,1,0,100,0,0
182168,-200,4,1,0,100,0,0
192568,-100,4,1,0,100,0,0
192968,-66.6666666666667,4,1,0,100,0,0
193768,-50,4,1,0,100,0,0
195368,-100,4,1,0,100,0,1
207368,-100,4,1,0,100,0,0
208168,-100,4,1,0,100,0,1
214568,-97.0873786407767,4,1,0,100,0,1
217768,-100,4,1,0,100,0,0
219768,-100,4,1,0,100,0,1
220968,-100,4,1,0,100,0,0
239968,-100,4,1,0,70,0,0
241768,-50,4,1,0,50,0,0
241768,-50,4,1,0,100,0,0
242968,-100,4,1,0,50,0,0
243368,-100,4,1,0,30,0,0
246668,-100,4,1,0,10,0,0

[HitObjects]
122,150,3168,5,0,0:0:0:0:
144,172,3268,1,0,0:0:0:0:
166,149,3368,1,0,0:0:0:0:
257,61,3768,1,0,0:0:0:0:
346,150,4168,1,0,0:0:0:0:
256,239,4568,1,0,0:0:0:0:
166,149,4768,1,0,0:0:0:0:
346,150,5168,1,0,0:0:0:0:
256,239,5568,1,0,0:0:0:0:
257,61,5768,1,0,0:0:0:0:
166,149,6168,1,0,0:0:0:0:
346,150,6568,6,0,L|475:150,1,105.000004005432
452,244,7368,2,0,L|347:244,1,105.000004005432
346,150,7968,1,0,0:0:0:0:
451,150,8368,1,0,0:0:0:0:
452,244,8768,1,0,0:0:0:0:
347,244,8968,1,0,0:0:0:0:
347,244,9568,5,0,0:0:0:0:
325,266,9668,1,0,0:0:0:0:
303,243,9768,1,0,0:0:0:0:
213,153,10168,1,0,0:0:0:0:
123,242,10568,1,0,0:0:0:0:
212,331,10968,1,0,0:0:0:0:
303,243,11168,1,0,0:0:0:0:
213,153,11568,1,0,0:0:0:0:
303,243,11968,1,0,0:0:0:0:
212,331,12168,1,0,0:0:0:0:
123,242,12568,1,0,0:0:0:0:
303,243,12968,6,0,L|432:243,1,105.000004005432
409,149,13768,2,0,L|304:149,1,105.000004005432
408,243,14368,1,0,0:0:0:0:
409,149,14768,1,0,0:0:0:0:
304,149,15168,1,0,0:0:0:0:
303,243,15368,2,0,L|195:243,1,105.000004005432
103,243,16168,1,0,0:0:0:0:
103,243,16568,1,0,0:0:0:0:
103,138,16968,5,0,0:0:0:0:
155,138,17168,1,0,0:0:0:0:
207,138,17368,1,0,0:0:0:0:
207,32,17568,1,0,0:0:0:0:
207,85,17768,1,0,0:0:0:0:
207,32,18168,1,0,0:0:0:0:
364,32,18768,5,0,0:0:0:0:
364,84,18968,1,0,0:0:0:0:
364,136,19168,1,0,0:0:0:0:
364,188,19368,1,0,0:0:0:0:
312,188,19568,1,0,0:0:0:0:
417,188,19768,2,0,L|312:188,1,105.000004005432
469,188,20568,1,0,0:0:0:0:
259,188,20768,1,0,0:0:0:0:
259,240,20968,2,0,L|259:352,2,105.000004005432
259,188,22168,1,0,0:0:0:0:
259,82,22568,5,0,0:0:0:0:
153,82,22968,1,0,0:0:0:0:
47,82,23368,1,0,0:0:0:0:
47,187,23768,1,0,0:0:0:0:
47,292,24168,1,0,0:0:0:0:
152,292,24568,1,0,0:0:0:0:
152,186,24968,1,0,0:0:0:0:
257,186,25168,1,0,0:0:0:0:
362,186,25368,1,0,0:0:0:0:
362,291,25568,1,0,0:0:0:0:
257,291,25768,1,0,0:0:0:0:
257,80,26168,5,0,0:0:0:0:
182,154,26568,1,0,0:0:0:0:
107,79,26968,1,0,0:0:0:0:
255,227,27368,1,0,0:0:0:0:
182,154,27768,1,0,0:0:0:0:
329,152,28168,1,0,0:0:0:0:
255,122,28968,6,0,L|255:230,1,105.000004005432
255,332,29768,1,0,0:0:0:0:
360,332,29968,1,0,0:0:0:0:
360,227,30168,1,0,0:0:0:0:
360,331,30368,1,0,0:0:0:0:
465,331,30568,1,0,0:0:0:0:
255,332,30968,1,0,0:0:0:0:
140,333,31568,5,0,0:0:0:0:
34,333,31768,1,0,0:0:0:0:
140,333,31968,1,0,0:0:0:0:
140,228,32168,1,0,0:0:0:0:
255,332,32368,1,0,0:0:0:0:
255,227,32568,6,0,L|255:122,2,105.000004005432
255,121,33568,1,0,0:0:0:0:
255,227,33768,1,0,0:0:0:0:
360,227,33968,1,0,0:0:0:0:
255,121,34168,1,0,0:0:0:0:
255,16,34368,1,0,0:0:0:0:
360,121,34568,1,0,0:0:0:0:
360,121,35368,6,0,L|252:121,1,105.000004005432
212,120,36168,2,0,L|107:120,1,105.000004005432
64,120,36968,1,0,0:0:0:0:
107,120,37368,5,0,0:0:0:0:
64,120,37568,1,0,0:0:0:0:
255,121,37768,1,0,0:0:0:0:
212,121,37968,1,0,0:0:0:0:
360,121,38168,1,0,0:0:0:0:
403,121,38368,1,0,0:0:0:0:
508,121,38568,6,0,L|400:121,1,105.000004005432
360,120,39368,2,0,L|255:120,1,105.000004005432
508,121,40168,2,0,L|236:120,1,253.399998646698
74,300,40968,5,0,0:0:0:0:
254,120,41168,5,0,0:0:0:0:
434,300,41368,5,0,0:0:0:0:
74,300,41568,5,0,0:0:0:0:
434,300,41768,5,0,0:0:0:0:
254,120,42168,5,0,0:0:0:0:
74,121,42968,5,0,0:0:0:0:
434,121,43168,1,0,0:0:0:0:
434,331,43568,2,0,L|322:331,1,105.000004005432
276,330,44168,5,0,0:0:0:0:
70,181,44368,5,0,0:0:0:0:
118,331,44568,5,0,0:0:0:0:
198,89,44768,5,0,0:0:0:0:
325,180,44968,5,0,0:0:0:0:
118,331,45368,5,0,0:0:0:0:
434,121,46168,5,0,0:0:0:0:
74,121,46368,1,0,0:0:0:0:
74,331,46768,2,0,L|184:331,1,105.000004005432
284,331,47168,2,0,L|179:331,1,105.000004005432
389,331,47768,1,0,0:0:0:0:
240,182,48168,5,0,0:0:0:0:
450,182,48568,1,0,0:0:0:0:
180,122,48968,1,0,0:0:0:0:
390,122,49368,1,0,0:0:0:0:
120,62,49768,1,0,0:0:0:0:
330,62,50168,5,0,0:0:0:0:
120,62,50368,1,0,0:0:0:0:
390,122,50568,1,0,0:0:0:0:
180,122,50768,1,0,0:0:0:0:
120,182,50968,1,0,0:0:0:0:
330,182,51168,1,0,0:0:0:0:
181,330,51368,5,0,0:0:0:0:
32,181,51568,1,0,0:0:0:0:
180,32,51768,1,0,0:0:0:0:
32,181,51968,1,0,0:0:0:0:
180,32,52168,1,0,0:0:0:0:
330,182,52568,1,0,0:0:0:0:
330,182,52968,2,0,L|225:182,1,105.000004005432
120,182,53368,1,0,0:0:0:0:
120,182,53568,2,0,L|225:182,1,105.000004005432
330,182,53968,1,0,0:0:0:0:
330,182,54168,2,0,L|225:182,1,105.000004005432
120,182,54568,5,0,0:0:0:0:
435,182,54968,1,0,0:0:0:0:
435,182,55568,1,0,0:0:0:0:
330,182,55768,2,0,L|435:182,1,105.000004005432
330,182,56368,1,0,0:0:0:0:
435,182,56568,1,0,0:0:0:0:
383,91,56768,1,0,0:0:0:0:
383,301,56968,5,0,0:0:0:0:
172,301,57168,1,0,0:0:0:0:
172,90,57368,1,0,0:0:0:0:
383,301,57568,1,0,0:0:0:0:
172,90,57768,1,0,0:0:0:0:
172,301,58168,1,0,0:0:0:0:
172,90,58768,1,0,0:0:0:0:
383,301,58968,1,0,0:0:0:0:
172,301,59168,1,0,0:0:0:0:
384,192,59568,5,0,0:0:0:0:
383,301,59768,1,0,0:0:0:0:
172,301,59968,1,0,0:0:0:0:
173,192,60168,1,0,0:0:0:0:
384,192,60368,1,0,0:0:0:0:
385,83,60568,1,0,0:0:0:0:
174,83,60968,5,0,0:0:0:0:
173,192,61368,1,0,0:0:0:0:
383,192,61768,1,0,0:0:0:0:
385,83,62168,1,0,0:0:0:0:
383,301,62568,1,0,0:0:0:0:
385,83,62968,1,0,0:0:0:0:
383,301,63368,1,0,0:0:0:0:
320,301,63568,1,0,0:0:0:0:
257,301,63768,1,0,0:0:0:0:
383,301,63968,1,0,0:0:0:0:
257,301,64168,5,0,0:0:0:0:
320,301,64568,1,0,0:0:0:0:
194,175,64768,1,0,0:0:0:0:
194,301,64968,1,0,0:0:0:0:
446,301,65168,1,0,0:0:0:0:
194,301,65368,1,0,0:0:0:0:
194,49,65568,1,0,0:0:0:0:
446,301,65768,6,0,L|446:189,1,70
446,231,66168,2,0,L|446:119,1,70
446,231,66568,2,0,L|446:301,1,70
446,301,66968,2,0,L|446:135,1,140
446,126,67268,5,0,0:0:0:0:
446,91,67368,1,0,0:0:0:0:
306,91,67768,1,0,0:0:0:0:
166,91,68168,1,0,0:0:0:0:
166,231,68568,1,0,0:0:0:0:
306,231,68768,1,0,0:0:0:0:
166,231,69168,1,0,0:0:0:0:
306,231,69568,1,0,0:0:0:0:
446,231,69768,1,0,0:0:0:0:
306,231,70168,1,0,0:0:0:0:
306,91,70568,6,0,L|165:91,2,140
166,91,71768,1,0,0:0:0:0:
306,91,71968,1,0,0:0:0:0:
166,91,72368,2,0,L|306:91,1,140
446,91,72968,1,0,0:0:0:0:
446,301,73568,5,0,0:0:0:0:
446,266,73668,1,0,0:0:0:0:
446,231,73768,1,0,0:0:0:0:
249,230,74168,1,0,0:0:0:0:
108,230,74568,1,0,0:0:0:0:
248,90,74968,1,0,0:0:0:0:
108,89,75168,1,0,0:0:0:0:
108,230,75568,1,0,0:0:0:0:
206,328,75968,1,0,0:0:0:0:
304,229,76168,1,0,0:0:0:0:
108,230,76568,1,0,0:0:0:0:
304,229,76968,6,0,L|443:229,2,140
205,327,78168,1,0,0:0:0:0:
345,327,78368,1,0,0:0:0:0:
205,327,78768,2,0,L|347:327,1,140
134,327,79368,1,0,0:0:0:0:
134,327,79968,5,0,0:0:0:0:
204,327,80068,1,0,0:0:0:0:
274,327,80168,1,0,0:0:0:0:
416,327,80568,1,0,0:0:0:0:
416,117,80968,1,0,0:0:0:0:
353,117,81168,1,0,0:0:0:0:
227,117,81368,1,0,0:0:0:0:
290,117,81568,1,0,0:0:0:0:
164,117,81768,1,0,0:0:0:0:
101,117,82168,1,0,0:0:0:0:
39,117,82768,5,0,0:0:0:0:
101,180,82968,1,0,0:0:0:0:
164,116,83168,1,0,0:0:0:0:
102,53,83368,1,0,0:0:0:0:
38,117,83768,1,0,0:0:0:0:
38,117,84168,1,0,0:0:0:0:
102,181,84368,1,0,0:0:0:0:
38,117,84568,1,0,0:0:0:0:
164,117,84768,1,0,0:0:0:0:
164,243,84968,1,0,0:0:0:0:
38,243,85368,1,0,0:0:0:0:
38,117,85568,1,0,0:0:0:0:
164,243,85768,1,0,0:0:0:0:
164,243,86568,6,0,B|264:243|264:243|264:200,1,140
264,76,87368,2,0,B|264:36|264:36|364:36,1,140
490,36,88168,1,0,0:0:0:0:
364,36,88568,1,0,0:0:0:0:
490,36,88768,1,0,0:0:0:0:
490,162,88968,1,0,0:0:0:0:
364,162,89168,1,0,0:0:0:0:
490,36,89368,1,0,0:0:0:0:
364,162,89568,1,0,0:0:0:0:
364,36,89768,5,0,0:0:0:0:
364,162,90168,1,0,0:0:0:0:
238,162,90568,1,0,0:0:0:0:
238,36,90968,1,0,0:0:0:0:
416,214,91368,1,0,0:0:0:0:
58,213,91768,1,0,0:0:0:0:
238,36,92168,1,0,0:0:0:0:
58,213,92568,1,0,0:0:0:0:
416,214,92768,1,0,0:0:0:0:
238,214,92968,5,0,0:0:0:0:
58,213,93268,1,0,0:0:0:0:
58,55,93568,1,0,0:0:0:0:
163,55,93768,1,0,0:0:0:0:
163,160,93968,1,0,0:0:0:0:
268,54,94168,1,0,0:0:0:0:
163,54,94368,1,0,0:0:0:0:
373,54,94568,5,0,0:0:0:0:
373,211,94868,1,0,0:0:0:0:
442,316,95168,1,0,0:0:0:0:
373,316,95368,1,0,0:0:0:0:
303,316,95568,1,0,0:0:0:0:
163,316,95768,1,0,0:0:0:0:
233,316,95968,1,0,0:0:0:0:
357,191,96168,5,0,0:0:0:0:
252,191,96368,1,0,0:0:0:0:
177,116,96568,1,0,0:0:0:0:
102,190,96768,5,0,0:0:0:0:
177,116,96968,1,0,0:0:0:0:
282,116,97168,1,0,0:0:0:0:
356,190,97368,5,0,0:0:0:0:
282,116,97568,1,0,0:0:0:0:
282,11,97768,1,0,0:0:0:0:
282,116,97968,5,0,0:0:0:0:
207,190,98168,1,0,0:0:0:0:
207,295,98368,1,0,0:0:0:0:
132,369,98568,5,0,0:0:0:0:
207,295,98768,1,0,0:0:0:0:
312,295,98968,2,0,L|389:295,1,70
487,295,99368,5,0,0:0:0:0:
487,85,99768,1,0,0:0:0:0:
487,85,100168,5,0,0:0:0:0:
277,85,100568,1,0,0:0:0:0:
277,85,100968,5,0,0:0:0:0:
81,85,101368,1,0,0:0:0:0:
81,281,101568,5,0,0:0:0:0:
81,85,101768,1,0,0:0:0:0:
81,183,101968,1,0,0:0:0:0:
179,281,102168,1,0,0:0:0:0:
277,281,102368,1,0,0:0:0:0:
375,281,102568,5,0,0:0:0:0:
177,83,102968,1,0,0:0:0:0:
461,280,103368,1,0,0:0:0:0:
262,82,103768,1,0,0:0:0:0:
460,192,104168,2,0,L|460:40,1,140
460,192,104968,5,0,0:0:0:0:
320,192,105168,1,0,0:0:0:0:
460,52,105368,1,0,0:0:0:0:
460,332,105568,1,0,0:0:0:0:
180,332,105768,1,0,0:0:0:0:
460,52,106168,1,0,0:0:0:0:
180,332,106768,1,0,0:0:0:0:
460,52,106968,1,0,0:0:0:0:
460,332,107168,1,0,0:0:0:0:
250,332,107568,2,0,L|180:332,2,70
116,332,108168,5,0,0:0:0:0:
71,287,108368,1,0,0:0:0:0:
115,242,108568,1,0,0:0:0:0:
241,242,108768,1,0,0:0:0:0:
330,152,108968,1,0,0:0:0:0:
240,62,109368,1,0,0:0:0:0:
150,151,109968,1,0,0:0:0:0:
328,329,110168,1,0,0:0:0:0:
506,150,110368,1,0,0:0:0:0:
328,329,110768,5,0,0:0:0:0:
202,328,110968,2,0,L|301:328,1,70
398,329,111368,2,0,L|328:329,1,70
328,329,111768,2,0,L|202:328,1,125.300001720734
202,192,112168,5,0,0:0:0:0:
310,192,112568,1,0,0:0:0:0:
117,192,112968,1,0,0:0:0:0:
394,192,113368,1,0,0:0:0:0:
24,192,113768,1,0,0:0:0:0:
487,192,114168,5,0,0:0:0:0:
24,192,114368,1,0,0:0:0:0:
394,192,114568,1,0,0:0:0:0:
117,192,114768,1,0,0:0:0:0:
310,192,114968,1,0,0:0:0:0:
202,192,115168,1,0,0:0:0:0:
256,138,115368,5,0,0:0:0:0:
256,246,115568,1,0,0:0:0:0:
396,246,115768,1,0,0:0:0:0:
396,71,115968,1,0,0:0:0:0:
186,71,116168,1,0,0:0:0:0:
186,316,116568,1,0,0:0:0:0:
256,316,116968,6,0,L|352:316,1,70
396,316,117368,2,0,L|466:316,1,70
326,316,117768,1,0,0:0:0:0:
116,316,117968,1,0,0:0:0:0:
326,106,118168,1,0,0:0:0:0:
116,106,118368,1,0,0:0:0:0:
116,316,118568,5,0,0:0:0:0:
326,106,118968,1,0,0:0:0:0:
116,106,119768,5,0,0:0:0:0:
326,316,119968,1,0,0:0:0:0:
326,70,120968,5,0,0:0:0:0:
396,192,121168,1,0,0:0:0:0:
186,70,121368,1,0,0:0:0:0:
326,313,121568,1,0,0:0:0:0:
186,313,121768,1,0,0:0:0:0:
116,191,122168,1,0,0:0:0:0:
326,70,122968,5,0,0:0:0:0:
186,313,123168,1,0,0:0:0:0:
291,313,123368,6,0,L|383:313,1,70
442,313,123768,2,0,L|534:313,1,70
361,313,124168,2,0,L|291:313,1,70
442,313,124568,2,0,L|534:313,1,70
437,238,124968,5,0,0:0:0:0:
227,238,125368,1,0,0:0:0:0:
227,133,125768,1,0,0:0:0:0:
437,133,126168,1,0,0:0:0:0:
227,28,126568,1,0,0:0:0:0:
437,28,126968,1,0,0:0:0:0:
227,133,127368,1,0,0:0:0:0:
17,238,127568,1,0,0:0:0:0:
227,343,127768,1,0,0:0:0:0:
437,343,127968,2,0,L|436:94,1,245
436,27,129568,5,0,0:0:0:0:
296,27,129768,1,0,0:0:0:0:
247,27,129868,1,0,0:0:0:0:
198,27,129968,1,0,0:0:0:0:
149,27,130068,1,0,0:0:0:0:
100,27,130168,1,0,0:0:0:0:
100,125,130368,1,0,0:0:0:0:
149,125,130468,1,0,0:0:0:0:
198,125,130568,1,0,0:0:0:0:
198,223,130768,1,0,0:0:0:0:
149,223,130868,1,0,0:0:0:0:
100,223,130968,1,0,0:0:0:0:
100,125,131168,1,0,0:0:0:0:
198,125,131368,5,0,0:0:0:0:
314,259,131768,1,0,0:0:0:0:
198,259,132168,1,0,0:0:0:0:
314,125,132568,1,0,0:0:0:0:
198,259,132768,1,0,0:0:0:0:
198,125,133168,1,0,0:0:0:0:
314,259,133568,1,0,0:0:0:0:
198,259,133768,1,0,0:0:0:0:
314,125,134168,1,0,0:0:0:0:
198,259,134568,6,0,L|58:259,1,140
198,259,135368,1,0,0:0:0:0:
58,259,135768,2,0,L|198:259,1,140
220,168,136368,1,0,0:0:0:0:
416,168,136568,1,0,0:0:0:0:
242,77,136768,1,0,0:0:0:0:
438,77,136968,2,0,L|497:77,2,35
438,77,137368,2,0,L|497:77,2,35
416,168,137768,5,0,0:0:0:0:
394,259,138168,1,0,0:0:0:0:
372,350,138568,1,0,0:0:0:0:
350,259,138968,1,0,0:0:0:0:
328,168,139168,1,0,0:0:0:0:
284,350,139568,1,0,0:0:0:0:
240,168,139968,1,0,0:0:0:0:
218,259,140168,1,0,0:0:0:0:
196,350,140568,1,0,0:0:0:0:
102,350,140968,6,0,L|102:204,2,140
102,210,142168,2,0,L|102:350,1,140
102,14,142768,1,0,0:0:0:0:
256,136,142968,1,0,0:0:0:0:
410,14,143168,1,0,0:0:0:0:
410,210,143368,2,0,L|410:350,1,140
410,14,143768,1,0,0:0:0:0:
130,14,144168,5,0,0:0:0:0:
340,14,144568,1,0,0:0:0:0:
340,224,144968,1,0,0:0:0:0:
130,224,145368,1,0,0:0:0:0:
235,119,145568,1,0,0:0:0:0:
340,224,145968,1,0,0:0:0:0:
445,119,146368,1,0,0:0:0:0:
445,329,146568,1,0,0:0:0:0:
235,329,146968,1,0,0:0:0:0:
24,329,147368,5,0,0:0:0:0:
235,329,147768,1,0,0:0:0:0:
445,329,148168,1,0,0:0:0:0:
445,119,148568,1,0,0:0:0:0:
235,119,148768,1,0,0:0:0:0:
25,119,149168,1,0,0:0:0:0:
235,329,149368,1,0,0:0:0:0:
445,119,149568,1,0,0:0:0:0:
235,119,149768,2,0,L|191:119,2,35
160,44,150168,2,0,L|128:12,2,35
284,14,150568,5,0,0:0:0:0:
36,261,150968,1,0,0:0:0:0:
385,261,151368,1,0,0:0:0:0:
137,13,151768,1,0,0:0:0:0:
137,363,151968,1,0,0:0:0:0:
384,115,152368,1,0,0:0:0:0:
34,115,152768,1,0,0:0:0:0:
281,362,152968,1,0,0:0:0:0:
281,12,153368,5,0,0:0:0:0:
83,209,153768,1,0,0:0:0:0:
362,209,154168,1,0,0:0:0:0:
164,11,154568,1,0,0:0:0:0:
444,11,154968,1,0,0:0:0:0:
444,116,155168,1,0,0:0:0:0:
444,116,155568,1,0,0:0:0:0:
444,221,155768,1,0,0:0:0:0:
444,326,155968,1,0,0:0:0:0:
444,221,156168,1,0,0:0:0:0:
444,326,156568,6,0,B|422:346|374:327|387:314|339:295|311:320,1,140
275,355,156868,1,0,0:0:0:0:
222,355,156968,5,0,0:0:0:0:
169,355,157068,1,0,0:0:0:0:
116,355,157168,1,0,0:0:0:0:
78,317,157268,1,0,0:0:0:0:
40,279,157368,1,0,0:0:0:0:
40,226,157468,1,0,0:0:0:0:
40,173,157568,1,0,0:0:0:0:
77,135,157668,1,0,0:0:0:0:
114,97,157768,5,0,0:0:0:0:
166,97,157868,1,0,0:0:0:0:
218,97,157968,1,0,0:0:0:0:
255,134,158068,1,0,0:0:0:0:
307,134,158168,1,0,0:0:0:0:
344,96,158268,1,0,0:0:0:0:
344,43,158368,1,0,0:0:0:0:
306,5,158468,1,0,0:0:0:0:
253,5,158568,5,0,0:0:0:0:
215,42,158668,1,0,0:0:0:0:
218,97,158768,1,0,0:0:0:0:
255,134,158868,1,0,0:0:0:0:
292,171,158968,1,0,0:0:0:0:
329,208,159068,1,0,0:0:0:0:
366,245,159168,1,0,0:0:0:0:
418,245,159268,1,0,0:0:0:0:
455,207,159368,5,0,0:0:0:0:
492,169,159468,1,0,0:0:0:0:
454,131,159568,1,0,0:0:0:0:
491,93,159668,1,0,0:0:0:0:
477,47,159768,1,0,0:0:0:0:
345,39,159968,6,0,B|367:19|415:38|402:51|450:70|478:45,1,140
476,46,160568,6,0,B|450:70|402:51|415:38|367:19|345:39,1,140
307,76,160868,1,0,0:0:0:0:
269,113,160968,6,0,L|175:113,1,78.7500030040742
162,141,161368,1,0,0:0:0:0:
134,168,161468,1,0,0:0:0:0:
55,168,161568,6,0,B|133:168,1,78.7500030040742
161,196,161968,1,0,0:0:0:0:
216,251,162168,1,0,0:0:0:0:
294,251,162368,1,0,0:0:0:0:
294,211,162468,1,0,0:0:0:0:
294,171,162568,1,0,0:0:0:0:
294,131,162668,1,0,0:0:0:0:
294,91,162768,1,0,0:0:0:0:
372,91,162968,1,0,0:0:0:0:
399,118,163068,1,0,0:0:0:0:
426,145,163168,6,0,L|426:266,1,105
426,250,163568,1,0,0:0:0:0:
351,324,163768,5,0,0:0:0:0:
352,115,163968,1,0,0:0:0:0:
352,168,164068,1,0,0:0:0:0:
351,218,164168,1,0,0:0:0:0:
351,271,164268,1,0,0:0:0:0:
351,324,164368,1,0,0:0:0:0:
252,225,164568,5,0,0:0:0:0:
252,85,164768,1,0,0:0:0:0:
252,120,164868,1,0,0:0:0:0:
252,155,164968,1,0,0:0:0:0:
252,190,165068,1,0,0:0:0:0:
252,225,165168,1,0,0:0:0:0:
153,323,165368,5,0,0:0:0:0:
154,114,165568,1,0,0:0:0:0:
154,167,165668,1,0,0:0:0:0:
153,217,165768,1,0,0:0:0:0:
153,270,165868,1,0,0:0:0:0:
153,323,165968,1,0,0:0:0:0:
48,323,166168,6,0,L|48:241,1,70
122,178,166768,1,0,0:0:0:0:
84,140,166868,1,0,0:0:0:0:
84,87,166968,1,0,0:0:0:0:
121,49,167068,1,0,0:0:0:0:
173,49,167168,1,0,0:0:0:0:
210,86,167268,5,0,0:0:0:0:
210,138,167368,1,0,0:0:0:0:
172,175,167468,1,0,0:0:0:0:
172,227,167568,1,0,0:0:0:0:
209,264,167668,1,0,0:0:0:0:
261,264,167768,5,0,0:0:0:0:
298,301,167868,1,0,0:0:0:0:
350,301,167968,1,0,0:0:0:0:
387,263,168068,1,0,0:0:0:0:
387,210,168168,1,0,0:0:0:0:
349,172,168268,1,0,0:0:0:0:
349,119,168368,1,0,0:0:0:0:
386,81,168468,1,0,0:0:0:0:
438,81,168568,1,0,0:0:0:0:
475,118,168668,1,0,0:0:0:0:
475,170,168768,1,0,0:0:0:0:
437,207,168868,1,0,0:0:0:0:
387,210,168968,1,0,0:0:0:0:
116,208,169168,5,0,0:0:0:0:
186,208,169368,2,0,L|116:208,1,70
46,208,169968,5,0,0:0:0:0:
116,208,170168,2,0,L|186:208,1,70
256,208,170768,1,0,0:0:0:0:
186,208,170968,2,0,L|116:208,1,70
46,208,171568,1,0,0:0:0:0:
186,208,171768,2,0,L|116:208,1,70
256,208,172368,1,0,0:0:0:0:
116,208,172568,2,0,L|186:208,1,70
256,208,173368,5,0,0:0:0:0:
186,208,173768,2,0,L|256:208,1,70
326,208,174368,1,0,0:0:0:0:
186,208,174568,2,0,L|256:208,1,70
186,208,174968,2,0,L|116:208,1,70
46,208,175368,1,0,0:0:0:0:
326,208,175768,1,0,0:0:0:0:
186,208,176168,6,0,L|186:135,1,70
256,76,176768,1,0,0:0:0:0:
326,138,176968,2,0,L|326:208,1,70
256,270,177568,1,0,0:0:0:0:
326,208,177768,2,0,L|326:138,1,70
256,76,178368,1,0,0:0:0:0:
326,138,178568,2,0,L|326:208,1,70
186,138,179368,6,0,L|186:208,1,70
256,76,179968,1,0,0:0:0:0:
186,208,180168,2,0,L|186:138,1,70
256,270,180768,1,0,0:0:0:0:
256,76,180968,1,0,0:0:0:0:
186,208,181168,2,0,L|186:138,1,70
326,138,181568,2,0,L|326:208,1,70
256,270,182168,6,0,L|256:188,1,70
186,138,182768,5,0,0:0:0:0:
326,138,182968,1,0,0:0:0:0:
133,105,183168,1,0,0:0:0:0:
379,105,183368,1,0,0:0:0:0:
80,72,183568,1,0,0:0:0:0:
432,72,183768,1,0,0:0:0:0:
256,188,183968,1,0,0:0:0:0:
133,187,184168,5,0,0:0:0:0:
133,269,184368,1,0,0:0:0:0:
133,350,184568,1,0,0:0:0:0:
378,350,184768,1,0,0:0:0:0:
133,105,184968,1,0,0:0:0:0:
378,105,185368,1,0,0:0:0:0:
256,351,185768,1,0,0:0:0:0:
256,229,185968,5,0,0:0:0:0:
378,229,186168,1,0,0:0:0:0:
378,350,186368,1,0,0:0:0:0:
378,105,186568,1,0,0:0:0:0:
133,105,186768,1,0,0:0:0:0:
133,350,186968,1,0,0:0:0:0:
133,105,187168,1,0,0:0:0:0:
134,228,187368,5,0,0:0:0:0:
256,228,187568,1,0,0:0:0:0:
256,105,187768,1,0,0:0:0:0:
133,105,187968,1,0,0:0:0:0:
379,106,188168,1,0,0:0:0:0:
255,227,188568,1,0,0:0:0:0:
255,104,188968,6,0,L|339:104,1,70
255,104,189768,2,0,L|171:104,1,70
325,104,190568,1,0,0:0:0:0:
255,104,190768,1,0,0:0:0:0:
185,104,190968,1,0,0:0:0:0:
115,104,191168,1,0,0:0:0:0:
255,104,191368,1,0,0:0:0:0:
325,104,191568,1,0,0:0:0:0:
395,104,191768,2,0,L|476:104,1,70
465,174,192368,5,0,0:0:0:0:
407,174,192468,1,0,0:0:0:0:
349,174,192568,2,0,L|249:174,1,70
465,239,192968,5,0,0:0:0:0:
381,239,193068,1,0,0:0:0:0:
297,239,193168,2,0,L|174:239,1,105.000004005432
245,304,193768,6,0,L|94:304,3,140
146,66,194568,1,0,0:0:0:0:
482,66,194768,1,0,0:0:0:0:
146,66,194968,1,0,0:0:0:0:
383,303,195168,1,0,0:0:0:0:
146,66,195368,1,0,0:0:0:0:
356,66,195768,1,0,0:0:0:0:
251,66,195968,1,0,0:0:0:0:
251,171,196168,1,0,0:0:0:0:
356,171,196368,1,0,0:0:0:0:
251,171,196568,1,0,0:0:0:0:
461,171,196768,2,0,L|461:248,1,70
461,346,197168,1,0,0:0:0:0:
461,171,197368,2,0,L|461:248,1,70
461,346,197768,5,0,0:0:0:0:
321,346,197968,1,0,0:0:0:0:
181,346,198168,1,0,0:0:0:0:
40,346,198368,1,0,0:0:0:0:
40,206,198568,1,0,0:0:0:0:
40,66,198968,1,0,0:0:0:0:
40,206,199168,1,0,0:0:0:0:
180,206,199368,1,0,0:0:0:0:
180,66,199568,1,0,0:0:0:0:
180,206,199768,1,0,0:0:0:0:
320,206,199968,2,0,L|400:206,1,70
460,206,200368,5,0,0:0:0:0:
390,206,200568,1,0,0:0:0:0:
320,206,200768,2,0,L|400:206,1,70
250,206,201168,1,0,0:0:0:0:
250,136,201368,1,0,0:0:0:0:
200,86,201568,1,0,0:0:0:0:
201,15,201768,5,0,0:0:0:0:
61,15,202168,1,0,0:0:0:0:
341,15,202568,1,0,0:0:0:0:
341,295,202968,1,0,0:0:0:0:
61,295,203368,1,0,0:0:0:0:
201,295,203768,1,0,0:0:0:0:
60,155,203968,1,0,0:0:0:0:
201,155,204168,1,0,0:0:0:0:
61,295,204368,1,0,0:0:0:0:
201,295,204568,1,0,0:0:0:0:
61,295,204768,1,0,0:0:0:0:
341,295,204968,5,0,0:0:0:0:
61,295,205168,1,0,0:0:0:0:
60,155,205368,1,0,0:0:0:0:
341,15,205568,1,0,0:0:0:0:
61,15,205768,1,0,0:0:0:0:
341,155,206168,1,0,0:0:0:0:
341,155,206568,1,0,0:0:0:0:
481,155,206768,2,0,L|334:155,1,140
201,155,207368,5,0,0:0:0:0:
340,60,207568,1,0,0:0:0:0:
202,250,207768,1,0,0:0:0:0:
341,155,207968,1,0,0:0:0:0:
342,250,208168,1,0,0:0:0:0:
203,345,208568,1,0,0:0:0:0:
202,250,208768,2,0,L|202:106,1,140
203,345,209368,1,0,0:0:0:0:
340,60,209568,2,0,L|340:152,1,70
340,277,209968,1,0,0:0:0:0:
340,130,210168,2,0,L|340:60,1,70
340,277,210568,5,0,0:0:0:0:
468,204,210768,1,0,0:0:0:0:
340,130,210968,1,0,0:0:0:0:
212,203,211168,1,0,0:0:0:0:
468,204,211368,2,0,L|398:204,2,70
398,204,211968,2,0,L|256:204,1,140
212,203,212568,1,0,0:0:0:0:
166,204,212768,5,0,0:0:0:0:
256,88,212968,1,0,0:0:0:0:
164,268,213168,1,0,0:0:0:0:
317,69,213368,1,0,0:0:0:0:
370,104,213568,5,0,0:0:0:0:
217,303,213768,1,0,0:0:0:0:
278,284,213968,1,0,0:0:0:0:
368,168,214168,1,0,0:0:0:0:
470,314,214368,1,0,0:0:0:0:
470,314,214468,1,0,0:0:0:0:
470,314,214568,6,0,B|419:365|419:365|361:308,1,144.199998789825
419,263,215168,1,0,0:0:0:0:
367,314,215368,2,0,B|419:264|419:264|470:315,1,144.199998789825
419,366,215968,1,0,0:0:0:0:
419,263,216168,2,0,L|419:187,1,72.0999993949127
418,37,216568,2,0,L|418:113,1,72.0999993949127
419,263,216968,1,0,0:0:0:0:
259,263,217168,1,0,0:0:0:0:
260,108,217368,1,0,0:0:0:0:
104,108,217568,1,0,0:0:0:0:
104,262,217768,5,0,0:0:0:0:
259,263,218168,1,0,0:0:0:0:
260,108,218368,1,0,0:0:0:0:
418,109,218568,1,0,0:0:0:0:
260,108,218768,1,0,0:0:0:0:
418,109,218968,1,0,0:0:0:0:
259,263,219168,1,0,0:0:0:0:
104,262,219368,1,0,0:0:0:0:
104,108,219568,1,0,0:0:0:0:
260,108,219768,5,0,0:0:0:0:
314,130,219868,1,0,0:0:0:0:
336,184,219968,1,0,0:0:0:0:
314,240,220068,1,0,0:0:0:0:
259,263,220168,1,0,0:0:0:0:
204,240,220268,1,0,0:0:0:0:
182,185,220368,1,0,0:0:0:0:
204,129,220468,1,0,0:0:0:0:
260,108,220568,1,0,0:0:0:0:
314,130,220668,1,0,0:0:0:0:
336,184,220768,1,0,0:0:0:0:
314,240,220868,1,0,0:0:0:0:
259,263,220968,1,0,0:0:0:0:
49,263,221368,5,0,0:0:0:0:
49,53,221768,1,0,0:0:0:0:
259,263,222168,1,0,0:0:0:0:
259,53,222568,1,0,0:0:0:0:
259,158,222768,1,0,0:0:0:0:
154,158,222968,1,0,0:0:0:0:
49,263,223168,1,0,0:0:0:0:
154,263,223368,1,0,0:0:0:0:
364,263,223768,1,0,0:0:0:0:
364,52,224168,5,0,0:0:0:0:
154,52,224568,1,0,0:0:0:0:
364,52,224968,1,0,0:0:0:0:
154,52,225368,1,0,0:0:0:0:
154,157,225568,1,0,0:0:0:0:
364,157,225968,1,0,0:0:0:0:
154,157,226368,1,0,0:0:0:0:
154,52,226568,2,0,L|4:52,1,140
14,156,227168,1,0,0:0:0:0:
14,104,227268,1,0,0:0:0:0:
14,52,227368,6,0,L|154:52,1,140
294,52,228168,1,0,0:0:0:0:
294,332,228568,1,0,0:0:0:0:
294,52,228968,1,0,0:0:0:0:
294,192,229168,1,0,0:0:0:0:
294,332,229368,1,0,0:0:0:0:
434,332,229568,1,0,0:0:0:0:
153,332,229768,1,0,0:0:0:0:
153,191,230168,1,0,0:0:0:0:
433,191,230568,5,0,0:0:0:0:
334,92,230968,1,0,0:0:0:0:
234,189,231368,1,0,0:0:0:0:
136,91,231768,1,0,0:0:0:0:
234,189,231968,1,0,0:0:0:0:
332,90,232368,1,0,0:0:0:0:
134,287,232768,1,0,0:0:0:0:
234,189,232968,2,0,L|375:189,1,140
466,189,233568,5,0,0:0:0:0:
420,189,233668,1,0,0:0:0:0:
374,189,233768,2,0,L|233:189,1,140
164,119,234368,1,0,0:0:0:0:
233,49,234568,2,0,L|373:49,1,140
442,118,235168,1,0,0:0:0:0:
373,49,235368,5,0,0:0:0:0:
442,118,235568,1,0,0:0:0:0:
374,189,235768,1,0,0:0:0:0:
234,189,235968,1,0,0:0:0:0:
164,119,236168,1,0,0:0:0:0:
233,49,236368,1,0,0:0:0:0:
164,119,236568,2,0,B|109:119|109:119|109:180,1,105
111,195,236968,5,0,0:0:0:0:
111,363,237368,1,0,0:0:0:0:
164,119,237768,1,0,0:0:0:0:
164,287,238168,1,0,0:0:0:0:
217,43,238368,1,0,0:0:0:0:
217,211,238768,1,0,0:0:0:0:
164,119,239168,1,0,0:0:0:0:
164,287,239368,1,0,0:0:0:0:
217,211,239768,1,0,0:0:0:0:
300,211,239968,5,0,0:0:0:0:
258,211,240068,1,0,0:0:0:0:
217,211,240168,2,0,L|78:211,1,140
216,296,240768,1,0,0:0:0:0:
357,211,240968,2,0,L|218:211,1,140
356,296,241568,1,0,0:0:0:0:
217,211,241768,6,0,L|357:211,1,140
77,211,242168,2,0,L|217:211,1,140
216,296,242568,1,0,0:0:0:0:
356,296,242768,1,0,0:0:0:0:
76,296,242968,2,0,L|0:296,1,70
144,380,243368,6,0,L|220:380,1,70
146,296,243768,2,0,L|70:296,1,70
214,380,244168,2,0,L|290:380,1,70
216,296,244568,1,0,0:0:0:0:
146,296,244768,2,0,L|216:296,1,70
214,380,245168,6,0,L|144:380,1,70
76,296,245568,1,0,0:0:0:0:
76,254,245668,1,0,0:0:0:0:
76,212,245768,2,0,L|76:148,1,35
76,135,245968,1,0,0:0:0:0:
118,135,246068,1,0,0:0:0:0:
160,135,246168,2,0,L|208:135,1,35
237,135,246368,1,0,0:0:0:0:
237,93,246468,1,0,0:0:0:0:
237,51,246568,5,0,0:0:0:0:
256,192,246668,12,0,252968,0:0:0:0:
