osu file format v14

[General]
AudioFilename: audio.mp3
AudioLeadIn: 0
PreviewTime: 122478
Countdown: 1
SampleSet: Normal
StackLeniency: 0.2
Mode: 0
LetterboxInBreaks: 0
WidescreenStoryboard: 1

[Editor]
Bookmarks: 51761,74619,123190,146049,203192,226049,274619
DistanceSpacing: 0.5
BeatDivisor: 4
GridSize: 16
TimelineZoom: 1.2

[Metadata]
Title:ONLYWONDER
TitleUnicode:オンリーワンダー
Artist:frederic
ArtistUnicode:フレデリック
Creator:n0ah
Version:Singing sometimes
Source:
Tags:
BeatmapID:1952051
BeatmapSetID:807885

[Difficulty]
HPDrainRate:5
CircleSize:5
OverallDifficulty:8
ApproachRate:8
SliderMultiplier:1.5
SliderTickRate:1

[Events]
//Background and Video events
0,0,"Another flowery background.jpg",0,0
//Break Periods
2,183390,190026
//Storyboard Layer 0 (Background)
//Storyboard Layer 1 (Fail)
//Storyboard Layer 2 (Pass)
//Storyboard Layer 3 (Foreground)
//Storyboard Sound Samples

[TimingPoints]
1762,357.142857142857,4,1,0,100,1,0
20154,-200,4,1,0,100,0,0
20511,-100,4,1,0,100,0,0
31226,-50,4,1,0,100,0,0
31583,-100,4,1,0,100,0,0
38904,-50,4,1,0,100,0,0
39261,-100,4,1,0,100,0,0
51761,-100,4,1,0,100,0,1
53726,-200,4,1,0,100,0,1
54440,-100,4,1,0,100,0,1
55154,-200,4,1,0,100,0,1
55690,-100,4,1,0,100,0,1
60333,-100,4,1,0,100,0,0
63190,-100,4,1,0,100,0,1
68547,-133.333333333333,4,1,0,100,0,1
68904,-100,4,1,0,100,0,1
72476,-66.6666666666667,4,1,0,100,0,1
73011,-200,4,1,0,100,0,1
73547,-100,4,1,0,100,0,1
74619,-100,4,1,0,100,0,0
80690,-50,4,2,0,100,0,0
80869,-100,4,1,0,100,0,0
81761,-200,4,1,0,100,0,0
82476,-100,4,1,0,100,0,0
95511,-133.333333333333,4,1,0,100,0,0
96672,-100,4,1,0,100,0,0
102833,-50,4,2,0,100,0,0
103190,-100,4,1,0,100,0,0
105154,-83.3333333333333,4,1,0,100,0,0
123190,-100,4,1,0,100,0,1
131761,-200,4,1,0,100,0,0
134619,-100,4,1,0,100,0,1
138011,-200,4,1,0,100,0,1
139619,-100,4,1,0,100,0,1
146047,-100,4,1,0,100,0,0
151761,-200,4,1,0,100,0,0
154261,-100,4,1,0,100,0,0
172833,-50,4,1,0,100,0,0
174619,-100,4,1,0,100,0,0
181047,-100,4,1,0,75,0,0
181761,-100,4,1,0,50,0,0
182476,-100,4,1,0,25,0,0
183190,-100,4,1,0,5,0,0
191226,-100,4,1,0,50,0,0
191404,-100,4,1,0,75,0,0
191583,-100,4,1,0,100,0,0
196404,-50,4,1,0,100,0,0
198904,-200,4,1,0,100,0,0
200690,-133.333333333333,4,1,0,100,0,0
201047,-100,4,1,0,100,0,0
201404,-66.6666666666667,4,1,0,100,0,0
201761,-100,4,1,0,100,0,0
203190,-66.6666666666667,4,1,0,100,0,1
211761,-200,4,1,0,100,0,0
212833,-100,4,1,0,100,0,0
214619,-100,4,1,0,100,0,1
224440,-200,4,1,0,100,0,1
226047,-100,4,1,0,100,0,0
232119,-50,4,1,0,100,0,0
232297,-100,4,1,0,100,0,0
233190,-200,4,1,0,100,0,0
233904,-100,4,1,0,100,0,0
240154,-200,4,1,0,100,0,0
240511,-100,4,1,0,100,0,0
263190,-100,4,1,0,90,0,0
266047,-100,4,1,0,80,0,0
268904,-100,4,1,0,70,0,0
271761,-100,4,1,0,60,0,0
274619,-100,4,1,0,50,0,0
275690,-100,4,1,0,40,0,0
276761,-100,4,1,0,30,0,0
277833,-100,4,1,0,20,0,0
278904,-100,4,1,0,10,0,0
280333,-100,4,1,0,5,0,0

[HitObjects]
16,24,1762,5,0,0:0:0:0:
165,24,2119,1,0,0:0:0:0:
57,131,2476,1,0,0:0:0:0:
205,131,2833,1,0,0:0:0:0:
311,237,3011,2,0,L|159:237,1,150
123,237,3458,1,0,0:0:0:0:
123,274,3547,1,0,0:0:0:0:
123,123,3726,1,0,0:0:0:0:
123,48,3904,1,0,0:0:0:0:
198,48,4262,1,0,0:0:0:0:
273,48,4440,1,0,0:0:0:0:
48,48,4797,1,0,0:0:0:0:
198,48,5154,1,0,0:0:0:0:
273,48,5332,1,0,0:0:0:0:
273,198,5690,1,0,0:0:0:0:
273,123,5868,1,0,0:0:0:0:
422,123,6226,5,0,0:0:0:0:
422,160,6315,1,0,0:0:0:0:
422,197,6404,1,0,0:0:0:0:
422,272,6583,1,0,0:0:0:0:
272,272,6761,1,0,0:0:0:0:
273,123,7119,1,0,0:0:0:0:
422,123,7297,1,0,0:0:0:0:
272,272,7654,1,0,0:0:0:0:
122,270,8011,1,0,0:0:0:0:
197,270,8190,1,0,0:0:0:0:
346,270,8547,1,0,0:0:0:0:
198,122,8726,2,0,L|46:122,1,150
48,158,9172,5,0,0:0:0:0:
48,196,9261,1,0,0:0:0:0:
123,196,9440,1,0,0:0:0:0:
123,271,9619,1,0,0:0:0:0:
272,271,9976,1,0,0:0:0:0:
197,271,10154,1,0,0:0:0:0:
423,46,10511,1,0,0:0:0:0:
272,46,10869,1,0,0:0:0:0:
421,120,11047,1,0,0:0:0:0:
272,120,11404,1,0,0:0:0:0:
421,258,11583,1,0,0:0:0:0:
510,96,11940,5,0,0:0:0:0:
510,134,12029,1,0,0:0:0:0:
510,172,12119,1,0,0:0:0:0:
510,21,12297,1,0,0:0:0:0:
360,21,12476,1,0,0:0:0:0:
284,21,12833,1,0,0:0:0:0:
171,216,13190,5,0,0:0:0:0:
396,216,13547,1,0,0:0:0:0:
284,21,13904,1,0,0:0:0:0:
396,216,14261,1,0,0:0:0:0:
171,216,14440,2,0,L|22:216,1,150
21,178,14886,5,0,0:0:0:0:
21,140,14976,1,0,0:0:0:0:
21,365,15154,1,0,0:0:0:0:
96,365,15333,1,0,0:0:0:0:
169,365,15690,1,0,0:0:0:0:
245,365,15869,1,0,0:0:0:0:
394,365,16226,1,0,0:0:0:0:
468,365,16583,1,0,0:0:0:0:
318,365,16761,1,0,0:0:0:0:
318,214,17119,1,0,0:0:0:0:
318,365,17297,1,0,0:0:0:0:
211,258,17654,5,0,0:0:0:0:
184,231,17744,1,0,0:0:0:0:
157,204,17833,1,0,0:0:0:0:
104,151,18011,1,0,0:0:0:0:
50,97,18190,1,0,0:0:0:0:
50,97,18547,5,0,0:0:0:0:
211,258,18726,1,0,0:0:0:0:
284,258,19083,5,0,0:0:0:0:
360,258,19440,1,0,0:0:0:0:
211,258,19619,1,0,0:0:0:0:
435,258,19976,1,0,0:0:0:0:
360,258,20154,2,0,L|436:258,1,75
435,295,20601,5,0,0:0:0:0:
435,332,20690,1,0,0:0:0:0:
506,332,20869,1,0,0:0:0:0:
506,182,21047,1,0,0:0:0:0:
206,182,21404,1,0,0:0:0:0:
206,332,21583,1,0,0:0:0:0:
206,332,21940,1,0,0:0:0:0:
206,332,22297,1,0,0:0:0:0:
206,107,22476,1,0,0:0:0:0:
430,107,22833,1,0,0:0:0:0:
317,107,23011,1,0,0:0:0:0:
317,51,23369,5,0,0:0:0:0:
317,107,23458,1,0,0:0:0:0:
317,163,23547,1,0,0:0:0:0:
316,275,23726,1,0,0:0:0:0:
429,275,23904,1,0,0:0:0:0:
316,275,24261,1,0,0:0:0:0:
203,275,24440,1,0,0:0:0:0:
55,275,24619,5,0,0:0:0:0:
55,237,24708,1,0,0:0:0:0:
55,199,24797,1,0,0:0:0:0:
130,199,24976,5,0,0:0:0:0:
130,161,25065,1,0,0:0:0:0:
130,123,25154,1,0,0:0:0:0:
205,123,25333,5,0,0:0:0:0:
242,123,25422,1,0,0:0:0:0:
279,123,25511,1,0,0:0:0:0:
316,123,25601,1,0,0:0:0:0:
353,123,25690,1,0,0:0:0:0:
390,123,25779,1,0,0:0:0:0:
427,158,25869,5,0,0:0:0:0:
427,196,25958,1,0,0:0:0:0:
427,234,26047,1,0,0:0:0:0:
235,234,26404,1,0,0:0:0:0:
85,234,26761,1,0,0:0:0:0:
85,83,27119,1,0,0:0:0:0:
234,83,27476,1,0,0:0:0:0:
235,234,27654,1,0,0:0:0:0:
234,83,28011,1,0,0:0:0:0:
85,83,28369,1,0,0:0:0:0:
85,232,28726,5,0,0:0:0:0:
85,306,28904,1,0,0:0:0:0:
85,155,29083,1,0,0:0:0:0:
10,232,29440,1,0,0:0:0:0:
85,306,29797,1,0,0:0:0:0:
309,306,30154,5,0,0:0:0:0:
196,306,30511,1,0,0:0:0:0:
196,193,30690,1,0,0:0:0:0:
308,193,31047,1,0,0:0:0:0:
420,193,31226,2,0,L|420:342,1,150,0|0,2:2|2:2,2:2:0:0:
420,118,31761,5,0,0:0:0:0:
194,118,32119,1,0,0:0:0:0:
306,118,32476,1,0,0:0:0:0:
81,118,32833,1,0,0:0:0:0:
241,278,33190,5,0,0:0:0:0:
161,198,33369,1,0,0:0:0:0:
81,118,33726,1,0,0:0:0:0:
161,198,34083,1,0,0:0:0:0:
241,278,34262,1,0,0:0:0:0:
16,278,34619,5,0,0:0:0:0:
128,85,34976,1,0,0:0:0:0:
241,278,35333,1,0,0:0:0:0:
354,85,35690,1,0,0:0:0:0:
466,278,35869,1,0,0:0:0:0:
466,278,36226,5,0,0:0:0:0:
386,357,36404,1,0,0:0:0:0:
306,277,36583,1,0,0:0:0:0:
226,356,36761,1,0,0:0:0:0:
146,276,36940,1,0,0:0:0:0:
306,277,37119,1,0,0:0:0:0:
225,196,37297,1,0,0:0:0:0:
306,277,37476,6,0,L|474:277,1,150
456,277,38190,2,0,L|381:148,1,150
306,277,38904,2,0,L|381:148,1,150
381,147,39440,1,0,0:0:0:0:
419,80,39797,1,0,0:0:0:0:
306,80,40333,5,0,0:0:0:0:
419,80,40690,1,0,0:0:0:0:
419,192,41047,1,0,0:0:0:0:
306,192,41404,1,0,0:0:0:0:
306,80,41583,1,0,0:0:0:0:
306,192,41940,2,0,L|151:192,1,150
80,192,42476,1,0,0:0:0:0:
40,152,42566,1,0,0:0:0:0:
40,95,42655,1,0,0:0:0:0:
79,55,42744,1,0,0:0:0:0:
135,55,42833,1,0,0:0:0:0:
154,279,43190,5,0,0:0:0:0:
304,279,43547,1,0,0:0:0:0:
229,279,43904,1,0,0:0:0:0:
378,279,44261,1,0,0:0:0:0:
453,279,44440,1,0,0:0:0:0:
453,279,44797,2,0,L|453:320,2,37.5
453,166,45154,5,0,0:0:0:0:
373,86,45333,1,0,0:0:0:0:
260,86,45511,1,0,0:0:0:0:
100,244,45690,1,0,0:0:0:0:
180,165,45869,1,0,0:0:0:0:
20,323,46047,5,0,0:0:0:0:
20,23,46404,1,0,0:0:0:0:
319,23,46761,1,0,0:0:0:0:
319,323,47119,1,0,0:0:0:0:
20,323,47476,1,0,0:0:0:0:
170,65,47833,1,0,0:0:0:0:
20,323,48190,1,0,0:0:0:0:
319,323,48547,1,0,0:0:0:0:
170,323,48904,5,0,0:0:0:0:
20,323,49261,1,0,0:0:0:0:
320,323,49619,5,0,0:0:0:0:
469,323,49976,1,0,0:0:0:0:
469,98,50333,5,0,0:0:0:0:
429,137,50422,1,0,0:0:0:0:
389,176,50511,1,0,0:0:0:0:
348,137,50601,1,0,0:0:0:0:
308,97,50690,1,0,0:0:0:0:
347,57,50779,1,0,0:0:0:0:
387,97,50869,1,0,0:0:0:0:
348,137,50958,1,0,0:0:0:0:
308,176,51047,1,0,0:0:0:0:
195,176,51226,5,0,0:0:0:0:
45,176,51404,1,0,0:0:0:0:
195,250,51583,1,0,0:0:0:0:
345,250,51761,6,0,L|431:250,1,75
195,176,52119,2,0,L|104:176,1,75
345,250,52476,6,0,L|420:250,1,75
195,176,52834,2,0,L|120:176,1,75
345,102,53190,2,0,L|420:102,2,75
195,102,53726,2,0,L|110:102,1,75
420,102,54261,1,0,0:0:0:0:
371,333,54619,5,0,0:0:0:0:
183,333,54797,1,0,0:0:0:0:
371,333,55155,5,0,0:0:0:0:
183,333,55511,1,0,0:0:0:0:
371,333,55869,5,0,0:0:0:0:
4,333,56226,5,0,0:0:0:0:
183,333,56404,5,0,0:0:0:0:
4,333,56761,5,0,0:0:0:0:
93,33,57476,5,0,0:0:0:0:
242,33,57833,5,0,0:0:0:0:
167,162,58011,1,0,0:0:0:0:
93,33,58190,1,0,0:0:0:0:
242,33,58547,5,0,0:0:0:0:
167,162,58725,1,0,0:0:0:0:
242,33,58904,1,0,0:0:0:0:
93,33,59261,5,0,0:0:0:0:
167,162,59440,1,0,0:0:0:0:
317,162,59619,1,0,0:0:0:0:
242,33,59797,1,0,0:0:0:0:
167,162,59976,1,0,0:0:0:0:
241,291,60154,1,0,0:0:0:0:
317,162,60333,1,0,0:0:0:0:
391,33,60690,5,0,0:0:0:0:
242,33,60869,1,0,0:0:0:0:
167,162,61047,1,0,0:0:0:0:
92,33,61226,1,0,0:0:0:0:
241,291,61405,1,0,0:0:0:0:
167,162,61583,2,0,L|317:162,1,150
464,32,62297,5,0,0:0:0:0:
464,69,62386,1,0,0:0:0:0:
464,106,62476,1,0,0:0:0:0:
390,30,62654,5,0,0:0:0:0:
390,67,62743,1,0,0:0:0:0:
390,104,62833,1,0,0:0:0:0:
390,141,62922,1,0,0:0:0:0:
390,178,63011,1,0,0:0:0:0:
390,215,63101,1,0,0:0:0:0:
391,292,63190,6,0,L|291:292,1,75
166,67,63547,6,0,L|241:67,1,75
166,292,63904,6,0,L|166:217,1,75
166,292,64261,6,0,L|166:205,1,75
391,292,64619,5,0,0:0:0:0:
390,67,64797,6,0,L|390:142,1,75
166,67,65154,5,0,0:0:0:0:
391,292,65511,6,0,L|316:292,1,75
166,292,66047,5,0,0:0:0:0:
391,292,66226,5,0,0:0:0:0:
390,67,66583,5,0,0:0:0:0:
166,67,66940,5,0,0:0:0:0:
334,123,67297,5,0,0:0:0:0:
334,235,67654,5,0,0:0:0:0:
222,123,67833,5,0,0:0:0:0:
222,235,68190,5,0,0:0:0:0:
334,123,68547,6,0,L|334:238,1,112.5
109,235,69261,1,0,0:0:0:0:
221,235,69440,1,0,0:0:0:0:
333,235,69619,1,0,0:0:0:0:
164,137,69976,5,0,0:0:0:0:
220,41,70333,5,0,0:0:0:0:
277,138,70512,1,0,0:0:0:0:
333,235,70691,1,0,0:0:0:0:
164,137,71047,5,0,0:0:0:0:
109,235,71226,1,0,0:0:0:0:
220,40,71405,1,0,0:0:0:0:
277,138,71583,1,0,0:0:0:0:
221,235,71761,1,0,0:0:0:0:
333,235,72119,5,0,0:0:0:0:
446,235,72476,2,0,L|323:235,1,112.5
446,235,73011,2,0,L|446:112,1,112.5
446,84,73636,1,0,0:0:0:0:
419,57,73726,1,0,0:0:0:0:
381,57,73815,1,0,0:0:0:0:
354,83,73904,1,0,0:0:0:0:
354,162,74083,1,0,0:0:0:0:
381,188,74172,1,0,0:0:0:0:
419,188,74261,1,0,0:0:0:0:
446,161,74351,1,0,0:0:0:0:
446,122,74440,1,0,0:0:0:0:
446,310,74619,6,0,L|286:310,1,150
221,310,75154,1,0,0:0:0:0:
145,310,75333,1,0,0:0:0:0:
70,310,75511,1,0,0:0:0:0:
221,310,75690,1,0,0:0:0:0:
64,192,75869,6,0,L|224:192,1,150
289,192,76404,1,0,0:0:0:0:
365,192,76583,1,0,0:0:0:0:
289,192,76761,1,0,0:0:0:0:
440,192,76940,1,0,0:0:0:0:
365,192,77119,1,0,0:0:0:0:
440,79,77297,6,0,L|280:79,1,150
215,79,77832,1,0,0:0:0:0:
64,79,78011,1,0,0:0:0:0:
139,79,78190,1,0,0:0:0:0:
64,79,78547,1,0,0:0:0:0:
215,79,78904,1,0,0:0:0:0:
290,79,79261,1,0,0:0:0:0:
440,79,79619,5,0,0:0:0:0:
440,183,79797,1,0,0:0:0:0:
439,332,79976,1,0,0:0:0:0:
289,332,80154,1,0,0:0:0:0:
289,183,80333,1,0,0:0:0:0:
289,332,80690,2,0,L|125:332,1,150,0|0,0:0|2:2,0:0:0:0:
439,332,81047,1,0,0:0:0:0:
289,332,81404,1,0,0:0:0:0:
139,332,81761,2,0,L|293:332,1,150
289,332,83190,5,0,0:0:0:0:
439,332,83547,1,0,0:0:0:0:
439,92,83904,5,0,0:0:0:0:
289,92,84261,1,0,0:0:0:0:
439,212,84619,5,0,0:0:0:0:
139,212,84976,1,0,0:0:0:0:
289,212,85333,1,0,0:0:0:0:
289,92,85690,5,0,0:0:0:0:
139,92,85869,2,0,L|-23:92,1,150
15,118,86315,1,0,0:0:0:0:
41,144,86404,1,0,0:0:0:0:
115,218,86583,1,0,0:0:0:0:
189,292,86761,1,0,0:0:0:0:
294,292,87119,1,0,0:0:0:0:
189,292,87297,1,0,0:0:0:0:
84,292,87654,1,0,0:0:0:0:
84,292,88011,1,0,0:0:0:0:
189,292,88189,1,0,0:0:0:0:
399,292,88547,1,0,0:0:0:0:
294,292,88725,1,0,0:0:0:0:
399,292,89083,5,0,0:0:0:0:
438,252,89172,1,0,0:0:0:0:
477,212,89261,1,0,0:0:0:0:
477,155,89440,1,0,0:0:0:0:
477,98,89619,1,0,0:0:0:0:
252,98,89976,1,0,0:0:0:0:
364,98,90154,1,0,0:0:0:0:
139,98,90511,1,0,0:0:0:0:
139,155,90869,1,0,0:0:0:0:
139,212,91047,1,0,0:0:0:0:
178,252,91404,1,0,0:0:0:0:
217,292,91583,2,0,L|66:292,1,150
5,365,92029,5,0,0:0:0:0:
43,328,92119,1,0,0:0:0:0:
117,253,92297,1,0,0:0:0:0:
117,147,92476,1,0,0:0:0:0:
326,147,92833,1,0,0:0:0:0:
221,147,93011,1,0,0:0:0:0:
431,147,93369,1,0,0:0:0:0:
431,42,93726,1,0,0:0:0:0:
431,251,93904,1,0,0:0:0:0:
431,147,94262,1,0,0:0:0:0:
431,356,94440,1,0,0:0:0:0:
431,42,94797,5,0,0:0:0:0:
431,94,94886,1,0,0:0:0:0:
431,147,94976,1,0,0:0:0:0:
431,42,95154,1,0,0:0:0:0:
326,42,95333,1,0,0:0:0:0:
269,42,95690,2,0,L|189:42,1,56.2500021457673
116,42,96047,1,0,0:0:0:0:
78,79,96136,1,0,0:0:0:0:
40,116,96225,1,0,0:0:0:0:
145,116,96404,1,0,0:0:0:0:
107,153,96493,1,0,0:0:0:0:
69,190,96582,1,0,0:0:0:0:
174,190,96761,1,0,0:0:0:0:
137,228,96851,1,0,0:0:0:0:
100,266,96940,1,0,0:0:0:0:
63,304,97029,1,0,0:0:0:0:
26,342,97119,2,0,L|176:342,2,150
250,267,98190,5,0,0:0:0:0:
386,223,98547,1,0,0:0:0:0:
325,267,98904,1,0,0:0:0:0:
250,267,99083,1,0,0:0:0:0:
189,223,99440,1,0,0:0:0:0:
166,151,99797,1,0,0:0:0:0:
189,80,100154,5,0,0:0:0:0:
250,36,100333,1,0,0:0:0:0:
325,36,100511,1,0,0:0:0:0:
409,151,100869,5,0,0:0:0:0:
386,80,101226,1,0,0:0:0:0:
386,223,101583,5,0,0:0:0:0:
325,267,101940,1,0,0:0:0:0:
250,267,102119,1,0,0:0:0:0:
325,267,102476,1,0,0:0:0:0:
175,267,102833,6,0,L|17:267,1,150
250,267,103190,5,0,0:0:0:0:
249,117,103547,1,0,0:0:0:0:
249,192,103726,1,0,0:0:0:0:
250,267,103904,1,0,0:0:0:0:
249,117,104261,1,0,0:0:0:0:
99,42,104440,2,0,L|249:42,1,150
99,117,105154,2,0,L|214:117,1,89.9999972534181
339,117,105511,2,0,L|248:117,1,89.9999972534181
339,192,105869,2,0,L|218:192,1,89.9999972534181
99,192,106226,2,0,L|206:192,1,89.9999972534181
339,192,106583,2,0,L|247:192,2,89.9999972534181
99,117,107119,2,0,L|190:117,1,89.9999972534181
249,42,107654,5,0,0:0:0:0:
249,117,107832,1,0,0:0:0:0:
249,192,108011,1,0,0:0:0:0:
324,192,108190,1,0,0:0:0:0:
324,117,108368,1,0,0:0:0:0:
249,192,108547,1,0,0:0:0:0:
249,267,108726,1,0,0:0:0:0:
249,342,108904,5,0,0:0:0:0:
473,342,109261,1,0,0:0:0:0:
25,342,109619,1,0,0:0:0:0:
249,342,109976,1,0,0:0:0:0:
249,117,110333,1,0,0:0:0:0:
249,229,110511,1,0,0:0:0:0:
361,229,110868,1,0,0:0:0:0:
361,116,111226,1,0,0:0:0:0:
61,116,111761,5,0,0:0:0:0:
61,341,112119,1,0,0:0:0:0:
285,341,112297,1,0,0:0:0:0:
285,115,112476,1,0,0:0:0:0:
61,341,112833,1,0,0:0:0:0:
61,116,113011,5,0,0:0:0:0:
285,115,113369,1,0,0:0:0:0:
61,341,113548,1,0,0:0:0:0:
285,341,113904,1,0,0:0:0:0:
285,341,114619,5,0,0:0:0:0:
509,341,114976,1,0,0:0:0:0:
396,341,115333,1,0,0:0:0:0:
509,228,115690,1,0,0:0:0:0:
283,228,115869,1,0,0:0:0:0:
170,228,116583,1,0,0:0:0:0:
58,228,116761,1,0,0:0:0:0:
58,340,116940,1,0,0:0:0:0:
283,340,117119,1,0,0:0:0:0:
507,340,117297,1,0,0:0:0:0:
507,114,117476,5,0,0:0:0:0:
57,114,117833,1,0,0:0:0:0:
283,114,118190,1,0,0:0:0:0:
57,188,118547,5,0,0:0:0:0:
507,188,118904,1,0,0:0:0:0:
283,188,119261,1,0,0:0:0:0:
57,262,119619,5,0,0:0:0:0:
507,262,119976,1,0,0:0:0:0:
283,188,120333,5,0,0:0:0:0:
57,188,120690,1,0,0:0:0:0:
283,114,121047,5,0,0:0:0:0:
507,114,121404,1,0,0:0:0:0:
57,114,121761,5,0,0:0:0:0:
97,152,121851,1,0,0:0:0:0:
136,193,121940,1,0,0:0:0:0:
175,153,122029,1,0,0:0:0:0:
137,113,122119,1,0,0:0:0:0:
97,152,122208,1,0,0:0:0:0:
136,193,122297,1,0,0:0:0:0:
175,153,122386,1,0,0:0:0:0:
215,112,122476,1,0,0:0:0:0:
314,13,122654,5,0,0:0:0:0:
414,112,122833,1,0,0:0:0:0:
314,211,123011,1,0,0:0:0:0:
215,112,123190,2,0,L|160:57,1,75
414,309,123547,2,0,L|468:363,1,75
216,310,123904,2,0,L|161:364,1,75
414,112,124261,2,0,L|468:57,1,75
216,310,124619,1,0,0:0:0:0:
414,112,124797,1,0,0:0:0:0:
414,309,125154,1,0,0:0:0:0:
215,112,125511,1,0,0:0:0:0:
414,309,126047,5,0,0:0:0:0:
414,112,126226,5,0,0:0:0:0:
215,112,126583,5,0,0:0:0:0:
216,310,126940,5,0,0:0:0:0:
265,260,127297,5,0,0:0:0:0:
363,160,127654,5,0,0:0:0:0:
364,259,127833,5,0,0:0:0:0:
264,161,128189,5,0,0:0:0:0:
112,84,128904,5,0,0:0:0:0:
407,298,129261,1,0,0:0:0:0:
203,18,129440,1,0,0:0:0:0:
315,364,129619,1,0,0:0:0:0:
315,18,129976,1,0,0:0:0:0:
203,364,130154,1,0,0:0:0:0:
407,84,130333,1,0,0:0:0:0:
112,297,130690,1,0,0:0:0:0:
77,191,130869,1,0,0:0:0:0:
441,191,131047,5,0,0:0:0:0:
349,191,131226,1,0,0:0:0:0:
259,191,131404,1,0,0:0:0:0:
167,191,131583,1,0,0:0:0:0:
77,191,131761,2,0,L|-3:191,1,75
167,191,132297,1,0,0:0:0:0:
259,191,132476,1,0,0:0:0:0:
349,191,132654,1,0,0:0:0:0:
441,191,132833,1,0,0:0:0:0:
77,191,133011,2,0,L|-3:191,1,75
338,125,133726,5,0,0:0:0:0:
386,125,133815,1,0,0:0:0:0:
434,125,133904,1,0,0:0:0:0:
432,48,134083,5,0,0:0:0:0:
384,48,134172,1,0,0:0:0:0:
336,48,134261,1,0,0:0:0:0:
288,48,134351,1,0,0:0:0:0:
240,48,134440,1,0,0:0:0:0:
192,48,134529,1,0,0:0:0:0:
144,48,134619,6,0,L|144:128,1,75
368,336,134976,2,0,L|368:256,1,75
400,80,135333,2,0,L|320:80,1,75
112,304,135690,2,0,L|192:304,1,75
400,80,136047,2,0,L|320:80,1,75
112,304,136583,1,0,0:0:0:0:
400,80,136940,1,0,0:0:0:0:
144,48,137476,6,0,L|144:128,1,75
368,336,138011,2,0,L|368:256,1,75
144,48,138726,2,0,L|144:128,1,75
368,336,139261,2,0,L|368:256,1,75
368,48,140333,5,0,0:0:0:0:
218,48,140690,1,0,0:0:0:0:
67,48,140869,1,0,0:0:0:0:
143,179,141047,1,0,0:0:0:0:
368,48,141404,5,0,0:0:0:0:
143,179,141761,1,0,0:0:0:0:
67,48,141939,1,0,0:0:0:0:
218,48,142118,1,0,0:0:0:0:
368,48,142476,5,0,0:0:0:0:
368,107,142654,1,0,0:0:0:0:
368,167,142833,1,0,0:0:0:0:
368,226,143011,1,0,0:0:0:0:
368,286,143190,1,0,0:0:0:0:
368,167,143904,5,0,0:0:0:0:
368,107,144083,1,0,0:0:0:0:
368,48,144440,2,0,B|144:48,1,225
133,82,145066,1,0,0:0:0:0:
124,123,145155,1,0,0:0:0:0:
132,164,145244,1,0,0:0:0:0:
156,199,145334,1,0,0:0:0:0:
226,123,145511,1,0,0:0:0:0:
250,158,145601,1,0,0:0:0:0:
258,199,145690,1,0,0:0:0:0:
249,240,145779,1,0,0:0:0:0:
225,275,145869,1,0,0:0:0:0:
161,338,146047,6,0,L|243:338,1,75
326,338,146404,1,0,0:0:0:0:
416,338,146583,1,0,0:0:0:0:
326,338,146761,1,0,0:0:0:0:
326,247,146940,1,0,0:0:0:0:
416,247,147119,1,0,0:0:0:0:
416,157,147297,6,0,L|416:2,1,150
325,7,147833,1,0,0:0:0:0:
325,96,148011,1,0,0:0:0:0:
234,96,148190,1,0,0:0:0:0:
234,5,148369,1,0,0:0:0:0:
234,96,148547,1,0,0:0:0:0:
144,5,148726,6,0,L|144:161,1,150
144,244,149261,1,0,0:0:0:0:
144,334,149440,1,0,0:0:0:0:
234,334,149619,1,0,0:0:0:0:
144,244,149976,1,0,0:0:0:0:
234,244,150333,1,0,0:0:0:0:
144,244,150690,1,0,0:0:0:0:
144,64,151047,6,0,L|219:64,1,75
309,64,151404,1,0,0:0:0:0:
399,64,151583,1,0,0:0:0:0:
219,64,151761,2,0,L|144:64,1,75
53,64,152297,1,0,0:0:0:0:
53,243,152476,1,0,0:0:0:0:
53,154,152833,1,0,0:0:0:0:
203,154,153190,2,0,L|53:154,1,150
354,154,154619,6,0,L|450:154,1,75
203,154,154976,2,0,L|123:154,1,75
278,229,155333,6,0,L|278:325,1,75
278,78,155690,2,0,L|278:-1,1,75
384,46,156047,6,0,L|331:100,1,75
171,259,156404,2,0,L|225:207,1,75
384,260,156761,6,0,L|331:207,1,75
171,47,157118,2,0,L|225:100,1,75
384,260,157476,5,0,0:0:0:0:
87,260,157833,1,0,0:0:0:0:
384,260,158191,5,0,0:0:0:0:
285,260,158459,1,0,0:0:0:0:
186,260,158726,1,0,0:0:0:0:
87,260,159083,5,0,0:0:0:0:
285,260,159351,1,0,0:0:0:0:
186,260,159619,1,0,0:0:0:0:
87,35,159775,5,0,0:0:0:0:
87,35,159953,1,0,0:0:0:0:
384,260,160333,5,0,0:0:0:0:
87,260,160690,1,0,0:0:0:0:
235,2,161047,5,0,0:0:0:0:
87,260,161315,1,0,0:0:0:0:
384,260,161583,1,0,0:0:0:0:
235,88,161940,5,0,0:0:0:0:
309,217,162208,1,0,0:0:0:0:
161,217,162476,1,0,0:0:0:0:
425,35,162632,5,0,0:0:0:0:
425,35,162811,1,0,0:0:0:0:
87,260,163190,5,0,0:0:0:0:
87,72,163547,1,0,0:0:0:0:
386,72,163904,5,0,0:0:0:0:
386,260,164172,1,0,0:0:0:0:
87,72,164440,1,0,0:0:0:0:
386,72,164797,5,0,0:0:0:0:
87,260,165065,1,0,0:0:0:0:
386,260,165333,1,0,0:0:0:0:
87,349,165489,5,0,0:0:0:0:
87,349,165668,1,0,0:0:0:0:
386,260,166047,6,0,L|386:170,1,75
310,260,166404,2,0,L|310:185,1,75
87,72,166761,2,0,L|87:164,1,75
161,71,167119,2,0,L|161:150,1,75
161,220,167386,1,0,0:0:0:0:
236,220,167476,2,0,L|311:220,1,75
161,295,167833,2,0,L|236:295,1,75
311,295,168190,2,0,L|223:295,1,75
161,220,168547,1,0,0:0:0:0:
161,145,168726,6,0,B|192:121|239:137|223:152|270:168|301:145,1,150
355,91,169172,1,0,0:0:0:0:
407,38,169261,1,0,0:0:0:0:
482,167,169440,1,0,0:0:0:0:
322,7,169619,1,0,0:0:0:0:
322,7,169976,5,0,0:0:0:0:
161,145,170154,6,0,B|137:177|153:224|168:208|184:255|160:286,1,150
106,339,170601,1,0,0:0:0:0:
53,286,170690,1,0,0:0:0:0:
278,286,170869,1,0,0:0:0:0:
53,286,171047,1,0,0:0:0:0:
53,286,171404,5,0,0:0:0:0:
214,148,171583,6,0,B|237:115|221:68|206:84|190:37|214:6,1,150
289,6,172029,1,0,0:0:0:0:
342,59,172119,1,0,0:0:0:0:
342,283,172297,1,0,0:0:0:0:
214,148,172476,1,0,0:0:0:0:
214,148,172833,6,0,B|238:179|222:226|207:210|191:257|214:288,1,150
72,148,173190,6,0,B|103:124|150:140|134:155|181:171|212:148,1,150
440,148,173547,2,0,B|409:124|362:140|378:155|331:171|300:148,1,150
73,290,173904,2,0,B|104:266|151:282|135:297|182:313|213:290,1,150
439,290,174261,2,0,B|408:266|361:282|377:297|330:313|299:290,1,150
304,32,174619,6,0,L|304:176,1,112.5
210,238,174976,2,0,L|210:125,1,112.5
116,219,175333,2,0,L|116:335,2,112.5
116,219,176226,5,0,0:0:0:0:
301,33,176404,5,0,0:0:0:0:
376,33,176494,1,0,0:0:0:0:
450,33,176583,1,0,0:0:0:0:
344,138,176761,5,0,0:0:0:0:
268,138,176851,1,0,0:0:0:0:
193,138,176940,1,0,0:0:0:0:
118,138,177029,1,0,0:0:0:0:
344,138,177476,6,0,L|344:255,1,112.5
290,303,177833,2,0,L|163:303,1,112.5
81,250,178190,6,0,L|81:138,1,112.5
134,84,178547,2,0,L|246:84,1,112.5
344,250,178904,2,0,L|71:250,1,262.5
81,137,179619,2,0,L|352:137,1,262.5
256,192,180333,12,0,183190,0:0:0:0:
64,260,191226,6,0,L|139:260,2,75
64,112,191761,5,0,0:0:0:0:
64,36,191940,1,0,0:0:0:0:
64,186,192119,1,0,0:0:0:0:
138,186,192297,1,0,0:0:0:0:
138,110,192476,1,0,0:0:0:0:
138,35,192654,1,0,0:0:0:0:
138,110,192833,1,0,0:0:0:0:
64,260,193011,6,0,L|214:260,1,150
383,117,193547,1,0,0:0:0:0:
383,192,193726,1,0,0:0:0:0:
457,41,193904,1,0,0:0:0:0:
457,117,194083,1,0,0:0:0:0:
383,41,194262,1,0,0:0:0:0:
457,191,194440,6,0,L|457:352,1,150
381,341,194976,1,0,0:0:0:0:
457,341,195154,1,0,0:0:0:0:
306,341,195333,2,0,L|157:341,1,150
457,341,196047,1,0,0:0:0:0:
156,341,196404,1,0,0:0:0:0:
156,341,196761,5,0,0:0:0:0:
156,265,196940,1,0,0:0:0:0:
156,189,197119,1,0,0:0:0:0:
156,38,197297,1,0,0:0:0:0:
156,114,197476,1,0,0:0:0:0:
6,38,197833,6,0,L|156:38,1,150
231,38,198190,1,0,0:0:0:0:
306,38,198547,1,0,0:0:0:0:
456,38,198904,2,0,L|303:38,1,150
215,38,199976,1,0,0:0:0:0:
16,224,200333,6,0,L|16:187,1,37.5
96,224,200690,2,0,L|96:161,1,56.25
192,224,201047,2,0,L|192:128,1,75
304,224,201404,2,0,L|304:112,1,112.500004291535
432,224,201761,2,0,L|432:48,1,150
304,224,202297,1,0,0:0:0:0:
432,74,202476,2,0,L|432:224,1,150
96,207,203190,6,0,L|96:320,1,112.500004291535
384,176,203547,2,0,L|384:64,1,112.500004291535
96,64,203904,2,0,L|208:64,1,112.500004291535
384,320,204261,2,0,L|271:320,1,112.500004291535
208,64,204619,5,0,0:0:0:0:
271,320,204797,5,0,0:0:0:0:
384,176,205154,5,0,0:0:0:0:
96,207,205511,5,0,0:0:0:0:
208,64,206047,5,0,0:0:0:0:
384,176,206225,5,0,0:0:0:0:
271,320,206582,5,0,0:0:0:0:
96,207,206939,5,0,0:0:0:0:
255,47,207297,5,0,0:0:0:0:
414,206,207654,1,0,0:0:0:0:
96,207,207833,5,0,0:0:0:0:
254,365,208190,1,0,0:0:0:0:
255,47,208904,5,0,0:0:0:0:
198,103,209261,5,0,0:0:0:0:
255,127,209440,1,0,0:0:0:0:
311,103,209619,1,0,0:0:0:0:
368,160,209975,5,0,0:0:0:0:
255,207,210154,1,0,0:0:0:0:
142,159,210332,1,0,0:0:0:0:
85,215,210690,5,0,0:0:0:0:
255,287,210869,1,0,0:0:0:0:
424,216,211047,1,0,0:0:0:0:
481,273,211226,1,0,0:0:0:0:
255,367,211405,1,0,0:0:0:0:
28,273,211583,1,0,0:0:0:0:
255,47,211761,6,0,L|180:47,1,75
255,122,212297,1,0,0:0:0:0:
255,207,212476,1,0,0:0:0:0:
255,287,212655,1,0,0:0:0:0:
255,367,212833,2,0,L|351:367,1,75
32,80,213726,5,0,0:0:0:0:
32,80,213815,1,0,0:0:0:0:
32,80,213904,1,0,0:0:0:0:
94,80,214083,5,0,0:0:0:0:
160,80,214172,1,0,0:0:0:0:
226,80,214261,1,0,0:0:0:0:
293,80,214351,1,0,0:0:0:0:
359,80,214440,1,0,0:0:0:0:
425,80,214529,1,0,0:0:0:0:
500,80,214619,6,0,L|500:165,1,75
20,155,214976,2,0,L|20:70,1,75
500,155,215333,2,0,L|500:240,1,75
20,230,215690,2,0,L|20:155,1,75
500,230,216047,1,0,0:0:0:0:
20,230,216226,2,0,L|20:155,1,75
500,80,216583,6,0,L|500:237,1,150
500,80,217476,5,0,0:0:0:0:
20,230,217654,2,0,L|20:155,1,75
500,230,218012,6,0,L|500:80,1,150
365,80,218726,1,0,0:0:0:0:
232,80,219083,1,0,0:0:0:0:
94,80,219261,1,0,0:0:0:0:
365,80,219619,1,0,0:0:0:0:
160,368,220333,5,0,0:0:0:0:
309,368,220690,1,0,0:0:0:0:
415,261,220869,1,0,0:0:0:0:
415,111,221047,1,0,0:0:0:0:
308,4,221404,1,0,0:0:0:0:
158,4,221761,1,0,0:0:0:0:
51,110,221940,1,0,0:0:0:0:
51,259,222119,1,0,0:0:0:0:
309,368,222476,5,0,0:0:0:0:
158,4,222655,5,0,0:0:0:0:
51,259,222833,1,0,0:0:0:0:
308,4,223011,5,0,0:0:0:0:
415,261,223190,1,0,0:0:0:0:
51,110,223905,5,0,0:0:0:0:
415,111,224083,1,0,0:0:0:0:
160,368,224440,2,0,L|85:368,1,75
197,368,224886,1,0,0:0:0:0:
234,368,224976,1,0,0:0:0:0:
271,368,225065,1,0,0:0:0:0:
308,368,225154,1,0,0:0:0:0:
345,368,225244,1,0,0:0:0:0:
381,331,225333,5,0,0:0:0:0:
417,294,225422,1,0,0:0:0:0:
453,257,225511,1,0,0:0:0:0:
477,211,225601,1,0,0:0:0:0:
452,166,225690,5,0,0:0:0:0:
405,119,225779,1,0,0:0:0:0:
338,119,225869,1,0,0:0:0:0:
291,165,225958,1,0,0:0:0:0:
244,211,226047,6,0,B|182:272,2,75
291,165,226583,1,0,0:0:0:0:
383,72,226761,1,0,0:0:0:0:
476,165,226940,1,0,0:0:0:0:
383,72,227119,1,0,0:0:0:0:
291,165,227297,6,0,B|291:341,1,150
140,315,227833,1,0,0:0:0:0:
291,315,228011,1,0,0:0:0:0:
441,315,228190,1,0,0:0:0:0:
291,315,228369,1,0,0:0:0:0:
441,315,228547,1,0,0:0:0:0:
441,165,228726,6,0,L|286:165,1,150
141,165,229261,1,0,0:0:0:0:
140,315,229440,1,0,0:0:0:0:
291,315,229619,1,0,0:0:0:0:
141,165,229976,1,0,0:0:0:0:
441,165,230333,1,0,0:0:0:0:
441,165,231047,5,0,0:0:0:0:
389,112,231226,1,0,0:0:0:0:
323,178,231404,1,0,0:0:0:0:
244,98,231583,1,0,0:0:0:0:
152,190,231761,1,0,0:0:0:0:
152,190,232119,2,0,L|151:342,1,150
488,339,232476,5,0,0:0:0:0:
488,189,232833,1,0,0:0:0:0:
488,339,233190,2,0,L|488:186,1,150
470,46,234619,5,0,0:0:0:0:
87,46,234976,1,0,0:0:0:0:
357,316,235333,1,0,0:0:0:0:
198,316,235690,1,0,0:0:0:0:
470,316,236047,1,0,0:0:0:0:
87,316,236404,1,0,0:0:0:0:
357,46,236761,1,0,0:0:0:0:
198,46,237119,1,0,0:0:0:0:
215,301,237476,5,0,0:0:0:0:
470,301,237833,1,0,0:0:0:0:
470,46,238190,1,0,0:0:0:0:
215,47,238548,1,0,0:0:0:0:
470,301,238905,5,0,0:0:0:0:
470,46,239261,5,0,0:0:0:0:
215,301,239618,5,0,0:0:0:0:
215,47,239975,5,0,0:0:0:0:
470,376,240154,6,0,L|470:276,1,75
470,244,240601,1,0,0:0:0:0:
470,187,240690,1,0,0:0:0:0:
470,74,240869,1,0,0:0:0:0:
470,187,241047,1,0,0:0:0:0:
470,187,241404,1,0,0:0:0:0:
470,74,241582,1,0,0:0:0:0:
357,74,241940,1,0,0:0:0:0:
244,74,242297,1,0,0:0:0:0:
131,74,242475,1,0,0:0:0:0:
244,74,242833,1,0,0:0:0:0:
131,74,243011,1,0,0:0:0:0:
131,74,243369,5,0,0:0:0:0:
131,130,243458,1,0,0:0:0:0:
131,186,243547,1,0,0:0:0:0:
131,298,243726,1,0,0:0:0:0:
243,298,243904,1,0,0:0:0:0:
355,298,244261,1,0,0:0:0:0:
243,298,244439,1,0,0:0:0:0:
468,298,244797,1,0,0:0:0:0:
468,73,245154,1,0,0:0:0:0:
468,185,245333,1,0,0:0:0:0:
356,185,245690,1,0,0:0:0:0:
206,185,245869,6,0,L|384:185,1,150
395,145,246315,1,0,0:0:0:0:
355,105,246404,1,0,0:0:0:0:
275,25,246583,1,0,0:0:0:0:
162,25,246761,1,0,0:0:0:0:
388,25,247119,1,0,0:0:0:0:
275,25,247297,1,0,0:0:0:0:
162,25,247654,1,0,0:0:0:0:
49,25,248011,1,0,0:0:0:0:
49,137,248190,1,0,0:0:0:0:
49,137,248547,1,0,0:0:0:0:
49,249,248726,1,0,0:0:0:0:
161,249,249083,5,0,0:0:0:0:
218,249,249172,1,0,0:0:0:0:
275,249,249261,1,0,0:0:0:0:
49,249,249440,1,0,0:0:0:0:
388,249,249619,1,0,0:0:0:0:
218,249,249976,1,0,0:0:0:0:
161,27,250333,5,0,0:0:0:0:
460,27,250690,1,0,0:0:0:0:
460,326,251047,1,0,0:0:0:0:
161,27,251404,1,0,0:0:0:0:
161,249,251583,2,0,L|325:249,1,150
367,249,252029,1,0,0:0:0:0:
423,249,252119,1,0,0:0:0:0:
423,24,252297,1,0,0:0:0:0:
423,136,252476,1,0,0:0:0:0:
85,136,252833,1,0,0:0:0:0:
310,136,253011,1,0,0:0:0:0:
198,136,253369,1,0,0:0:0:0:
423,136,253726,1,0,0:0:0:0:
85,136,253904,1,0,0:0:0:0:
82,252,254261,1,0,0:0:0:0:
194,252,254440,1,0,0:0:0:0:
418,252,254797,5,0,0:0:0:0:
378,291,254886,1,0,0:0:0:0:
337,331,254976,1,0,0:0:0:0:
224,331,255154,1,0,0:0:0:0:
111,331,255333,1,0,0:0:0:0:
111,218,255690,1,0,0:0:0:0:
223,218,255869,1,0,0:0:0:0:
223,105,256226,1,0,0:0:0:0:
110,105,256583,1,0,0:0:0:0:
111,218,256761,1,0,0:0:0:0:
224,106,257119,1,0,0:0:0:0:
224,218,257297,6,0,L|374:218,1,150
453,137,257744,1,0,0:0:0:0:
414,177,257833,1,0,0:0:0:0:
453,24,258011,1,0,0:0:0:0:
340,24,258190,1,0,0:0:0:0:
340,136,258547,1,0,0:0:0:0:
340,24,258725,1,0,0:0:0:0:
114,24,259083,1,0,0:0:0:0:
226,24,259440,1,0,0:0:0:0:
338,24,259619,1,0,0:0:0:0:
114,24,259976,1,0,0:0:0:0:
114,136,260154,1,0,0:0:0:0:
226,137,260511,5,0,0:0:0:0:
226,137,260601,1,0,0:0:0:0:
226,137,260690,1,0,0:0:0:0:
226,249,260869,1,0,0:0:0:0:
226,24,261047,1,0,0:0:0:0:
226,137,261404,1,0,0:0:0:0:
75,298,261761,5,0,0:0:0:0:
375,298,262119,1,0,0:0:0:0:
162,85,262476,1,0,0:0:0:0:
461,85,262833,1,0,0:0:0:0:
75,298,263011,2,0,L|261:298,1,150
300,298,263458,5,0,0:0:0:0:
262,298,263547,1,0,0:0:0:0:
150,298,263726,1,0,0:0:0:0:
150,185,263904,1,0,0:0:0:0:
263,185,264261,1,0,0:0:0:0:
150,185,264439,1,0,0:0:0:0:
150,185,264797,1,0,0:0:0:0:
150,185,265154,1,0,0:0:0:0:
263,185,265333,1,0,0:0:0:0:
376,185,265690,1,0,0:0:0:0:
263,185,265869,1,0,0:0:0:0:
150,72,266226,5,0,0:0:0:0:
93,72,266315,1,0,0:0:0:0:
36,72,266404,1,0,0:0:0:0:
36,184,266583,1,0,0:0:0:0:
38,298,266761,1,0,0:0:0:0:
150,298,267119,1,0,0:0:0:0:
150,185,267298,1,0,0:0:0:0:
262,297,267654,1,0,0:0:0:0:
262,185,268011,1,0,0:0:0:0:
374,297,268190,1,0,0:0:0:0:
374,184,268547,1,0,0:0:0:0:
374,34,268726,6,0,L|210:34,1,150
148,34,269172,1,0,0:0:0:0:
186,34,269261,1,0,0:0:0:0:
224,108,269440,1,0,0:0:0:0:
224,183,269619,1,0,0:0:0:0:
224,332,269976,1,0,0:0:0:0:
224,257,270154,1,0,0:0:0:0:
298,332,270511,1,0,0:0:0:0:
298,257,270869,1,0,0:0:0:0:
298,183,271047,1,0,0:0:0:0:
149,183,271404,1,0,0:0:0:0:
224,183,271583,1,0,0:0:0:0:
373,183,271940,5,0,0:0:0:0:
373,145,272029,1,0,0:0:0:0:
373,107,272119,1,0,0:0:0:0:
373,256,272297,1,0,0:0:0:0:
373,331,272476,1,0,0:0:0:0:
223,331,272833,1,0,0:0:0:0:
297,331,273190,5,0,0:0:0:0:
123,331,273547,1,0,0:0:0:0:
69,166,273904,1,0,0:0:0:0:
209,63,274261,1,0,0:0:0:0:
349,166,274440,1,0,0:0:0:0:
256,192,274619,12,0,282476,2:2:0:0:
