osu file format v14

[General]
AudioFilename: audio.mp3
AudioLeadIn: 0
PreviewTime: 201376
Countdown: 0
SampleSet: None
StackLeniency: 0.7
Mode: 1
LetterboxInBreaks: 0
WidescreenStoryboard: 0

[Editor]
DistanceSpacing: 0.6
BeatDivisor: 12
GridSize: 32
TimelineZoom: 2.6

[Metadata]
Title:ONLYWONDER
TitleUnicode:オンリーワンダー
Artist:Frederic
ArtistUnicode:フレデリック
Creator:TKS
Version:Oni
Source:
Tags:
BeatmapID:1576598
BeatmapSetID:748376

[Difficulty]
HPDrainRate:6
CircleSize:5
OverallDifficulty:6
ApproachRate:5
SliderMultiplier:1.4
SliderTickRate:1

[Events]
//Background and Video events
0,0,"bg.jpg",0,40
//Break Periods
//Storyboard Layer 0 (Background)
//Storyboard Layer 1 (Fail)
//Storyboard Layer 2 (Pass)
//Storyboard Layer 3 (Foreground)
//Storyboard Sound Samples

[TimingPoints]
132,357.142857142857,4,1,0,90,1,0
50131,-100,4,1,0,90,0,1
72989,-100,4,1,0,90,0,0
78703,-100,4,1,0,90,0,1
84417,-100,4,1,0,90,0,0
121560,-100,4,1,0,90,0,1
144417,-100,4,1,0,90,0,0
150131,-100,4,1,0,90,0,1
155846,-100,4,1,0,90,0,0
201560,-100,4,1,0,90,0,1
224417,-100,4,1,0,90,0,0
230131,-100,4,1,0,90,0,1
238703,-100,4,1,0,90,0,0
261560,-100,4,1,0,80,0,0
264417,-100,4,1,0,70,0,0
267274,-100,4,1,0,60,0,0
270131,-100,4,1,0,50,0,0
271560,-100,4,1,0,40,0,0
272274,-100,4,1,0,30,0,0
272989,-100,4,1,0,20,0,0

[HitObjects]
256,192,132,5,12,0:0:0:0:
256,192,489,1,12,0:0:0:0:
256,192,846,1,4,0:0:0:0:
256,192,1203,1,4,0:0:0:0:
256,192,1381,1,12,0:0:0:0:
256,192,1739,1,0,0:0:0:0:
256,192,1828,1,0,0:0:0:0:
256,192,1917,1,8,0:0:0:0:
256,192,2096,1,8,0:0:0:0:
256,192,2274,1,0,0:0:0:0:
256,192,2631,1,8,0:0:0:0:
256,192,2810,1,0,0:0:0:0:
256,192,3167,1,0,0:0:0:0:
256,192,3346,1,8,0:0:0:0:
256,192,3524,1,8,0:0:0:0:
256,192,3703,1,0,0:0:0:0:
256,192,4060,1,8,0:0:0:0:
256,192,4239,1,8,0:0:0:0:
256,192,4596,1,8,0:0:0:0:
256,192,4685,1,0,0:0:0:0:
256,192,4774,1,8,0:0:0:0:
256,192,4953,1,8,0:0:0:0:
256,192,5131,1,0,0:0:0:0:
256,192,5489,1,8,0:0:0:0:
256,192,5667,1,0,0:0:0:0:
256,192,6024,1,0,0:0:0:0:
256,192,6203,1,8,0:0:0:0:
256,192,6381,1,8,0:0:0:0:
256,192,6560,1,0,0:0:0:0:
256,192,6917,1,8,0:0:0:0:
256,192,7096,1,8,0:0:0:0:
256,192,7453,1,0,0:0:0:0:
256,192,7542,1,0,0:0:0:0:
256,192,7631,1,8,0:0:0:0:
256,192,7810,1,8,0:0:0:0:
256,192,7989,1,0,0:0:0:0:
256,192,8346,1,8,0:0:0:0:
256,192,8524,1,0,0:0:0:0:
256,192,8881,1,0,0:0:0:0:
256,192,9060,1,8,0:0:0:0:
256,192,9239,1,8,0:0:0:0:
256,192,9417,1,0,0:0:0:0:
256,192,9774,1,8,0:0:0:0:
256,192,9953,1,8,0:0:0:0:
256,192,10310,1,8,0:0:0:0:
256,192,10399,1,0,0:0:0:0:
256,192,10489,1,8,0:0:0:0:
256,192,10667,1,8,0:0:0:0:
256,192,10846,1,0,0:0:0:0:
256,192,11143,1,8,0:0:0:0:
256,192,11203,1,8,0:0:0:0:
256,192,11262,1,8,0:0:0:0:
256,192,11322,1,0,0:0:0:0:
256,192,11560,1,12,0:0:0:0:
256,192,11917,1,12,0:0:0:0:
256,192,12274,1,4,0:0:0:0:
256,192,12631,1,4,0:0:0:0:
256,192,12810,1,12,0:0:0:0:
256,192,13167,1,0,0:0:0:0:
256,192,13256,1,0,0:0:0:0:
256,192,13346,1,8,0:0:0:0:
256,192,13524,1,8,0:0:0:0:
256,192,13703,1,0,0:0:0:0:
256,192,13792,1,0,0:0:0:0:
256,192,13881,1,0,0:0:0:0:
256,192,14060,1,8,0:0:0:0:
256,192,14239,1,0,0:0:0:0:
256,192,14596,1,0,0:0:0:0:
256,192,14774,1,8,0:0:0:0:
256,192,14953,1,8,0:0:0:0:
256,192,15131,1,0,0:0:0:0:
256,192,15399,1,0,0:0:0:0:
256,192,15489,1,8,0:0:0:0:
256,192,15667,1,8,0:0:0:0:
256,192,16024,1,8,0:0:0:0:
256,192,16114,1,0,0:0:0:0:
256,192,16203,1,8,0:0:0:0:
256,192,16381,1,8,0:0:0:0:
256,192,16471,1,8,0:0:0:0:
256,192,16560,1,0,0:0:0:0:
256,192,16739,1,0,0:0:0:0:
256,192,16917,1,8,0:0:0:0:
256,192,17096,1,0,0:0:0:0:
256,192,17453,1,0,0:0:0:0:
256,192,17631,1,8,0:0:0:0:
256,192,17810,1,8,0:0:0:0:
256,192,17989,1,0,0:0:0:0:
256,192,18256,1,0,0:0:0:0:
256,192,18346,1,8,0:0:0:0:
256,192,18524,1,8,0:0:0:0:
256,192,18881,1,0,0:0:0:0:
256,192,18971,1,0,0:0:0:0:
256,192,19060,1,8,0:0:0:0:
256,192,19239,1,8,0:0:0:0:
256,192,19417,1,0,0:0:0:0:
256,192,19506,1,0,0:0:0:0:
256,192,19596,1,0,0:0:0:0:
256,192,19774,1,8,0:0:0:0:
256,192,19953,1,0,0:0:0:0:
256,192,20310,1,0,0:0:0:0:
256,192,20489,1,8,0:0:0:0:
256,192,20667,1,8,0:0:0:0:
256,192,20846,1,0,0:0:0:0:
256,192,21114,1,0,0:0:0:0:
256,192,21203,1,8,0:0:0:0:
256,192,21381,1,8,0:0:0:0:
256,192,21739,1,8,0:0:0:0:
256,192,21828,1,0,0:0:0:0:
256,192,21917,1,8,0:0:0:0:
256,192,22096,1,8,0:0:0:0:
256,192,22185,1,8,0:0:0:0:
256,192,22274,1,0,0:0:0:0:
256,192,22453,1,0,0:0:0:0:
256,192,22631,1,8,0:0:0:0:
256,192,22810,1,0,0:0:0:0:
256,192,22989,1,8,0:0:0:0:
256,192,23078,1,8,0:0:0:0:
256,192,23167,1,0,0:0:0:0:
256,192,23256,1,0,0:0:0:0:
256,192,23346,1,8,0:0:0:0:
256,192,23435,1,8,0:0:0:0:
256,192,23524,1,8,0:0:0:0:
256,192,23614,1,8,0:0:0:0:
256,192,23703,1,0,0:0:0:0:
256,192,23881,1,0,0:0:0:0:
256,192,23971,1,0,0:0:0:0:
256,192,24060,1,8,0:0:0:0:
256,192,24239,1,8,0:0:0:0:
256,192,24417,1,4,0:0:0:0:
256,192,24774,1,8,0:0:0:0:
256,192,25131,1,0,0:0:0:0:
256,192,25310,1,0,0:0:0:0:
256,192,25489,1,8,0:0:0:0:
256,192,25846,1,0,0:0:0:0:
256,192,26024,1,0,0:0:0:0:
256,192,26203,1,8,0:0:0:0:
256,192,26381,1,0,0:0:0:0:
256,192,26739,1,0,0:0:0:0:
256,192,26917,1,8,0:0:0:0:
256,192,27274,1,0,0:0:0:0:
256,192,27453,1,0,0:0:0:0:
256,192,27631,1,8,0:0:0:0:
256,192,27810,1,0,0:0:0:0:
256,192,28167,1,0,0:0:0:0:
256,192,28346,1,8,0:0:0:0:
256,192,28703,1,0,0:0:0:0:
256,192,29060,1,8,0:0:0:0:
256,192,29239,1,0,0:0:0:0:
256,192,29417,1,0,0:0:0:0:
256,192,29774,1,8,0:0:0:0:
256,192,30131,1,0,0:0:0:0:
256,192,30489,1,8,0:0:0:0:
256,192,30846,1,0,0:0:0:0:
256,192,31024,1,0,0:0:0:0:
256,192,31203,1,8,0:0:0:0:
256,192,31560,1,0,0:0:0:0:
256,192,31739,1,0,0:0:0:0:
256,192,31917,1,8,0:0:0:0:
256,192,32096,1,0,0:0:0:0:
256,192,32453,1,0,0:0:0:0:
256,192,32631,1,8,0:0:0:0:
256,192,32989,1,0,0:0:0:0:
256,192,33346,1,0,0:0:0:0:
256,192,33703,1,0,0:0:0:0:
256,192,34060,1,8,0:0:0:0:
256,192,34239,1,0,0:0:0:0:
256,192,34596,1,0,0:0:0:0:
256,192,34685,1,0,0:0:0:0:
256,192,34774,1,8,0:0:0:0:
256,192,34953,1,8,0:0:0:0:
256,192,35131,1,0,0:0:0:0:
256,192,35310,1,0,0:0:0:0:
256,192,35399,1,0,0:0:0:0:
256,192,35489,1,8,0:0:0:0:
256,192,35578,1,8,0:0:0:0:
256,192,35667,1,0,0:0:0:0:
256,192,35846,1,4,0:0:0:0:
256,192,36203,1,8,0:0:0:0:
256,192,36381,1,0,0:0:0:0:
256,192,36471,1,0,0:0:0:0:
256,192,36560,1,0,0:0:0:0:
256,192,36739,1,0,0:0:0:0:
256,192,36917,1,8,0:0:0:0:
256,192,37274,1,0,0:0:0:0:
256,192,37453,1,0,0:0:0:0:
256,192,37542,1,0,0:0:0:0:
256,192,37631,1,8,0:0:0:0:
256,192,37810,1,0,0:0:0:0:
256,192,37989,1,8,0:0:0:0:
256,192,38078,1,8,0:0:0:0:
256,192,38167,1,0,0:0:0:0:
256,192,38346,1,8,0:0:0:0:
256,192,38703,1,0,0:0:0:0:
256,192,39060,1,8,0:0:0:0:
256,192,39417,1,0,0:0:0:0:
256,192,39596,1,0,0:0:0:0:
256,192,39685,1,0,0:0:0:0:
256,192,39774,1,8,0:0:0:0:
256,192,39953,1,8,0:0:0:0:
256,192,40310,1,0,0:0:0:0:
256,192,40399,1,0,0:0:0:0:
256,192,40489,1,8,0:0:0:0:
256,192,40667,1,8,0:0:0:0:
256,192,40846,1,0,0:0:0:0:
256,192,41024,1,8,0:0:0:0:
256,192,41114,1,8,0:0:0:0:
256,192,41203,1,8,0:0:0:0:
256,192,41560,1,0,0:0:0:0:
256,192,41917,1,8,0:0:0:0:
256,192,42096,1,0,0:0:0:0:
256,192,42185,1,0,0:0:0:0:
256,192,42274,1,0,0:0:0:0:
256,192,42453,1,0,0:0:0:0:
256,192,42631,1,8,0:0:0:0:
256,192,42810,1,8,0:0:0:0:
256,192,43167,1,0,0:0:0:0:
256,192,43256,1,0,0:0:0:0:
256,192,43346,1,8,0:0:0:0:
224,192,43524,1,8,0:0:0:0:
256,192,43703,1,0,0:0:0:0:
256,192,43792,1,0,0:0:0:0:
256,192,43881,1,0,0:0:0:0:
256,192,44060,1,8,0:0:0:0:
256,192,44239,1,8,0:0:0:0:
256,192,44328,1,8,0:0:0:0:
256,192,44417,1,0,0:0:0:0:
256,192,44774,1,8,0:0:0:0:
256,192,45131,1,0,0:0:0:0:
256,192,45489,1,8,0:0:0:0:
256,192,45846,1,0,0:0:0:0:
256,192,46024,1,0,0:0:0:0:
256,192,46203,1,8,0:0:0:0:
256,192,46560,1,0,0:0:0:0:
256,192,46739,1,0,0:0:0:0:
256,192,46917,1,12,0:0:0:0:
256,192,47274,1,4,0:0:0:0:
256,192,47631,1,4,0:0:0:0:
256,192,47989,1,4,0:0:0:0:
256,192,48346,1,4,0:0:0:0:
256,192,48703,1,8,0:0:0:0:
256,192,48792,1,0,0:0:0:0:
256,192,48881,1,0,0:0:0:0:
256,192,48971,1,8,0:0:0:0:
256,192,49060,1,8,0:0:0:0:
256,192,49149,1,8,0:0:0:0:
256,192,49239,1,0,0:0:0:0:
256,192,49328,1,0,0:0:0:0:
256,192,49417,1,8,0:0:0:0:
256,192,50131,1,4,0:0:0:0:
256,192,50399,1,0,0:0:0:0:
256,192,50489,1,8,0:0:0:0:
256,192,50667,1,0,0:0:0:0:
256,192,50756,1,8,0:0:0:0:
256,192,50846,1,0,0:0:0:0:
256,192,51024,1,0,0:0:0:0:
256,192,51203,1,8,0:0:0:0:
256,192,51292,1,0,0:0:0:0:
256,192,51381,1,8,0:0:0:0:
256,192,51471,1,8,0:0:0:0:
256,192,51560,1,0,0:0:0:0:
256,192,51739,1,0,0:0:0:0:
256,192,51917,1,8,0:0:0:0:
256,192,52096,1,0,0:0:0:0:
256,192,52185,1,0,0:0:0:0:
256,192,52274,1,0,0:0:0:0:
256,192,52453,1,8,0:0:0:0:
256,192,52631,1,8,0:0:0:0:
256,192,52989,1,0,0:0:0:0:
256,192,53167,1,0,0:0:0:0:
256,192,53346,1,8,0:0:0:0:
256,192,53524,1,0,0:0:0:0:
256,192,53614,1,0,0:0:0:0:
256,192,53703,1,0,0:0:0:0:
256,192,53881,1,8,0:0:0:0:
256,192,54060,1,8,0:0:0:0:
256,192,54239,1,0,0:0:0:0:
256,192,54328,1,8,0:0:0:0:
256,192,54417,1,0,0:0:0:0:
256,192,54596,1,0,0:0:0:0:
256,192,54774,1,8,0:0:0:0:
256,192,54953,1,8,0:0:0:0:
256,192,55042,1,8,0:0:0:0:
256,192,55131,1,0,0:0:0:0:
256,192,55221,1,0,0:0:0:0:
256,192,55310,1,0,0:0:0:0:
256,192,55399,1,0,0:0:0:0:
256,192,55489,1,8,0:0:0:0:
256,192,55846,1,0,0:0:0:0:
256,192,56024,1,0,0:0:0:0:
256,192,56114,1,8,0:0:0:0:
256,192,56203,1,0,0:0:0:0:
256,192,56381,1,8,0:0:0:0:
256,192,56560,1,0,0:0:0:0:
256,192,56739,1,0,0:0:0:0:
256,192,56828,1,8,0:0:0:0:
256,192,56917,1,0,0:0:0:0:
256,192,57096,1,8,0:0:0:0:
256,192,57274,1,0,0:0:0:0:
256,192,57453,1,0,0:0:0:0:
256,192,57542,1,8,0:0:0:0:
256,192,57631,1,0,0:0:0:0:
256,192,57810,1,8,0:0:0:0:
256,192,57989,1,0,0:0:0:0:
256,192,58078,1,0,0:0:0:0:
256,192,58167,1,0,0:0:0:0:
256,192,58346,1,8,0:0:0:0:
256,192,58524,1,8,0:0:0:0:
256,192,58703,1,0,0:0:0:0:
256,192,59060,1,8,0:0:0:0:
256,192,59239,1,0,0:0:0:0:
256,192,59328,1,0,0:0:0:0:
256,192,59417,1,0,0:0:0:0:
256,192,59596,1,0,0:0:0:0:
256,192,59774,1,8,0:0:0:0:
256,192,59953,1,0,0:0:0:0:
256,192,60310,1,8,0:0:0:0:
256,192,60399,1,0,0:0:0:0:
256,192,60489,1,8,0:0:0:0:
256,192,60667,1,8,0:0:0:0:
256,192,60756,1,8,0:0:0:0:
256,192,60846,1,0,0:0:0:0:
256,192,60935,1,8,0:0:0:0:
256,192,61024,1,8,0:0:0:0:
256,192,61114,1,8,0:0:0:0:
256,192,61203,1,0,0:0:0:0:
256,192,61292,1,0,0:0:0:0:
256,192,61381,1,8,0:0:0:0:
256,192,61560,1,4,0:0:0:0:
256,192,61828,1,0,0:0:0:0:
256,192,61917,1,8,0:0:0:0:
256,192,62096,1,0,0:0:0:0:
256,192,62185,1,8,0:0:0:0:
256,192,62274,1,0,0:0:0:0:
256,192,62364,1,0,0:0:0:0:
256,192,62453,1,0,0:0:0:0:
256,192,62631,1,8,0:0:0:0:
256,192,62810,1,8,0:0:0:0:
256,192,62899,1,8,0:0:0:0:
256,192,62989,1,0,0:0:0:0:
256,192,63167,1,0,0:0:0:0:
256,192,63346,1,8,0:0:0:0:
256,192,63524,1,0,0:0:0:0:
256,192,63614,1,0,0:0:0:0:
256,192,63703,1,0,0:0:0:0:
256,192,63881,1,8,0:0:0:0:
256,192,64060,1,8,0:0:0:0:
256,192,64417,1,0,0:0:0:0:
256,192,64596,1,0,0:0:0:0:
256,192,64774,1,8,0:0:0:0:
256,192,64953,1,0,0:0:0:0:
256,192,65042,1,0,0:0:0:0:
256,192,65131,1,0,0:0:0:0:
256,192,65310,1,8,0:0:0:0:
256,192,65489,1,8,0:0:0:0:
256,192,65667,1,0,0:0:0:0:
256,192,65756,1,8,0:0:0:0:
256,192,65846,1,0,0:0:0:0:
256,192,66024,1,0,0:0:0:0:
256,192,66203,1,8,0:0:0:0:
256,192,66381,1,8,0:0:0:0:
256,192,66471,1,8,0:0:0:0:
256,192,66560,1,0,0:0:0:0:
256,192,66649,1,0,0:0:0:0:
256,192,66739,1,0,0:0:0:0:
256,192,66828,1,0,0:0:0:0:
256,192,66917,1,8,0:0:0:0:
256,192,67274,1,0,0:0:0:0:
256,192,67453,1,0,0:0:0:0:
256,192,67542,1,8,0:0:0:0:
256,192,67631,1,0,0:0:0:0:
256,192,67810,1,8,0:0:0:0:
256,192,67989,1,8,0:0:0:0:
256,192,68167,1,8,0:0:0:0:
256,192,68256,1,8,0:0:0:0:
256,192,68346,1,0,0:0:0:0:
256,192,68524,1,0,0:0:0:0:
256,192,68614,1,8,0:0:0:0:
256,192,68703,1,0,0:0:0:0:
256,192,68881,1,8,0:0:0:0:
256,192,69060,1,8,0:0:0:0:
256,192,69239,1,8,0:0:0:0:
256,192,69328,1,8,0:0:0:0:
256,192,69417,1,0,0:0:0:0:
256,192,69596,1,0,0:0:0:0:
256,192,69685,1,0,0:0:0:0:
256,192,69774,1,8,0:0:0:0:
256,192,69953,1,8,0:0:0:0:
256,192,70131,1,0,0:0:0:0:
256,192,70489,1,8,0:0:0:0:
256,192,70667,1,0,0:0:0:0:
256,192,70756,1,0,0:0:0:0:
256,192,70846,1,0,0:0:0:0:
256,192,71024,1,8,0:0:0:0:
256,192,71203,1,0,0:0:0:0:
128,160,71381,2,0,L|128:224,8,35
256,192,72274,1,8,0:0:0:0:
256,192,72364,1,8,0:0:0:0:
256,192,72453,1,0,0:0:0:0:
256,192,72542,1,0,0:0:0:0:
256,192,72631,1,8,0:0:0:0:
256,192,72810,1,8,0:0:0:0:
256,192,72899,1,8,0:0:0:0:
256,192,72989,1,0,0:0:0:0:
256,192,73524,1,0,0:0:0:0:
256,192,73703,1,8,0:0:0:0:
256,192,74060,1,8,0:0:0:0:
256,192,74239,1,0,0:0:0:0:
256,192,74596,1,0,0:0:0:0:
256,192,74953,1,0,0:0:0:0:
256,192,75131,1,8,0:0:0:0:
256,192,75489,1,8,0:0:0:0:
256,192,75667,1,0,0:0:0:0:
256,192,76024,1,0,0:0:0:0:
256,192,76381,1,0,0:0:0:0:
256,192,76560,1,8,0:0:0:0:
256,192,76917,1,8,0:0:0:0:
256,192,77274,1,0,0:0:0:0:
256,192,77453,1,0,0:0:0:0:
256,192,77631,1,8,0:0:0:0:
256,192,77989,1,0,0:0:0:0:
256,192,78167,1,0,0:0:0:0:
256,192,78346,1,12,0:0:0:0:
256,192,78703,1,4,0:0:0:0:
256,192,78971,1,0,0:0:0:0:
256,192,79060,1,8,0:0:0:0:
256,192,79239,1,8,0:0:0:0:
256,192,79328,1,8,0:0:0:0:
256,192,79417,1,0,0:0:0:0:
256,192,79596,1,0,0:0:0:0:
256,192,79774,1,8,0:0:0:0:
256,192,79953,1,0,0:0:0:0:
256,192,80042,1,0,0:0:0:0:
256,192,80131,1,0,0:0:0:0:
256,192,80310,1,0,0:0:0:0:
256,192,80489,1,8,0:0:0:0:
256,192,80667,1,8,0:0:0:0:
256,192,80756,1,8,0:0:0:0:
256,192,80846,1,0,0:0:0:0:
256,192,81024,1,0,0:0:0:0:
256,192,81203,1,8,0:0:0:0:
256,192,81560,1,0,0:0:0:0:
256,192,81739,1,0,0:0:0:0:
256,192,81828,1,0,0:0:0:0:
256,192,81917,1,0,0:0:0:0:
256,192,82096,1,0,0:0:0:0:
256,192,82185,1,0,0:0:0:0:
256,192,82274,1,0,0:0:0:0:
256,192,82453,1,0,0:0:0:0:
256,192,82542,1,0,0:0:0:0:
256,192,82631,1,8,0:0:0:0:
256,192,82721,1,8,0:0:0:0:
256,192,82810,1,0,0:0:0:0:
256,192,82989,1,12,0:0:0:0:
256,192,83346,1,12,0:0:0:0:
256,192,83703,1,4,0:0:0:0:
256,192,84060,1,4,0:0:0:0:
256,192,84239,1,12,0:0:0:0:
256,192,84596,1,0,0:0:0:0:
256,192,84685,1,0,0:0:0:0:
256,192,84774,1,8,0:0:0:0:
256,192,84953,1,8,0:0:0:0:
256,192,85131,1,0,0:0:0:0:
256,192,85221,1,0,0:0:0:0:
256,192,85310,1,0,0:0:0:0:
256,192,85489,1,8,0:0:0:0:
256,192,85667,1,0,0:0:0:0:
256,192,86024,1,0,0:0:0:0:
256,192,86203,1,8,0:0:0:0:
256,192,86381,1,8,0:0:0:0:
256,192,86560,1,0,0:0:0:0:
256,192,86828,1,0,0:0:0:0:
256,192,86917,1,8,0:0:0:0:
256,192,87096,1,8,0:0:0:0:
256,192,87453,1,8,0:0:0:0:
256,192,87542,1,0,0:0:0:0:
256,192,87631,1,8,0:0:0:0:
256,192,87810,1,8,0:0:0:0:
256,192,87899,1,8,0:0:0:0:
256,192,87989,1,0,0:0:0:0:
256,192,88167,1,0,0:0:0:0:
256,192,88346,1,8,0:0:0:0:
256,192,88524,1,0,0:0:0:0:
256,192,88881,1,0,0:0:0:0:
256,192,89060,1,8,0:0:0:0:
256,192,89239,1,8,0:0:0:0:
256,192,89417,1,0,0:0:0:0:
256,192,89685,1,0,0:0:0:0:
256,192,89774,1,8,0:0:0:0:
256,192,89953,1,8,0:0:0:0:
256,192,90310,1,0,0:0:0:0:
256,192,90399,1,0,0:0:0:0:
256,192,90489,1,8,0:0:0:0:
256,192,90667,1,8,0:0:0:0:
256,192,90846,1,0,0:0:0:0:
256,192,90935,1,0,0:0:0:0:
256,192,91024,1,0,0:0:0:0:
256,192,91203,1,8,0:0:0:0:
256,192,91381,1,0,0:0:0:0:
256,192,91739,1,0,0:0:0:0:
256,192,91917,1,8,0:0:0:0:
256,192,92096,1,8,0:0:0:0:
256,192,92274,1,0,0:0:0:0:
256,192,92542,1,0,0:0:0:0:
256,192,92631,1,8,0:0:0:0:
256,192,92810,1,8,0:0:0:0:
256,192,93167,1,8,0:0:0:0:
256,192,93256,1,0,0:0:0:0:
256,192,93346,1,8,0:0:0:0:
256,192,93524,1,8,0:0:0:0:
256,192,93614,1,8,0:0:0:0:
256,192,93703,1,0,0:0:0:0:
256,192,93881,1,0,0:0:0:0:
256,192,94060,1,8,0:0:0:0:
256,192,94239,1,0,0:0:0:0:
256,192,94417,1,8,0:0:0:0:
256,192,94506,1,8,0:0:0:0:
256,192,94596,1,0,0:0:0:0:
256,192,94685,1,0,0:0:0:0:
256,192,94774,1,8,0:0:0:0:
256,192,94864,1,8,0:0:0:0:
256,192,94953,1,8,0:0:0:0:
256,192,95042,1,8,0:0:0:0:
256,192,95131,1,0,0:0:0:0:
256,192,95310,1,0,0:0:0:0:
256,192,95399,1,0,0:0:0:0:
256,192,95489,1,8,0:0:0:0:
256,192,95667,1,8,0:0:0:0:
256,192,95846,1,4,0:0:0:0:
256,192,100131,1,0,0:0:0:0:
256,192,100489,1,8,0:0:0:0:
256,192,100667,1,0,0:0:0:0:
256,192,100846,1,0,0:0:0:0:
256,192,101024,1,0,0:0:0:0:
256,192,101203,1,8,0:0:0:0:
256,192,101560,1,4,0:0:0:0:
256,192,101917,1,8,0:0:0:0:
256,192,102274,1,0,0:0:0:0:
256,192,102453,1,0,0:0:0:0:
256,192,102631,1,8,0:0:0:0:
256,192,102989,1,0,0:0:0:0:
256,192,103167,1,0,0:0:0:0:
256,192,103346,1,8,0:0:0:0:
256,192,103524,1,0,0:0:0:0:
256,192,103881,1,0,0:0:0:0:
256,192,104060,1,8,0:0:0:0:
256,192,104417,1,0,0:0:0:0:
256,192,104596,1,0,0:0:0:0:
256,192,104774,1,8,0:0:0:0:
256,192,104953,1,0,0:0:0:0:
256,192,105131,1,0,0:0:0:0:
256,192,105310,1,0,0:0:0:0:
256,192,105489,1,8,0:0:0:0:
256,192,105667,1,0,0:0:0:0:
256,192,106024,1,0,0:0:0:0:
256,192,106114,1,0,0:0:0:0:
256,192,106203,1,8,0:0:0:0:
256,192,106381,1,8,0:0:0:0:
256,192,106560,1,0,0:0:0:0:
256,192,106739,1,0,0:0:0:0:
256,192,106828,1,0,0:0:0:0:
256,192,106917,1,8,0:0:0:0:
256,192,107006,1,8,0:0:0:0:
256,192,107096,1,0,0:0:0:0:
256,192,107274,1,4,0:0:0:0:
256,192,107631,1,8,0:0:0:0:
256,192,107810,1,0,0:0:0:0:
256,192,107899,1,0,0:0:0:0:
256,192,107989,1,0,0:0:0:0:
256,192,108167,1,0,0:0:0:0:
256,192,108256,1,8,0:0:0:0:
256,192,108346,1,0,0:0:0:0:
256,192,108524,1,8,0:0:0:0:
256,192,108703,1,0,0:0:0:0:
256,192,108881,1,8,0:0:0:0:
256,192,109060,1,8,0:0:0:0:
256,192,109417,1,8,0:0:0:0:
256,192,109506,1,8,0:0:0:0:
256,192,109596,1,0,0:0:0:0:
256,192,109774,1,8,0:0:0:0:
256,192,109953,1,0,0:0:0:0:
256,192,110042,1,0,0:0:0:0:
256,192,110131,1,0,0:0:0:0:
256,192,110489,1,8,0:0:0:0:
256,192,110846,1,0,0:0:0:0:
256,192,111024,1,0,0:0:0:0:
256,192,111114,1,0,0:0:0:0:
256,192,111203,1,8,0:0:0:0:
256,192,111381,1,8,0:0:0:0:
256,192,111560,1,0,0:0:0:0:
256,192,111739,1,0,0:0:0:0:
256,192,111828,1,0,0:0:0:0:
256,192,111917,1,8,0:0:0:0:
256,192,112096,1,8,0:0:0:0:
256,192,112274,1,0,0:0:0:0:
256,192,112453,1,8,0:0:0:0:
256,192,112542,1,8,0:0:0:0:
256,192,112631,1,8,0:0:0:0:
256,192,112989,1,0,0:0:0:0:
256,192,113346,1,8,0:0:0:0:
256,192,113524,1,0,0:0:0:0:
256,192,113614,1,0,0:0:0:0:
256,192,113703,1,0,0:0:0:0:
256,192,113881,1,0,0:0:0:0:
256,192,114060,1,8,0:0:0:0:
256,192,114239,1,8,0:0:0:0:
256,192,114596,1,0,0:0:0:0:
256,192,114685,1,0,0:0:0:0:
256,192,114774,1,8,0:0:0:0:
224,192,114953,1,8,0:0:0:0:
256,192,115131,1,0,0:0:0:0:
256,192,115221,1,0,0:0:0:0:
256,192,115310,1,0,0:0:0:0:
256,192,115489,1,8,0:0:0:0:
256,192,115667,1,8,0:0:0:0:
256,192,115756,1,8,0:0:0:0:
256,192,115846,1,0,0:0:0:0:
256,192,116203,1,8,0:0:0:0:
256,192,116560,1,0,0:0:0:0:
256,192,116917,1,8,0:0:0:0:
256,192,117274,1,0,0:0:0:0:
256,192,117453,1,0,0:0:0:0:
256,192,117631,1,8,0:0:0:0:
256,192,117989,1,0,0:0:0:0:
256,192,118167,1,0,0:0:0:0:
256,192,118346,1,12,0:0:0:0:
256,192,118703,1,4,0:0:0:0:
256,192,119060,1,4,0:0:0:0:
256,192,119417,1,4,0:0:0:0:
256,192,119774,1,4,0:0:0:0:
256,192,120131,1,8,0:0:0:0:
256,192,120221,1,0,0:0:0:0:
256,192,120310,1,0,0:0:0:0:
256,192,120399,1,8,0:0:0:0:
256,192,120489,1,8,0:0:0:0:
256,192,120578,1,8,0:0:0:0:
256,192,120667,1,0,0:0:0:0:
256,192,120756,1,0,0:0:0:0:
256,192,120846,1,8,0:0:0:0:
256,192,121024,1,0,0:0:0:0:
256,192,121203,1,12,0:0:0:0:
256,192,121560,1,4,0:0:0:0:
256,192,121828,1,0,0:0:0:0:
256,192,121917,1,8,0:0:0:0:
256,192,122096,1,8,0:0:0:0:
256,192,122185,1,8,0:0:0:0:
256,192,122274,1,0,0:0:0:0:
256,192,122453,1,0,0:0:0:0:
256,192,122542,1,0,0:0:0:0:
256,192,122631,1,8,0:0:0:0:
256,192,122810,1,0,0:0:0:0:
256,192,122899,1,8,0:0:0:0:
256,192,122989,1,0,0:0:0:0:
256,192,123167,1,8,0:0:0:0:
256,192,123346,1,8,0:0:0:0:
256,192,123524,1,0,0:0:0:0:
256,192,123614,1,8,0:0:0:0:
256,192,123703,1,0,0:0:0:0:
256,192,123881,1,8,0:0:0:0:
256,192,124060,1,8,0:0:0:0:
256,192,124417,1,0,0:0:0:0:
256,192,124596,1,8,0:0:0:0:
256,192,124774,1,8,0:0:0:0:
256,192,124953,1,0,0:0:0:0:
256,192,125042,1,8,0:0:0:0:
256,192,125131,1,0,0:0:0:0:
256,192,125310,1,8,0:0:0:0:
256,192,125489,1,8,0:0:0:0:
256,192,125667,1,0,0:0:0:0:
256,192,125756,1,8,0:0:0:0:
256,192,125846,1,0,0:0:0:0:
256,192,126024,1,0,0:0:0:0:
256,192,126203,1,8,0:0:0:0:
256,192,126381,1,8,0:0:0:0:
256,192,126471,1,8,0:0:0:0:
256,192,126560,1,0,0:0:0:0:
256,192,126649,1,0,0:0:0:0:
256,192,126739,1,0,0:0:0:0:
256,192,126828,1,0,0:0:0:0:
256,192,126917,1,8,0:0:0:0:
256,192,127274,1,0,0:0:0:0:
256,192,127453,1,0,0:0:0:0:
256,192,127542,1,8,0:0:0:0:
256,192,127631,1,0,0:0:0:0:
256,192,127810,1,8,0:0:0:0:
256,192,127989,1,0,0:0:0:0:
256,192,128167,1,0,0:0:0:0:
256,192,128256,1,8,0:0:0:0:
256,192,128346,1,0,0:0:0:0:
256,192,128524,1,8,0:0:0:0:
256,192,128703,1,0,0:0:0:0:
256,192,128881,1,0,0:0:0:0:
256,192,128971,1,8,0:0:0:0:
256,192,129060,1,0,0:0:0:0:
256,192,129239,1,8,0:0:0:0:
256,192,129417,1,0,0:0:0:0:
256,192,129506,1,0,0:0:0:0:
256,192,129596,1,0,0:0:0:0:
256,192,129774,1,8,0:0:0:0:
256,192,129953,1,8,0:0:0:0:
256,192,130131,1,0,0:0:0:0:
256,192,130489,1,8,0:0:0:0:
256,192,130667,1,0,0:0:0:0:
256,192,130756,1,0,0:0:0:0:
256,192,130846,1,0,0:0:0:0:
256,192,131024,1,0,0:0:0:0:
256,192,131203,1,8,0:0:0:0:
256,192,131381,1,0,0:0:0:0:
256,192,131739,1,8,0:0:0:0:
256,192,131828,1,0,0:0:0:0:
256,192,131917,1,8,0:0:0:0:
256,192,132096,1,8,0:0:0:0:
256,192,132185,1,8,0:0:0:0:
256,192,132274,1,0,0:0:0:0:
256,192,132364,1,8,0:0:0:0:
256,192,132453,1,8,0:0:0:0:
256,192,132542,1,8,0:0:0:0:
256,192,132631,1,0,0:0:0:0:
256,192,132721,1,0,0:0:0:0:
256,192,132810,1,8,0:0:0:0:
256,192,132989,1,4,0:0:0:0:
256,192,133256,1,0,0:0:0:0:
256,192,133346,1,8,0:0:0:0:
256,192,133524,1,8,0:0:0:0:
256,192,133614,1,8,0:0:0:0:
256,192,133703,1,0,0:0:0:0:
256,192,133881,1,0,0:0:0:0:
256,192,134060,1,8,0:0:0:0:
256,192,134149,1,0,0:0:0:0:
256,192,134239,1,0,0:0:0:0:
256,192,134328,1,8,0:0:0:0:
256,192,134417,1,0,0:0:0:0:
256,192,134596,1,8,0:0:0:0:
256,192,134774,1,8,0:0:0:0:
256,192,134953,1,0,0:0:0:0:
256,192,135042,1,8,0:0:0:0:
256,192,135131,1,0,0:0:0:0:
256,192,135310,1,8,0:0:0:0:
256,192,135489,1,8,0:0:0:0:
256,192,135846,1,0,0:0:0:0:
256,192,136024,1,8,0:0:0:0:
256,192,136203,1,8,0:0:0:0:
256,192,136381,1,0,0:0:0:0:
256,192,136471,1,8,0:0:0:0:
256,192,136560,1,0,0:0:0:0:
256,192,136739,1,8,0:0:0:0:
256,192,136917,1,8,0:0:0:0:
256,192,137096,1,0,0:0:0:0:
256,192,137185,1,8,0:0:0:0:
256,192,137274,1,0,0:0:0:0:
256,192,137453,1,0,0:0:0:0:
256,192,137631,1,8,0:0:0:0:
256,192,137810,1,8,0:0:0:0:
256,192,137899,1,8,0:0:0:0:
256,192,137989,1,0,0:0:0:0:
256,192,138078,1,0,0:0:0:0:
256,192,138167,1,0,0:0:0:0:
256,192,138256,1,0,0:0:0:0:
256,192,138346,1,8,0:0:0:0:
256,192,138703,1,0,0:0:0:0:
256,192,138881,1,0,0:0:0:0:
256,192,138971,1,8,0:0:0:0:
256,192,139060,1,0,0:0:0:0:
256,192,139239,1,8,0:0:0:0:
256,192,139417,1,8,0:0:0:0:
256,192,139596,1,8,0:0:0:0:
256,192,139685,1,8,0:0:0:0:
256,192,139774,1,0,0:0:0:0:
256,192,139953,1,0,0:0:0:0:
256,192,140042,1,8,0:0:0:0:
256,192,140131,1,0,0:0:0:0:
256,192,140310,1,8,0:0:0:0:
256,192,140489,1,8,0:0:0:0:
256,192,140667,1,8,0:0:0:0:
256,192,140756,1,8,0:0:0:0:
256,192,140846,1,0,0:0:0:0:
256,192,141024,1,0,0:0:0:0:
256,192,141114,1,0,0:0:0:0:
256,192,141203,1,8,0:0:0:0:
256,192,141381,1,8,0:0:0:0:
256,192,141560,1,0,0:0:0:0:
256,192,141917,1,8,0:0:0:0:
256,192,142096,1,0,0:0:0:0:
256,192,142185,1,0,0:0:0:0:
256,192,142274,1,0,0:0:0:0:
256,192,142453,1,8,0:0:0:0:
256,192,142631,1,0,0:0:0:0:
128,160,142810,2,0,L|128:224,8,35
256,192,143703,1,8,0:0:0:0:
256,192,143792,1,8,0:0:0:0:
256,192,143881,1,0,0:0:0:0:
256,192,143971,1,0,0:0:0:0:
256,192,144060,1,8,0:0:0:0:
256,192,144239,1,8,0:0:0:0:
256,192,144328,1,8,0:0:0:0:
256,192,144417,1,0,0:0:0:0:
256,192,144953,1,0,0:0:0:0:
256,192,145131,1,8,0:0:0:0:
256,192,145489,1,8,0:0:0:0:
256,192,145667,1,0,0:0:0:0:
256,192,146024,1,0,0:0:0:0:
256,192,146381,1,0,0:0:0:0:
256,192,146560,1,8,0:0:0:0:
256,192,146917,1,8,0:0:0:0:
256,192,147096,1,0,0:0:0:0:
256,192,147453,1,0,0:0:0:0:
256,192,147810,1,0,0:0:0:0:
256,192,147989,1,8,0:0:0:0:
256,192,148346,1,8,0:0:0:0:
256,192,148703,1,0,0:0:0:0:
256,192,148881,1,0,0:0:0:0:
256,192,149060,1,8,0:0:0:0:
256,192,149417,1,0,0:0:0:0:
256,192,149596,1,0,0:0:0:0:
256,192,149774,1,12,0:0:0:0:
256,192,150131,1,4,0:0:0:0:
256,192,150399,1,0,0:0:0:0:
256,192,150489,1,8,0:0:0:0:
256,192,150667,1,8,0:0:0:0:
256,192,150756,1,8,0:0:0:0:
256,192,150846,1,0,0:0:0:0:
256,192,151024,1,0,0:0:0:0:
256,192,151203,1,8,0:0:0:0:
256,192,151381,1,0,0:0:0:0:
256,192,151471,1,0,0:0:0:0:
256,192,151560,1,0,0:0:0:0:
256,192,151739,1,0,0:0:0:0:
256,192,151917,1,8,0:0:0:0:
256,192,152096,1,8,0:0:0:0:
256,192,152185,1,8,0:0:0:0:
256,192,152274,1,0,0:0:0:0:
256,192,152453,1,0,0:0:0:0:
256,192,152631,1,8,0:0:0:0:
256,192,152989,1,0,0:0:0:0:
256,192,153167,1,0,0:0:0:0:
256,192,153256,1,0,0:0:0:0:
256,192,153346,1,0,0:0:0:0:
256,192,153524,1,0,0:0:0:0:
256,192,153614,1,0,0:0:0:0:
256,192,153703,1,0,0:0:0:0:
256,192,153881,1,0,0:0:0:0:
256,192,153971,1,0,0:0:0:0:
256,192,154060,1,8,0:0:0:0:
256,192,154149,1,8,0:0:0:0:
256,192,154239,1,0,0:0:0:0:
256,192,154417,1,0,0:0:0:0:
256,192,154506,1,0,0:0:0:0:
256,192,154596,1,0,0:0:0:0:
256,192,154774,1,8,0:0:0:0:
256,192,154953,1,8,0:0:0:0:
256,192,155042,1,8,0:0:0:0:
256,192,155131,1,0,0:0:0:0:
256,192,155221,1,8,0:0:0:0:
256,192,155310,1,0,0:0:0:0:
256,192,155399,1,0,0:0:0:0:
256,192,155489,1,8,0:0:0:0:
256,192,155578,1,8,0:0:0:0:
256,192,155667,1,8,0:0:0:0:
256,192,155846,1,4,0:0:0:0:
256,192,156203,1,0,0:0:0:0:
256,192,156560,1,0,0:0:0:0:
256,192,156828,1,0,0:0:0:0:
256,192,157096,1,0,0:0:0:0:
256,192,157453,1,0,0:0:0:0:
256,192,157721,1,0,0:0:0:0:
256,192,157989,1,0,0:0:0:0:
256,192,158167,1,12,0:0:0:0:
256,192,158346,1,12,0:0:0:0:
256,192,158703,1,4,0:0:0:0:
256,192,159060,1,0,0:0:0:0:
256,192,159417,1,0,0:0:0:0:
256,192,159685,1,0,0:0:0:0:
256,192,159953,1,0,0:0:0:0:
256,192,160310,1,0,0:0:0:0:
256,192,160578,1,0,0:0:0:0:
256,192,160846,1,0,0:0:0:0:
256,192,161024,1,12,0:0:0:0:
256,192,161203,1,12,0:0:0:0:
256,192,161560,1,4,0:0:0:0:
256,192,161917,1,0,0:0:0:0:
256,192,162274,1,0,0:0:0:0:
256,192,162542,1,0,0:0:0:0:
256,192,162810,1,0,0:0:0:0:
256,192,163167,1,0,0:0:0:0:
256,192,163435,1,0,0:0:0:0:
256,192,163703,1,0,0:0:0:0:
256,192,163881,1,12,0:0:0:0:
256,192,164060,1,12,0:0:0:0:
256,192,164417,1,4,0:0:0:0:
256,192,164774,1,0,0:0:0:0:
256,192,165131,1,0,0:0:0:0:
256,192,165489,1,0,0:0:0:0:
256,192,165667,1,0,0:0:0:0:
256,192,165846,1,12,0:0:0:0:
288,192,166203,1,12,0:0:0:0:
256,192,166560,1,4,0:0:0:0:
256,192,166917,1,4,0:0:0:0:
256,192,167096,1,12,0:0:0:0:
256,192,167453,1,8,0:0:0:0:
256,192,167542,1,8,0:0:0:0:
256,192,167631,1,8,0:0:0:0:
256,192,167810,1,8,0:0:0:0:
256,192,167989,1,0,0:0:0:0:
256,192,168078,1,8,0:0:0:0:
256,192,168167,1,0,0:0:0:0:
256,192,168346,1,8,0:0:0:0:
256,192,168524,1,0,0:0:0:0:
256,192,168881,1,8,0:0:0:0:
256,192,168971,1,0,0:0:0:0:
256,192,169060,1,8,0:0:0:0:
256,192,169239,1,8,0:0:0:0:
256,192,169417,1,0,0:0:0:0:
256,192,169506,1,8,0:0:0:0:
256,192,169596,1,0,0:0:0:0:
256,192,169774,1,8,0:0:0:0:
256,192,169953,1,8,0:0:0:0:
256,192,170310,1,8,0:0:0:0:
256,192,170399,1,8,0:0:0:0:
256,192,170489,1,8,0:0:0:0:
256,192,170667,1,8,0:0:0:0:
256,192,170846,1,0,0:0:0:0:
256,192,170935,1,8,0:0:0:0:
256,192,171024,1,0,0:0:0:0:
256,192,171203,1,8,0:0:0:0:
256,192,171560,1,8,0:0:0:0:
256,192,171739,1,0,0:0:0:0:
256,192,171917,1,8,0:0:0:0:
256,192,172096,1,8,0:0:0:0:
256,192,172185,1,8,0:0:0:0:
256,192,172274,1,0,0:0:0:0:
256,192,172364,1,0,0:0:0:0:
256,192,172453,1,0,0:0:0:0:
256,192,172631,1,8,0:0:0:0:
256,192,172810,1,8,0:0:0:0:
256,192,172989,1,0,0:0:0:0:
256,192,173346,1,12,0:0:0:0:
256,192,173703,1,0,0:0:0:0:
256,192,173881,1,0,0:0:0:0:
256,192,173971,1,8,0:0:0:0:
256,192,174239,1,0,0:0:0:0:
256,192,174596,1,0,0:0:0:0:
256,192,174685,1,0,0:0:0:0:
256,192,174774,1,8,0:0:0:0:
256,192,174864,1,8,0:0:0:0:
256,192,174953,1,0,0:0:0:0:
256,192,175131,1,8,0:0:0:0:
256,192,175221,1,0,0:0:0:0:
256,192,175310,1,0,0:0:0:0:
256,192,175399,1,8,0:0:0:0:
256,192,175846,1,0,0:0:0:0:
256,192,176024,1,0,0:0:0:0:
256,192,176114,1,0,0:0:0:0:
256,192,176203,1,8,0:0:0:0:
256,192,176381,1,0,0:0:0:0:
256,192,176560,1,8,0:0:0:0:
256,192,176649,1,8,0:0:0:0:
256,192,176739,1,0,0:0:0:0:
256,192,176917,1,8,0:0:0:0:
256,192,177096,1,8,0:0:0:0:
256,192,177274,1,0,0:0:0:0:
256,192,177364,1,0,0:0:0:0:
256,192,177453,1,0,0:0:0:0:
256,192,177542,1,8,0:0:0:0:
256,192,177631,1,0,0:0:0:0:
256,192,177721,1,0,0:0:0:0:
256,192,177810,1,8,0:0:0:0:
256,192,177899,1,8,0:0:0:0:
256,192,177989,1,0,0:0:0:0:
256,192,178167,1,0,0:0:0:0:
256,192,178346,1,12,0:0:0:0:
256,192,178703,1,4,0:0:0:0:
256,192,179060,1,0,0:0:0:0:
256,192,179417,1,0,0:0:0:0:
256,192,179774,1,8,0:0:0:0:
256,192,180131,1,0,0:0:0:0:
256,192,180489,1,0,0:0:0:0:
256,192,180846,1,0,0:0:0:0:
256,192,181203,1,0,0:0:0:0:
256,192,181381,1,8,0:0:0:0:
256,192,181560,1,0,0:0:0:0:
256,192,181917,1,0,0:0:0:0:
256,192,182274,1,0,0:0:0:0:
256,192,182631,1,8,0:0:0:0:
256,192,182989,1,0,0:0:0:0:
256,192,183346,1,0,0:0:0:0:
256,192,183703,1,0,0:0:0:0:
256,192,184060,1,8,0:0:0:0:
256,192,184417,1,4,0:0:0:0:
256,192,184774,1,0,0:0:0:0:
256,192,185131,1,0,0:0:0:0:
256,192,185489,1,8,0:0:0:0:
256,192,185846,1,0,0:0:0:0:
256,192,186203,1,0,0:0:0:0:
256,192,186560,1,0,0:0:0:0:
256,192,186917,1,0,0:0:0:0:
256,192,187096,1,8,0:0:0:0:
256,192,187274,1,0,0:0:0:0:
256,192,187631,1,0,0:0:0:0:
256,192,187989,1,0,0:0:0:0:
256,192,188346,1,8,0:0:0:0:
256,192,188703,1,0,0:0:0:0:
256,192,189060,1,0,0:0:0:0:
256,192,189417,1,0,0:0:0:0:
256,192,189596,1,8,0:0:0:0:
256,192,189774,1,8,0:0:0:0:
256,192,190131,1,4,0:0:0:0:
256,192,190489,1,8,0:0:0:0:
256,192,190846,1,0,0:0:0:0:
256,192,191024,1,0,0:0:0:0:
256,192,191203,1,8,0:0:0:0:
256,192,191381,1,0,0:0:0:0:
256,192,191739,1,0,0:0:0:0:
256,192,191917,1,8,0:0:0:0:
256,192,192096,1,8,0:0:0:0:
256,192,192274,1,0,0:0:0:0:
256,192,192631,1,8,0:0:0:0:
256,192,192989,1,0,0:0:0:0:
256,192,193167,1,0,0:0:0:0:
256,192,193346,1,8,0:0:0:0:
256,192,193524,1,8,0:0:0:0:
256,192,193703,1,0,0:0:0:0:
256,192,194060,1,8,0:0:0:0:
256,192,194417,1,0,0:0:0:0:
256,192,194774,1,0,0:0:0:0:
256,192,195131,1,0,0:0:0:0:
256,192,195310,1,8,0:0:0:0:
256,192,195489,1,8,0:0:0:0:
256,192,195667,1,8,0:0:0:0:
256,192,195756,1,8,0:0:0:0:
256,192,195846,1,0,0:0:0:0:
256,192,196114,1,0,0:0:0:0:
256,192,196203,1,8,0:0:0:0:
256,192,196381,1,8,0:0:0:0:
256,192,196471,1,8,0:0:0:0:
256,192,196560,1,0,0:0:0:0:
256,192,196739,1,0,0:0:0:0:
256,192,196917,1,8,0:0:0:0:
256,192,197096,1,0,0:0:0:0:
256,192,197185,1,0,0:0:0:0:
256,192,197274,1,0,0:0:0:0:
256,192,197453,1,0,0:0:0:0:
256,192,197631,1,8,0:0:0:0:
256,192,197810,1,8,0:0:0:0:
256,192,197899,1,8,0:0:0:0:
256,192,197989,1,0,0:0:0:0:
256,192,198167,1,0,0:0:0:0:
256,192,198346,1,12,0:0:0:0:
256,192,198703,1,0,0:0:0:0:
256,192,198881,1,0,0:0:0:0:
256,192,198971,1,0,0:0:0:0:
256,192,199060,1,8,0:0:0:0:
256,192,199149,1,8,0:0:0:0:
256,192,199239,1,0,0:0:0:0:
256,192,199417,1,8,0:0:0:0:
256,192,199506,1,8,0:0:0:0:
256,192,199596,1,0,0:0:0:0:
256,192,199685,1,0,0:0:0:0:
256,192,199774,1,8,0:0:0:0:
256,192,199953,1,0,0:0:0:0:
256,192,200042,1,8,0:0:0:0:
256,192,200131,1,0,0:0:0:0:
256,192,200310,1,8,0:0:0:0:
256,192,200489,1,8,0:0:0:0:
256,192,200578,1,8,0:0:0:0:
256,192,200667,1,0,0:0:0:0:
256,192,200756,1,0,0:0:0:0:
256,192,200846,1,8,0:0:0:0:
256,192,200935,1,8,0:0:0:0:
256,192,201024,1,8,0:0:0:0:
256,192,201114,1,8,0:0:0:0:
256,192,201560,1,4,0:0:0:0:
256,192,201828,1,0,0:0:0:0:
256,192,201917,1,8,0:0:0:0:
256,192,202096,1,8,0:0:0:0:
256,192,202274,1,0,0:0:0:0:
256,192,202364,1,8,0:0:0:0:
256,192,202453,1,0,0:0:0:0:
256,192,202631,1,8,0:0:0:0:
256,192,202810,1,0,0:0:0:0:
256,192,202899,1,8,0:0:0:0:
256,192,202989,1,0,0:0:0:0:
256,192,203078,1,0,0:0:0:0:
256,192,203167,1,8,0:0:0:0:
256,192,203346,1,8,0:0:0:0:
256,192,203524,1,0,0:0:0:0:
256,192,203614,1,8,0:0:0:0:
256,192,203703,1,0,0:0:0:0:
256,192,203881,1,0,0:0:0:0:
256,192,204060,1,8,0:0:0:0:
256,192,204417,1,0,0:0:0:0:
256,192,204506,1,0,0:0:0:0:
256,192,204596,1,8,0:0:0:0:
256,192,204774,1,8,0:0:0:0:
256,192,204953,1,0,0:0:0:0:
256,192,205042,1,8,0:0:0:0:
256,192,205131,1,0,0:0:0:0:
256,192,205310,1,0,0:0:0:0:
256,192,205489,1,8,0:0:0:0:
256,192,205667,1,8,0:0:0:0:
256,192,205756,1,8,0:0:0:0:
256,192,205846,1,0,0:0:0:0:
256,192,206024,1,0,0:0:0:0:
256,192,206203,1,8,0:0:0:0:
256,192,206381,1,8,0:0:0:0:
256,192,206471,1,8,0:0:0:0:
256,192,206560,1,0,0:0:0:0:
256,192,206649,1,0,0:0:0:0:
256,192,206739,1,0,0:0:0:0:
256,192,206828,1,0,0:0:0:0:
256,192,206917,1,8,0:0:0:0:
256,192,207274,1,0,0:0:0:0:
256,192,207453,1,0,0:0:0:0:
256,192,207542,1,8,0:0:0:0:
256,192,207631,1,0,0:0:0:0:
256,192,207810,1,8,0:0:0:0:
256,192,207989,1,0,0:0:0:0:
256,192,208167,1,0,0:0:0:0:
256,192,208256,1,8,0:0:0:0:
256,192,208346,1,0,0:0:0:0:
256,192,208524,1,8,0:0:0:0:
256,192,208703,1,0,0:0:0:0:
256,192,208881,1,0,0:0:0:0:
256,192,208971,1,8,0:0:0:0:
256,192,209060,1,0,0:0:0:0:
256,192,209239,1,8,0:0:0:0:
256,192,209417,1,0,0:0:0:0:
256,192,209506,1,0,0:0:0:0:
256,192,209596,1,0,0:0:0:0:
256,192,209774,1,8,0:0:0:0:
256,192,209953,1,8,0:0:0:0:
256,192,210131,1,0,0:0:0:0:
256,192,210489,1,8,0:0:0:0:
256,192,210667,1,0,0:0:0:0:
256,192,210756,1,0,0:0:0:0:
256,192,210846,1,0,0:0:0:0:
256,192,211024,1,0,0:0:0:0:
256,192,211203,1,8,0:0:0:0:
256,192,211381,1,0,0:0:0:0:
256,192,211739,1,8,0:0:0:0:
256,192,211828,1,0,0:0:0:0:
256,192,211917,1,8,0:0:0:0:
256,192,212096,1,8,0:0:0:0:
256,192,212185,1,8,0:0:0:0:
256,192,212274,1,0,0:0:0:0:
256,192,212364,1,8,0:0:0:0:
256,192,212453,1,8,0:0:0:0:
256,192,212542,1,0,0:0:0:0:
256,192,212631,1,0,0:0:0:0:
256,192,212721,1,0,0:0:0:0:
256,192,212810,1,8,0:0:0:0:
256,192,212989,1,4,0:0:0:0:
256,192,213256,1,0,0:0:0:0:
256,192,213346,1,8,0:0:0:0:
256,192,213524,1,8,0:0:0:0:
256,192,213614,1,8,0:0:0:0:
256,192,213703,1,0,0:0:0:0:
256,192,213792,1,8,0:0:0:0:
256,192,213881,1,0,0:0:0:0:
256,192,214060,1,8,0:0:0:0:
256,192,214239,1,0,0:0:0:0:
256,192,214328,1,8,0:0:0:0:
256,192,214417,1,0,0:0:0:0:
256,192,214506,1,0,0:0:0:0:
256,192,214596,1,8,0:0:0:0:
256,192,214774,1,8,0:0:0:0:
256,192,214953,1,0,0:0:0:0:
256,192,215042,1,8,0:0:0:0:
256,192,215131,1,0,0:0:0:0:
256,192,215310,1,0,0:0:0:0:
256,192,215489,1,8,0:0:0:0:
256,192,215846,1,0,0:0:0:0:
256,192,215935,1,0,0:0:0:0:
256,192,216024,1,8,0:0:0:0:
256,192,216203,1,8,0:0:0:0:
256,192,216381,1,0,0:0:0:0:
256,192,216471,1,8,0:0:0:0:
256,192,216560,1,0,0:0:0:0:
256,192,216739,1,0,0:0:0:0:
256,192,216917,1,8,0:0:0:0:
256,192,217096,1,8,0:0:0:0:
256,192,217185,1,8,0:0:0:0:
256,192,217274,1,0,0:0:0:0:
256,192,217453,1,0,0:0:0:0:
256,192,217631,1,8,0:0:0:0:
256,192,217810,1,8,0:0:0:0:
256,192,217899,1,8,0:0:0:0:
256,192,217989,1,0,0:0:0:0:
256,192,218078,1,0,0:0:0:0:
256,192,218167,1,0,0:0:0:0:
256,192,218256,1,0,0:0:0:0:
256,192,218346,1,8,0:0:0:0:
256,192,218703,1,0,0:0:0:0:
256,192,218881,1,0,0:0:0:0:
256,192,218971,1,8,0:0:0:0:
256,192,219060,1,0,0:0:0:0:
256,192,219239,1,8,0:0:0:0:
256,192,219417,1,8,0:0:0:0:
256,192,219596,1,8,0:0:0:0:
256,192,219685,1,8,0:0:0:0:
256,192,219774,1,0,0:0:0:0:
256,192,219953,1,0,0:0:0:0:
256,192,220042,1,8,0:0:0:0:
256,192,220131,1,0,0:0:0:0:
256,192,220310,1,8,0:0:0:0:
256,192,220489,1,8,0:0:0:0:
256,192,220667,1,8,0:0:0:0:
256,192,220756,1,8,0:0:0:0:
256,192,220846,1,0,0:0:0:0:
256,192,221024,1,0,0:0:0:0:
256,192,221114,1,0,0:0:0:0:
256,192,221203,1,8,0:0:0:0:
256,192,221381,1,8,0:0:0:0:
256,192,221560,1,0,0:0:0:0:
256,192,221917,1,8,0:0:0:0:
256,192,222096,1,0,0:0:0:0:
256,192,222185,1,0,0:0:0:0:
256,192,222274,1,0,0:0:0:0:
256,192,222453,1,8,0:0:0:0:
256,192,222631,1,0,0:0:0:0:
256,192,222810,1,12,0:0:0:0:
256,192,223167,1,0,0:0:0:0:
256,192,223256,1,0,0:0:0:0:
256,192,223346,1,8,0:0:0:0:
256,192,223435,1,0,0:0:0:0:
256,192,223524,1,0,0:0:0:0:
256,192,223614,1,8,0:0:0:0:
256,192,223703,1,8,0:0:0:0:
256,192,223792,1,0,0:0:0:0:
256,192,223881,1,8,0:0:0:0:
256,192,223971,1,8,0:0:0:0:
256,192,224060,1,0,0:0:0:0:
256,192,224149,1,8,0:0:0:0:
256,192,224239,1,8,0:0:0:0:
256,192,224328,1,8,0:0:0:0:
256,192,224417,1,0,0:0:0:0:
256,192,224774,1,0,0:0:0:0:
256,192,225131,1,8,0:0:0:0:
256,192,225489,1,8,0:0:0:0:
256,192,225667,1,0,0:0:0:0:
256,192,225846,1,0,0:0:0:0:
256,192,226203,1,0,0:0:0:0:
256,192,226560,1,8,0:0:0:0:
256,192,226917,1,8,0:0:0:0:
256,192,227096,1,8,0:0:0:0:
256,192,227274,1,0,0:0:0:0:
256,192,227631,1,0,0:0:0:0:
256,192,227989,1,8,0:0:0:0:
256,192,228346,1,8,0:0:0:0:
256,192,228703,1,0,0:0:0:0:
256,192,228881,1,0,0:0:0:0:
256,192,229060,1,8,0:0:0:0:
256,192,229417,1,8,0:0:0:0:
256,192,229596,1,0,0:0:0:0:
256,192,229774,1,12,0:0:0:0:
256,192,230131,1,4,0:0:0:0:
256,192,230399,1,0,0:0:0:0:
256,192,230489,1,8,0:0:0:0:
256,192,230667,1,8,0:0:0:0:
256,192,230756,1,8,0:0:0:0:
256,192,230846,1,0,0:0:0:0:
256,192,231024,1,0,0:0:0:0:
256,192,231203,1,8,0:0:0:0:
256,192,231381,1,0,0:0:0:0:
256,192,231471,1,0,0:0:0:0:
256,192,231560,1,0,0:0:0:0:
256,192,231739,1,0,0:0:0:0:
256,192,231917,1,8,0:0:0:0:
256,192,232096,1,8,0:0:0:0:
256,192,232185,1,8,0:0:0:0:
256,192,232274,1,0,0:0:0:0:
256,192,232453,1,0,0:0:0:0:
256,192,232631,1,8,0:0:0:0:
256,192,232989,1,0,0:0:0:0:
256,192,233167,1,0,0:0:0:0:
256,192,233256,1,0,0:0:0:0:
256,192,233346,1,0,0:0:0:0:
256,192,233524,1,0,0:0:0:0:
256,192,233614,1,0,0:0:0:0:
256,192,233703,1,0,0:0:0:0:
256,192,233881,1,0,0:0:0:0:
256,192,233971,1,0,0:0:0:0:
256,192,234060,1,8,0:0:0:0:
256,192,234149,1,8,0:0:0:0:
256,192,234239,1,0,0:0:0:0:
256,192,234417,1,8,0:0:0:0:
256,192,234596,1,0,0:0:0:0:
256,192,234685,1,8,0:0:0:0:
256,192,234774,1,0,0:0:0:0:
256,192,234953,1,8,0:0:0:0:
256,192,235131,1,0,0:0:0:0:
256,192,235221,1,8,0:0:0:0:
256,192,235310,1,0,0:0:0:0:
256,192,235399,1,0,0:0:0:0:
256,192,235489,1,8,0:0:0:0:
256,192,235667,1,8,0:0:0:0:
256,192,235756,1,8,0:0:0:0:
256,192,235846,1,0,0:0:0:0:
256,192,236024,1,0,0:0:0:0:
256,192,236114,1,0,0:0:0:0:
256,192,236203,1,8,0:0:0:0:
256,192,236381,1,8,0:0:0:0:
256,192,236471,1,8,0:0:0:0:
256,192,236560,1,0,0:0:0:0:
256,192,236649,1,0,0:0:0:0:
256,192,236739,1,0,0:0:0:0:
256,192,236828,1,0,0:0:0:0:
256,192,236917,1,8,0:0:0:0:
256,192,237006,1,8,0:0:0:0:
256,192,237096,1,0,0:0:0:0:
256,192,237274,1,12,0:0:0:0:
256,192,237631,1,12,0:0:0:0:
256,192,237989,1,4,0:0:0:0:
256,192,238346,1,4,0:0:0:0:
256,192,238524,1,12,0:0:0:0:
256,192,238881,1,0,0:0:0:0:
256,192,238971,1,0,0:0:0:0:
256,192,239060,1,8,0:0:0:0:
256,192,239239,1,8,0:0:0:0:
256,192,239417,1,0,0:0:0:0:
256,192,239774,1,8,0:0:0:0:
256,192,239953,1,0,0:0:0:0:
256,192,240310,1,0,0:0:0:0:
256,192,240489,1,8,0:0:0:0:
256,192,240667,1,8,0:0:0:0:
256,192,240846,1,0,0:0:0:0:
256,192,241203,1,8,0:0:0:0:
256,192,241381,1,8,0:0:0:0:
256,192,241739,1,8,0:0:0:0:
256,192,241828,1,0,0:0:0:0:
256,192,241917,1,8,0:0:0:0:
256,192,242096,1,8,0:0:0:0:
256,192,242274,1,0,0:0:0:0:
256,192,242631,1,8,0:0:0:0:
256,192,242810,1,0,0:0:0:0:
256,192,243167,1,0,0:0:0:0:
256,192,243346,1,8,0:0:0:0:
256,192,243524,1,8,0:0:0:0:
256,192,243703,1,0,0:0:0:0:
256,192,244060,1,8,0:0:0:0:
256,192,244239,1,8,0:0:0:0:
256,192,244596,1,0,0:0:0:0:
256,192,244685,1,0,0:0:0:0:
256,192,244774,1,8,0:0:0:0:
256,192,244953,1,8,0:0:0:0:
256,192,245131,1,0,0:0:0:0:
256,192,245489,1,8,0:0:0:0:
256,192,245667,1,0,0:0:0:0:
256,192,246024,1,0,0:0:0:0:
256,192,246203,1,8,0:0:0:0:
256,192,246381,1,8,0:0:0:0:
256,192,246560,1,0,0:0:0:0:
256,192,246917,1,8,0:0:0:0:
256,192,247096,1,8,0:0:0:0:
256,192,247453,1,8,0:0:0:0:
256,192,247542,1,0,0:0:0:0:
256,192,247631,1,8,0:0:0:0:
256,192,247810,1,8,0:0:0:0:
256,192,247989,1,0,0:0:0:0:
256,192,248286,1,8,0:0:0:0:
256,192,248346,1,8,0:0:0:0:
256,192,248405,1,8,0:0:0:0:
256,192,248465,1,0,0:0:0:0:
256,192,248703,1,12,0:0:0:0:
256,192,249060,1,12,0:0:0:0:
256,192,249417,1,4,0:0:0:0:
256,192,249774,1,4,0:0:0:0:
256,192,249953,1,12,0:0:0:0:
256,192,250310,1,0,0:0:0:0:
256,192,250399,1,0,0:0:0:0:
256,192,250489,1,8,0:0:0:0:
256,192,250667,1,8,0:0:0:0:
256,192,250846,1,0,0:0:0:0:
256,192,250935,1,0,0:0:0:0:
256,192,251024,1,0,0:0:0:0:
256,192,251203,1,8,0:0:0:0:
256,192,251381,1,0,0:0:0:0:
256,192,251739,1,0,0:0:0:0:
256,192,251917,1,8,0:0:0:0:
256,192,252096,1,8,0:0:0:0:
256,192,252274,1,0,0:0:0:0:
256,192,252542,1,0,0:0:0:0:
256,192,252631,1,8,0:0:0:0:
256,192,252810,1,8,0:0:0:0:
256,192,253167,1,8,0:0:0:0:
256,192,253256,1,0,0:0:0:0:
256,192,253346,1,8,0:0:0:0:
256,192,253524,1,8,0:0:0:0:
256,192,253614,1,8,0:0:0:0:
256,192,253703,1,0,0:0:0:0:
256,192,253881,1,0,0:0:0:0:
256,192,254060,1,8,0:0:0:0:
256,192,254239,1,0,0:0:0:0:
256,192,254596,1,0,0:0:0:0:
256,192,254774,1,8,0:0:0:0:
256,192,254953,1,8,0:0:0:0:
256,192,255131,1,0,0:0:0:0:
256,192,255399,1,0,0:0:0:0:
256,192,255489,1,8,0:0:0:0:
256,192,255667,1,8,0:0:0:0:
256,192,256024,1,0,0:0:0:0:
256,192,256114,1,0,0:0:0:0:
256,192,256203,1,8,0:0:0:0:
256,192,256381,1,8,0:0:0:0:
256,192,256560,1,0,0:0:0:0:
256,192,256649,1,0,0:0:0:0:
256,192,256739,1,0,0:0:0:0:
256,192,256917,1,8,0:0:0:0:
256,192,257096,1,0,0:0:0:0:
256,192,257453,1,0,0:0:0:0:
256,192,257631,1,8,0:0:0:0:
256,192,257810,1,8,0:0:0:0:
256,192,257989,1,0,0:0:0:0:
256,192,258256,1,0,0:0:0:0:
256,192,258346,1,8,0:0:0:0:
256,192,258524,1,8,0:0:0:0:
256,192,258881,1,8,0:0:0:0:
256,192,258971,1,0,0:0:0:0:
256,192,259060,1,8,0:0:0:0:
256,192,259239,1,8,0:0:0:0:
256,192,259328,1,8,0:0:0:0:
256,192,259417,1,0,0:0:0:0:
256,192,259596,1,0,0:0:0:0:
256,192,259685,1,8,0:0:0:0:
256,192,259774,1,8,0:0:0:0:
256,192,259864,1,8,0:0:0:0:
256,192,259953,1,0,0:0:0:0:
256,192,260131,1,12,0:0:0:0:
256,192,260489,1,12,0:0:0:0:
256,192,260846,1,4,0:0:0:0:
256,192,261203,1,4,0:0:0:0:
256,192,261381,1,12,0:0:0:0:
256,192,261739,1,0,0:0:0:0:
256,192,261828,1,0,0:0:0:0:
256,192,261917,1,8,0:0:0:0:
256,192,262096,1,8,0:0:0:0:
256,192,262274,1,0,0:0:0:0:
256,192,262631,1,8,0:0:0:0:
256,192,262810,1,0,0:0:0:0:
256,192,263167,1,0,0:0:0:0:
256,192,263346,1,8,0:0:0:0:
256,192,263524,1,8,0:0:0:0:
256,192,263703,1,0,0:0:0:0:
256,192,264060,1,8,0:0:0:0:
256,192,264239,1,8,0:0:0:0:
256,192,264596,1,8,0:0:0:0:
256,192,264685,1,0,0:0:0:0:
256,192,264774,1,8,0:0:0:0:
256,192,264953,1,8,0:0:0:0:
256,192,265131,1,0,0:0:0:0:
256,192,265489,1,8,0:0:0:0:
256,192,265667,1,0,0:0:0:0:
256,192,266024,1,0,0:0:0:0:
256,192,266203,1,8,0:0:0:0:
256,192,266381,1,8,0:0:0:0:
256,192,266560,1,0,0:0:0:0:
256,192,266917,1,8,0:0:0:0:
256,192,267096,1,8,0:0:0:0:
256,192,267453,1,0,0:0:0:0:
256,192,267542,1,0,0:0:0:0:
256,192,267631,1,8,0:0:0:0:
256,192,267810,1,8,0:0:0:0:
256,192,267989,1,0,0:0:0:0:
256,192,268346,1,8,0:0:0:0:
256,192,268524,1,0,0:0:0:0:
256,192,268881,1,0,0:0:0:0:
256,192,269060,1,8,0:0:0:0:
256,192,269239,1,8,0:0:0:0:
256,192,269417,1,0,0:0:0:0:
256,192,269774,1,8,0:0:0:0:
256,192,269953,1,8,0:0:0:0:
256,192,270131,12,0,275846,0:0:0:0:
