osu file format v14

[General]
AudioFilename: audio.mp3
AudioLeadIn: 0
PreviewTime: 51226
Countdown: 0
SampleSet: Soft
StackLeniency: 0.2
Mode: 0
LetterboxInBreaks: 0
WidescreenStoryboard: 1

[Editor]
Bookmarks: 1762,3190,26047,51761,74619,86047,97476,101761,103190,123190,146047,157476,168904,180333,197476,203190,223904,226047,240333,263011,274440,282386
DistanceSpacing: 0.8
BeatDivisor: 4
GridSize: 4
TimelineZoom: 1.4

[Metadata]
Title:ONLYWONDER
TitleUnicode:オンリーワンダー
Artist:frederic
ArtistUnicode:フレデリック
Creator:Otaku_Gamer_45
Version:trey
Source:
Tags:
BeatmapID:1829814
BeatmapSetID:875611

[Difficulty]
HPDrainRate:5
CircleSize:4
OverallDifficulty:7.5
ApproachRate:9
SliderMultiplier:1.5
SliderTickRate:1

[Events]
//Background and Video events
0,0,"flower background.png",0,0
//Break Periods
//Storyboard Layer 0 (Background)
//Storyboard Layer 1 (Fail)
//Storyboard Layer 2 (Pass)
//Storyboard Layer 3 (Foreground)
//Storyboard Sound Samples

[TimingPoints]
1762,357.142857142857,4,2,2,80,1,0
12749,-100,4,2,2,65,0,0
13190,-100,4,2,2,80,0,0
24619,-100,4,2,2,65,0,0
26047,-111.111111111111,4,2,2,70,0,0
37119,-111.111111111111,4,2,2,60,0,0
37476,-111.111111111111,4,2,2,70,0,0
46047,-111.111111111111,4,2,2,60,0,0
46761,-100,4,2,2,70,0,0
47476,-90.9090909090909,4,2,2,80,0,0
48190,-83.3333333333333,4,2,2,90,0,0
48904,-83.3333333333333,4,2,2,100,0,0
50333,-111.111111111111,4,2,2,75,0,0
51226,-153.846153846154,4,2,2,100,0,0
51761,-76.9230769230769,4,2,2,100,0,1
61583,-100,4,2,2,100,0,1
62297,-100,4,2,2,80,0,1
63190,-76.9230769230769,4,2,2,100,0,1
73011,-100,4,2,2,100,0,1
73726,-100,4,2,2,80,0,1
74619,-100,4,2,2,80,0,0
96047,-100,4,2,2,60,0,0
97476,-200,4,2,2,50,0,0
101761,-166.666666666667,4,2,2,50,0,0
102119,-142.857142857143,4,2,2,55,0,0
102476,-125,4,2,2,60,0,0
102833,-111.111111111111,4,2,2,65,0,0
103190,-100,4,2,2,70,0,0
103904,-100,4,2,2,70,0,0
104440,-86.9565217391304,4,2,2,70,0,0
105154,-100,4,2,2,70,0,0
107297,-86.9565217391304,4,2,2,70,0,0
108547,-86.9565217391304,4,2,2,55,0,0
108904,-111.111111111111,4,2,2,70,0,0
109261,-100,4,2,2,70,0,0
109976,-111.111111111111,4,2,2,70,0,0
111761,-86.9565217391304,4,2,2,70,0,0
114619,-111.111111111111,4,2,2,70,0,0
117476,-111.111111111111,4,2,2,60,0,0
118190,-100,4,2,2,70,0,0
118904,-90.9090909090909,4,2,2,80,0,0
119619,-83.3333333333333,4,2,2,90,0,0
120333,-83.3333333333333,4,2,2,100,0,0
121761,-83.3333333333333,4,2,2,75,0,0
123190,-76.9230769230769,4,2,2,100,0,1
133011,-100,4,2,2,100,0,1
133726,-100,4,2,2,80,0,1
134619,-76.9230769230769,4,2,2,100,0,1
144440,-100,4,2,2,100,0,1
145154,-100,4,2,2,80,0,1
146047,-100,4,2,2,80,0,0
155869,-100,4,2,2,70,0,0
157476,-100,4,2,2,65,0,0
159797,-100,4,2,0,50,0,0
160333,-100,4,2,2,65,0,0
162654,-100,4,2,0,50,0,0
163190,-100,4,2,2,80,0,0
165511,-100,4,2,0,50,0,0
166047,-100,4,2,2,80,0,0
168904,-90.9090909090909,4,2,2,80,0,0
178904,-90.9090909090909,4,2,2,50,0,0
180333,-200,4,2,2,50,0,0
191761,-107.52688172043,4,2,2,55,0,0
197476,-90.9090909090909,4,2,2,60,0,0
200333,-90.9090909090909,4,2,2,65,0,0
201047,-90.9090909090909,4,2,2,70,0,0
201761,-90.9090909090909,4,2,2,80,0,0
202476,-90.9090909090909,4,2,2,85,0,0
203190,-66.6666666666667,4,2,2,100,0,1
213011,-100,4,2,2,100,0,1
213726,-100,4,2,2,85,0,1
214619,-66.6666666666667,4,2,2,100,0,1
224797,-66.6666666666667,4,2,2,85,0,1
225333,-66.6666666666667,4,2,2,80,0,1
225690,-66.6666666666667,4,2,2,90,0,1
226047,-90.9090909090909,4,2,2,85,0,0
231583,-90.9090909090909,4,2,2,70,0,0
231761,-90.9090909090909,4,2,2,85,0,0
234619,-90.9090909090909,4,2,2,60,0,0
234976,-90.9090909090909,4,2,2,62,0,0
235333,-90.9090909090909,4,2,2,64,0,0
235690,-90.9090909090909,4,2,2,66,0,0
236047,-90.9090909090909,4,2,2,68,0,0
236404,-90.9090909090909,4,2,2,70,0,0
237297,-90.9090909090909,4,2,2,75,0,0
237654,-90.9090909090909,4,2,2,80,0,0
238011,-90.9090909090909,4,2,2,85,0,0
238369,-90.9090909090909,4,2,2,90,0,0
238904,-90.9090909090909,4,2,2,95,0,0
240511,-100,4,2,2,80,0,0
249886,-100,4,2,2,65,0,0
250333,-100,4,2,2,80,0,0
261315,-100,4,2,2,65,0,0
261761,-100,4,2,2,80,0,0
263369,-125,4,2,2,70,0,0
266226,-125,4,2,2,60,0,0
269083,-125,4,2,2,50,0,0
271940,-125,4,2,2,40,0,0
282386,-125,4,2,2,5,0,0

[Colours]
Combo1 : 18,124,255
Combo2 : 236,236,0

[HitObjects]
256,72,1762,5,8,1:2:0:0:
160,240,2119,1,8,1:2:0:0:
353,240,2476,1,8,1:2:0:0:
256,72,2833,1,8,1:2:0:0:
256,320,3011,1,12,1:2:0:0:
366,99,3369,5,2,0:0:0:0:
366,99,3458,1,2,0:0:0:0:
366,99,3547,2,0,L|458:74,1,75,10|2,0:0|0:0,0:0:0:0:
328,172,3904,2,0,L|255:191,1,75,2|0,0:0|0:0,0:0:0:0:
399,218,4262,1,10,0:0:0:0:
327,23,4440,2,0,P|298:48|282:81,1,75,2|0,0:0|0:0,0:0:0:0:
213,36,4797,2,0,P|200:71|203:108,1,75,2|8,0:0|0:0,0:0:0:0:
255,191,5154,1,2,0:0:0:0:
156,193,5333,2,0,P|126:169|109:136,1,75,2|0,0:0|0:0,0:0:0:0:
283,81,5690,1,10,0:0:0:0:
208,277,5869,1,2,0:0:0:0:
328,172,6047,1,0,0:0:0:0:
313,380,6226,5,2,0:0:0:0:
313,380,6315,1,2,0:0:0:0:
313,380,6404,2,0,P|341:355|357:322,1,75,10|2,0:0|0:0,0:0:0:0:
318,245,6761,2,0,P|290:269|273:303,1,75,2|0,0:0|0:0,0:0:0:0:
403,248,7119,1,10,0:0:0:0:
362,94,7297,2,0,L|392:25,1,75,2|0,0:0|0:0,0:0:0:0:
279,104,7654,2,0,L|234:43,1,75,2|8,0:0|0:0,0:0:0:0:
328,172,8011,1,2,0:0:0:0:
412,162,8190,2,0,L|486:153,1,75,2|0,0:0|0:0,0:0:0:0:
244,182,8547,1,10,0:0:0:0:
295,250,8726,2,0,P|331:255|368:246,1,75,6|0,0:0|0:0,0:0:0:0:
168,124,9083,5,2,0:0:0:0:
168,124,9172,1,2,0:0:0:0:
168,124,9261,1,10,0:0:0:0:
210,260,9440,1,2,0:0:0:0:
83,133,9619,2,0,L|22:68,1,75,2|0,0:0|0:0,0:0:0:0:
147,53,9976,1,10,0:0:0:0:
150,204,10154,2,0,L|85:264,1,75,2|0,0:0|0:0,0:0:0:0:
228,180,10511,2,0,L|312:205,1,75,2|8,0:0|0:0,0:0:0:0:
209,259,10869,1,2,0:0:0:0:
169,125,11047,2,0,L|147:53,1,75,2|0,0:0|0:0,0:0:0:0:
95,255,11404,1,10,0:0:0:0:
299,201,11583,1,2,0:0:0:0:
225,332,11761,1,0,0:0:0:0:
433,206,11940,5,2,0:0:0:0:
433,206,12029,1,2,0:0:0:0:
433,206,12119,1,10,0:0:0:0:
364,349,12297,1,2,0:0:0:0:
363,122,12476,2,0,P|331:104|294:99,1,75,2|0,0:0|0:0,0:0:0:0:
265,104,12744,1,8,3:2:0:0:
240,120,12833,1,10,3:2:0:0:
219,141,12922,1,8,3:2:0:0:
206,168,13011,1,8,3:2:0:0:
299,201,13190,5,8,1:2:0:0:
203,32,13547,1,8,1:2:0:0:
106,200,13904,1,8,1:2:0:0:
299,201,14261,1,8,1:2:0:0:
85,77,14440,1,12,1:2:0:0:
210,287,14797,5,2,0:0:0:0:
210,287,14886,1,2,0:0:0:0:
210,287,14976,2,0,L|187:201,1,75,10|2,0:0|0:0,0:0:0:0:
245,149,15333,2,0,L|268:63,1,75,2|0,0:0|0:0,0:0:0:0:
161,134,15690,1,10,0:0:0:0:
274,227,15869,2,0,P|305:208|324:176,1,75,2|0,0:0|0:0,0:0:0:0:
405,189,16226,2,0,P|403:151|385:119,1,75,2|8,0:0|0:0,0:0:0:0:
264,76,16583,1,2,0:0:0:0:
391,273,16761,2,0,P|428:271|460:253,1,75,2|0,0:0|0:0,0:0:0:0:
399,35,17119,2,0,P|361:36|329:54,1,75,10|2,0:0|0:0,0:0:0:0:
324,176,17476,1,0,0:0:0:0:
203,32,17654,5,2,0:0:0:0:
203,32,17744,1,2,0:0:0:0:
203,32,17833,1,10,0:0:0:0:
134,179,18011,1,2,0:0:0:0:
19,34,18190,2,0,L|0:106,1,75,2|0,0:0|0:0,0:0:0:0:
0,191,18547,1,10,0:0:0:0:
19,348,18726,2,0,L|0:275,1,75,2|0,0:0|0:0,0:0:0:0:
140,336,19083,2,0,L|87:283,1,75,2|8,0:0|0:0,0:0:0:0:
237,264,19440,2,0,L|165:245,1,75,2|2,0:0|0:0,0:0:0:0:
0,191,19797,1,0,0:0:0:0:
87,283,19976,1,10,0:0:0:0:
171,100,20154,2,0,L|202:32,1,75,6|0,0:0|0:0,0:0:0:0:
237,264,20511,5,2,0:0:0:0:
237,264,20601,1,2,0:0:0:0:
237,264,20690,1,10,0:0:0:0:
135,179,20869,1,2,0:0:0:0:
332,130,21047,2,0,L|404:111,1,75,2|0,0:0|0:0,0:0:0:0:
261,173,21404,1,10,0:0:0:0:
310,244,21583,2,0,L|238:264,1,75,2|0,0:0|0:0,0:0:0:0:
389,281,21940,2,0,L|336:335,1,75,2|8,0:0|0:0,0:0:0:0:
500,164,22297,1,2,0:0:0:0:
475,274,22476,2,0,L|456:347,1,75,2|0,0:0|0:0,0:0:0:0:
332,130,22833,1,10,0:0:0:0:
310,244,23011,2,0,L|238:264,1,75,2|0,0:0|0:0,0:0:0:0:
295,66,23369,5,2,0:0:0:0:
295,66,23458,1,2,0:0:0:0:
295,66,23547,2,0,L|332:130,1,75,10|2,0:0|0:0,0:0:0:0:
249,174,23904,2,0,L|184:137,1,75,2|0,0:0|0:0,0:0:0:0:
84,79,24261,1,10,0:0:0:0:
210,55,24440,1,2,0:0:0:0:
301,279,24619,5,8,3:2:0:0:
301,279,24708,1,8,3:2:0:0:
301,279,24797,2,0,L|311:240,1,37.5,8|0,3:2|2:0,3:2:0:0:
503,249,24976,1,8,3:2:0:0:
503,249,25065,1,8,3:2:0:0:
503,249,25154,2,0,L|513:287,1,37.5,8|0,3:2|2:0,3:2:0:0:
408,355,25333,5,8,3:2:0:0:
408,310,25422,1,8,3:2:0:0:
408,265,25511,1,8,3:2:0:0:
408,219,25601,1,8,3:2:0:0:
408,174,25690,1,10,3:2:0:0:
408,129,25779,1,8,3:2:0:0:
408,83,25869,1,8,3:2:0:0:
256,48,26047,6,0,L|256:192,1,134.999995880127,2|8,0:0|0:0,0:0:0:0:
256,268,26583,1,0,0:0:0:0:
67,159,26761,2,0,L|183:226,1,134.999995880127,2|8,0:0|0:0,0:0:0:0:
256,268,27297,1,0,0:0:0:0:
328,225,27476,2,0,P|354:205|368:174,1,67.4999979400635,2|0,0:0|0:0,0:0:0:0:
366,0,27833,1,8,0:0:0:0:
438,43,28011,2,0,L|420:108,1,67.4999979400635,2|0,0:0|0:0,0:0:0:0:
504,95,28369,2,0,L|486:160,1,67.4999979400635,2|8,0:0|0:0,0:0:0:0:
379,330,28726,5,0,0:0:0:0:
296,319,28904,2,0,P|270:299|256:268,1,67.4999979400635,2|0,0:0|0:0,0:0:0:0:
258,103,29261,1,8,0:0:0:0:
186,146,29440,2,0,L|204:211,1,67.4999979400635,2|0,0:0|0:0,0:0:0:0:
120,198,29797,2,0,L|138:263,1,67.4999979400635,2|8,0:0|0:0,0:0:0:0:
257,102,30154,2,0,P|234:78|204:64,1,67.4999979400635,2|0,0:0|0:0,0:0:0:0:
107,114,30511,1,2,0:0:0:0:
119,198,30690,2,0,P|151:186|176:163,1,67.4999979400635,10|0,0:0|0:0,0:0:0:0:
94,30,31047,2,0,P|62:41|38:63,1,67.4999979400635,2|0,0:0|0:0,0:0:0:0:
107,114,31404,1,8,0:0:0:0:
107,113,31761,6,0,P|51:149|37:213,1,134.999995880127,2|8,0:0|0:0,0:0:0:0:
59,296,32297,1,0,0:0:0:0:
242,248,32476,2,0,P|206:303|142:317,1,134.999995880127,2|8,0:0|0:0,0:0:0:0:
59,296,33011,1,0,0:0:0:0:
119,235,33190,2,0,L|180:173,1,67.4999979400635,2|0,0:0|0:0,0:0:0:0:
242,146,33547,1,8,0:0:0:0:
365,235,33726,2,0,L|317:186,1,67.4999979400635,2|0,0:0|0:0,0:0:0:0:
242,146,34083,1,2,0:0:0:0:
242,248,34261,1,10,0:0:0:0:
242,248,34619,6,0,L|174:248,1,67.4999979400635,2|0,2:2|0:0,0:0:0:0:
108,223,34976,2,0,L|141:164,1,67.4999979400635,10|0,2:2|0:0,0:0:0:0:
198,120,35333,2,0,L|231:178,1,67.4999979400635,2|0,2:2|0:0,0:0:0:0:
307,304,35690,1,8,0:0:0:0:
342,60,35869,2,0,P|299:9|233:3,1,134.999995880127,2|0,2:2|0:0,0:0:0:0:
67,126,36404,6,0,L|33:184,1,67.4999979400635,8|0,2:2|0:0,0:0:0:0:
178,332,36761,2,0,L|245:332,1,67.4999979400635,2|0,2:2|0:0,0:0:0:0:
328,201,37119,1,8,3:2:0:0:
311,171,37208,1,8,3:2:0:0:
294,142,37297,1,8,3:2:0:0:
277,113,37386,1,8,3:2:0:0:
260,84,37476,6,0,L|192:84,1,67.4999979400635,2|0,3:2|0:0,0:0:0:0:
151,159,37833,2,0,L|218:159,1,67.4999979400635,8|0,0:0|0:0,0:0:0:0:
109,84,38190,2,0,L|37:84,1,67.4999979400635,2|0,0:0|0:0,0:0:0:0:
0,159,38547,2,0,L|72:159,1,67.4999979400635,8|0,0:0|0:0,0:0:0:0:
151,159,38904,1,2,0:0:0:0:
236,157,39083,1,2,0:0:0:0:
192,84,39261,1,8,0:0:0:0:
175,230,39440,2,0,L|108:230,1,67.4999979400635,2|0,0:0|0:0,0:0:0:0:
151,159,39797,1,2,0:0:0:0:
151,305,39976,1,8,0:0:0:0:
262,232,40154,1,0,0:0:0:0:
309,163,40333,6,0,L|346:93,1,67.4999979400635,2|0,0:0|0:0,0:0:0:0:
349,230,40690,2,0,L|426:228,1,67.4999979400635,10|0,0:0|0:0,0:0:0:0:
311,299,41048,2,0,L|349:363,1,67.4999979400635,2|0,0:0|0:0,0:0:0:0:
262,232,41404,1,8,0:0:0:0:
215,163,41583,2,0,L|178:93,1,67.4999979400635,2|0,0:0|0:0,0:0:0:0:
213,299,41940,2,0,L|175:363,1,67.4999979400635,2|8,0:0|0:0,0:0:0:0:
175,230,42297,2,0,L|98:228,1,67.4999979400635,2|2,0:0|2:2,0:0:0:0:
90,230,42565,1,0,2:2:0:0:
73,230,42654,1,0,2:2:0:0:
55,230,42744,1,0,2:2:0:0:
38,230,42833,1,8,2:2:0:0:
355,34,43190,6,0,P|412:69|436:131,1,134.999995880127,2|8,0:0|0:0,0:0:0:0:
440,220,43726,1,0,0:0:0:0:
302,191,43904,2,0,L|336:133,1,67.4999979400635,2|0,0:0|0:0,0:0:0:0:
511,172,44261,1,8,0:0:0:0:
406,336,44440,2,0,P|350:372|286:358,1,134.999995880127,2|0,0:0|0:0,0:0:0:0:
256,144,44976,1,8,0:0:0:0:
256,240,45154,1,0,0:0:0:0:
336,86,45333,5,2,0:0:0:0:
311,281,45511,1,0,0:0:0:0:
166,84,45690,5,10,0:0:0:0:
201,281,45869,1,8,0:0:0:0:
256,144,46047,6,0,L|207:191,1,67.4999979400635,2|0,1:2|0:0,0:0:0:0:
256,240,46404,2,0,L|305:193,1,67.4999979400635,10|0,0:0|0:0,0:0:0:0:
201,103,46761,6,0,L|160:172,1,75,2|0,1:2|0:0,0:0:0:0:
311,281,47119,2,0,L|352:212,1,75,10|0,0:0|0:0,0:0:0:0:
137,77,47476,6,0,L|114:156,1,82.5000025177003,2|0,1:2|0:0,0:0:0:0:
375,307,47833,2,0,L|398:228,1,82.5000025177003,10|0,0:0|0:0,0:0:0:0:
68,68,48190,6,0,L|68:160,1,89.9999972534181,2|0,1:2|0:0,0:0:0:0:
444,316,48547,2,0,L|444:224,1,89.9999972534181,10|0,0:0|0:0,0:0:0:0:
68,68,48904,5,8,1:2:0:0:
444,316,49261,1,8,1:2:0:0:
201,103,49619,5,8,1:2:0:0:
311,281,49976,1,8,1:2:0:0:
256,144,50333,6,8,L|231:168,1,33.7499989700318,10|8,3:2|3:2,3:2:0:0:
256,240,50511,2,8,L|280:215,1,33.7499989700318,10|8,3:2|3:2,3:2:0:0:
201,103,50690,2,8,L|184:131,1,33.7499989700318,10|8,3:2|3:2,3:2:0:0:
311,281,50869,2,8,L|327:252,1,33.7499989700318,10|8,3:2|3:2,3:2:0:0:
256,192,51047,5,10,3:2:0:0:
256,192,51226,2,0,L|254:251,2,48.7499977684022
257,59,51761,6,0,P|304:70|345:96,1,97.4999955368044,2|0,0:0|0:0,0:0:0:0:
254,324,52119,2,0,P|207:313|166:287,1,97.4999955368044,10|0,0:0|0:0,0:0:0:0:
388,193,52476,2,0,P|377:240|351:281,1,97.4999955368044,2|0,0:0|0:0,0:0:0:0:
123,190,52833,2,0,P|134:143|160:102,1,97.4999955368044,10|0,0:0|0:0,0:0:0:0:
352,8,53190,5,2,0:0:0:0:
290,203,53369,1,2,0:0:0:0:
279,62,53547,1,8,0:0:0:0:
394,214,53726,2,0,P|382:166|357:125,1,97.4999955368044,2|0,0:0|0:0,0:0:0:0:
163,143,54083,1,2,0:0:0:0:
254,324,54261,2,0,P|295:349|342:361,1,97.4999955368044,8|0,0:0|0:0,0:0:0:0:
357,125,54619,5,2,0:0:0:0:
436,323,54797,1,2,0:0:0:0:
440,204,54976,1,8,0:0:0:0:
254,324,55154,2,0,P|206:334|158:328,1,97.4999955368044,2|0,0:0|0:0,0:0:0:0:
21,191,55511,1,2,0:0:0:0:
52,291,55690,1,8,0:0:0:0:
140,123,55869,6,0,P|170:84|211:58,1,97.4999955368044,2|0,0:0|0:0,0:0:0:0:
372,48,56226,1,2,0:0:0:0:
408,257,56404,2,0,P|361:246|320:221,1,97.4999955368044,10|0,0:0|0:0,0:0:0:0:
290,0,56761,1,2,0:0:0:0:
250,149,56940,1,0,0:0:0:0:
372,48,57119,1,8,0:0:0:0:
212,59,57297,1,0,0:0:0:0:
348,144,57476,6,0,P|396:145|438:121,1,97.4999955368044,2|0,0:0|0:0,0:0:0:0:
212,59,57833,1,10,0:0:0:0:
212,59,58011,1,0,0:0:0:0:
279,215,58190,2,0,P|320:239|368:240,1,97.4999955368044,2|0,0:0|0:0,0:0:0:0:
212,59,58547,1,10,0:0:0:0:
212,59,58726,1,0,0:0:0:0:
183,241,58904,6,0,P|206:283|247:307,1,97.4999955368044,2|0,0:0|0:0,0:0:0:0:
212,59,59261,1,10,0:0:0:0:
212,59,59440,1,2,0:0:0:0:
108,304,59619,2,0,P|85:263|86:215,1,97.4999955368044,2|0,0:0|0:0,0:0:0:0:
249,176,59976,2,0,P|225:217|183:241,1,97.4999955368044,10|0,0:0|0:0,0:0:0:0:
68,118,60333,6,0,P|116:119|158:144,1,97.4999955368044,2|0,0:0|0:0,0:0:0:0:
108,304,60690,1,10,0:0:0:0:
68,118,60869,1,2,0:0:0:0:
249,176,61047,1,2,0:0:0:0:
141,199,61226,1,0,0:0:0:0:
212,59,61404,1,10,0:0:0:0:
357,153,61583,2,0,B|355:173|355:173|375:188|375:188|364:212|364:212|391:246|391:246|380:269|380:269|395:291|395:291|395:330|365:345,1,225,2|8,0:2|0:0,0:0:0:0:
157,143,62297,5,8,3:2:0:0:
157,143,62386,1,8,3:2:0:0:
157,143,62476,1,8,3:2:0:0:
249,176,62654,5,8,3:2:0:0:
210,227,62744,1,8,3:2:0:0:
148,242,62833,1,8,3:2:0:0:
90,215,62922,1,8,3:2:0:0:
60,159,63011,1,8,3:2:0:0:
70,96,63101,1,8,3:2:0:0:
116,52,63190,6,0,L|206:0,1,97.4999955368044,6|0,0:0|0:1,0:0:0:0:
333,127,63547,2,0,L|248:175,1,97.4999955368044,10|0,0:0|0:0,0:0:0:0:
72,191,63904,2,0,L|156:142,1,97.4999955368044,2|0,0:0|0:0,0:0:0:0:
289,266,64261,2,0,L|198:318,1,97.4999955368044,10|0,0:0|0:0,0:0:0:0:
257,88,64619,5,2,0:0:0:0:
289,266,64797,1,2,0:0:0:0:
201,185,64976,1,8,0:0:0:0:
424,144,65154,2,0,P|470:158|503:192,1,97.4999955368044,2|0,0:0|0:0,0:0:0:0:
422,347,65511,1,2,0:0:0:0:
337,195,65690,2,0,P|323:148|333:102,1,97.4999955368044,8|0,0:0|0:0,0:0:0:0:
486,52,66047,5,2,0:0:0:0:
442,247,66226,1,2,0:0:0:0:
424,144,66404,1,8,0:0:0:0:
512,321,66583,2,0,P|470:345|423:347,1,97.4999955368044,2|0,0:0|0:0,0:0:0:0:
261,177,66940,1,2,0:0:0:0:
245,280,67119,1,8,0:0:0:0:
234,80,67297,6,0,P|282:79|324:101,1,97.4999955368044,2|0,0:0|0:0,0:0:0:0:
434,204,67654,1,2,0:0:0:0:
261,177,67833,2,0,P|212:178|170:156,1,97.4999955368044,10|0,0:0|0:0,0:0:0:0:
379,37,68190,1,2,0:0:0:0:
350,196,68369,1,0,0:0:0:0:
469,125,68547,1,8,0:0:0:0:
324,101,68726,1,0,0:0:0:0:
374,334,68904,6,0,L|300:270,1,97.4999955368044,2|0,0:0|0:0,0:0:0:0:
170,156,69261,1,10,0:0:0:0:
271,7,69440,1,2,0:0:0:0:
349,168,69619,1,2,0:0:0:0:
170,156,69797,1,0,0:0:0:0:
197,342,69976,6,0,L|164:249,1,97.4999955368044,10|0,0:0|0:0,0:0:0:0:
109,85,70333,1,2,0:0:0:0:
271,7,70512,1,2,0:0:0:0:
258,185,70691,1,10,0:0:0:0:
109,85,70869,1,0,0:0:0:0:
347,82,71047,5,2,0:0:0:0:
202,252,71226,1,2,0:0:0:0:
185,77,71404,1,10,0:0:0:0:
303,258,71583,1,2,0:0:0:0:
271,7,71761,2,0,L|262:128,1,97.4999955368044,2|0,0:0|0:0,0:0:0:0:
248,325,72119,1,8,0:0:0:0:
248,325,72476,5,0,1:2:0:0:
349,168,72654,1,2,3:3:0:0:
361,314,72833,1,2,1:2:0:0:
421,122,73011,2,0,P|422:30|346:81,1,225,8|0,0:0|0:0,0:0:0:0:
349,168,73726,5,8,3:2:0:0:
302,154,73815,1,8,3:2:0:0:
269,117,73904,1,8,3:2:0:0:
262,68,73994,1,0,3:2:0:0:
283,23,74083,1,8,3:2:0:0:
248,57,74172,1,8,3:2:0:0:
204,79,74261,1,8,3:2:0:0:
157,87,74350,1,0,3:2:0:0:
108,81,74440,1,8,3:2:0:0:
64,60,74529,1,0,3:2:0:0:
27,28,74619,6,0,P|-2:49|-21:81,1,75,2|0,0:0|0:0,0:0:0:0:
5,197,74976,2,0,P|36:174|55:142,1,75,2|0,0:0|0:0,0:0:0:0:
139,149,75333,2,0,P|158:182|189:203,1,75,10|0,0:0|0:0,0:0:0:0:
220,124,75690,1,2,0:0:0:0:
163,299,75869,6,0,P|236:291|284:236,1,150,2|0,0:0|0:0,0:0:0:0:
301,151,76404,2,0,L|308:76,1,75,2|0,0:0|0:0,0:0:0:0:
381,122,76761,2,0,L|373:196,1,75,10|0,0:0|0:0,0:0:0:0:
365,279,77119,1,2,0:0:0:0:
388,22,77297,6,0,P|454:55|480:123,1,150,2|0,0:0|0:0,0:0:0:0:
468,222,77833,1,2,0:0:0:0:
381,122,78011,1,0,0:0:0:0:
365,279,78190,1,10,0:0:0:0:
233,30,78547,1,2,0:0:0:0:
113,227,78904,6,0,P|81:207|61:176,2,75,6|0|8,0:0|0:0|0:0,0:0:0:0:
139,149,79440,1,0,0:0:0:0:
301,151,79619,2,0,L|280:228,1,75,2|0,0:3|0:0,0:0:0:0:
372,201,79976,2,0,L|392:278,1,75,8|0,0:0|0:0,0:0:0:0:
458,216,80333,6,0,L|477:143,1,75,2|0,0:0|0:0,0:0:0:0:
505,44,80690,2,0,L|432:62,1,75,8|0,0:0|0:0,0:0:0:0:
282,45,81047,2,0,L|355:27,1,75,2|0,0:0|0:0,0:0:0:0:
232,114,81404,2,0,L|159:99,1,75,10|0,0:0|0:0,0:0:0:0:
39,45,81761,6,0,L|112:27,1,75,2|0,0:0|0:0,0:0:0:0:
95,194,82119,2,0,L|77:121,1,75,8|0,0:0|0:0,0:0:0:0:
192,224,82476,2,0,L|174:297,1,75,2|0,0:0|0:0,0:0:0:0:
274,362,82833,2,0,L|256:289,1,75,8|0,0:0|0:0,0:0:0:0:
293,131,83190,6,0,L|275:204,1,75,2|0,0:0|0:0,0:0:0:0:
204,78,83547,2,0,L|256:23,1,75,10|0,0:0|0:0,0:0:0:0:
412,166,83904,2,0,L|375:231,1,75,2|0,0:0|0:0,0:0:0:0:
174,297,84261,2,0,L|136:232,1,75,10|0,0:0|0:0,0:0:0:0:
256,24,84619,5,8,1:2:0:0:
136,232,84976,1,8,1:2:0:0:
376,232,85333,1,8,1:2:0:0:
256,24,85690,1,8,1:2:0:0:
256,289,85869,1,12,1:2:0:0:
161,108,86226,5,2,0:0:0:0:
161,108,86315,1,2,0:0:0:0:
161,108,86404,2,0,L|83:128,1,75,10|2,0:0|0:0,0:0:0:0:
209,234,86761,2,0,L|229:162,1,75,2|0,0:0|0:0,0:0:0:0:
75,212,87119,1,10,0:0:0:0:
295,233,87297,2,0,P|288:269|267:299,1,75,2|0,0:0|0:0,0:0:0:0:
341,337,87654,2,0,P|317:365|283:381,1,75,2|8,0:0|0:0,0:0:0:0:
209,234,88011,1,2,0:0:0:0:
204,354,88190,2,0,P|169:340|143:313,1,75,2|0,0:0|0:0,0:0:0:0:
9,158,88547,1,10,0:0:0:0:
22,323,88726,1,2,0:0:0:0:
75,212,88904,1,0,0:0:0:0:
280,162,89083,6,0,P|289:178|291:197,1,37.5,2|2,0:0|0:0,0:0:0:0:
221,103,89261,2,0,P|252:82|289:80,1,75,10|2,0:0|0:0,0:0:0:0:
439,143,89619,2,0,L|366:162,1,75,2|0,0:0|0:0,0:0:0:0:
207,205,89976,1,10,0:0:0:0:
438,271,90154,2,0,L|365:252,1,75,2|0,0:0|0:0,0:0:0:0:
342,341,90511,2,0,L|288:287,1,75,2|8,0:0|0:0,0:0:0:0:
207,205,90869,1,2,0:0:0:0:
224,48,91047,2,0,P|260:51|290:73,1,75,2|0,0:0|0:0,0:0:0:0:
366,161,91404,1,10,0:0:0:0:
153,97,91583,2,0,P|138:63|141:26,1,75,6|0,0:0|0:0,0:0:0:0:
361,24,91940,5,2,0:0:0:0:
361,24,92029,1,2,0:0:0:0:
361,24,92119,1,10,0:0:0:0:
229,131,92297,1,2,0:0:0:0:
484,55,92476,2,0,L|459:147,1,75,2|0,0:0|0:0,0:0:0:0:
442,209,92833,1,10,0:0:0:0:
312,110,93011,2,0,L|268:33,1,75,2|0,0:0|0:0,0:0:0:0:
289,190,93369,2,0,L|212:234,1,75,2|8,0:0|0:0,0:0:0:0:
372,169,93726,1,2,0:0:0:0:
229,131,93904,2,0,L|143:108,1,75,2|0,0:0|0:0,0:0:0:0:
274,45,94261,1,10,0:0:0:0:
224,227,94440,1,2,0:0:0:0:
372,169,94619,1,0,0:0:0:0:
244,310,94797,6,0,P|226:314|207:311,1,37.5,2|2,0:0|0:0,0:0:0:0:
303,251,94975,2,0,P|324:282|326:319,1,75,10|2,0:0|0:0,0:0:0:0:
224,227,95333,2,0,P|240:193|271:173,1,75,2|0,0:0|0:0,0:0:0:0:
143,255,95690,1,10,0:0:0:0:
129,171,95869,1,2,0:0:0:0:
48,187,96047,5,8,3:2:0:0:
48,157,96136,1,8,3:2:0:0:
59,128,96226,1,10,3:2:0:0:
79,105,96315,1,0,3:2:0:0:
105,92,96404,2,0,L|142:87,1,37.5,0|8,3:2|3:2,3:2:0:0:
167,168,96583,2,0,L|129:172,1,37.5,10|0,3:2|3:3,0:2:0:0:
223,107,96761,5,10,3:2:0:0:
244,138,96851,1,8,3:2:0:0:
250,174,96940,1,8,3:2:0:0:
239,209,97029,1,8,3:2:0:0:
214,237,97119,1,10,3:2:0:0:
179,250,97208,1,8,3:2:0:0:
143,255,97297,1,10,3:2:0:0:
0,356,97476,6,0,L|75:356,1,75
75,280,98190,2,0,L|0:280,1,75
255,356,98904,2,0,L|299:356,1,37.5
292,280,99440,2,0,L|217:280,1,75
435,356,100154,5,0,0:0:0:0:
435,356,100333,2,0,L|480:356,1,37.5
472,280,100869,2,0,L|397:280,1,75
304,280,101404,2,0,L|304:332,1,37.5
324,182,101761,6,0,L|355:149,1,44.999998626709,0|0,1:0|0:0,0:0:0:0:
239,182,102119,2,0,L|202:144,1,52.4999983978272,8|0,0:0|0:0,0:0:0:0:
243,69,102476,2,0,L|258:11,1,60,0|0,1:0|0:0,0:0:0:0:
159,69,102833,2,0,L|142:3,1,67.4999979400635,8|0,0:0|0:0,0:0:0:0:
41,145,103190,6,0,L|116:145,1,75,2|0,0:0|0:0,0:0:0:0:
203,145,103547,1,8,0:0:0:0:
159,69,103726,1,2,0:0:0:0:
159,246,103904,2,0,L|234:246,1,75,2|0,0:0|0:0,0:0:0:0:
320,246,104261,1,10,0:0:0:0:
406,246,104440,2,0,L|406:332,1,86.2500016450882,2|0,0:0|0:0,0:0:0:0:
320,160,104797,2,0,L|406:160,1,86.2500016450882,2|8,0:0|0:0,0:0:0:0:
320,332,105154,2,0,L|245:332,1,75,2|0,0:0|0:0,0:0:0:0:
159,332,105511,1,2,0:0:0:0:
159,246,105690,1,8,0:0:0:0:
85,289,105869,1,2,0:0:0:0:
30,158,106047,5,2,0:0:0:0:
159,246,106226,1,2,0:0:0:0:
92,106,106404,1,10,0:0:0:0:
159,246,106583,1,2,0:0:0:0:
171,92,106761,1,2,0:0:0:0:
159,246,106940,1,2,0:0:0:0:
245,119,107119,1,10,0:0:0:0:
245,332,107297,2,0,L|158:332,1,86.2500016450882,2|0,0:0|0:0,0:0:0:0:
159,161,107654,1,2,0:0:0:0:
245,246,107833,1,10,0:0:0:0:
245,33,108011,2,0,L|158:33,1,86.2500016450882,2|0,0:0|0:0,0:0:0:0:
74,33,108369,1,2,0:0:0:0:
263,155,108547,1,8,3:2:0:0:
263,155,108636,1,8,3:2:0:0:
263,155,108726,1,8,3:2:0:0:
436,33,108904,6,0,L|436:101,1,67.4999979400635,2|0,0:0|0:0,0:0:0:0:
360,222,109261,2,0,P|352:186|360:150,1,75,10|0,0:0|0:0,0:0:0:0:
512,150,109619,2,0,P|521:186|513:222,1,75,2|0,0:0|0:0,0:0:0:0:
436,341,109976,2,0,L|436:273,1,67.4999979400635,10|0,0:0|0:0,0:0:0:0:
436,187,110333,1,2,0:0:0:0:
436,100,110511,1,2,0:0:0:0:
512,150,110690,1,8,0:0:0:0:
360,149,110869,2,0,L|285:149,1,67.4999979400635,2|0,0:0|0:0,0:0:0:0:
206,149,111226,1,2,0:0:0:0:
243,73,111404,1,8,0:0:0:0:
242,225,111583,1,0,0:0:0:0:
98,281,111761,6,0,B|40:265|40:265|27:241,1,86.2500016450882,2|0,0:0|0:0,0:0:0:0:
36,117,112119,1,8,0:0:0:0:
130,85,112297,1,2,0:0:0:0:
206,148,112476,2,0,B|263:163|263:163|286:148,1,86.2500016450882,2|0,0:0|0:0,0:0:0:0:
380,100,112833,1,10,0:0:0:0:
286,235,113011,2,0,B|263:249|263:249|205:234,1,86.2500016450882,2|0,0:0|0:0,0:0:0:0:
112,186,113369,1,2,0:0:0:0:
204,320,113547,2,0,B|262:335|262:335|285:321,1,86.2500016450882,10|0,0:0|0:0,0:0:0:0:
378,272,113904,1,2,0:0:0:0:
477,265,114083,1,0,0:0:0:0:
511,358,114261,1,8,0:0:0:0:
157,34,114619,6,0,P|100:69|76:131,1,134.999995880127,2|8,0:0|0:0,0:0:0:0:
72,220,115155,1,0,0:0:0:0:
175,132,115333,1,2,0:0:0:0:
1,171,115511,1,0,0:0:0:0:
230,214,115690,1,8,0:0:0:0:
106,336,115869,2,0,P|162:372|226:358,1,134.999995880127,2|0,0:0|0:0,0:0:0:0:
298,230,116404,1,8,0:0:0:0:
212,152,116583,1,0,0:0:0:0:
299,301,116761,5,2,0:0:0:0:
282,68,116940,1,0,0:0:0:0:
229,315,117119,5,10,0:0:0:0:
211,81,117298,1,8,0:0:0:0:
230,214,117476,6,0,P|213:186|213:152,1,67.4999979400635,2|0,1:2|0:1,1:1:0:0:
281,169,117833,2,0,P|298:197|298:231,1,67.4999979400635,10|0,0:0|0:0,0:0:0:0:
151,121,118190,6,0,P|176:94|211:82,1,75,2|0,1:2|0:2,0:2:0:0:
361,263,118547,2,0,P|335:289|300:301,1,75,10|0,0:0|0:0,0:0:0:0:
227,14,118904,6,0,P|262:32|282:68,1,82.5000025177003,2|0,1:2|0:0,0:0:0:0:
285,370,119261,2,0,P|249:351|229:315,1,82.5000025177003,10|0,0:0|0:0,0:0:0:0:
352,66,119619,6,0,P|338:109|302:135,1,89.9999972534181,2|0,1:2|0:0,0:0:0:0:
159,317,119976,2,0,P|173:274|209:248,1,89.9999972534181,10|0,0:0|0:0,0:0:0:0:
352,66,120333,5,8,1:2:0:0:
159,317,120690,1,8,1:2:0:0:
211,82,121047,5,8,1:2:0:0:
301,302,121404,1,8,1:2:0:0:
256,192,121761,5,8,3:2:0:0:
251,208,121851,1,8,3:2:0:0:
234,219,121940,1,8,3:2:0:0:
212,209,122029,1,8,3:2:0:0:
195,187,122119,1,8,3:2:0:0:
200,157,122208,1,8,3:2:0:0:
225,134,122297,1,8,3:2:0:0:
261,127,122386,1,8,3:2:0:0:
298,143,122476,5,8,3:2:0:0:
229,315,122654,1,0,1:0:0:0:
151,121,122833,1,8,0:0:0:0:
361,263,123011,1,0,1:2:0:0:
127,22,123190,6,0,P|86:48|56:87,1,97.4999955368044,6|0,0:2|0:0,0:0:0:0:
297,142,123547,2,0,P|338:116|368:77,1,97.4999955368044,10|0,0:0|0:0,0:0:0:0:
150,120,123904,2,0,P|128:162|121:210,1,97.4999955368044,2|0,0:0|0:0,0:0:0:0:
439,152,124261,2,0,P|461:108|467:60,1,97.4999955368044,10|0,0:0|0:0,0:0:0:0:
273,42,124619,5,2,0:0:0:0:
298,276,124797,1,2,0:0:0:0:
219,192,124976,1,8,0:0:0:0:
402,286,125154,2,0,P|390:238|364:197,1,97.4999955368044,2|0,0:0|0:0,0:0:0:0:
223,89,125511,1,2,0:0:0:0:
194,265,125690,2,0,P|206:313|232:354,1,97.4999955368044,8|0,0:0|0:0,0:0:0:0:
297,142,126047,5,2,0:0:0:0:
89,220,126226,1,2,0:0:0:0:
194,265,126404,1,8,0:0:0:0:
121,90,126583,2,0,P|96:46|61:13,1,97.4999955368044,2|0,0:0|0:0,0:0:0:0:
21,149,126940,1,2,0:0:0:0:
223,89,127119,1,8,0:0:0:0:
298,276,127297,6,0,P|322:319|357:352,1,97.4999955368044,2|0,0:0|0:0,0:0:0:0:
509,381,127654,1,2,0:0:0:0:
334,178,127833,2,0,P|284:177|238:191,1,97.4999955368044,10|0,0:0|0:0,0:0:0:0:
79,352,128190,1,2,0:0:0:0:
215,273,128369,1,0,0:0:0:0:
55,255,128547,1,8,0:0:0:0:
174,362,128726,1,0,0:0:0:0:
142,210,128904,6,0,P|110:172|65:155,1,97.4999955368044,2|0,0:0|0:0,0:0:0:0:
54,254,129261,1,10,0:0:0:0:
141,296,129440,1,0,0:0:0:0:
238,190,129619,2,0,P|217:145|178:117,1,97.4999955368044,2|0,0:0|0:0,0:0:0:0:
142,210,129976,1,10,0:0:0:0:
215,273,130154,1,0,0:0:0:0:
330,199,130333,6,0,P|321:151|291:113,1,97.4999955368044,2|0,0:0|0:0,0:0:0:0:
238,190,130690,1,10,0:0:0:0:
292,270,130868,1,2,0:0:0:0:
353,27,131047,2,0,P|306:10|258:17,1,97.4999955368044,2|0,0:0|0:0,0:0:0:0:
238,190,131404,2,0,P|276:158|292:113,1,97.4999955368044,10|0,0:0|0:0,0:0:0:0:
154,8,131761,5,2,0:0:0:0:
192,93,131940,1,0,0:0:0:0:
353,27,132119,1,10,0:0:0:0:
292,114,132297,1,2,0:0:0:0:
238,190,132476,2,0,L|170:287,2,97.4999955368044,2|0|10,0:0|0:0|0:0,0:0:0:0:
353,27,133011,2,0,B|366:40|366:40|391:34|391:34|402:59|402:59|445:60|445:60|455:83|455:83|482:86|482:86|512:111|505:136,1,225,2|8,0:0|0:0,0:0:0:0:
135,102,133726,5,8,3:2:0:0:
135,102,133815,1,8,3:2:0:0:
135,102,133904,1,8,3:2:0:0:
232,114,134083,5,8,3:2:0:0:
219,52,134173,1,8,3:2:0:0:
171,11,134262,1,8,3:2:0:0:
107,5,134351,1,8,3:2:0:0:
55,42,134440,1,8,3:2:0:0:
36,103,134530,1,8,3:2:0:0:
55,162,134619,6,0,L|113:262,1,97.4999955368044,6|0,0:2|0:0,0:0:0:0:
361,171,134976,2,0,L|303:70,1,97.4999955368044,10|0,0:0|0:0,0:0:0:0:
197,280,135333,2,0,L|297:222,1,97.4999955368044,2|0,0:0|0:0,0:0:0:0:
219,53,135690,2,0,L|118:111,1,97.4999955368044,10|0,0:0|0:0,0:0:0:0:
356,302,136047,5,2,0:0:0:0:
312,86,136226,1,2,0:0:0:0:
179,196,136404,1,8,0:0:0:0:
411,84,136583,2,0,P|400:37|367:1,1,97.4999955368044,2|0,0:0|0:0,0:0:0:0:
323,225,136940,1,2,0:0:0:0:
212,100,137119,2,0,P|164:94|119:113,1,97.4999955368044,8|0,0:0|0:0,0:0:0:0:
12,283,137476,5,2,0:0:0:0:
177,194,137654,1,2,0:0:0:0:
21,154,137833,1,8,0:0:0:0:
258,10,138011,2,0,P|294:41|311:86,1,97.4999955368044,2|0,0:0|0:0,0:0:0:0:
323,225,138369,1,2,0:0:0:0:
212,100,138547,1,8,0:0:0:0:
423,222,138726,6,0,P|414:269|383:306,1,97.4999955368044,2|0,0:0|0:0,0:0:0:0:
249,375,139083,1,2,0:0:0:0:
251,158,139261,2,0,P|271:113|310:85,1,97.4999955368044,10|0,0:0|0:0,0:0:0:0:
512,0,139619,1,2,0:0:0:0:
485,146,139797,1,2,0:0:0:0:
370,0,139976,1,8,0:0:0:0:
399,146,140154,1,0,0:0:0:0:
165,101,140333,6,0,P|153:147|166:194,1,97.4999955368044,2|0,0:0|0:0,0:0:0:0:
326,221,140690,1,10,0:0:0:0:
399,146,140869,1,2,0:0:0:0:
326,72,141047,1,2,0:0:0:0:
251,146,141226,1,0,0:0:0:0:
492,248,141404,6,0,P|468:290|426:314,1,97.4999955368044,10|0,0:0|0:0,0:0:0:0:
251,221,141761,1,2,0:0:0:0:
251,72,141940,1,2,0:0:0:0:
399,72,142119,1,10,0:0:0:0:
399,221,142297,1,0,0:0:0:0:
326,72,142476,5,2,0:0:0:0:
166,194,142654,1,2,0:0:0:0:
326,221,142833,1,10,0:0:0:0:
165,101,143011,1,2,0:0:0:0:
423,146,143190,2,0,L|323:146,1,97.4999955368044,2|0,0:0|0:0,0:0:0:0:
85,149,143547,1,8,0:0:0:0:
85,149,143904,5,0,1:2:0:0:
32,358,144083,1,2,3:3:0:0:
0,219,144261,1,2,1:2:0:0:
212,335,144440,2,0,P|293:291|211:250,1,225,8|0,0:0|0:0,0:0:0:0:
136,295,145154,5,8,3:2:0:0:
126,247,145243,1,8,3:2:0:0:
140,201,145332,1,8,3:2:0:0:
176,169,145421,1,0,3:2:0:0:
223,155,145511,1,8,3:2:0:0:
271,158,145600,1,8,3:2:0:0:
316,176,145689,1,8,3:2:0:0:
352,209,145778,1,0,3:2:0:0:
374,252,145868,1,8,3:2:0:0:
378,300,145957,1,0,3:2:0:0:
391,335,146047,6,0,P|422:355|458:361,1,75,2|0,0:0|0:0,0:0:0:0:
479,209,146404,2,0,P|459:240|453:277,1,75,2|0,0:0|0:0,0:0:0:0:
399,159,146761,2,0,P|383:125|354:101,1,75,10|0,0:0|0:0,0:0:0:0:
316,176,147119,1,2,0:0:0:0:
482,114,147297,6,0,P|440:49|376:9,1,150,2|0,0:0|0:0,0:0:0:0:
286,19,147833,2,0,L|211:26,1,75,2|0,0:0|0:0,0:0:0:0:
111,121,148190,2,0,L|197:111,1,75,10|0,0:0|0:0,0:0:0:0:
270,102,148547,1,2,0:0:0:0:
127,38,148726,6,0,P|56:55|27:122,1,150,2|0,0:0|0:0,0:0:0:0:
58,236,149261,1,2,0:0:0:0:
111,121,149440,1,0,0:0:0:0:
196,286,149619,1,8,0:0:0:0:
286,19,149976,1,2,0:0:0:0:
459,244,150333,6,0,P|491:224|511:192,2,75,6|0|8,0:0|0:0|0:0,0:0:0:0:
432,165,150869,1,0,0:0:0:0:
273,162,151047,1,2,0:3:0:0:
299,244,151226,1,0,0:0:0:0:
214,225,151404,1,8,0:0:0:0:
240,307,151583,1,0,0:0:0:0:
154,287,151761,6,0,P|129:219|162:155,1,150,2|8,0:0|0:0,0:0:0:0:
235,114,152297,1,0,0:0:0:0:
313,86,152476,2,0,L|386:71,1,75,2|0,0:0|0:0,0:0:0:0:
506,17,152833,2,0,L|433:-1,1,75,10|0,0:0|0:0,0:0:0:0:
450,166,153191,6,0,L|468:93,1,75,2|0,0:0|0:0,0:0:0:0:
378,218,153547,2,0,L|360:145,1,75,8|0,0:0|0:0,0:0:0:0:
307,266,153904,2,0,L|289:339,1,75,2|0,0:0|0:0,0:0:0:0:
198,207,154261,2,0,L|216:280,1,75,8|0,0:0|0:0,0:0:0:0:
101,176,154619,6,0,L|119:103,1,75,2|0,0:0|0:0,0:0:0:0:
210,73,154976,2,0,L|262:128,1,75,10|0,0:0|0:0,0:0:0:0:
215,279,155333,2,0,L|142:257,1,75,2|0,0:0|0:0,0:0:0:0:
295,40,155690,2,0,L|367:61,1,75,10|8,0:0|3:2,0:0:0:0:
402,72,155958,1,8,3:2:0:0:
438,83,156047,5,8,3:2:0:0:
404,170,156226,1,8,3:2:0:0:
368,159,156315,1,8,3:2:0:0:
333,148,156404,2,0,L|261:127,1,75,8|8,3:2|3:2,3:2:0:0:
227,214,156762,1,8,3:2:0:0:
263,224,156851,1,8,3:2:0:0:
299,235,156940,1,8,3:2:0:0:
334,246,157029,1,8,3:2:0:0:
370,257,157118,1,8,3:2:0:0:
30,249,157476,5,8,3:2:0:0:
140,248,157833,1,8,3:2:0:0:
141,358,158190,2,8,B|86:370|86:370|30:358,2,112.5,8|8|8,3:2|3:2|3:2,3:2:0:0:
140,248,159083,2,8,B|84:236|84:236|29:248,2,112.5,8|8|8,3:2|3:2|3:2,3:2:0:0:
256,301,159797,1,8,0:0:0:0:
256,301,159976,1,8,0:0:0:0:
482,249,160333,5,8,3:2:0:0:
372,248,160690,1,8,3:2:0:0:
371,358,161047,2,8,B|426:370|426:370|481:358,2,112.5,8|8|8,3:2|3:2|3:2,3:2:0:0:
372,248,161940,2,8,B|427:236|427:236|482:248,2,112.5,8|8|8,3:2|3:2|3:2,3:2:0:0:
256,301,162654,1,8,0:2:0:0:
256,301,162833,1,8,0:2:0:0:
201,157,163190,5,8,3:2:0:0:
311,157,163547,1,8,3:2:0:0:
372,248,163904,1,8,3:2:0:0:
256,301,164172,1,8,3:2:0:0:
140,248,164440,1,8,3:2:0:0:
140,66,164797,1,8,3:2:0:0:
256,13,165065,1,8,3:2:0:0:
372,66,165333,1,8,3:2:0:0:
256,192,165511,1,8,3:2:0:0:
256,192,165690,1,8,3:2:0:0:
372,248,166047,5,8,3:2:0:0:
372,66,166404,1,8,3:2:0:0:
140,66,166761,1,8,3:2:0:0:
140,248,167119,1,8,3:2:0:0:
256,13,167476,5,8,1:2:0:0:
140,248,167833,1,8,1:2:0:0:
372,248,168190,1,8,1:2:0:0:
256,13,168547,1,8,1:2:0:0:
256,301,168726,1,12,1:2:0:0:
411,102,169083,5,2,0:0:0:0:
411,102,169172,1,2,0:0:0:0:
411,102,169261,1,10,0:0:0:0:
256,131,169440,1,2,0:0:0:0:
487,10,169619,2,0,L|494:93,1,82.5000025177003,2|0,0:0|0:0,0:0:0:0:
511,281,169976,1,10,0:0:0:0:
372,176,170154,2,0,L|378:258,1,82.5000025177003,2|0,0:0|0:0,0:0:0:0:
256,131,170511,5,2,0:0:0:0:
256,131,170600,1,2,0:0:0:0:
256,131,170689,1,10,0:0:0:0:
285,286,170869,1,2,0:0:0:0:
328,40,171047,2,0,L|244:47,1,82.5000025177003,2|0,0:0|0:0,0:0:0:0:
57,64,171404,1,10,0:0:0:0:
216,207,171583,2,0,P|255:217|295:206,1,82.5000025177003,2|0,0:0|0:0,0:0:0:0:
256,131,171940,6,2,L|256:83,2,41.2500012588501,2|2|10,0:0|0:0|0:0,0:0:0:0:
256,299,172297,1,2,0:0:0:0:
171,135,172476,2,0,L|133:55,1,82.5000025177003,2|0,0:0|0:0,0:0:0:0:
341,135,172833,2,0,L|378:55,1,82.5000025177003,10|0,0:0|0:0,0:0:0:0:
256,217,173190,6,0,L|256:299,1,82.5000025177003,2|0,0:0|0:0,0:0:0:0:
170,264,173547,2,0,P|158:303|136:337,1,82.5000025177003,10|0,0:0|0:0,0:0:0:0:
75,287,173904,2,0,P|48:316|8:322,1,82.5000025177003,2|0,0:0|0:0,0:0:0:0:
103,193,174261,1,10,0:0:0:0:
256,299,174440,6,0,P|326:335|397:299,1,165.000005035401,2|0,0:0|0:0,0:0:0:0:
228,217,174976,2,0,P|193:239|174:275,1,82.5000025177003,10|0,0:0|0:0,0:0:0:0:
478,275,175333,2,0,P|459:239|425:217,1,82.5000025177003,2|0,0:0|0:0,0:0:0:0:
326,251,175690,1,8,0:0:0:0:
459,358,175869,5,2,0:0:0:0:
459,358,176226,1,2,0:0:0:0:
348,167,176404,1,10,0:0:0:0:
306,167,176494,1,2,0:0:0:0:
269,188,176583,1,2,0:0:0:0:
374,95,176761,1,2,0:0:0:0:
325,89,176850,1,2,0:0:0:0:
276,98,176939,1,2,0:0:0:0:
234,120,177028,1,2,0:0:0:0:
200,152,177119,1,8,0:0:0:0:
87,349,177476,6,0,P|77:309|86:269,1,82.5000025177003,2|0,0:0|0:0,0:0:0:0:
242,307,177833,2,0,P|202:316|162:307,1,82.5000025177003,10|0,0:0|0:0,0:0:0:0:
200,152,178190,2,0,P|209:191|200:231,1,82.5000025177003,2|0,0:0|0:0,0:0:0:0:
45,194,178547,2,0,P|84:184|124:193,1,82.5000025177003,10|0,0:0|0:0,0:0:0:0:
242,307,178904,5,10,3:2:0:0:
222,313,178993,1,8,3:2:0:0:
202,316,179082,1,8,3:2:0:0:
181,313,179171,1,8,3:2:0:0:
162,307,179261,1,8,3:2:0:0:
200,231,179440,1,8,3:2:0:0:
239,222,179529,1,8,3:2:0:0:
279,231,179618,1,10,3:2:0:0:
326,301,179797,1,8,3:2:0:0:
363,225,179976,1,8,3:2:0:0:
499,313,180333,5,2,0:0:0:0:
492,330,180690,1,0,0:0:0:0:
484,347,181047,1,0,0:0:0:0:
477,364,181404,1,0,0:0:0:0:
340,313,181761,5,2,0:0:0:0:
333,330,182118,1,0,0:0:0:0:
325,347,182475,1,0,0:0:0:0:
318,364,182832,1,0,0:0:0:0:
181,313,183190,5,2,0:0:0:0:
174,330,183547,1,0,0:0:0:0:
166,347,183904,1,0,0:0:0:0:
159,364,184261,1,0,0:0:0:0:
22,313,184619,5,2,0:0:0:0:
15,330,184976,1,0,0:0:0:0:
7,347,185333,1,0,0:0:0:0:
0,364,185690,1,0,0:0:0:0:
7,278,186047,6,0,L|21:312,1,37.5,2|0,0:0|0:0,0:0:0:0:
89,278,186404,2,0,L|103:312,1,37.5,0|0,0:0|0:0,0:0:0:0:
171,278,186761,2,0,L|185:312,1,37.5,0|0,0:0|0:0,0:0:0:0:
253,278,187119,2,0,L|267:312,1,37.5,0|0,0:0|0:0,0:0:0:0:
335,278,187476,6,0,L|349:312,1,37.5,2|0,0:0|0:0,0:0:0:0:
417,278,187833,2,0,L|431:312,1,37.5,0|0,0:0|0:0,0:0:0:0:
417,196,188190,2,0,L|431:161,1,37.5,0|0,0:0|0:0,0:0:0:0:
488,237,188547,1,0,0:0:0:0:
346,237,188726,1,0,0:0:0:0:
417,347,188904,5,2,0:0:0:0:
486,347,189261,1,0,0:0:0:0:
486,278,189619,1,0,0:0:0:0:
417,278,189976,1,0,0:0:0:0:
322,347,190333,5,2,0:0:0:0:
253,347,190690,1,0,0:0:0:0:
253,278,191047,1,0,0:0:0:0:
194,313,191226,1,0,0:0:0:0:
193,244,191403,1,0,0:0:0:0:
252,209,191583,1,0,0:0:0:0:
312,242,191761,6,0,L|312:311,1,69.7500021818162,2|0,0:0|0:0,0:0:0:0:
371,207,192119,2,0,L|430:241,1,69.7500021818162,2|0,0:0|0:0,0:0:0:0:
370,138,192476,2,0,L|429:103,1,69.7500021818162,2|0,0:0|0:0,0:0:0:0:
311,174,192833,1,2,0:0:0:0:
251,140,193011,6,0,L|191:105,1,69.7500021818162,2|0,0:0|0:0,0:0:0:0:
131,140,193369,1,2,0:0:0:0:
132,209,193547,2,0,L|132:278,1,69.7500021818162,2|0,0:0|0:0,0:0:0:0:
72,175,193904,2,0,L|12:209,1,69.7500021818162,2|0,0:0|0:0,0:0:0:0:
131,140,194261,1,2,0:0:0:0:
130,71,194440,6,0,L|129:2,1,69.7500021818162,2|0,0:0|0:0,0:0:0:0:
190,105,194797,1,2,0:0:0:0:
249,69,194976,1,2,0:0:0:0:
250,138,195154,1,0,0:0:0:0:
309,102,195333,1,2,0:0:0:0:
367,0,195690,1,2,0:0:0:0:
429,169,196047,5,2,0:0:0:0:
487,65,196404,1,0,0:0:0:0:
494,48,196761,1,2,0:0:0:0:
436,152,196940,1,2,0:0:0:0:
494,256,197119,1,2,3:0:0:0:
436,360,197297,1,0,3:0:0:0:
436,360,197386,1,0,3:0:0:0:
436,360,197476,6,0,L|348:381,1,82.5000025177003,0|0,3:0|0:0,0:0:0:0:
214,345,197833,2,0,L|294:325,1,82.5000025177003,8|0,0:0|0:0,0:0:0:0:
140,384,198190,2,0,L|59:364,1,82.5000025177003,2|0,0:0|0:0,0:0:0:0:
161,217,198547,2,0,L|142:298,1,82.5000025177003,10|0,0:0|0:0,0:0:0:0:
35,33,198904,6,0,L|54:113,1,82.5000025177003,2|0,0:0|0:0,0:0:0:0:
157,53,199261,2,8,L|138:134,1,82.5000025177003,8|0,0:0|0:0,0:0:0:0:
252,185,199619,2,0,L|232:104,1,82.5000025177003,2|0,0:0|0:0,0:0:0:0:
332,204,199976,2,0,L|351:123,1,82.5000025177003,8|0,0:0|0:0,0:0:0:0:
436,360,200333,5,8,3:2:0:0:
475,202,200511,2,8,L|484:161,2,41.2500012588501,8|8|8,3:2|3:2|3:2,3:2:0:0:
306,346,200869,1,8,3:2:0:0:
332,204,201047,1,8,3:2:0:0:
336,183,201136,1,8,3:2:0:0:
341,163,201225,1,8,3:2:0:0:
346,143,201314,1,8,3:2:0:0:
351,123,201404,1,8,3:2:0:0:
232,104,201583,1,8,3:2:0:0:
222,144,201672,1,8,3:2:0:0:
212,184,201761,5,8,3:2:0:0:
161,353,201940,1,8,3:2:0:0:
92,164,202119,2,8,L|83:204,2,41.2500012588501,8|8|8,3:2|3:2|3:2,3:2:0:0:
185,42,202476,1,8,3:2:0:0:
128,28,202566,1,8,3:2:0:0:
72,14,202655,1,8,3:2:0:0:
15,0,202744,1,8,3:2:0:0:
461,11,203190,6,0,P|496:54|512:107,1,112.500004291535,6|0,0:2|0:0,0:0:0:0:
404,226,203547,2,0,P|368:182|352:129,1,112.500004291535,10|0,0:0|0:0,0:0:0:0:
492,276,203904,2,0,P|448:311|395:327,1,112.500004291535,2|0,0:0|0:0,0:0:0:0:
264,79,204261,2,0,P|307:43|360:27,1,112.500004291535,10|0,0:0|0:0,0:0:0:0:
246,208,204619,5,2,0:0:0:0:
150,9,204797,1,2,0:0:0:0:
264,79,204976,1,8,0:0:0:0:
17,13,205154,2,0,P|17:69|48:115,1,112.500004291535,2|0,0:0|0:0,0:0:0:0:
210,166,205511,1,2,0:0:0:0:
51,290,205690,2,0,P|99:317|154:313,1,112.500004291535,8|0,0:0|0:0,0:0:0:0:
311,143,206047,5,2,0:0:0:0:
121,217,206226,1,2,0:0:0:0:
209,268,206404,1,8,0:0:0:0:
20,201,206583,2,0,P|44:151|91:122,1,112.500004291535,2|0,0:0|0:0,0:0:0:0:
264,79,206940,1,2,0:0:0:0:
209,268,207119,1,8,0:0:0:0:
373,66,207297,6,0,P|418:34|474:34,1,112.500004291535,2|0,0:0|0:0,0:0:0:0:
512,137,207654,1,2,0:0:0:0:
311,143,207833,2,0,P|263:114|239:64,1,112.500004291535,10|0,0:0|0:0,0:0:0:0:
402,182,208190,1,2,0:0:0:0:
460,333,208368,1,0,0:0:0:0:
324,245,208547,1,8,0:0:0:0:
485,236,208725,1,0,0:0:0:0:
359,338,208904,6,0,P|303:341|254:314,1,112.500004291535,2|0,0:0|0:0,0:0:0:0:
220,221,209261,1,10,0:0:0:0:
324,245,209440,1,0,0:0:0:0:
153,298,209619,2,0,P|121:251|121:195,1,112.500004291535,2|0,0:0|0:0,0:0:0:0:
184,119,209976,1,10,0:0:0:0:
220,221,210155,1,0,0:0:0:0:
84,99,210333,6,0,P|108:48|156:20,1,112.500004291535,2|0,0:0|0:0,0:0:0:0:
255,36,210690,1,10,0:0:0:0:
184,119,210869,1,0,0:0:0:0:
395,103,211047,1,2,0:0:0:0:
292,139,211226,1,0,0:0:0:0:
483,232,211404,1,10,0:0:0:0:
375,211,211583,1,2,0:0:0:0:
512,329,211761,6,0,P|459:349|405:337,1,112.500004291535,2|0,0:0|0:0,0:0:0:0:
295,274,212119,1,10,0:0:0:0:
375,211,212297,1,2,0:0:0:0:
307,375,212476,2,0,P|251:366|210:329,1,112.500004291535,2|0,0:0|0:0,0:0:0:0:
209,217,212833,1,10,0:0:0:0:
132,106,213011,2,0,B|120:122|120:122|95:121|95:121|88:146|88:146|46:155|46:155|39:180|39:180|14:187|14:187|-10:217|0:240,1,225,2|8,0:0|0:0,0:0:0:0:
375,211,213726,5,8,3:2:0:0:
375,211,213815,1,8,3:2:0:0:
375,211,213905,1,8,3:2:0:0:
293,155,214083,5,8,3:2:0:0:
344,114,214173,1,8,3:2:0:0:
408,116,214262,1,8,3:2:0:0:
457,157,214351,1,8,3:2:0:0:
472,219,214440,1,8,3:2:0:0:
444,277,214530,1,8,3:2:0:0:
392,320,214619,6,0,L|283:349,1,112.500004291535,6|0,0:0|0:0,0:0:0:0:
184,183,214976,2,0,L|293:154,1,112.500004291535,10|0,0:0|0:0,0:0:0:0:
231,271,215333,2,0,L|122:300,1,112.500004291535,2|0,0:0|0:0,0:0:0:0:
23,134,215690,2,0,L|132:105,1,112.500004291535,10|0,0:0|0:0,0:0:0:0:
440,15,216047,5,2,0:0:0:0:
375,211,216226,1,2,0:0:0:0:
280,69,216404,1,8,0:0:0:0:
472,192,216583,2,0,P|467:247|433:292,1,112.500004291535,2|0,0:0|0:0,0:0:0:0:
261,345,216940,1,2,0:0:0:0:
280,179,217119,2,0,P|312:133|363:111,1,112.500004291535,8|0,0:0|0:0,0:0:0:0:
375,211,217476,5,2,0:0:0:0:
175,113,217654,1,2,0:0:0:0:
211,264,217833,1,8,0:0:0:0:
97,51,218011,2,0,P|54:14|-1:7,1,112.500004291535,2|0,0:0|0:0,0:0:0:0:
14,107,218369,1,2,0:0:0:0:
192,13,218547,1,8,0:0:0:0:
258,169,218726,6,0,P|215:205|159:212,1,112.500004291535,2|0,0:0|0:0,0:0:0:0:
16,200,219083,1,2,0:0:0:0:
184,346,219261,2,0,P|238:356|290:334,1,112.500004291535,10|0,0:0|0:0,0:0:0:0:
501,111,219619,1,2,0:0:0:0:
374,212,219798,1,0,0:0:0:0:
418,57,219976,1,8,0:0:0:0:
475,209,220154,1,0,0:0:0:0:
339,122,220333,6,0,L|202:82,1,112.500004291535,2|0,0:0|0:0,0:0:0:0:
230,254,220690,1,10,0:0:0:0:
122,122,220869,1,2,0:0:0:0:
121,285,221047,1,2,0:0:0:0:
13,153,221226,1,0,0:0:0:0:
122,122,221404,6,0,L|258:82,1,112.500004291535,10|0,0:0|0:0,0:0:0:0:
231,254,221761,1,2,0:0:0:0:
339,122,221940,1,2,0:0:0:0:
340,285,222119,1,10,0:0:0:0:
448,153,222297,1,0,0:0:0:0:
390,372,222476,6,0,P|337:386|284:370,1,112.500004291535,2|2,0:0|0:0,0:0:0:0:
289,197,222833,2,0,P|342:182|395:198,1,112.500004291535,10|2,0:0|0:0,0:0:0:0:
340,285,223190,2,0,L|227:285,1,112.500004291535,2|0,0:0|0:0,0:0:0:0:
39,285,223547,1,8,0:0:0:0:
39,285,223904,5,0,1:0:0:0:
122,122,224083,1,8,3:2:0:0:
171,269,224261,1,2,1:2:0:0:
309,29,224440,1,8,0:0:0:0:
309,29,224797,5,8,3:2:0:0:
358,48,224886,1,8,3:2:0:0:
377,100,224975,1,8,3:2:0:0:
353,150,225064,1,8,3:2:0:0:
301,166,225154,1,8,3:2:0:0:
253,140,225243,1,8,3:2:0:0:
257,72,225333,6,0,L|307:96,3,56.2500021457673,8|0|0|0,3:2|3:2|3:2|3:2,3:2:0:0:
373,128,225690,5,8,3:2:0:0:
402,194,225779,1,8,3:2:0:0:
387,266,225869,1,8,3:2:0:0:
332,314,225958,1,8,3:2:0:0:
260,323,226047,6,0,P|226:298|205:263,1,82.5000025177003,2|0,0:0|0:0,0:0:0:0:
257,72,226404,2,0,P|290:96|311:131,1,82.5000025177003,2|0,0:0|0:0,0:0:0:0:
216,164,226761,2,0,P|182:139|161:104,1,82.5000025177003,10|0,0:0|0:0,0:0:0:0:
138,0,227119,1,2,0:0:0:0:
291,231,227297,6,0,P|219:264|144:235,1,165.000005035401,2|0,0:0|0:0,0:0:0:0:
77,172,227833,2,0,L|20:111,1,82.5000025177003,2|0,0:0|0:0,0:0:0:0:
161,104,228190,2,0,L|217:164,1,82.5000025177003,10|0,0:0|0:0,0:0:0:0:
291,231,228547,1,2,0:0:0:0:
86,34,228726,6,0,P|158:0|233:29,1,165.000005035401,2|0,0:0|0:0,0:0:0:0:
311,131,229261,1,2,0:0:0:0:
161,104,229440,1,0,0:0:0:0:
291,231,229619,1,10,0:0:0:0:
430,0,229976,1,2,0:0:0:0:
512,176,230333,6,0,P|498:234|415:307,1,165.000005035401,2|2,0:0|0:0,0:0:0:0:
423,304,231047,2,0,L|401:383,1,82.5000025177003,2|2,0:3|0:0,0:0:0:0:
322,246,231404,1,8,0:0:0:0:
291,343,231583,1,10,3:2:0:0:
291,343,231672,1,8,3:2:0:0:
291,343,231761,6,0,L|211:323,1,82.5000025177003,2|0,3:2|0:0,0:0:0:0:
156,253,232118,2,0,L|236:233,1,82.5000025177003,8|0,0:0|0:0,0:0:0:0:
82,307,232476,2,0,L|62:227,1,82.5000025177003,2|0,0:0|0:0,0:0:0:0:
149,92,232833,2,0,L|129:172,1,82.5000025177003,10|0,0:0|0:0,0:0:0:0:
90,22,233190,6,0,L|170:2,1,82.5000025177003,2|0,0:0|0:0,0:0:0:0:
311,89,233547,2,0,L|231:69,1,82.5000025177003,8|0,0:0|0:0,0:0:0:0:
391,42,233904,2,0,L|471:22,1,82.5000025177003,2|0,0:0|0:0,0:0:0:0:
512,142,234261,2,0,L|432:122,1,82.5000025177003,8|0,0:0|0:0,0:0:0:0:
363,231,234619,6,0,L|443:211,1,82.5000025177003,10|0,0:0|0:0,0:0:0:0:
300,173,234976,2,0,L|219:193,1,82.5000025177003,10|0,0:0|0:0,0:0:0:0:
426,289,235333,1,10,0:0:0:0:
237,115,235511,1,0,3:2:0:0:
237,115,235601,1,0,3:2:0:0:
237,115,235690,2,0,L|156:135,1,82.5000025177003,10|0,3:2|3:2,0:0:0:0:
116,144,235958,1,8,3:2:0:0:
76,154,236047,5,10,3:2:0:0:
96,235,236226,1,8,3:2:0:0:
136,225,236315,1,8,3:2:0:0:
176,215,236404,2,0,L|257:195,1,82.5000025177003,10|8,3:2|3:2,3:2:0:0:
277,277,236761,1,10,3:2:0:0:
236,286,236850,1,8,3:2:0:0:
196,296,236939,1,8,3:2:0:0:
156,306,237028,1,8,3:2:0:0:
116,316,237119,1,10,3:2:0:0:
76,154,237297,1,8,3:2:0:0:
116,144,237386,1,8,3:2:0:0:
156,134,237476,6,0,L|196:124,1,41.2500012588501,10|0,3:2|3:2,3:2:0:0:
296,185,237654,1,8,3:2:0:0:
256,195,237743,1,8,3:2:0:0:
216,205,237833,2,0,L|176:215,1,41.2500012588501,10|0,3:2|3:2,3:2:0:0:
237,115,238012,1,8,3:2:0:0:
277,105,238101,1,8,3:2:0:0:
317,95,238191,6,0,L|357:85,1,41.2500012588501,10|0,3:2|3:2,3:2:0:0:
457,146,238369,1,8,3:2:0:0:
416,155,238458,1,8,3:2:0:0:
376,165,238547,1,10,3:2:0:0:
336,175,238636,1,8,3:2:0:0:
296,185,238725,1,8,3:2:0:0:
256,23,238904,5,8,1:2:0:0:
123,255,239261,1,8,1:2:0:0:
390,255,239618,1,8,1:2:0:0:
256,23,239976,1,8,1:2:0:0:
256,366,240153,1,12,1:2:0:0:
317,124,240511,5,2,0:0:0:0:
317,124,240600,1,2,0:0:0:0:
317,124,240689,1,10,0:0:0:0:
275,260,240868,1,2,0:0:0:0:
402,133,241047,2,0,L|463:68,1,75,2|0,0:0|0:0,0:0:0:0:
338,53,241404,1,10,0:0:0:0:
335,204,241582,2,0,L|400:264,1,75,2|0,0:0|0:0,0:0:0:0:
257,180,241940,2,0,L|173:205,1,75,2|8,0:0|0:0,0:0:0:0:
276,259,242297,1,2,0:0:0:0:
316,125,242475,2,0,L|337:53,1,75,2|0,0:0|0:0,0:0:0:0:
390,255,242832,1,10,0:0:0:0:
186,201,243011,1,2,0:0:0:0:
260,332,243189,1,0,0:0:0:0:
237,89,243369,6,0,L|233:33,1,37.5,2|2,0:0|0:0,0:0:0:0:
159,118,243547,2,0,L|87:99,1,75,8|2,0:0|0:0,0:0:0:0:
26,220,243904,2,0,L|100:213,1,75,2|0,0:0|0:0,0:0:0:0:
292,197,244261,1,10,0:0:0:0:
260,332,244440,2,0,P|222:330|188:315,1,75,2|0,0:0|0:0,0:0:0:0:
127,372,244797,2,0,P|109:338|105:301,1,75,2|8,0:0|0:0,0:0:0:0:
159,118,245154,1,2,0:0:0:0:
292,197,245333,2,0,P|272:228|241:250,1,75,2|0,0:0|0:0,0:0:0:0:
105,301,245690,1,10,0:0:0:0:
273,112,245869,2,0,P|310:113|344:128,1,75,6|0,0:0|0:0,0:0:0:0:
477,224,246226,5,2,0:0:0:0:
477,224,246315,1,2,0:0:0:0:
477,224,246404,1,10,0:0:0:0:
363,308,246583,1,2,0:0:0:0:
422,91,246761,2,0,L|443:9,1,75,2|0,0:0|0:0,0:0:0:0:
492,139,247119,1,10,0:0:0:0:
292,197,247297,2,0,L|219:216,1,75,2|0,0:0|0:0,0:0:0:0:
198,132,247654,2,0,L|145:184,1,75,2|8,0:0|0:0,0:0:0:0:
45,295,248011,1,2,0:0:0:0:
65,193,248190,2,0,L|84:122,1,75,2|0,0:0|0:0,0:0:0:0:
109,0,248547,1,10,0:0:0:0:
145,185,248726,1,2,0:0:0:0:
196,47,248904,1,0,0:0:0:0:
339,185,249083,6,0,L|301:185,1,37.5,2|2,0:0|0:0,0:0:0:0:
395,122,249261,2,0,L|468:141,1,75,10|2,0:0|0:0,0:0:0:0:
468,228,249619,2,0,L|394:247,1,75,2|0,0:0|0:0,0:0:0:0:
366,254,249886,1,8,3:2:0:0:
336,261,249975,1,10,3:2:0:0:
307,269,250064,1,8,3:2:0:0:
278,277,250153,1,8,3:2:0:0:
145,185,250333,5,8,1:2:0:0:
242,18,250690,1,8,1:2:0:0:
339,185,251047,1,8,1:2:0:0:
145,185,251404,1,8,1:2:0:0:
360,61,251582,1,12,1:2:0:0:
186,110,251940,6,0,P|169:101|150:99,1,37.5,2|2,0:0|0:0,0:0:0:0:
225,182,252119,2,0,P|253:158|265:123,1,75,10|2,0:0|0:0,0:0:0:0:
144,185,252476,2,0,P|151:221|176:249,1,75,2|0,0:0|0:0,0:0:0:0:
242,18,252833,1,10,0:0:0:0:
318,219,253011,2,0,P|291:244|257:258,1,75,2|0,0:0|0:0,0:0:0:0:
280,341,253369,2,0,P|242:340|209:325,1,75,2|8,0:0|0:0,0:0:0:0:
144,185,253726,1,2,0:0:0:0:
261,154,253904,2,0,L|338:133,1,75,2|0,0:0|0:0,0:0:0:0:
258,258,254261,1,10,0:0:0:0:
306,55,254440,2,0,L|383:34,1,75,2|0,0:0|0:0,0:0:0:0:
189,86,254797,5,2,0:0:0:0:
189,86,254886,1,2,0:0:0:0:
189,86,254976,2,0,P|156:106|119:112,1,75,10|2,0:0|0:0,0:0:0:0:
60,52,255333,2,0,P|92:32|129:26,1,75,2|0,0:0|0:0,0:0:0:0:
306,55,255690,1,10,0:0:0:0:
256,156,255869,2,0,L|235:233,1,75,2|0,0:0|0:0,0:0:0:0:
341,156,256226,2,0,L|361:233,1,75,2|8,0:0|0:0,0:0:0:0:
414,113,256583,2,0,L|470:169,1,75,2|2,0:0|0:0,0:0:0:0:
306,55,256940,1,0,0:0:0:0:
341,156,257119,1,10,0:0:0:0:
113,225,257297,2,0,L|35:245,1,75,6|0,0:0|0:0,0:0:0:0:
170,354,257654,5,2,0:0:0:0:
170,354,257744,1,2,0:0:0:0:
170,354,257833,1,10,0:0:0:0:
187,267,258011,1,2,0:0:0:0:
136,141,258190,2,0,P|98:139|64:153,1,75,2|0,0:0|0:0,0:0:0:0:
40,244,258547,1,10,0:0:0:0:
196,202,258726,2,0,L|268:182,1,75,2|0,0:0|0:0,0:0:0:0:
289,277,259083,2,0,L|342:223,1,75,2|8,0:0|0:0,0:0:0:0:
429,140,259440,1,2,0:0:0:0:
289,99,259619,2,0,P|251:97|217:111,1,75,2|0,0:0|0:0,0:0:0:0:
268,182,259976,1,10,0:0:0:0:
429,140,260154,2,0,P|461:122|484:93,1,75,2|0,0:0|0:0,0:0:0:0:
256,20,260511,5,2,0:0:0:0:
256,20,260601,1,2,0:0:0:0:
256,20,260690,1,10,0:0:0:0:
405,58,260869,1,2,0:0:0:0:
268,182,261047,2,0,P|233:194|196:193,1,75,2|0,0:0|0:0,0:0:0:0:
167,182,261315,1,8,3:2:0:0:
146,160,261404,1,10,3:2:0:0:
133,133,261493,1,8,3:2:0:0:
133,102,261583,1,8,3:2:0:0:
256,20,261761,5,8,1:2:0:0:
131,235,262119,1,8,1:2:0:0:
380,235,262476,1,8,1:2:0:0:
256,20,262832,1,8,1:2:0:0:
256,338,263010,1,12,1:2:0:0:
340,143,263369,6,0,L|347:114,2,30,2|2|2,0:0|0:0|0:0,0:0:0:0:
254,139,263726,1,2,0:0:0:0:
396,42,263904,2,0,P|428:90|425:149,1,120,2|2,0:0|0:0,0:0:0:0:
374,221,264440,2,0,L|392:290,1,60,2|0,0:0|0:0,0:0:0:0:
307,276,264797,2,0,L|325:345,1,60,2|0,0:0|0:0,0:0:0:0:
240,331,265154,1,2,0:0:0:0:
157,310,265333,2,0,L|125:194,1,120,2|2,0:0|0:0,0:0:0:0:
205,189,265869,2,0,L|221:247,1,60,2|0,0:0|0:0,0:0:0:0:
240,331,266226,6,0,L|247:359,2,30,2|2|2,0:0|0:0|0:0,0:0:0:0:
157,310,266583,1,2,0:0:0:0:
74,289,266762,2,0,L|42:173,1,120,2|2,0:0|0:0,0:0:0:0:
103,113,267297,2,0,L|84:43,1,60,2|0,0:0|0:0,0:0:0:0:
170,58,267654,2,0,L|154:0,1,60,2|0,0:0|0:0,0:0:0:0:
236,0,268011,1,2,0:0:0:0:
320,0,268190,2,0,L|288:115,1,120,2|2,0:0|0:0,0:0:0:0:
266,198,268726,2,0,L|335:216,1,60,2|0,0:0|0:0,0:0:0:0:
406,235,269083,6,0,L|413:206,2,30,2|2|2,0:0|0:0|0:0,0:0:0:0:
383,316,269440,1,2,0:0:0:0:
383,316,269619,2,0,L|267:284,1,120,2|2,0:0|0:0,0:0:0:0:
185,263,270154,2,0,L|69:231,2,120,2|2|2,0:0|0:0|0:0,0:0:0:0:
267,284,271047,1,2,0:0:0:0:
267,284,271404,2,0,L|325:300,1,60,2|2,0:0|0:0,0:0:0:0:
325,300,271940,6,0,L|317:328,2,30,2|2|2,0:0|0:0|0:0,0:0:0:0:
347,216,272297,1,2,0:0:0:0:
347,216,272476,2,0,L|257:216,1,90,2|0,0:0|0:0,0:0:0:0:
187,216,272833,2,0,L|187:246,2,30,2|0|0,0:0|0:0|0:0,0:0:0:0:
222,156,273190,5,2,2:2:0:0:
187,216,273547,1,2,2:2:0:0:
257,216,273904,1,2,2:2:0:0:
222,156,274261,1,2,2:2:0:0:
222,276,274440,1,2,2:2:0:0:
256,192,274529,12,0,282386,0:0:0:0:
