osu file format v14

[General]
AudioFilename: cool audio.mp3
AudioLeadIn: 0
PreviewTime: 11893
Countdown: 0
SampleSet: Soft
StackLeniency: 0.7
Mode: 0
LetterboxInBreaks: 0
WidescreenStoryboard: 1

[Editor]
Bookmarks: 51060,54060,80310
DistanceSpacing: 1
BeatDivisor: 4
GridSize: 4
TimelineZoom: 2.4

[Metadata]
Title:Evil Fantasy
TitleUnicode:Evil Fantasy
Artist:Freddie Dredd
ArtistUnicode:Freddie Dredd
Creator:Spork Lover
Version:MadX's Insane
Source:
Tags:english hip hop hip-hop underground rap ryan c kamanugue bob ross waefwerf madx halgoh vitalia the
BeatmapID:2749471
BeatmapSetID:1327127

[Difficulty]
HPDrainRate:5.4
CircleSize:4.4
OverallDifficulty:7.4
ApproachRate:8.4
SliderMultiplier:1.6
SliderTickRate:1

[Events]
//Background and Video events
0,0,"evilfantasy.png",0,0
//Break Periods
2,12060,22106
//Storyboard Layer 0 (Background)
//Storyboard Layer 1 (Fail)
//Storyboard Layer 2 (Pass)
//Storyboard Layer 3 (Foreground)
//Storyboard Layer 4 (Overlay)
//Storyboard Sound Samples

[TimingPoints]
104,365.853658536585,4,2,1,40,1,0
332,375,4,2,1,40,1,0
832,375,4,2,1,40,1,0
832,-78.7401574803149,4,2,1,40,0,0
1058,342.857142857143,4,2,1,40,1,0
1400,375,4,2,1,40,1,0
1587,-100,4,2,1,5,0,0
1775,-100,4,2,1,40,0,0
2142,382.165605095541,4,2,1,40,1,0
2691,389.61038961039,4,2,1,40,1,0
3649,350.877192982456,4,2,1,40,1,0
3824,379.746835443038,4,2,1,40,1,0
4013,357.142857142857,4,2,1,40,1,0
4370,379.746835443038,4,2,1,40,1,0
4370,-66.6666666666667,4,2,1,40,0,0
4749,-100,4,2,1,5,0,0
4920,422.535211267606,4,2,1,40,1,0
5133,588.235294117648,4,2,1,40,1,0
5133,-50,4,2,1,40,0,0
5574,-100,4,2,1,5,0,0
5721,-100,4,2,1,40,0,0
6100,350.877192982456,4,2,1,40,1,0
6450,315.789473684211,4,2,1,40,1,0
6686,375,4,2,1,40,1,0
6826,422.535211267606,4,2,1,40,1,0
7037,375,4,2,1,40,1,0
7397,545.454545454546,4,2,1,40,1,0
7397,-80,4,2,1,40,0,0
7806,480,4,2,1,40,1,0
7926,545.454545454546,4,2,1,40,1,0
8156,521.739130434783,4,2,1,40,1,0
8156,-49.7512437810945,4,2,1,40,0,0
8677,508.474576271187,4,2,1,40,1,0
8914,461.538461538462,4,2,1,40,1,0
8914,-222.222222222222,4,2,1,40,0,0
9721,-100,4,2,1,5,0,0
9837,588.235294117647,4,2,1,40,1,0
10131,508.474576271186,4,2,1,40,1,0
10385,550.45871559633,4,2,1,40,1,0
10661,465.116279069767,4,2,1,40,1,0
12060,375,4,2,1,80,1,0
23497,-83.3333333333333,4,2,10,40,0,0
23591,-83.3333333333333,4,2,1,80,0,0
23966,-83.3333333333333,4,2,1,5,0,0
24060,-83.3333333333333,4,2,1,80,0,0
24716,-83.3333333333333,4,2,1,5,0,0
24810,-83.3333333333333,4,2,1,80,0,0
26685,-66.6666666666667,4,2,1,80,0,0
26966,-83.3333333333333,4,2,1,5,0,0
27060,-83.3333333333333,4,2,1,80,0,0
27622,-100,4,2,1,80,0,0
27997,-71.4285714285714,4,2,1,80,0,0
28372,-83.3333333333333,4,2,1,80,0,0
29685,-66.6666666666667,4,2,1,80,0,0
29966,-83.3333333333333,4,2,1,5,0,0
30060,-83.3333333333333,4,2,1,80,0,0
30716,-83.3333333333333,4,2,1,5,0,0
30810,-83.3333333333333,4,2,1,80,0,0
32685,-66.6666666666667,4,2,1,80,0,0
32966,-83.3333333333333,4,2,1,5,0,0
33060,-83.3333333333333,4,2,1,80,0,0
33435,-100,4,2,1,80,0,0
33997,-71.4285714285714,4,2,1,80,0,0
36060,-66.6666666666667,4,2,1,80,0,0
36341,-83.3333333333333,4,2,1,5,0,0
36435,-66.6666666666667,4,2,1,80,0,0
37653,-83.3333333333333,4,2,1,5,0,0
37747,-66.6666666666667,4,2,1,80,0,0
38310,-83.3333333333333,4,2,21,80,0,0
38403,-83.3333333333333,4,2,1,80,0,0
39060,-83.3333333333333,4,2,2,80,0,0
39154,-83.3333333333333,4,2,1,80,0,0
40372,-66.6666666666667,4,2,1,80,0,0
40653,-83.3333333333333,4,2,1,5,0,0
40747,-66.6666666666667,4,2,1,80,0,0
41310,-83.3333333333333,4,2,1,80,0,0
42060,-83.3333333333333,4,2,3,80,0,0
42154,-83.3333333333333,4,2,1,80,0,0
43372,-83.3333333333333,4,2,2,80,0,0
43466,-83.3333333333333,4,2,1,80,0,0
44122,-83.3333333333333,4,2,2,80,0,0
44216,-83.3333333333333,4,2,1,80,0,0
44872,-83.3333333333333,4,2,2,80,0,0
44966,-83.3333333333333,4,2,1,80,0,0
45060,-133.333333333333,4,2,1,80,0,0
45247,-133.333333333333,4,2,1,80,0,0
45435,-133.333333333333,4,2,1,80,0,0
45622,-133.333333333333,4,2,1,80,0,0
45810,-133.333333333333,4,2,1,80,0,0
45997,-50,4,2,1,80,0,0
46185,-133.333333333333,4,2,1,80,0,0
46372,-133.333333333333,4,2,1,80,0,0
48060,-50,4,2,1,80,0,0
48341,-83.3333333333333,4,2,1,5,0,0
48435,-50,4,2,1,80,0,0
49653,-83.3333333333333,4,2,1,5,0,0
49747,-50,4,2,1,80,0,0
50310,-83.3333333333333,4,2,1,80,0,0
51060,-51.2820512820513,4,2,3,80,0,0
51154,-83.3333333333333,4,2,1,80,0,0
52372,-50,4,2,1,80,0,0
52653,-83.3333333333333,4,2,1,5,0,0
52747,-50,4,2,1,80,0,0
53310,-83.3333333333333,4,2,1,80,0,0
54060,-51.2820512820513,4,2,3,80,0,0
54154,-83.3333333333333,4,2,1,80,0,0
54435,-50,4,2,1,80,0,0
55372,-50,4,2,2,80,0,0
55466,-50,4,2,1,80,0,0
56122,-50,4,2,2,80,0,0
56216,-50,4,2,1,80,0,0
56872,-50,4,2,2,80,0,0
56966,-50,4,2,1,80,0,0
57435,-125,4,2,1,80,0,0
59310,-66.6666666666667,4,2,1,80,0,0
59497,-83.3333333333333,4,2,1,5,0,0
59685,-100,4,2,1,80,0,0
60060,-44.4444444444445,4,2,1,80,0,0
60341,-83.3333333333333,4,2,1,5,0,0
60435,-44.4444444444445,4,2,1,80,0,0
63716,-83.3333333333333,4,2,1,5,0,0
63810,-44.4444444444445,4,2,1,80,0,0
66060,-66.6666666666667,4,2,1,80,0,0
68310,-83.3333333333333,4,2,1,80,0,0
69060,-83.3333333333333,4,2,3,80,0,0
69154,-83.3333333333333,4,2,1,80,0,0
72060,-83.3333333333333,4,2,3,80,0,0
72154,-83.3333333333333,4,2,1,80,0,0
73372,-50,4,2,2,80,0,0
73466,-50,4,2,1,80,0,0
73560,-50,4,2,1,80,0,0
74122,-50,4,2,2,80,0,0
74216,-50,4,2,1,80,0,0
74872,-50,4,2,2,80,0,0
74966,-50,4,2,1,80,0,0
75060,-50,4,2,1,80,0,0
76185,-66.6666666666667,4,2,1,80,0,0
80310,-83.3333333333333,4,2,1,80,0,0
81060,-83.3333333333333,4,2,3,80,0,0
81154,-83.3333333333333,4,2,1,80,0,0
84060,-83.3333333333333,4,2,3,80,0,0
84154,-83.3333333333333,4,2,1,80,0,0
85372,-83.3333333333333,4,2,2,80,0,0
85466,-83.3333333333333,4,2,1,80,0,0
86122,-83.3333333333333,4,2,2,80,0,0
86216,-83.3333333333333,4,2,1,80,0,0
86872,-83.3333333333333,4,2,2,80,0,0
86966,-83.3333333333333,4,2,1,80,0,0
89685,-41.6666666666667,4,2,1,80,0,0
89872,-41.6666666666667,4,2,1,5,0,0
90060,-41.6666666666667,4,2,1,80,0,0

[Colours]
Combo1 : 165,179,184
Combo2 : 201,62,54
Combo3 : 52,131,177
Combo4 : 196,160,214
Combo5 : 121,200,190
Combo6 : 123,123,138

[HitObjects]
186,347,104,69,2,3:0:0:0:
71,338,332,1,0,0:0:0:0:
248,245,707,1,0,0:0:0:0:
248,245,832,2,0,B|294:198|243:177|305:121,1,121.199997595825,8|2,0:0|0:0,0:0:0:0:
402,40,1400,2,0,P|360:61|309:57,1,80,0|0,3:0|0:0,2:0:0:0:
368,176,1775,2,0,P|402:156|442:153,1,80,2|0,0:0|3:0,2:0:0:0:
485,77,2142,1,2,0:0:0:0:
291,135,2333,1,8,0:0:0:0:
485,77,2691,1,0,0:0:0:0:
469,319,3080,6,0,B|412:262|474:237|395:166,1,160,2|2,3:0|0:0,0:0:0:0:
363,247,3649,1,0,0:0:0:0:
291,135,4013,1,2,0:0:0:0:
119,384,4370,6,0,B|153:305|143:220|102:154,1,240.000009155274,4|0,3:0|0:0,0:0:0:0:
82,143,4920,1,0,0:0:0:0:
163,118,5133,6,0,B|183:142|198:190|198:190|243:218|298:227|354:208,1,240,4|0,3:0|0:0,0:0:0:0:
512,181,5721,37,0,0:0:0:0:
512,181,6100,6,0,B|455:124|430:186|359:107,1,160,2|2,3:0|0:0,0:0:0:0:
440,75,6686,1,2,0:0:0:0:
328,3,7037,1,2,0:0:0:0:
72,64,7397,6,0,B|106:49|144:53|173:72|173:72|178:102|203:120,1,150,4|2,3:0|3:0,0:0:0:0:
187,142,7926,1,0,0:0:0:0:
486,65,8156,6,0,B|429:44|351:57|288:97|288:97|285:164|240:196,1,320,4|2,3:0|3:0,0:0:0:0:
41,244,8914,70,0,P|88:242|49:269,1,125.999996154785,4|0,3:0|0:0,0:0:0:0:
65,253,9837,53,2,0:0:0:0:
142,240,10131,1,2,0:0:0:0:
191,166,10385,1,2,0:0:0:0:
289,150,10661,1,2,0:0:0:0:
0,384,23497,38,0,B|23:338|23:338|31:338|31:338|55:280|79:226|79:226|87:226|87:226|108:167,1,239.999992675781,4|0,0:0|0:0,0:0:0:0:
130,167,24060,5,0,3:0:0:0:
221,223,24247,1,0,0:0:0:0:
380,26,24435,2,0,B|356:48|324:69|324:69|313:68|313:68|283:84|257:113,1,143.999995605469,8|0,0:0|0:0,0:0:0:0:
231,109,24810,1,4,3:0:0:0:
473,241,24997,6,0,L|452:197,1,47.9999985351563,2|2,3:0|0:1,0:0:0:0:
412,106,25185,1,10,0:0:0:0:
420,120,25278,1,2,0:1:0:0:
413,136,25372,1,2,0:0:0:0:
278,207,25560,69,0,3:0:0:0:
189,152,25747,1,0,0:0:0:0:
44,310,25935,2,0,B|60:294|82:279|82:279|89:280|89:280|110:269|128:249,1,95.9999970703126,8|0,0:0|0:0,0:0:0:0:
151,262,26216,1,0,0:0:0:0:
151,262,26310,1,4,3:0:0:0:
190,153,26497,1,0,3:0:0:0:
318,366,26685,2,0,B|302:332|299:289|299:289|306:278|306:278|298:230|284:191,1,180.000006866455,8|0,0:0|0:0,2:0:0:0:
299,182,27060,5,0,3:0:0:0:
385,105,27247,1,0,0:0:0:0:
359,323,27435,1,8,0:0:0:0:
359,323,27622,2,0,B|358:347|342:346|329:273,1,80,2|4,0:0|3:0,0:0:0:0:
385,105,27997,2,0,B|386:64|412:66|434:186,1,111.999996582031,2|8,3:0|0:0,0:0:0:0:
504,373,28372,1,2,0:0:0:0:
443,248,28560,69,0,3:0:0:0:
359,323,28747,1,0,0:0:0:0:
247,183,28935,2,0,B|228:195|203:205|203:205|196:202|196:202|173:209|152:225,1,95.9999970703126,8|0,0:0|0:0,0:0:0:0:
156,244,29216,1,0,0:0:0:0:
156,244,29310,1,4,3:0:0:0:
232,96,29497,1,0,3:0:0:0:
280,355,29685,2,0,B|264:321|261:278|261:278|268:267|268:267|260:219|246:180,1,180.000006866455,8|0,0:0|0:0,2:0:0:0:
269,170,30060,5,0,3:0:0:0:
156,244,30247,1,0,0:0:0:0:
0,77,30435,2,0,B|24:99|56:120|56:120|67:119|67:119|97:135|123:164,1,143.999995605469,8|0,0:0|0:0,0:0:0:0:
113,177,30810,1,4,3:0:0:0:
203,10,30997,70,0,L|219:55,1,47.9999985351563,2|2,3:0|0:1,0:0:0:0:
244,156,31185,1,10,0:0:0:0:
248,140,31278,1,2,0:1:0:0:
264,134,31372,1,2,0:0:0:0:
462,246,31560,5,0,3:0:0:0:
352,201,31747,1,0,0:0:0:0:
237,381,31935,2,0,B|232:364|218:346|218:346|211:344|211:344|197:321|189:299,1,95.9999970703126,8|0,0:0|0:0,0:0:0:0:
136,197,32216,1,0,0:0:0:0:
136,197,32310,70,0,P|160:227|168:187,1,95.9999970703126,4|8,3:0|3:0,0:0:0:0:
317,362,32685,2,0,B|301:328|298:285|298:285|305:274|305:274|297:226|283:187,1,180.000006866455,8|0,0:0|0:0,2:0:0:0:
250,73,33060,6,0,P|237:110|274:98,1,95.9999970703126,0|0,3:0|0:0,0:0:0:0:
254,96,33435,1,8,0:0:0:0:
359,65,33622,70,0,B|383:64|382:48|309:35,1,80,2|4,0:0|3:0,0:0:0:0:
132,113,33997,2,0,B|91:114|93:140|213:162,1,111.999996582031,2|8,3:0|0:0,0:0:0:0:
412,211,34372,1,2,0:0:0:0:
375,282,34560,5,0,3:0:0:0:
256,192,34606,12,0,35872,0:0:0:0:
0,66,36060,70,0,B|33:65|60:93|60:93|102:87|102:87|133:112|207:114,1,180.000006866455,2|0,3:0|0:0,0:0:0:0:
206,95,36435,1,2,0:0:0:0:
276,159,36622,1,2,0:0:0:0:
252,350,36810,1,8,0:0:0:0:
344,325,36997,1,2,0:0:0:0:
382,354,37185,1,0,0:0:0:0:
479,277,37372,6,0,B|485:243|466:208|466:208|479:168|479:168|456:137|463:104,1,180.000006866455,2|0,3:0|0:0,0:0:0:0:
486,74,37747,1,0,0:0:0:0:
377,94,37935,1,0,0:0:0:0:
335,15,38122,1,2,0:0:0:0:
107,20,38310,70,0,P|82:50|74:12,1,95.9999970703126,12|0,0:0|3:0,0:0:0:0:
193,62,38685,1,0,0:0:0:0:
310,18,38872,1,0,0:0:0:0:
461,99,39060,6,0,P|498:110|485:74,1,95.9999970703126,6|0,3:0|0:0,0:0:0:0:
407,18,39435,1,2,0:0:0:0:
512,139,39622,1,2,0:0:0:0:
237,144,39810,1,8,0:0:0:0:
481,145,40185,1,0,0:0:0:0:
205,64,40372,70,0,B|206:98|181:129|181:129|187:171|187:171|159:198|160:231,1,180.000006866455,2|0,3:0|0:0,0:0:0:0:
178,273,40747,1,2,0:0:0:0:
284,229,40935,1,0,3:0:0:0:
369,279,41122,1,2,0:0:0:0:
489,162,41310,6,0,P|527:156|508:190,1,95.9999970703126,12|0,0:0|3:0,0:0:0:0:
393,237,41685,1,0,0:0:0:0:
301,189,41872,1,0,0:0:0:0:
151,283,42060,70,0,P|132:248|117:284,1,95.9999970703126,6|0,3:0|0:0,0:0:0:0:
142,365,42435,1,2,0:0:0:0:
48,334,42622,1,2,0:0:0:0:
229,226,42810,1,8,0:0:0:0:
229,226,43185,1,0,0:0:0:0:
435,307,43372,53,4,3:0:0:0:
404,206,43560,1,0,0:0:0:0:
435,104,43747,1,0,0:0:0:0:
435,307,43935,1,8,0:0:0:0:
435,104,44122,5,4,3:0:0:0:
325,92,44310,1,0,0:0:0:0:
252,17,44497,1,0,0:0:0:0:
435,104,44685,1,8,0:0:0:0:
165,105,44872,69,4,3:0:0:0:
190,117,45060,38,0,B|186:133|186:133|195:152|185:173|187:197,1,60.0000022888184
121,229,45435,2,0,B|117:245|117:245|126:264|116:285|118:309,1,60.0000022888184,0|0,0:0|0:0,0:0:0:0:
48,33,45810,2,0,B|44:49|44:49|53:68|43:89|45:113,1,60.0000022888184,8|0,0:0|0:0,0:0:0:0:
256,276,46185,2,0,B|252:292|252:292|261:311|251:332|253:356,1,60.0000022888184,0|0,0:0|3:0,0:0:0:0:
413,72,46560,69,0,0:0:0:0:
397,284,46747,1,8,0:0:0:0:
390,204,46935,1,0,3:0:0:0:
448,150,47122,1,0,0:0:0:0:
158,200,47310,1,8,0:0:0:0:
158,200,47685,1,0,0:0:0:0:
203,66,47872,1,0,0:0:0:0:
0,255,48060,6,0,B|6:254|6:254|10:250|10:250|16:253|16:253|20:248|20:248|26:251|26:251|30:246|30:246|35:249|35:249|40:244|40:244|45:247|45:247|50:243|50:243|55:246|55:246|59:241|59:241|65:244|65:244|69:239|69:239|75:242|75:242|79:237|79:237|85:240|85:240|89:236|89:236|95:239|95:239|99:234|99:234|104:237|104:237|109:232|109:232|114:235|114:235|119:230|119:230|124:234|124:234|128:229|128:229|134:232|134:232|138:227|138:227|144:230|144:230|148:225|148:225|154:228|154:228|158:223|158:223|164:227|164:227|168:222|168:222|174:225|174:225|178:220|178:220|187:220,1,240,2|0,3:0|0:0,0:0:0:0:
228,227,48435,1,2,0:0:0:0:
292,157,48622,1,2,0:0:0:0:
483,181,48810,1,8,0:0:0:0:
458,89,48997,1,2,0:0:0:0:
487,51,49185,1,0,0:0:0:0:
333,7,49372,70,0,B|329:11|329:11|324:9|324:9|322:15|322:15|317:13|317:13|315:19|315:19|310:17|310:17|308:23|308:23|303:21|303:21|301:27|301:27|296:25|296:25|295:31|295:31|289:29|289:29|288:35|288:35|282:33|282:33|281:39|281:39|275:37|275:37|274:43|274:43|268:41|268:41|266:47|266:47|260:46|260:46|259:51|259:51|254:50|254:50|252:55|252:55|246:51|246:51|242:55|242:55|238:51|238:51|234:55|234:55|230:51|230:51|226:55|226:55|222:51|222:51|218:55|218:55|214:51|214:51|210:55|210:55|206:51|206:51|202:55|202:55|198:51|198:51|194:55|194:55|190:51|190:51|186:55|186:55|182:51|182:51|171:52,1,240,2|0,3:0|0:0,0:0:0:0:
147,16,49747,1,0,0:0:0:0:
211,106,49935,1,0,0:0:0:0:
157,177,50122,1,0,0:0:0:0:
58,324,50310,6,0,P|33:354|25:316,1,95.9999970703126,12|0,0:0|3:0,0:0:0:0:
70,225,50685,1,0,0:0:0:0:
157,177,50872,1,0,0:0:0:0:
275,319,51060,70,0,B|282:330|282:330|277:336|277:336|284:339|284:339|285:348|285:348|293:344|293:344|297:351|297:351|302:344|302:344|310:347|310:347|312:338|312:338|320:339|320:339|319:332|319:332|326:327|326:327|319:321|319:321|325:317|325:317|314:314|314:314|319:307|319:307|311:306|311:306|315:299|315:299|308:300|308:300|306:295,1,156.000000595093,6|0,3:0|0:0,0:0:0:0:
215,255,51435,1,2,0:0:0:0:
221,260,51622,1,2,0:0:0:0:
343,159,51810,1,8,0:0:0:0:
283,84,51997,1,2,0:0:0:0:
221,260,52185,1,0,0:0:0:0:
465,337,52372,6,0,B|456:334|456:334|451:338|451:338|446:334|446:334|440:337|440:337|436:332|436:332|431:336|431:336|426:331|426:331|420:335|420:335|415:331|415:331|410:334|410:334|405:330|405:330|400:334|400:334|396:329|396:329|390:332|390:332|386:328|386:328|380:331|380:331|376:327|376:327|371:331|371:331|366:327|366:327|361:329|361:329|356:325|356:325|351:329|351:329|346:324|346:324|340:328|340:328|335:324|335:324|330:327|330:327|326:323|326:323|320:326|320:326|316:322|316:322|310:325|310:325|306:321|306:321|301:325|301:325|296:320|296:320|291:324|291:324|286:320|286:320|281:322|281:322|275:322,1,240,2|0,3:0|0:0,0:0:0:0:
249,335,52747,1,2,0:0:0:0:
297,224,52935,1,0,3:0:0:0:
373,258,53122,1,2,0:0:0:0:
457,133,53310,70,0,P|495:127|476:161,1,95.9999970703126,12|0,0:0|3:0,0:0:0:0:
393,237,53685,1,0,0:0:0:0:
301,189,53872,1,0,0:0:0:0:
134,118,54060,6,0,B|131:105|131:105|138:101|138:101|133:96|133:96|136:87|136:87|127:87|127:87|126:79|126:79|118:84|118:84|112:78|112:78|107:86|107:86|100:82|100:82|98:88|98:88|90:90|90:90|94:98|94:98|87:100|87:100|96:107|96:107|88:111|88:111|95:115|95:115|89:120|89:120|96:122|96:122|96:127,1,156.000000595093,6|0,3:0|0:0,0:0:0:0:
117,202,54435,1,2,0:0:0:0:
19,169,54622,1,2,0:0:0:0:
205,64,54810,1,8,0:0:0:0:
205,64,55185,1,0,0:0:0:0:
51,286,55372,37,4,3:0:0:0:
66,186,55560,1,0,0:0:0:0:
17,96,55747,1,0,0:0:0:0:
51,286,55935,1,8,0:0:0:0:
16,95,56122,5,4,3:0:0:0:
190,164,56310,1,0,0:0:0:0:
239,252,56497,1,0,0:0:0:0:
205,64,56685,1,8,0:0:0:0:
238,251,56872,69,4,3:0:0:0:
468,227,57060,37,0,0:0:0:0:
411,292,57247,1,0,0:0:0:0:
455,118,57435,2,0,B|451:114|462:92|452:71|452:71|457:54,1,64,0|0,0:0|0:0,0:0:0:0:
468,227,57810,69,8,0:0:0:0:
411,292,57997,1,0,0:0:0:0:
455,118,58185,2,0,B|451:114|462:92|452:71|452:71|457:54,1,64
299,239,58560,21,2,0:0:0:0:
299,239,58747,1,2,0:0:0:0:
119,296,58935,1,2,0:0:0:0:
188,239,59122,1,2,0:0:0:0:
320,365,59310,2,0,B|329:326|320:297|320:297|331:290|331:290|321:267|326:232,1,120.000004577637,2|0,0:0|0:0,0:0:0:0:
87,104,59685,5,2,0:0:0:0:
87,104,60060,6,0,B|138:94|184:104|184:104|203:99|216:85|216:85|230:99|249:104|249:104|323:94|411:104,1,270.000010299683,6|0,3:0|0:0,0:0:0:0:
299,124,60435,2,0,B|289:120|238:127|238:127|225:123|216:114|216:114|206:123|194:127|194:127|162:120|126:127,1,180.000006866455,2|0,0:0|0:0,0:0:0:0:
0,296,60810,1,14,0:0:0:0:
84,302,60997,1,2,0:0:0:0:
113,384,61185,1,2,0:0:0:0:
113,384,61372,1,2,0:0:0:0:
256,280,61560,5,2,0:0:0:0:
256,280,61935,2,0,B|287:289|324:276|324:276|333:277|343:282|343:282|348:271|354:265|354:265|385:254|410:219,1,180.000006866455,6|0,3:0|0:0,0:0:0:0:
256,104,62310,2,0,B|224:94|187:107|187:107|178:106|168:101|168:101|163:112|157:118|157:118|126:129|101:164,1,180.000006866455,10|0,0:0|0:0,0:0:0:0:
128,321,62685,1,2,0:0:0:0:
46,284,62872,1,2,0:0:0:0:
256,192,63060,1,2,3:0:0:0:
256,192,63435,70,0,B|285:149|324:123|324:123|334:106|334:86|334:86|354:86|370:77|370:77|416:18|485:-37,1,270.000010299683,6|0,3:0|0:0,0:0:0:0:
457,28,63810,1,2,0:0:0:0:
493,214,63997,1,2,0:0:0:0:
417,141,64185,1,2,0:0:0:0:
417,141,64560,53,2,0:0:0:0:
299,188,64747,1,2,0:0:0:0:
199,104,64935,1,2,0:0:0:0:
417,141,65122,1,2,0:0:0:0:
328,36,65310,1,2,0:0:0:0:
299,188,65497,1,2,0:0:0:0:
417,141,65685,1,2,0:0:0:0:
417,141,66060,70,0,B|414:223|380:189|374:262,1,120.000004577637,2|0,3:0|0:0,0:0:0:0:
203,354,66435,2,0,B|285:351|251:317|324:311,1,120.000004577637,2|2,0:0|0:0,0:0:0:0:
435,145,66810,2,0,B|432:227|398:193|392:266,1,120.000004577637,8|2,0:0|0:0,0:0:0:0:
209,375,67185,1,0,0:0:0:0:
212,272,67372,1,2,3:0:0:0:
36,211,67560,1,0,0:0:0:0:
36,211,67935,69,0,0:0:0:0:
136,219,68122,1,2,0:0:0:0:
252,105,68310,6,0,P|276:135|285:97,1,95.9999970703126,12|0,0:0|3:0,0:0:0:0:
153,113,68685,1,0,0:0:0:0:
155,222,68872,1,0,0:0:0:0:
53,354,69060,70,0,P|16:365|29:329,1,95.9999970703126,6|0,3:0|0:0,0:0:0:0:
148,384,69435,1,2,0:0:0:0:
230,319,69622,1,2,0:0:0:0:
456,363,69810,5,8,0:0:0:0:
477,275,69997,1,2,0:0:0:0:
342,334,70185,1,0,0:0:0:0:
342,334,70372,1,2,3:0:0:0:
202,127,70560,1,0,0:0:0:0:
202,127,70935,69,0,3:0:0:0:
295,176,71122,1,2,0:0:0:0:
445,128,71310,6,0,P|482:117|469:153,1,95.9999970703126,12|0,0:0|3:0,0:0:0:0:
386,184,71685,1,0,0:0:0:0:
276,171,71872,1,0,0:0:0:0:
152,266,72060,70,0,P|128:235|119:273,1,95.9999970703126,6|0,3:0|0:0,0:0:0:0:
144,339,72435,1,2,0:0:0:0:
225,274,72622,1,2,0:0:0:0:
63,193,72810,1,8,0:0:0:0:
178,127,72997,1,2,0:0:0:0:
185,96,73185,1,0,0:0:0:0:
445,121,73372,53,4,3:0:0:0:
355,167,73560,1,0,0:0:0:0:
309,258,73747,1,0,0:0:0:0:
445,121,73935,1,8,0:0:0:0:
309,258,74122,5,4,3:0:0:0:
223,204,74310,1,0,0:0:0:0:
124,213,74497,1,0,0:0:0:0:
309,258,74685,1,8,0:0:0:0:
124,213,74872,69,4,3:0:0:0:
255,68,75060,37,0,0:0:0:0:
255,68,75247,1,0,0:0:0:0:
145,38,75435,1,0,0:0:0:0:
244,101,75622,1,0,0:0:0:0:
441,102,75810,1,8,0:0:0:0:
441,102,75997,1,0,0:0:0:0:
482,284,76185,2,0,P|474:209|416:180,1,120.000004577637,0|0,0:0|3:0,0:0:0:0:
298,272,76560,69,0,0:0:0:0:
298,272,76747,1,8,0:0:0:0:
410,253,76935,1,0,3:0:0:0:
305,306,77122,1,0,0:0:0:0:
109,286,77310,1,8,0:0:0:0:
109,286,77497,1,0,0:0:0:0:
65,100,77685,1,0,0:0:0:0:
65,100,78060,6,0,B|125:44|125:92|180:44,1,120.000004577637,2|0,3:0|0:0,0:0:0:0:
367,100,78435,2,0,B|306:44|306:92|251:44,1,120.000004577637,2|2,0:0|0:0,0:0:0:0:
56,84,78810,2,0,B|116:28|116:76|171:28,1,120.000004577637,8|2,0:0|0:0,0:0:0:0:
378,81,79185,1,0,0:0:0:0:
464,34,79372,1,2,3:0:0:0:
512,214,79560,1,0,0:0:0:0:
512,214,79935,69,0,0:0:0:0:
399,187,80122,1,0,0:0:0:0:
225,264,80310,6,0,P|201:294|192:256,1,95.9999970703126,12|0,0:0|3:0,0:0:0:0:
254,192,80685,1,0,0:0:0:0:
372,201,80872,1,0,0:0:0:0:
450,87,81060,70,0,P|487:98|474:62,1,95.9999970703126,6|0,3:0|0:0,0:0:0:0:
405,26,81435,1,2,0:0:0:0:
328,89,81622,1,2,0:0:0:0:
136,44,81810,5,8,0:0:0:0:
189,128,81997,1,2,0:0:0:0:
33,73,82185,1,0,0:0:0:0:
33,73,82372,1,2,3:0:0:0:
0,287,82560,1,0,0:0:0:0:
0,287,82935,69,0,3:0:0:0:
111,248,83122,1,2,0:0:0:0:
267,287,83310,6,0,P|304:276|289:312,1,95.9999970703126,12|0,0:0|3:0,0:0:0:0:
184,287,83685,1,0,0:0:0:0:
84,229,83872,1,0,0:0:0:0:
111,60,84060,70,0,P|87:29|78:67,1,95.9999970703126,6|0,3:0|0:0,0:0:0:0:
104,140,84435,1,2,0:0:0:0:
214,187,84622,1,2,0:0:0:0:
324,139,84810,5,8,0:0:0:0:
266,193,84998,1,2,0:0:0:0:
222,68,85185,1,0,0:0:0:0:
51,286,85372,37,4,3:0:0:0:
66,186,85560,1,0,0:0:0:0:
17,96,85747,1,0,0:0:0:0:
51,286,85935,1,8,0:0:0:0:
17,96,86122,5,4,3:0:0:0:
116,111,86310,1,0,0:0:0:0:
205,62,86497,1,0,0:0:0:0:
17,96,86685,1,8,0:0:0:0:
205,62,86872,69,4,3:0:0:0:
238,251,87060,37,0,0:0:0:0:
262,154,87247,1,0,0:0:0:0:
358,265,87435,1,0,0:0:0:0:
353,256,87622,1,0,0:0:0:0:
440,149,87810,1,8,0:0:0:0:
473,252,87997,1,0,0:0:0:0:
116,111,88185,1,0,0:0:0:0:
116,111,88560,69,2,0:0:0:0:
84,245,88747,1,2,0:0:0:0:
281,92,88935,1,2,0:0:0:0:
274,105,89122,1,2,0:0:0:0:
473,242,89310,1,2,0:0:0:0:
440,110,89497,1,2,0:0:0:0:
273,270,89685,2,0,B|264:215|273:175|273:175|262:165|262:165|272:133|267:84,1,191.999994140625,2|0,0:0|0:0,0:0:0:0:
500,364,90060,5,2,3:0:0:0:
