osu file format v14

[General]
AudioFilename: audio.mp3
AudioLeadIn: 0
PreviewTime: 314166
Countdown: 1
SampleSet: Normal
StackLeniency: 0.7
Mode: 0
LetterboxInBreaks: 0
WidescreenStoryboard: 0

[Editor]
Bookmarks: 2529,20916,33303,45690,68916,79755,87925,96095,108350,116520,126733,143074,151244,167584,183752,197768,211482,221768,237196,250792,263179,281747,292585,304972,322005,352972
DistanceSpacing: 0.8
BeatDivisor: 4
GridSize: 32
TimelineZoom: 2.899999

[Metadata]
Title:The Superb Mario Medley (feat. Labo Piano)
TitleUnicode:The Superb Mario Medley (feat. Labo Piano)
Artist:FreddeGredde
ArtistUnicode:FreddeGredde
Creator:Waaif
Version:Marathon
Source:
Tags:
BeatmapID:2081305
BeatmapSetID:995048

[Difficulty]
HPDrainRate:7
CircleSize:4
OverallDifficulty:7.4
ApproachRate:9.3
SliderMultiplier:2.2
SliderTickRate:1

[Events]
//Background and Video events
0,0,"Nintendo-Super-Mario-Odyssey-Concept-Art-03.jpg",0,0
//Break Periods
2,237396,243499
//Storyboard Layer 0 (Background)
//Storyboard Layer 1 (Fail)
//Storyboard Layer 2 (Pass)
//Storyboard Layer 3 (Foreground)
//Storyboard Layer 4 (Overlay)
//Storyboard Sound Samples

[TimingPoints]
2336,387.096774193548,4,1,0,30,1,0
2529,-222.222222222221,4,1,0,30,0,0
4852,-166.666666666667,4,1,0,30,0,0
5626,-125,4,1,0,30,0,0
6400,-100,4,1,0,30,0,0
10077,-111.111111111111,4,1,0,30,0,0
20916,-90.9090909090909,4,1,0,30,0,0
25755,-200,4,1,0,30,0,0
26142,-153.846153846154,4,1,0,30,0,0
26529,-117.647058823529,4,1,0,30,0,0
26916,-95.2380952380952,4,1,0,30,0,0
31755,-200,4,1,0,30,0,0
32142,-153.846153846154,4,1,0,30,0,0
32529,-125,4,1,0,30,0,0
32916,-100,4,1,0,30,0,0
33303,-133.333333333333,4,1,0,30,0,0
58077,-83.3333333333333,4,1,0,30,0,1
68916,-83.3333333333333,4,1,0,30,0,0
69497,-125,4,1,0,30,0,0
79755,510.63829787234,4,1,0,30,1,0
82052,-95.2380952380952,4,1,0,30,0,0
82308,-90.9090909090909,4,1,0,30,0,0
83840,-100,4,1,0,30,0,0
85882,-90.9090909090909,4,1,0,30,0,0
86137,-83.3333333333333,4,1,0,30,0,0
86393,-76.9230769230769,4,1,0,30,0,0
86903,-71.4285714285714,4,1,0,30,0,0
88691,-83.3333333333333,4,1,0,30,0,0
90478,-71.4285714285714,4,1,0,30,0,0
90733,-83.3333333333333,4,1,0,30,0,0
108350,-200,4,1,0,30,0,0
108606,-50,4,1,0,30,0,0
112435,-200,4,1,0,30,0,0
112691,-50,4,1,0,30,0,0
116520,-100,4,1,0,30,0,0
133116,-90.9090909090909,4,1,0,30,0,0
133372,-83.3333333333333,4,1,0,30,0,0
133627,-71.4285714285714,4,1,0,30,0,0
137201,-83.3333333333333,4,1,0,30,0,0
137457,-100,4,1,0,30,0,0
137712,-125,4,1,0,30,0,0
137967,-100,4,1,0,30,0,0
138223,-76.9230769230769,4,1,0,30,0,0
138478,-62.5,4,1,0,30,0,0
142691,-100,4,1,0,30,0,0
147159,-76.9230769230769,4,1,0,30,0,0
162478,-100,4,1,0,30,0,0
166563,-83.3333333333333,4,1,0,30,0,0
167584,-100,4,1,0,30,0,0
182137,-133.333333333333,4,1,0,30,0,0
182903,-166.666666666667,4,1,0,30,0,0
183668,-166.666666666667,4,1,0,5,0,0
183752,332.409972299169,3,1,0,30,1,0
183752,-200,3,1,0,30,0,0
187519,-200,3,1,0,5,0,0
187630,-200,3,1,0,30,0,0
191729,-142.857142857143,3,1,0,30,0,0
193724,-111.111111111111,3,1,0,30,0,0
197768,428.571428571429,4,1,0,30,1,0
215982,-86.9565217391304,4,1,0,30,0,0
216196,-76.9230769230769,4,1,0,30,0,0
216410,-68.9655172413793,4,1,0,30,0,0
216625,-60.6060606060606,4,1,0,30,0,0
217053,-100,4,1,0,30,0,0
224339,-125,4,1,0,30,0,0
224553,-83.3333333333333,4,1,0,30,0,0
224768,-71.4285714285714,4,1,0,30,0,0
224982,-62.5,4,1,0,30,0,0
225196,-62.5,4,1,0,30,0,1
230553,-71.4285714285714,4,1,0,30,0,1
230768,-83.3333333333333,4,1,0,30,0,1
230982,-100,4,1,0,30,0,1
232053,-62.5,4,1,0,30,0,1
237196,-62.5,4,1,0,30,0,0
244268,-83.3333333333333,4,1,0,30,0,0
250375,392.156862745098,4,1,0,30,1,0
250792,387.096774193548,4,1,0,30,1,0
250792,-66.6666666666667,4,1,0,30,0,0
255437,-58.8235294117647,4,1,0,30,0,0
255630,-66.6666666666667,4,1,0,30,0,0
255824,-76.9230769230769,4,1,0,30,0,0
256017,-90.9090909090909,4,1,0,30,0,0
256211,-66.6666666666667,4,1,0,30,0,0
263179,-100,4,1,0,30,0,0
274792,-125,4,1,0,30,0,0
281372,375,4,1,0,30,1,0
281747,387.096774193548,4,1,0,30,1,0
282392,-133.333333333333,4,1,0,30,0,0
292585,-100,4,1,0,30,0,0
311359,-133.333333333333,4,1,0,30,0,0
314263,-100,4,1,0,30,0,1
322005,-83.3333333333333,4,1,0,30,0,0
334392,-83.3333333333333,4,1,0,30,0,1
339424,-125,4,1,0,30,0,1
339811,-111.111111111111,4,1,0,30,0,1
340198,-100,4,1,0,30,0,1
345230,-100,4,1,0,30,0,0
352972,666.666666666667,4,1,0,30,1,0
354805,750,4,1,0,30,1,0
354805,-200,4,1,0,30,0,0
355930,923.076923076923,4,1,0,30,1,0
355930,-200,4,1,0,30,0,0
359622,-200,4,1,0,20,0,0
361468,-200,4,1,0,10,0,0
363314,-200,4,1,0,5,0,0

[HitObjects]
161,91,2529,6,0,L|165:154,7,49.4999984893799
259,187,4077,2,0,L|252:116,2,49.4999984893799
336,36,4658,1,0,0:0:0:0:
350,223,4852,2,0,L|344:149,2,65.9999979858399
268,341,5432,5,0,0:0:0:0:
268,341,5626,2,0,L|171:328,2,88
399,259,6206,1,0,0:0:0:0:
399,259,6400,2,0,L|520:245,2,110
322,199,6981,5,0,0:0:0:0:
53,112,7174,1,0,0:0:0:0:
59,126,7368,1,0,0:0:0:0:
65,140,7561,1,0,0:0:0:0:
235,68,7755,5,0,0:0:0:0:
31,208,7948,1,0,0:0:0:0:
37,222,8142,1,0,0:0:0:0:
43,236,8335,1,0,0:0:0:0:
99,36,8529,5,0,0:0:0:0:
28,310,8723,5,0,0:0:0:0:
34,333,8787,5,0,0:0:0:0:
41,356,8852,5,0,0:0:0:0:
48,380,8916,5,0,0:0:0:0:
131,368,9110,1,0,0:0:0:0:
204,206,9303,1,0,0:0:0:0:
272,347,9497,1,0,0:0:0:0:
355,329,9690,1,0,0:0:0:0:
429,204,9884,1,0,0:0:0:0:
306,122,10077,6,0,P|212:130|189:149,1,98.9999969787599
199,141,10368,1,0,0:0:0:0:
187,154,10465,1,0,0:0:0:0:
91,313,10658,1,0,0:0:0:0:
281,213,10852,6,0,P|203:266|193:294,1,98.9999969787599
197,283,11143,1,0,0:0:0:0:
193,299,11240,1,0,0:0:0:0:
296,351,11432,1,0,0:0:0:0:
414,150,11626,5,0,0:0:0:0:
340,138,11819,1,0,0:0:0:0:
267,126,12013,1,0,0:0:0:0:
183,42,12206,5,0,0:0:0:0:
185,63,12271,5,0,0:0:0:0:
188,85,12335,5,0,0:0:0:0:
191,107,12400,5,0,0:0:0:0:
86,89,12594,1,0,0:0:0:0:
66,190,12788,1,0,0:0:0:0:
166,209,12981,1,0,0:0:0:0:
309,60,13174,6,0,L|304:176,1,98.9999969787599
303,173,13465,1,0,0:0:0:0:
302,191,13561,1,0,0:0:0:0:
420,100,13755,1,0,0:0:0:0:
301,213,13948,6,0,L|296:328,1,98.9999969787599
294,325,14239,1,0,0:0:0:0:
293,344,14335,1,0,0:0:0:0:
194,241,14529,1,0,0:0:0:0:
65,92,14723,6,0,L|62:158,1,49.4999984893799
55,218,14916,1,0,0:0:0:0:
183,31,15110,6,0,L|186:97,1,49.4999984893799
190,161,15303,5,0,0:0:0:0:
191,177,15368,5,0,0:0:0:0:
192,194,15432,5,0,0:0:0:0:
193,210,15497,5,0,0:0:0:0:
265,336,15690,1,0,0:0:0:0:
339,193,15884,5,0,0:0:0:0:
267,318,16077,1,0,0:0:0:0:
199,173,16271,6,0,B|91:151|96:226|-12:194,1,197.99999395752
159,249,16852,1,0,0:0:0:0:
308,48,17045,6,0,L|304:149,1,98.9999969787599
303,162,17335,1,0,0:0:0:0:
301,178,17432,1,0,0:0:0:0:
425,75,17626,1,0,0:0:0:0:
202,151,17819,1,0,0:0:0:0:
294,268,18013,5,0,0:0:0:0:
294,292,18109,1,0,0:0:0:0:
295,317,18206,1,0,0:0:0:0:
419,270,18400,5,0,0:0:0:0:
418,286,18465,5,0,0:0:0:0:
417,302,18529,5,0,0:0:0:0:
415,319,18594,6,0,P|346:294|259:333,1,148.49999546814
247,336,18981,2,0,P|276:254|247:163,1,148.49999546814
255,178,19368,5,0,0:0:0:0:
146,167,19561,1,0,0:0:0:0:
208,78,19755,1,0,0:0:0:0:
213,88,20142,5,0,0:0:0:0:
409,107,20335,1,0,0:0:0:0:
297,268,20529,1,0,0:0:0:0:
306,171,20723,1,0,0:0:0:0:
39,106,20916,6,0,L|111:117,1,60.5000018463135
41,125,21303,6,0,L|113:136,1,60.5000018463135
219,181,21594,5,0,0:0:0:0:
232,202,21690,2,0,L|160:213,2,60.5000018463135
40,286,21981,1,0,0:0:0:0:
56,307,22077,2,0,P|113:355|103:279,1,181.500005538941
131,51,22465,6,0,L|140:135,1,60.5000018463135
154,64,22852,6,0,L|163:148,1,60.5000018463135
285,149,23142,5,0,0:0:0:0:
272,163,23239,2,0,L|263:247,2,60.5000018463135
328,276,23529,5,0,0:0:0:0:
341,290,23626,2,0,B|354:322|349:362|349:362|391:331|456:329,1,181.500005538941
390,117,24013,6,0,L|302:134,1,60.5000018463135
386,134,24400,6,0,L|298:151,1,60.5000018463135
235,68,24690,6,0,L|230:157,1,60.5000018463135
148,106,24884,2,0,L|143:195,1,60.5000018463135
64,116,25077,1,0,0:0:0:0:
61,144,25174,2,0,L|56:233,1,60.5000018463135
214,297,25368,2,0,L|153:293,1,60.5000018463135
288,159,25561,6,0,P|241:150|211:160,1,60.5000018463135
289,315,25755,6,0,P|298:325|299:345,1,27.5
332,315,25948,2,0,P|322:325|321:345,1,27.5
249,267,26142,6,0,P|265:280|275:292,1,35.749998363495
371,266,26335,2,0,P|352:277|344:291,1,35.749998363495
142,212,26529,6,0,P|164:214|187:222,1,46.7500008916855
471,201,26723,2,0,P|447:201|428:211,1,46.7500008916855
16,243,26916,6,0,P|41:225|66:218,1,57.7499982376099
243,41,27110,6,0,P|241:79|251:114,1,57.7499982376099
228,52,27497,2,0,P|226:90|236:125,1,57.7499982376099
268,181,27787,5,0,0:0:0:0:
275,196,27884,2,0,P|283:246|276:271,2,57.7499982376099
223,299,28174,5,0,0:0:0:0:
211,309,28271,2,0,P|166:286|188:172,1,173.24999471283
155,67,28658,6,0,P|133:105|94:107,1,57.7499982376099
153,105,29045,6,0,P|113:123|80:102,1,57.7499982376099,0|0,3:0|3:0,0:0:0:0:
86,132,29335,5,0,0:0:0:0:
34,72,29432,2,0,P|54:32|104:14,2,57.7499982376099
179,172,29723,5,0,0:0:0:0:
231,112,29820,2,0,B|234:45|177:26|177:26|121:51|135:105,1,173.24999471283
280,211,30206,6,0,P|308:205|355:229,1,57.7499982376099
266,224,30594,6,0,P|272:252|248:299,1,57.7499982376099
247,207,30884,5,0,0:0:0:0:
169,180,30981,2,0,P|146:150|135:109,2,57.7499982376099
309,143,31271,5,0,0:0:0:0:
336,65,31368,2,0,P|366:42|407:31,1,57.7499982376099
457,28,31561,2,0,P|494:32|531:54,1,57.7499982376099
438,157,31755,6,0,L|431:117,1,27.5
400,156,31948,2,0,L|407:116,1,27.5
451,226,32142,6,0,L|444:186,1,35.749998363495
387,223,32335,2,0,L|394:183,1,35.749998363495
512,327,32529,6,0,L|483:292,1,44,0|0,0:0|0:0,0:0:0:0:
308,318,32723,2,0,L|336:283,1,44,0|0,0:0|0:0,0:0:0:0:
512,138,32916,6,0,L|474:183,1,55,0|0,0:0|0:0,0:0:0:0:
241,197,33110,2,0,L|299:207,1,55,0|0,0:0|0:0,0:0:0:0:
507,281,33303,6,0,L|405:287,1,82.5000031471254
308,318,33690,1,0,0:0:0:0:
484,208,33884,6,0,L|382:214,1,82.5000031471254
303,291,34271,1,0,0:0:0:0:
475,115,34465,6,0,B|390:146|386:79|294:104,1,165.000006294251
429,46,35045,5,0,0:0:0:0:
336,180,35239,1,0,0:0:0:0:
455,144,35432,1,0,0:0:0:0:
264,118,35626,1,0,0:0:0:0:
317,277,35819,2,0,P|290:271|261:276,1,41.2500015735627
245,292,36013,2,0,P|261:211|224:170,1,123.750004720688
126,247,36400,5,0,0:0:0:0:
110,84,36594,2,0,L|97:-13,1,82.5000031471254
66,169,36884,2,0,L|-5:226,1,82.5000031471254
163,161,37174,6,0,B|250:201|254:126|351:165,1,165.000006294251
296,238,37755,1,0,0:0:0:0:
296,238,37948,2,0,P|285:280|294:328,1,82.5000031471254
353,378,38335,1,0,0:0:0:0:
424,306,38529,1,0,0:0:0:0:
506,374,38723,1,0,0:0:0:0:
497,191,38916,1,0,0:0:0:0:
413,266,39110,6,0,P|388:183|419:118,1,123.750004720688
411,132,39497,6,0,P|343:139|358:57,1,165.000006294251
365,48,40077,6,0,B|277:96|279:24|188:52,1,165.000006294251
223,126,40658,6,0,P|150:106|131:18,1,165.000006294251
212,38,41239,1,0,0:0:0:0:
211,218,41432,1,0,0:0:0:0:
317,72,41626,1,0,0:0:0:0:
146,128,41819,1,0,0:0:0:0:
317,183,42013,1,0,0:0:0:0:
97,63,42206,2,0,P|156:47|225:103,1,110.000004196167
339,124,42594,5,0,0:0:0:0:
492,34,42787,2,0,P|466:27|406:49,1,82.5000031471254
335,144,43077,2,0,P|360:136|424:161,1,82.5000031471254
482,244,43368,6,0,L|492:327,2,82.5000031471254
353,111,43948,2,0,P|269:132|246:171,1,123.750004720688
71,246,44335,2,0,P|85:229|120:209,1,41.2500015735627
190,197,44529,5,0,0:0:0:0:
326,141,44723,2,0,P|282:129|235:154,1,82.5000031471254
431,308,45110,6,0,B|420:253|433:232|433:232|398:190|398:190|415:150|404:106,1,206.250007867813
482,73,45690,6,0,P|408:30|330:72,1,165.000006294251
314,246,46271,1,0,0:0:0:0:
194,142,46465,1,0,0:0:0:0:
249,326,46658,1,0,0:0:0:0:
376,170,46852,1,0,0:0:0:0:
376,170,47239,6,0,P|276:155|283:211,1,165.000006294251
323,269,47819,1,0,0:0:0:0:
179,176,48013,1,0,0:0:0:0:
224,327,48206,1,0,0:0:0:0:
283,125,48400,1,0,0:0:0:0:
283,125,48787,6,0,B|195:95|204:157|120:124,1,165.000006294251
161,56,49368,1,0,0:0:0:0:
237,195,49561,1,0,0:0:0:0:
59,130,49755,1,0,0:0:0:0:
189,280,49948,1,0,0:0:0:0:
189,280,50335,6,0,B|238:269|238:269|283:283,1,82.5000031471254
344,324,50723,1,0,0:0:0:0:
280,119,50916,1,0,0:0:0:0:
245,361,51110,1,0,0:0:0:0:
365,159,51303,1,0,0:0:0:0:
164,216,51497,1,0,0:0:0:0:
327,341,51690,1,0,0:0:0:0:
376,222,51884,6,0,P|362:157|272:131,1,165.000006294251,0|0,0:3|0:3,0:3:0:0:
290,310,52465,1,0,0:0:0:0:
120,206,52658,1,0,0:0:0:0:
206,352,52852,1,0,0:0:0:0:
277,124,53045,1,0,0:0:0:0:
277,124,53432,6,0,P|170:145|106:107,1,165.000006294251
46,48,54013,1,0,0:0:0:0:
76,235,54206,1,0,0:0:0:0:
206,30,54400,1,0,0:0:0:0:
28,154,54594,1,0,0:0:0:0:
283,185,54787,1,0,0:0:0:0:
154,101,54981,6,0,B|241:136|232:79|347:111,1,165.000006294251
205,31,55561,1,0,0:0:0:0:
267,231,55755,1,0,0:0:0:0:
142,104,55948,1,0,0:0:0:0:
196,311,56142,1,0,0:0:0:0:
196,311,56529,6,0,P|248:322|299:303,1,82.5000031471254
398,143,56916,5,0,0:0:0:0:
369,334,57110,1,0,0:0:0:0:
491,220,57303,5,0,0:0:0:0:
231,176,57497,5,0,0:0:0:0:
213,174,57561,5,0,0:0:0:0:
195,171,57626,5,0,0:0:0:0:
176,169,57690,5,0,0:0:0:0:
411,303,57884,1,0,0:0:0:0:
373,79,58077,6,0,P|292:54|219:79,1,131.99999597168
223,83,58368,1,0,0:0:0:0:
202,105,58465,1,0,0:0:0:0:
349,241,58658,1,0,0:0:0:0:
202,324,58852,1,0,0:0:0:0:
200,153,59045,1,0,0:0:0:0:
200,153,59142,1,0,0:0:0:0:
200,153,59239,1,0,0:0:0:0:
313,312,59432,1,0,0:0:0:0:
352,40,59626,6,0,B|390:79|390:79|382:203,1,131.99999597168
381,189,59916,1,0,0:0:0:0:
378,215,60013,1,0,0:0:0:0:
448,298,60206,1,0,0:0:0:0:
305,42,60400,1,0,0:0:0:0:
293,143,60594,1,0,0:0:0:0:
289,175,60690,1,0,0:0:0:0:
286,208,60787,1,0,0:0:0:0:
175,76,60981,1,0,0:0:0:0:
37,152,61174,6,0,B|143:106|119:199|240:140,1,197.99999395752
246,131,61561,1,0,0:0:0:0:
91,220,61755,1,0,0:0:0:0:
172,51,61948,1,0,0:0:0:0:
188,258,62142,1,0,0:0:0:0:
191,290,62238,1,0,0:0:0:0:
194,323,62335,1,0,0:0:0:0:
276,131,62529,1,0,0:0:0:0:
91,279,62723,6,0,P|145:256|223:275,1,131.99999597168
259,308,63013,1,0,0:0:0:0:
288,355,63110,1,0,0:0:0:0:
350,63,63303,1,0,0:0:0:0:
413,338,63497,1,0,0:0:0:0:
244,92,63690,1,0,0:0:0:0:
244,92,63787,1,0,0:0:0:0:
244,92,63884,1,0,0:0:0:0:
489,146,64077,1,0,0:0:0:0:
238,311,64271,6,0,P|157:320|125:216,1,197.99999395752
135,203,64658,1,0,0:0:0:0:
270,82,64852,1,0,0:0:0:0:
192,249,65045,1,0,0:0:0:0:
175,73,65239,1,0,0:0:0:0:
169,40,65335,1,0,0:0:0:0:
164,7,65432,1,0,0:0:0:0:
46,152,65626,1,0,0:0:0:0:
293,168,65819,6,0,B|360:191|359:152|425:178,1,131.99999597168
422,177,66110,1,0,0:0:0:0:
422,177,66206,1,0,0:0:0:0:
284,283,66400,1,0,0:0:0:0:
325,84,66594,1,0,0:0:0:0:
198,306,66787,1,0,0:0:0:0:
198,306,66884,1,0,0:0:0:0:
198,306,66981,1,0,0:0:0:0:
170,118,67174,1,0,0:0:0:0:
298,328,67368,6,0,P|369:345|457:238,1,197.99999395752
446,229,67755,1,0,0:0:0:0:
372,88,67948,2,0,B|216:151|256:29|112:78,1,263.99999194336
161,212,68529,2,0,P|240:227|265:273,1,131.99999597168
334,323,68916,6,0,B|223:380|235:303|184:329|149:345|149:345|180:319|188:273,1,263.99999194336
98,98,69497,6,0,P|131:95|155:103,1,44
91,121,69690,2,0,P|146:115|208:164,1,117.333333333333
217,174,70013,1,0,0:0:0:0:
403,64,70271,2,0,L|401:124,1,44
380,52,70465,6,0,B|372:203,2,146.666666666667
366,28,71239,1,0,0:0:0:0:
257,98,71497,1,0,0:0:0:0:
271,18,71626,1,0,0:0:0:0:
265,6,72013,6,0,P|197:22|182:41,1,88
179,56,72245,6,0,L|95:59,1,70.4
184,136,72632,1,0,0:0:0:0:
184,136,72787,2,0,P|139:152|116:171,1,58.6666666666667
180,218,73045,2,0,P|159:261|156:290,1,58.6666666666667
235,278,73303,2,0,P|251:323|270:346,1,58.6666666666667
326,296,73561,6,0,P|383:334|378:249,1,176
345,124,74206,1,0,0:0:0:0:
259,131,74335,1,0,0:0:0:0:
117,193,74594,1,0,0:0:0:0:
202,200,74723,1,0,0:0:0:0:
321,279,75110,6,0,P|274:313|198:298,1,117.333333333333
183,281,75497,1,0,0:0:0:0:
325,154,75755,5,0,0:0:0:0:
299,192,75884,2,0,P|246:217|166:167,1,117.333333333333
169,172,76271,1,0,0:0:0:0:
349,73,76529,1,0,0:0:0:0:
305,98,76658,6,0,P|203:94|188:76,1,117.333333333333
91,151,77045,6,0,P|115:99|99:44,1,117.333333333333
31,20,77432,1,0,0:0:0:0:
63,252,77690,1,0,0:0:0:0:
9,180,77819,1,0,0:0:0:0:
9,180,78206,5,0,0:0:0:0:
63,252,78465,6,0,P|104:250|152:274,1,58.6666666666667
206,314,78852,1,0,0:0:0:0:
281,283,78981,2,0,P|323:279|363:288,1,58.6666666666667
451,326,79239,2,0,P|412:258|420:233,1,58.6666666666667
414,203,79497,2,0,P|428:158|462:136,1,58.6666666666667
492,72,79755,6,0,L|428:64,1,55
273,57,80265,6,0,L|337:49,1,55
205,115,80776,6,0,L|82:104,1,110
77,104,81159,1,0,0:0:0:0:
64,187,81797,6,0,L|70:269,1,55
139,161,82052,2,0,L|146:254,1,57.7499982376099
214,135,82308,2,0,L|221:228,1,60.5000018463135
298,274,82818,6,0,L|286:108,1,121.000003692627
287,122,83201,1,0,0:0:0:0:
433,227,83840,6,0,P|397:222|364:224,1,55
305,295,84350,6,0,P|274:295|244:290,1,55
182,241,84861,6,0,P|144:172|82:202,1,110
100,182,85244,1,0,0:0:0:0:
113,101,85882,6,0,P|149:72|156:34,1,60.5000018463135
194,201,86137,2,0,P|198:155|177:123,1,65.9999979858399
325,213,86393,2,0,P|296:177|258:169,1,71.4999967269899
451,50,86903,6,0,P|379:101|397:166,1,153.999995300293
402,177,87286,1,0,0:0:0:0:
310,300,87669,5,0,0:0:0:0:
259,285,87796,1,0,0:0:0:0:
310,295,87924,5,0,0:0:0:0:
258,289,88051,1,0,0:0:0:0:
311,290,88180,5,0,0:0:0:0:
257,294,88307,1,0,0:0:0:0:
196,347,88435,2,0,L|114:340,1,76.9999976501466
71,274,88691,2,0,P|73:236|65:167,1,65.9999979858399
135,122,88946,5,0,0:0:0:0:
221,103,89074,2,0,L|327:103,1,65.9999979858399
366,106,89329,1,0,0:0:0:0:
188,179,89457,2,0,L|253:178,1,65.9999979858399
186,74,89712,5,0,0:0:0:0:
237,89,89839,1,0,0:0:0:0:
186,79,89967,5,0,0:0:0:0:
238,85,90094,1,0,0:0:0:0:
185,84,90223,5,0,0:0:0:0:
239,80,90350,1,0,0:0:0:0:
300,27,90478,2,0,L|376:33,1,76.9999976501466
425,100,90734,2,0,P|423:132|424:165,1,65.9999979858399
394,260,90989,6,0,L|277:254,1,65.9999979858399
240,248,91244,1,0,0:0:0:0:
349,333,91372,2,0,L|231:328,1,65.9999979858399
150,327,91627,2,0,L|155:224,1,65.9999979858399
143,51,91882,5,0,0:0:0:0:
234,81,92010,1,0,0:0:0:0:
140,67,92137,5,0,0:0:0:0:
236,64,92265,1,0,0:0:0:0:
99,139,92393,6,0,P|90:203|109:270,1,131.99999597168
226,215,92776,5,0,0:0:0:0:
181,351,92904,1,0,0:0:0:0:
202,210,93031,5,0,0:0:0:0:
208,355,93159,2,0,P|254:345|361:357,1,131.99999597168
289,222,93542,5,0,0:0:0:0:
471,282,93670,1,0,0:0:0:0:
283,254,93797,5,0,0:0:0:0:
475,248,93925,1,0,0:0:0:0:
288,286,94052,6,0,P|226:280|196:299,1,65.9999979858399
155,309,94308,2,0,P|103:344|92:378,1,65.9999979858399
111,244,94563,2,0,L|125:147,2,65.9999979858399
178,39,94946,2,0,L|185:135,1,65.9999979858399
241,213,95244,5,0,0:0:0:0:
226,294,95329,1,0,0:0:0:0:
349,173,95499,1,0,0:0:0:0:
364,254,95584,1,0,0:0:0:0:
437,82,95840,1,0,0:0:0:0:
437,82,95967,1,0,0:0:0:0:
437,82,96095,6,0,P|353:78|326:89,2,65.9999979858399
385,155,96478,2,0,P|330:163|309:179,1,65.9999979858399
366,237,96733,2,0,P|333:281|329:307,1,65.9999979858399
255,346,96989,2,0,P|243:315|220:292,1,65.9999979858399
123,237,97244,1,0,0:0:0:0:
92,142,97372,1,0,0:0:0:0:
182,163,97499,1,0,0:0:0:0:
157,72,97627,1,0,0:0:0:0:
356,39,97882,1,0,0:0:0:0:
356,39,98010,1,0,0:0:0:0:
356,39,98137,6,0,L|345:132,2,65.9999979858399
254,74,98520,6,0,L|265:167,1,65.9999979858399
332,177,98776,2,0,L|321:270,1,65.9999979858399
168,329,99031,6,0,P|181:285|228:349,1,131.99999597168
247,328,99414,1,0,0:0:0:0:
333,321,99542,1,0,0:0:0:0:
281,249,99669,1,0,0:0:0:0:
420,313,99797,1,0,0:0:0:0:
371,245,99925,1,0,0:0:0:0:
371,245,100052,1,0,0:0:0:0:
371,245,100180,6,0,P|331:179|301:158,2,65.9999979858399
157,156,100563,6,0,P|195:155|232:174,1,65.9999979858399
255,97,100818,2,0,P|282:123|295:162,1,65.9999979858399
366,124,101074,2,0,P|366:162|347:199,1,65.9999979858399
271,235,101329,1,0,0:0:0:0:
252,326,101457,1,0,0:0:0:0:
162,307,101584,1,0,0:0:0:0:
181,216,101712,2,0,L|204:126,1,65.9999979858399
299,113,101967,1,0,0:0:0:0:
137,90,102095,1,0,0:0:0:0:
252,37,102223,6,0,P|294:29|359:39,2,65.9999979858399
205,126,102606,2,0,P|155:119|105:126,1,65.9999979858399
173,213,102861,2,0,P|223:206|273:213,1,65.9999979858399
327,252,103116,1,0,0:0:0:0:
256,321,103244,2,0,P|191:314|230:273,1,131.99999597168
389,277,103627,1,0,0:0:0:0:
389,277,103754,2,0,P|382:342|341:303,1,131.99999597168
249,199,104137,5,0,0:0:0:0:
172,191,104265,2,0,P|111:192|39:251,1,131.99999597168
92,106,104648,1,0,0:0:0:0:
92,106,104776,2,0,P|139:95|183:104,1,65.9999979858399
243,190,105031,2,0,P|196:179|152:188,1,65.9999979858399
338,276,105286,6,0,P|377:316|368:266,1,131.99999597168
376,260,105669,1,0,0:0:0:0:
209,235,105797,6,0,P|222:289|239:241,1,131.99999597168
247,239,106180,1,0,0:0:0:0:
106,158,106308,6,0,L|248:144,2,131.99999597168
323,65,107074,1,0,0:0:0:0:
323,65,107329,2,0,L|315:168,1,65.9999979858399
223,248,107584,5,0,0:0:0:0:
190,243,107648,1,0,0:0:0:0:
163,224,107712,1,0,0:0:0:0:
147,196,107776,1,0,0:0:0:0:
145,163,107840,1,0,0:0:0:0:
306,198,107967,1,0,0:0:0:0:
159,349,108350,6,0,L|192:345,1,27.5
140,343,108606,2,0,P|127:296|76:256,1,110
159,212,108861,2,0,P|172:165|223:125,2,110
303,123,109244,2,0,P|218:38|166:50,1,110
479,86,109499,2,0,P|358:86|330:131,1,110
475,1,109754,1,0,0:0:0:0:
418,143,109882,2,0,B|368:262|464:253|420:353,1,220
349,308,110265,1,0,0:0:0:0:
486,205,110393,5,0,0:0:0:0:
303,209,110520,1,0,0:0:0:0:
491,102,110648,2,0,P|442:66|372:68,1,110
321,183,110903,2,0,P|370:147|440:149,2,110
280,112,111286,6,0,L|291:-8,1,110
200,203,111542,2,0,L|189:83,1,110
298,250,111797,1,0,0:0:0:0:
113,176,111925,2,0,B|54:131|54:131|71:298,1,220
83,358,112308,1,0,0:0:0:0:
54,131,112435,6,0,L|50:82,1,27.5
146,137,112691,5,0,0:0:0:0:
220,94,112818,1,0,0:0:0:0:
269,159,112946,1,0,0:0:0:0:
343,116,113074,2,0,P|388:142|390:221,1,110
355,32,113329,6,0,P|297:39|252:87,1,110
448,51,113584,2,0,L|440:160,1,110
512,5,113840,1,0,0:0:0:0:
488,230,113967,6,0,B|389:278|367:165|254:241,1,220
216,282,114350,1,0,0:0:0:0:
270,94,114478,5,0,0:0:0:0:
179,155,114606,1,0,0:0:0:0:
192,28,114733,1,0,0:0:0:0:
279,84,114861,1,0,0:0:0:0:
97,81,114989,5,0,0:0:0:0:
180,170,115116,2,0,L|173:296,1,110
336,279,115372,6,0,P|294:322|215:326,1,110
367,194,115627,2,0,P|410:236|414:315,1,110
348,104,115882,1,0,0:0:0:0:
271,50,116010,6,0,B|209:31|209:31|134:67,1,110
92,126,116265,1,0,0:0:0:0:
197,140,116393,1,0,0:0:0:0:
133,214,116520,6,0,L|127:306,1,55
191,337,116776,2,0,L|337:332,2,110
191,337,117542,1,0,0:0:0:0:
260,226,117797,1,0,0:0:0:0:
260,226,117925,2,0,P|278:178|266:101,1,110
184,47,118308,1,0,0:0:0:0:
184,47,118435,1,0,0:0:0:0:
184,47,118563,6,0,L|270:49,2,55
133,132,118946,1,0,0:0:0:0:
133,132,119074,2,0,L|39:124,1,55
168,222,119329,1,0,0:0:0:0:
112,315,119457,6,0,L|166:310,1,55
310,259,119840,2,0,L|255:254,1,55
446,326,120223,2,0,L|391:322,1,55
248,170,120606,5,0,0:0:0:0:
244,140,120733,2,0,L|239:85,1,55
143,89,120989,1,0,0:0:0:0:
66,76,121116,6,0,P|90:70|121:71,1,55
165,162,121372,2,0,P|141:156|110:157,1,55
70,260,121627,2,0,P|135:289|192:266,1,110
296,260,122010,2,0,L|236:253,1,55
363,204,122265,1,0,0:0:0:0:
373,180,122393,2,0,L|427:173,1,55
502,140,122648,6,0,P|446:95|385:102,1,110
270,116,123031,2,0,L|330:123,1,55
203,172,123286,1,0,0:0:0:0:
193,196,123414,2,0,L|138:202,1,55
102,124,123669,6,0,P|55:184|61:235,1,110
54,235,124052,1,0,0:0:0:0:
108,324,124180,2,0,L|234:331,1,110
241,330,124563,1,0,0:0:0:0:
322,271,124691,5,0,0:0:0:0:
321,249,124818,2,0,L|319:159,1,55
234,258,125074,5,0,0:0:0:0:
233,236,125201,2,0,L|231:146,1,55
151,121,125457,2,0,P|218:84|289:97,1,110
266,21,125840,2,0,L|263:84,1,55
349,96,126095,5,0,0:0:0:0:
339,111,126222,1,0,0:0:0:0:
366,182,126350,1,0,0:0:0:0:
356,197,126477,1,0,0:0:0:0:
383,268,126606,1,0,0:0:0:0:
370,281,126733,6,0,L|252:280,1,110
173,204,127116,1,0,0:0:0:0:
159,224,127244,2,0,P|142:295|163:338,1,110
245,357,127627,2,0,L|314:363,1,55
407,300,128010,1,0,0:0:0:0:
407,300,128137,1,0,0:0:0:0:
407,300,128265,6,0,P|402:251|358:177,1,110
302,125,128648,6,0,L|253:129,1,27.5
311,117,128776,2,0,L|306:38,1,55
230,35,129031,2,0,L|233:89,1,55
162,121,129286,2,0,L|157:42,1,55
81,39,129541,2,0,L|84:93,1,55
58,255,129797,6,0,P|79:230|150:210,1,55
171,266,130052,2,0,P|182:296|163:368,1,55
104,358,130308,2,0,P|71:352|19:300,1,55
192,179,130563,6,0,P|253:173|320:191,1,110
396,164,131074,2,0,L|387:241,1,55
423,294,131329,2,0,L|467:260,1,55
449,378,131584,2,0,L|371:369,1,55
235,355,131840,2,0,L|244:278,1,55
140,279,132095,1,0,0:0:0:0:
164,259,132223,2,0,L|224:210,1,55
117,137,132478,1,0,0:0:0:0:
148,140,132606,2,0,L|225:149,1,55
289,44,132861,6,0,L|284:123,1,55
370,22,133116,2,0,L|365:118,1,60.5000018463135
450,1,133372,2,0,L|445:97,1,65.9999979858399
476,172,133627,6,0,P|443:155|378:161,1,76.9999976501466
405,151,134137,1,0,0:0:0:0:
405,151,134393,1,0,0:0:0:0:
371,284,134903,6,0,B|287:250|292:307|218:279,1,153.999995300293
221,280,135286,1,0,0:0:0:0:
221,280,135414,1,0,0:0:0:0:
151,211,135669,5,0,0:0:0:0:
151,211,135797,1,0,0:0:0:0:
151,211,135925,2,0,P|195:188|272:209,1,76.9999976501466
315,243,136180,5,0,0:0:0:0:
315,243,136308,1,0,0:0:0:0:
315,243,136435,2,0,L|321:148,1,76.9999976501466
256,92,136691,1,0,0:0:0:0:
236,79,136818,2,0,L|227:125,1,38.4999988250733
218,64,136946,6,0,P|171:47|121:55,1,76.9999976501466
294,126,137201,2,0,P|334:97|385:92,1,65.9999979858399
243,203,137457,2,0,P|210:164|163:146,1,55
304,275,137712,2,0,P|320:238|353:215,1,44
217,312,137967,6,0,P|239:344|244:385,1,55
136,263,138223,2,0,P|96:266|59:249,1,71.4999967269899
215,221,138478,2,0,P|234:178|272:151,1,88
397,145,138733,5,0,0:0:0:0:
451,211,138860,1,0,0:0:0:0:
448,297,138989,2,0,P|336:286|262:313,1,176
262,321,139372,1,0,0:0:0:0:
254,344,139499,1,0,0:0:0:0:
307,194,139754,5,0,0:0:0:0:
331,157,139881,1,0,0:0:0:0:
371,142,140009,1,0,0:0:0:0:
207,227,140265,5,0,0:0:0:0:
170,251,140392,1,0,0:0:0:0:
155,291,140520,1,0,0:0:0:0:
212,95,140776,1,0,0:0:0:0:
46,290,141031,6,0,L|137:295,1,88
185,218,141286,2,0,L|97:213,1,88
44,134,141542,6,0,L|135:139,1,88
183,62,141797,2,0,L|95:57,1,88
95,57,142308,6,0,P|87:84|91:105,1,44
95,57,142563,1,0,0:0:0:0:
188,29,142691,2,0,L|262:34,2,55
174,38,143074,6,0,P|163:73|169:132,1,55
228,204,143329,2,0,P|236:179|230:149,1,55
79,121,143584,1,0,0:0:0:0:
58,156,143712,2,0,P|56:186|74:229,1,55
140,291,143967,6,0,P|197:285|253:316,1,110
254,323,144350,1,0,0:0:0:0:
380,249,144606,2,0,L|462:242,1,55
314,183,144861,2,0,L|232:176,1,55
376,125,145116,6,0,P|396:163|400:194,1,55
316,316,145372,2,0,P|296:278|292:247,1,55
296,155,145627,1,0,0:0:0:0:
278,138,145754,2,0,L|180:135,1,55
141,185,146010,6,0,L|133:345,1,110
135,294,146393,1,0,0:0:0:0:
264,328,146648,1,0,0:0:0:0:
276,315,146776,1,0,0:0:0:0:
277,278,146903,1,0,0:0:0:0:
279,241,147031,1,0,0:0:0:0:
280,205,147159,6,0,P|339:197|404:266,1,142.99999345398
397,271,147542,1,0,0:0:0:0:
333,332,147669,1,0,0:0:0:0:
402,140,147925,2,0,L|395:47,1,71.4999967269899
300,129,148180,6,0,P|241:120|176:189,1,142.99999345398
177,197,148563,1,0,0:0:0:0:
125,112,148691,1,0,0:0:0:0:
371,232,148946,2,0,L|366:315,1,71.4999967269899
352,125,149201,6,0,L|264:129,1,71.4999967269899
201,147,149457,2,0,L|273:144,1,71.4999967269899
130,113,149712,1,0,0:0:0:0:
116,34,149840,2,0,L|112:122,1,71.4999967269899
8,197,150095,6,0,P|81:178|159:220,1,142.99999345398
156,222,150478,1,0,0:0:0:0:
276,237,150733,2,0,L|269:339,1,71.4999967269899
357,187,150989,2,0,L|361:115,1,71.4999967269899
362,101,151244,5,0,0:0:0:0:
362,101,151499,2,0,L|258:92,1,71.4999967269899
192,69,151754,1,0,0:0:0:0:
209,100,151881,1,0,0:0:0:0:
218,134,152009,1,0,0:0:0:0:
217,170,152136,1,0,0:0:0:0:
208,204,152265,6,0,L|127:198,1,71.4999967269899
167,278,152520,2,0,L|86:272,1,71.4999967269899
206,357,152776,6,0,L|287:351,1,71.4999967269899
248,275,153031,2,0,L|329:269,1,71.4999967269899
396,197,153286,1,0,0:0:0:0:
396,197,153542,6,0,P|322:178|272:193,1,71.4999967269899
232,204,153797,1,0,0:0:0:0:
118,108,154052,2,0,P|192:89|242:104,1,71.4999967269899
302,123,154308,2,0,P|315:57|368:106,1,142.99999345398
381,168,154691,1,0,0:0:0:0:
450,220,154818,2,0,P|437:154|384:203,1,142.99999345398
361,258,155201,1,0,0:0:0:0:
361,258,155329,5,0,0:0:0:0:
260,322,155584,5,0,0:0:0:0:
261,235,155840,1,0,0:0:0:0:
226,244,155967,1,0,0:0:0:0:
199,266,156095,1,0,0:0:0:0:
182,298,156222,1,0,0:0:0:0:
179,333,156350,2,0,P|151:267|138:260,1,71.4999967269899
87,220,156606,2,0,P|46:210|2:219,1,71.4999967269899
249,178,156861,2,0,P|316:151|330:155,1,71.4999967269899
393,162,157117,2,0,P|434:187|453:220,1,71.4999967269899
345,239,157372,5,0,0:0:0:0:
91,244,157627,5,0,0:0:0:0:
126,248,157754,1,0,0:0:0:0:
161,253,157882,1,0,0:0:0:0:
257,319,158010,5,0,0:0:0:0:
221,323,158137,1,0,0:0:0:0:
186,328,158265,1,0,0:0:0:0:
229,183,158393,6,0,P|270:98|296:189,1,214.49999018097
470,273,158903,2,0,P|429:188|403:279,1,214.49999018097
262,331,159414,5,0,0:0:0:0:
151,303,160180,5,0,0:0:0:0:
151,303,160435,1,0,0:0:0:0:
249,218,161201,5,0,0:0:0:0:
388,161,161712,5,0,0:0:0:0:
218,128,162223,5,0,0:0:0:0:
218,128,162478,2,0,P|280:108|356:184,1,165
502,247,162989,2,0,P|440:227|364:303,1,165
250,53,163499,5,0,0:0:0:0:
361,81,164265,5,0,0:0:0:0:
361,81,164520,1,0,0:0:0:0:
263,166,165286,5,0,0:0:0:0:
124,223,165797,5,0,0:0:0:0:
294,256,166308,5,0,0:0:0:0:
294,256,166563,2,0,P|232:276|150:187,1,197.99999395752
6,112,167074,2,0,P|68:132|144:35,1,197.99999395752
269,51,167584,5,0,0:0:0:0:
267,78,167711,1,0,0:0:0:0:
265,105,167839,1,0,0:0:0:0:
406,20,168095,5,0,0:0:0:0:
407,47,168223,1,0,0:0:0:0:
409,74,168350,1,0,0:0:0:0:
349,224,168606,1,0,0:0:0:0:
349,224,168861,2,0,B|264:177|252:250|152:198,1,165
174,199,169372,5,0,0:0:0:0:
270,80,169627,2,0,L|359:84,1,55
435,177,169882,6,0,P|467:154|527:142,1,55
414,183,170137,2,0,P|410:143|429:85,1,55
408,204,170393,2,0,P|372:187|331:141,1,55
305,289,170648,1,0,0:0:0:0:
305,289,170903,2,0,B|270:328|270:328|277:235|259:147,1,220
144,60,171669,5,0,0:0:0:0:
116,62,171797,1,0,0:0:0:0:
92,74,171925,1,0,0:0:0:0:
247,175,172180,5,0,0:0:0:0:
226,157,172308,1,0,0:0:0:0:
200,148,172435,1,0,0:0:0:0:
207,306,172691,1,0,0:0:0:0:
311,251,172946,2,0,P|372:220|356:300,1,165
378,291,173457,1,0,0:0:0:0:
256,342,173712,6,0,P|257:301|238:263,1,55
176,320,173967,6,0,L|124:300,1,55
230,217,174223,2,0,L|179:239,1,55
197,107,174478,2,0,L|177:158,1,55
130,61,174733,2,0,P|195:26|257:50,2,110
65,151,175499,1,0,0:0:0:0:
365,157,175754,5,0,0:0:0:0:
188,199,176010,1,0,0:0:0:0:
191,224,176265,1,0,0:0:0:0:
20,256,176520,5,0,0:0:0:0:
197,298,176776,1,0,0:0:0:0:
194,323,177031,1,0,0:0:0:0:
340,338,177286,6,0,P|384:309|393:203,1,165
313,250,177797,5,0,0:0:0:0:
283,56,178052,1,0,0:0:0:0:
253,66,178308,1,0,0:0:0:0:
136,201,178563,5,0,0:0:0:0:
166,1,178818,1,0,0:0:0:0:
196,11,179074,1,0,0:0:0:0:
367,100,179329,6,0,B|256:92|256:92|193:125,1,165
34,215,179840,5,0,0:0:0:0:
90,59,180095,1,0,0:0:0:0:
196,186,180350,1,0,0:0:0:0:
140,328,180606,5,0,0:0:0:0:
196,172,180861,1,0,0:0:0:0:
302,299,181116,1,0,0:0:0:0:
325,83,181372,5,0,0:0:0:0:
413,79,181627,2,0,P|361:2|269:19,1,165
213,63,182137,2,0,P|163:140|235:128,1,206.250007867813
308,85,182903,6,0,B|349:171|269:184|324:290,1,197.99999395752
260,342,183752,6,0,P|221:293|149:294,2,110
178,206,184749,2,0,P|125:218|95:263,2,110
233,54,185635,1,0,0:0:0:0:
265,32,185746,2,0,L|261:143,1,110
255,236,186411,1,0,0:0:0:0:
361,71,186743,2,0,L|365:165,1,73.3333333333333
428,205,187076,2,0,P|395:226|290:191,1,146.666666666667
234,107,187630,1,0,0:0:0:0:
213,97,187740,6,0,P|156:127|168:178,2,110
228,230,188627,1,0,0:0:0:0:
250,215,188737,6,0,P|307:245|295:296,2,110
382,90,189624,1,0,0:0:0:0:
360,64,189735,2,0,L|272:67,1,73.3333333333333
257,143,190067,2,0,L|169:140,1,73.3333333333333
149,66,190400,2,0,P|106:111|102:152,1,73.3333333333333
112,224,190732,5,0,0:0:0:0:
116,243,190843,1,0,0:0:0:0:
120,265,190954,1,0,0:0:0:0:
123,288,191065,2,0,B|225:320|211:231|323:290,1,183.333333333333
399,343,191729,6,0,L|411:246,1,76.9999976501466
315,135,192062,2,0,P|336:58|416:75,1,153.999995300293
417,193,192560,1,0,0:0:0:0:
442,222,192727,2,0,L|286:225,2,153.999995300293
227,110,193558,1,0,0:0:0:0:
191,78,193724,6,0,L|180:201,1,98.9999969787599
109,203,194056,2,0,P|203:252|257:176,1,197.99999395752
230,116,194555,1,0,0:0:0:0:
356,36,194721,2,0,B|342:108|342:108|362:190,1,148.49999546814
458,168,195053,2,0,B|424:233|453:300|453:300|382:258|275:282,1,296.99999093628
199,339,195801,5,0,0:0:0:0:
195,315,196134,1,0,0:0:0:0:
226,269,196466,5,0,0:0:0:0:
230,245,196799,1,0,0:0:0:0:
156,190,197103,5,0,0:0:0:0:
152,166,197214,1,0,0:0:0:0:
148,142,197325,1,0,0:0:0:0:
206,79,197435,5,0,0:0:0:0:
210,55,197546,1,0,0:0:0:0:
214,31,197657,1,0,0:0:0:0:
136,18,197768,6,0,P|64:32|56:87,1,110
103,168,198196,1,0,0:0:0:0:
248,85,198410,1,0,0:0:0:0:
248,85,198517,1,0,0:0:0:0:
248,85,198624,1,0,0:0:0:0:
173,248,198839,1,0,0:0:0:0:
304,3,199053,1,0,0:0:0:0:
329,34,199160,1,0,0:0:0:0:
342,73,199267,1,0,0:0:0:0:
341,113,199374,1,0,0:0:0:0:
325,151,199482,6,0,L|141:165,1,165
127,166,199910,1,0,0:0:0:0:
240,285,200125,1,0,0:0:0:0:
294,280,200232,1,0,0:0:0:0:
349,276,200339,1,0,0:0:0:0:
382,19,200553,1,0,0:0:0:0:
333,162,200768,2,0,L|324:108,1,55
239,30,200982,1,0,0:0:0:0:
174,131,201196,6,0,B|161:226|161:226|185:316,1,165
253,307,201625,6,0,P|323:281|292:245,1,110
309,173,201946,1,0,0:0:0:0:
322,192,202053,2,0,L|422:188,1,55
493,92,202268,1,0,0:0:0:0:
481,113,202375,2,0,L|381:117,1,55
268,66,202589,1,0,0:0:0:0:
239,88,202696,1,0,0:0:0:0:
220,119,202803,1,0,0:0:0:0:
212,153,202910,6,0,P|268:166|331:148,1,110
318,155,203232,1,0,0:0:0:0:
318,155,203339,1,0,0:0:0:0:
203,271,203553,1,0,0:0:0:0:
203,271,203660,1,0,0:0:0:0:
203,271,203768,1,0,0:0:0:0:
138,79,203982,1,0,0:0:0:0:
356,47,204196,1,0,0:0:0:0:
410,53,204303,1,0,0:0:0:0:
453,85,204410,1,0,0:0:0:0:
474,135,204517,1,0,0:0:0:0:
467,189,204625,6,0,L|305:184,1,110
299,106,204946,1,0,0:0:0:0:
275,134,205053,1,0,0:0:0:0:
262,168,205160,1,0,0:0:0:0:
261,204,205267,1,0,0:0:0:0:
352,299,205482,1,0,0:0:0:0:
414,97,205696,1,0,0:0:0:0:
226,62,205910,1,0,0:0:0:0:
198,65,206017,1,0,0:0:0:0:
171,69,206124,1,0,0:0:0:0:
53,257,206339,6,0,P|108:306|180:298,1,110
149,275,206660,1,0,0:0:0:0:
154,238,206767,1,0,0:0:0:0:
160,202,206874,1,0,0:0:0:0:
166,166,206981,1,0,0:0:0:0:
328,106,207196,1,0,0:0:0:0:
250,225,207410,1,0,0:0:0:0:
253,259,207518,1,0,0:0:0:0:
442,120,207732,1,0,0:0:0:0:
445,86,207840,1,0,0:0:0:0:
211,115,208053,6,0,P|133:145|154:255,1,165
96,310,208482,2,0,B|187:290|187:290|259:339,1,165
344,284,208910,2,0,P|351:227|406:269,1,110
360,144,209232,2,0,P|354:107|330:82,1,55
189,31,209446,2,0,P|195:68|219:93,1,55
206,204,209660,1,0,0:0:0:0:
206,204,209768,6,0,P|137:213|89:248,1,110
86,253,210089,1,0,0:0:0:0:
65,278,210196,1,0,0:0:0:0:
265,304,210410,1,0,0:0:0:0:
298,261,210517,1,0,0:0:0:0:
301,207,210624,1,0,0:0:0:0:
178,94,210839,1,0,0:0:0:0:
53,233,211053,1,0,0:0:0:0:
94,235,211160,1,0,0:0:0:0:
135,238,211267,1,0,0:0:0:0:
176,241,211374,1,0,0:0:0:0:
217,243,211482,6,0,P|239:187|234:131,1,110
354,25,211910,2,0,P|332:81|337:137,1,110
346,172,212232,1,0,0:0:0:0:
368,208,212339,2,0,L|247:190,1,110
449,150,212768,1,0,0:0:0:0:
345,341,212982,1,0,0:0:0:0:
345,341,213089,1,0,0:0:0:0:
345,341,213196,6,0,L|228:328,1,110
87,228,213625,2,0,P|179:203|176:97,1,165
174,120,214053,2,0,L|298:129,1,110
403,64,214482,5,0,0:0:0:0:
383,97,214589,1,0,0:0:0:0:
397,118,214696,1,0,0:0:0:0:
383,132,214803,1,0,0:0:0:0:
391,149,214910,6,0,B|388:198|388:198|409:248|409:248|380:284|390:340,1,165
468,307,215339,1,0,0:0:0:0:
214,313,215553,1,0,0:0:0:0:
217,285,215660,1,0,0:0:0:0:
220,258,215768,6,0,P|234:231|299:195,1,55
210,146,215982,2,0,P|238:136|310:156,1,63.250001206398
292,60,216196,2,0,P|319:73|355:138,1,71.4999967269899
415,62,216410,2,0,P|424:90|404:162,1,79.7500024337769,0|0,3:0|3:0,3:0:0:0:
457,247,216625,6,0,P|330:223|282:275,1,181.500001730919
221,332,217053,6,0,P|200:264|200:199,1,110
122,93,217482,2,0,P|159:65|170:110,1,110
291,140,217910,1,0,0:0:0:0:
345,144,218017,1,0,0:0:0:0:
400,149,218124,1,0,0:0:0:0:
251,260,218339,5,0,0:0:0:0:
251,260,218553,2,0,L|120:246,1,110
160,77,218982,2,0,L|148:137,1,55
170,58,219196,2,0,B|236:55|236:55|305:109,1,110
94,216,219518,1,0,0:0:0:0:
67,193,219625,2,0,L|57:103,1,55
159,294,219839,2,0,L|172:204,1,55
261,354,220053,6,0,P|274:315|355:266,1,110
457,169,220482,2,0,L|343:161,1,110
321,157,220803,1,0,0:0:0:0:
285,153,220910,6,0,B|306:247|248:239|292:359,1,165
130,307,221339,5,0,0:0:0:0:
103,269,221446,1,0,0:0:0:0:
127,219,221553,1,0,0:0:0:0:
97,165,221660,1,0,0:0:0:0:
162,95,221768,5,0,0:0:0:0:
162,95,222410,6,0,L|252:101,1,55
342,188,222625,2,0,L|252:194,1,55
342,188,223268,6,0,L|348:98,1,55
431,0,223483,2,0,L|437:90,1,55
431,0,224125,6,0,L|365:4,1,55
162,54,224339,6,0,L|168:124,1,44
304,75,224553,2,0,L|298:145,1,65.9999979858399
174,172,224768,2,0,L|181:256,1,76.9999976501466
287,218,224982,2,0,L|279:309,1,88
116,331,225196,6,0,L|104:224,1,88
219,187,225410,2,0,L|209:274,1,88
315,341,225625,2,0,P|307:269|331:226,1,88
399,140,225839,2,0,P|387:182|398:224,1,88
151,86,226053,2,0,P|199:95|245:124,1,88
406,87,226268,1,0,0:0:0:0:
385,172,226375,2,0,L|360:286,1,88
233,172,226589,1,0,0:0:0:0:
254,257,226696,2,0,L|279:371,1,88
158,32,226910,6,0,P|114:27|74:43,1,88
39,134,227125,2,0,P|83:129|124:145,1,88
170,225,227339,2,0,P|126:220|86:236,1,88
50,317,227554,2,0,P|94:312|135:328,1,88
264,343,227768,6,0,B|279:214|279:214|374:150,1,176
391,72,228089,2,0,L|279:78,1,88
184,140,228303,1,0,0:0:0:0:
200,42,228410,2,0,L|192:175,1,88
78,256,228625,6,0,P|128:255|187:288,1,88
336,331,228839,2,0,P|286:330|227:363,1,88
79,244,229053,6,0,P|129:243|188:276,1,88
337,319,229267,2,0,P|287:318|228:351,1,88
123,318,229482,5,0,0:0:0:0:
123,230,229589,1,0,0:0:0:0:
162,152,229696,1,0,0:0:0:0:
232,99,229803,2,0,L|367:112,1,88
475,76,230018,1,0,0:0:0:0:
405,22,230125,2,0,L|270:34,1,88
74,78,230339,6,0,L|54:179,1,88
162,152,230553,2,0,L|116:244,1,76.9999976501466
206,225,230768,2,0,L|138:302,1,65.9999979858399
210,289,230982,2,0,L|124:346,1,55
133,229,231196,5,0,0:0:0:0:
54,203,231303,1,0,0:0:0:0:
54,121,231410,1,0,0:0:0:0:
133,95,231518,1,0,0:0:0:0:
181,162,231625,1,0,0:0:0:0:
133,229,231732,1,0,0:0:0:0:
133,311,231839,1,0,0:0:0:0:
212,337,231946,1,0,0:0:0:0:
260,270,232053,6,0,L|349:260,1,88
409,176,232268,2,0,P|362:180|320:166,1,88
201,93,232482,6,0,L|288:102,1,88
367,0,232697,2,0,P|379:41|375:85,1,88
219,197,232910,2,0,L|99:184,1,88
73,119,233125,1,0,0:0:0:0:
143,202,233232,2,0,L|133:305,1,88
168,73,233446,1,0,0:0:0:0:
238,156,233553,2,0,L|228:259,1,88
488,3,233768,6,0,P|445:10|404:25,1,88
311,93,233982,2,0,L|394:119,1,88
497,257,234196,2,0,P|449:237|381:245,1,88
195,306,234410,2,0,P|256:310|308:359,1,88
432,100,234625,6,0,B|398:60|398:60|411:243,1,176
384,288,234946,2,0,L|248:270,1,88
176,174,235160,1,0,0:0:0:0:
175,281,235268,2,0,L|199:154,1,88
154,49,235482,6,0,L|257:65,1,88
344,89,235696,2,0,L|278:170,1,88
214,233,235910,2,0,L|176:135,1,88
355,8,236125,2,0,P|349:132|371:145,1,88
418,307,236339,5,0,0:0:0:0:
344,348,236446,1,0,0:0:0:0:
270,308,236553,1,0,0:0:0:0:
264,224,236660,1,0,0:0:0:0:
344,177,236768,1,0,0:0:0:0:
341,90,236875,1,0,0:0:0:0:
264,38,236982,1,0,0:0:0:0:
186,78,237089,1,0,0:0:0:0:
260,126,237196,5,0,0:0:0:0:
135,107,244053,5,0,0:0:0:0:
135,107,244268,2,0,P|181:116|213:169,1,65.9999979858399
136,187,244482,2,0,P|90:196|58:249,1,65.9999979858399
125,271,244696,2,0,P|171:280|203:333,1,65.9999979858399
235,357,244910,2,0,P|261:318|232:224,1,131.99999597168
311,175,245232,2,0,B|405:228|393:147|506:185,1,197.99999395752
501,183,245660,1,0,0:0:0:0:
473,99,245768,5,0,0:0:0:0:
473,99,245982,2,0,L|378:91,1,65.9999979858399
345,29,246196,2,0,L|250:37,1,65.9999979858399
229,115,246410,2,0,P|190:63|193:13,1,65.9999979858399
137,162,246625,2,0,B|110:229|110:229|126:302,1,131.99999597168
220,272,246946,1,0,0:0:0:0:
220,272,247053,2,0,P|310:280|344:194,1,131.99999597168
268,206,247375,1,0,0:0:0:0:
268,206,247482,5,0,0:0:0:0:
217,118,247696,2,0,L|303:112,1,65.9999979858399
146,191,247910,2,0,L|60:185,1,65.9999979858399
249,249,248125,2,0,P|251:284|275:327,1,65.9999979858399
492,245,248339,2,0,P|504:214|506:181,1,65.9999979858399
420,126,248553,1,0,0:0:0:0:
388,150,248660,2,0,P|351:158|289:134,1,65.9999979858399
189,30,248875,1,0,0:0:0:0:
194,69,248982,2,0,P|214:100|275:127,1,65.9999979858399
401,36,249196,5,0,0:0:0:0:
377,118,249303,1,0,0:0:0:0:
227,217,249518,5,0,0:0:0:0:
226,132,249625,1,0,0:0:0:0:
414,288,249839,5,0,0:0:0:0:
171,346,250053,5,0,0:0:0:0:
114,253,250375,5,0,0:0:0:0:
115,266,250473,1,0,0:0:0:0:
114,280,250571,1,0,0:0:0:0:
111,293,250669,1,0,0:0:0:0:
53,200,250792,6,0,P|68:111|89:83,1,82.5000031471254
192,60,250985,1,0,0:0:0:0:
192,60,251082,1,0,0:0:0:0:
192,60,251179,2,0,P|177:149|156:177,1,82.5000031471254
183,244,251372,1,0,0:0:0:0:
183,244,251469,2,0,L|293:252,1,82.5000031471254
388,323,251662,2,0,L|278:331,1,82.5000031471254
444,241,251856,1,0,0:0:0:0:
444,241,251953,6,0,P|434:190|441:136,1,82.5000031471254
280,74,252146,2,0,L|363:68,1,82.5000031471254
215,9,252340,6,0,P|188:68|248:164,1,165.000006294251
249,169,252630,1,0,0:0:0:0:
276,182,252727,2,0,L|138:190,1,82.5000031471254
144,258,252921,2,0,L|6:266,1,82.5000031471254
0,331,253114,6,0,P|-21:227|54:172,1,165.000006294251
100,148,253404,2,0,L|110:48,1,82.5000031471254
217,160,253598,1,0,0:0:0:0:
213,122,253695,2,0,L|203:22,1,82.5000031471254
502,98,253888,6,0,P|473:126|434:135,1,82.5000031471254
286,96,254082,2,0,P|315:124|354:133,1,82.5000031471254
511,250,254275,6,0,P|475:269|434:268,1,82.5000031471254
240,181,254469,2,0,P|260:216|296:235,1,82.5000031471254
400,348,254662,2,0,L|405:230,1,82.5000031471254
318,361,254856,2,0,L|323:243,1,82.5000031471254
236,211,255050,1,0,0:0:0:0:
236,211,255146,1,0,0:0:0:0:
236,211,255243,2,0,P|184:188|125:201,1,82.5000031471254
102,28,255437,6,0,L|88:136,1,93.500001783371
179,28,255630,2,0,L|165:136,1,82.5000031471254
255,24,255824,2,0,L|241:132,1,71.4999967269899
330,21,256017,2,0,L|316:129,1,60.5000018463135
405,93,256211,6,0,P|359:154|265:148,1,165.000006294251
249,130,256501,2,0,L|257:236,1,82.5000031471254
133,201,256695,1,0,0:0:0:0:
129,245,256792,2,0,L|123:346,1,82.5000031471254
465,288,256985,6,0,L|366:304,1,82.5000031471254
213,235,257179,2,0,L|312:251,1,82.5000031471254
478,186,257372,2,0,L|379:202,1,82.5000031471254
226,133,257566,2,0,L|325:149,1,82.5000031471254
438,0,257759,6,0,P|453:38|445:85,1,82.5000031471254
348,102,257953,1,0,0:0:0:0:
302,91,258050,1,0,0:0:0:0:
264,107,258146,2,0,P|259:183|331:210,1,165.000006294251
180,204,258437,1,0,0:0:0:0:
180,204,258533,6,0,L|176:313,1,82.5000031471254
68,131,258727,2,0,L|72:240,1,82.5000031471254
187,40,258921,2,0,L|183:149,1,82.5000031471254
61,7,259114,2,0,B|142:-6|142:-6|255:45,1,165.000006294251
318,77,259404,1,0,0:0:0:0:
318,77,259501,2,0,L|310:180,1,82.5000031471254
409,152,259695,2,0,L|417:255,1,82.5000031471254
330,318,259888,1,0,0:0:0:0:
275,311,259984,1,0,0:0:0:0:
220,305,260082,6,0,B|100:289|100:289|42:211,1,165.000006294251
154,202,260372,1,0,0:0:0:0:
154,202,260469,2,0,P|152:148|176:90,1,82.5000031471254
235,43,260662,2,0,P|313:44|375:120,1,165.000006294251
392,233,260953,2,0,B|377:281|377:281|404:350,1,82.5000031471254
274,132,261146,1,0,0:0:0:0:
295,167,261243,2,0,B|310:215|310:215|283:284,1,82.5000031471254
72,274,261437,1,0,0:0:0:0:
126,280,261533,1,0,0:0:0:0:
181,286,261630,6,0,B|140:172|212:109,1,165.000006294251
341,93,261921,1,0,0:0:0:0:
370,114,262017,2,0,P|388:161|372:210,1,82.5000031471254
322,244,262211,1,0,0:0:0:0:
299,271,262308,2,0,P|293:321|321:364,2,82.5000031471254
376,300,262598,5,0,0:0:0:0:
376,275,262695,1,0,0:0:0:0:
363,235,262792,1,0,0:0:0:0:
328,189,262888,1,0,0:0:0:0:
255,171,262985,1,0,0:0:0:0:
182,210,263082,1,0,0:0:0:0:
160,296,263179,6,0,P|228:282|267:206,1,110
299,80,263566,1,0,0:0:0:0:
324,70,263662,1,0,0:0:0:0:
352,69,263759,1,0,0:0:0:0:
378,78,263856,1,0,0:0:0:0:
400,94,263953,1,0,0:0:0:0:
418,204,264146,1,0,0:0:0:0:
363,197,264243,1,0,0:0:0:0:
307,192,264340,6,0,B|237:186|237:186|212:200|212:200|129:193,1,165
123,174,264727,6,0,P|99:235|149:297,1,110
178,332,265017,2,0,L|240:336,1,55
334,296,265308,1,0,0:0:0:0:
338,268,265404,1,0,0:0:0:0:
343,241,265501,1,0,0:0:0:0:
446,155,265695,5,0,0:0:0:0:
399,126,265792,1,0,0:0:0:0:
345,117,265888,1,0,0:0:0:0:
292,130,265985,1,0,0:0:0:0:
247,162,266082,1,0,0:0:0:0:
106,88,266275,6,0,L|160:95,1,55
303,156,266566,1,0,0:0:0:0:
281,183,266662,2,0,L|227:190,1,55
74,247,266856,1,0,0:0:0:0:
93,299,266953,1,0,0:0:0:0:
89,354,267050,6,0,P|165:321|218:342,1,110
217,344,267340,1,0,0:0:0:0:
214,289,267437,1,0,0:0:0:0:
240,242,267533,1,0,0:0:0:0:
287,215,267630,1,0,0:0:0:0:
467,330,267824,6,0,P|424:322|390:326,1,55
385,244,268017,2,0,P|348:268|327:295,1,55
121,152,268211,6,0,P|157:176|178:203,1,55
239,149,268404,2,0,P|246:192|242:226,1,55
105,318,268598,6,0,L|186:303,1,55
352,208,268792,2,0,L|297:218,1,55
114,207,268985,6,0,L|168:217,1,55
361,317,269179,2,0,L|280:302,1,55
27,216,269372,6,0,P|79:133|132:128,1,110
112,128,269662,1,0,0:0:0:0:
143,136,269759,2,0,P|165:148|193:203,1,55
204,244,269953,5,0,0:0:0:0:
126,287,270146,1,0,0:0:0:0:
115,326,270243,1,0,0:0:0:0:
116,367,270340,1,0,0:0:0:0:
114,207,270533,2,0,B|155:215|182:206|182:206|219:238|219:238|242:229|306:241,1,165
277,214,270921,2,0,B|286:282|286:282|270:341,1,110
322,382,271211,2,0,P|347:331|337:291,1,55
453,254,271501,6,0,P|373:248|329:253,1,110
313,263,271792,1,0,0:0:0:0:
285,285,271888,1,0,0:0:0:0:
334,148,272082,1,0,0:0:0:0:
368,130,272179,1,0,0:0:0:0:
406,131,272275,1,0,0:0:0:0:
270,52,272469,6,0,P|183:52|176:88,1,110
169,80,272759,2,0,L|91:84,1,55
226,160,272953,2,0,L|304:164,1,55
152,240,273146,1,0,0:0:0:0:
130,269,273243,6,0,P|83:271|81:156,1,165
71,157,273630,2,0,L|245:166,1,165
270,151,274017,6,0,P|256:192|264:241,1,55
310,354,274211,2,0,P|319:325|316:264,1,55
421,220,274404,2,0,P|387:209|331:214,1,55
164,274,274598,2,0,P|198:288|254:280,1,55
419,89,274792,6,0,L|414:158,1,44
406,94,274985,2,0,L|401:163,1,44
312,119,275179,2,0,L|307:188,1,44
299,124,275372,2,0,L|294:193,1,44
191,146,275566,5,0,0:0:0:0:
191,146,275662,1,0,0:0:0:0:
191,146,275759,2,0,L|118:157,2,44
258,244,276050,1,0,0:0:0:0:
258,244,276146,2,0,P|311:249|335:241,1,44
423,141,276340,5,0,0:0:0:0:
419,184,276436,1,0,0:0:0:0:
415,228,276533,1,0,0:0:0:0:
363,334,276727,1,0,0:0:0:0:
363,334,276921,1,0,0:0:0:0:
145,254,277114,5,0,0:0:0:0:
145,254,277211,1,0,0:0:0:0:
145,254,277308,2,0,L|157:180,1,44
216,64,277501,2,0,L|223:107,1,44
292,192,277695,2,0,L|296:116,1,44
352,91,277888,1,0,0:0:0:0:
373,93,277984,1,0,0:0:0:0:
395,96,278081,1,0,0:0:0:0:
417,99,278178,1,0,0:0:0:0:
439,102,278275,1,0,0:0:0:0:
385,272,278662,5,0,0:0:0:0:
385,272,278758,1,0,0:0:0:0:
385,272,278856,2,0,L|374:345,2,44
302,179,279146,1,0,0:0:0:0:
302,179,279243,2,0,P|249:174|225:182,1,44
137,282,279437,5,0,0:0:0:0:
141,239,279533,1,0,0:0:0:0:
145,195,279630,1,0,0:0:0:0:
163,79,279824,1,0,0:0:0:0:
163,79,280017,1,0,0:0:0:0:
415,169,280211,5,0,0:0:0:0:
415,169,280308,1,0,0:0:0:0:
415,169,280404,2,0,L|403:243,1,44
344,359,280598,2,0,L|337:316,1,44
268,231,280791,2,0,L|264:307,1,44
208,332,280984,1,0,0:0:0:0:
187,330,281082,1,0,0:0:0:0:
165,327,281179,1,0,0:0:0:0:
143,324,281274,1,0,0:0:0:0:
121,321,281372,6,0,P|107:291|111:261,3,55
163,194,281747,6,0,B|263:183|263:183|326:213,1,146.666666666667
373,248,282134,1,0,0:0:0:0:
196,94,282392,2,0,P|269:76|349:139,1,165.000006294251
256,161,282908,1,0,0:0:0:0:
434,47,283166,1,0,0:0:0:0:
438,183,283295,5,0,0:0:0:0:
369,262,283424,5,0,0:0:0:0:
468,236,283553,5,0,0:0:0:0:
319,194,283682,6,0,P|283:197|259:205,1,55.0000020980836
237,247,283940,2,0,P|216:160|159:132,1,110.000004196167
86,134,284327,1,0,0:0:0:0:
130,66,284456,1,0,0:0:0:0:
207,40,284585,1,0,0:0:0:0:
283,67,284714,1,0,0:0:0:0:
327,135,284843,6,0,P|276:180|208:183,1,110.000004196167
153,158,285230,1,0,0:0:0:0:
363,232,285488,2,0,B|430:209|430:209|403:332,1,165.000006294251
315,335,286005,5,0,0:0:0:0:
260,325,286134,1,0,0:0:0:0:
206,316,286263,1,0,0:0:0:0:
151,306,286392,5,0,0:0:0:0:
109,197,286521,5,0,0:0:0:0:
67,301,286650,5,0,0:0:0:0:
195,227,286779,2,0,P|276:203|294:208,1,55.0000020980836
281,127,287037,6,0,P|320:164|324:227,1,110.000004196167
276,291,287424,5,0,0:0:0:0:
330,294,287553,1,0,0:0:0:0:
385,297,287682,1,0,0:0:0:0:
452,348,287811,1,0,0:0:0:0:
497,258,287940,6,0,P|505:184|491:159,1,55.0000020980836
406,38,288198,1,0,0:0:0:0:
396,60,288327,2,0,L|328:61,1,55.0000020980836
282,127,288585,1,0,0:0:0:0:
282,127,288714,2,0,B|251:108|251:108|263:205,1,110.000004196167
337,220,289101,2,0,P|290:263|249:268,1,55.0000020980836
142,80,289359,1,0,0:0:0:0:
124,163,289488,6,0,P|171:206|212:211,1,55.0000020980836
301,6,289747,1,0,0:0:0:0:
319,88,289876,2,0,P|303:110|281:126,1,55.0000020980836
94,41,290134,6,0,B|154:32|154:32|204:63,1,110.000004196167
258,122,290521,1,0,0:0:0:0:
234,198,290650,1,0,0:0:0:0:
163,235,290779,1,0,0:0:0:0:
87,210,290908,1,0,0:0:0:0:
146,156,291037,6,0,P|174:134|169:90,1,55.0000020980836
107,54,291295,1,0,0:0:0:0:
86,53,291424,2,0,P|58:75|63:119,1,55.0000020980836
39,197,291682,6,0,B|93:182|91:227|151:198,1,110.000004196167
238,140,292069,1,0,0:0:0:0:
321,77,292198,1,0,0:0:0:0:
320,118,292294,1,0,0:0:0:0:
319,159,292391,1,0,0:0:0:0:
318,200,292488,1,0,0:0:0:0:
317,241,292585,6,0,P|203:245|161:304,1,165
172,276,292972,1,0,0:0:0:0:
24,135,293166,2,0,L|106:124,1,55
172,116,293359,2,0,B|191:192|191:192|171:282,1,165
194,292,293747,2,0,P|221:349|235:281,1,165
258,278,294134,6,0,P|345:283|369:211,1,165
368,198,294521,6,0,P|306:159|286:163,1,55
289,162,294714,2,0,P|242:212|247:236,1,55
423,103,294908,6,0,P|382:37|343:104,1,165
226,106,295295,2,0,L|222:43,1,55
140,36,295488,2,0,L|143:90,1,55
45,207,295682,6,0,B|134:175|126:236|219:204,1,165
167,135,296069,1,0,0:0:0:0:
151,325,296263,2,0,P|186:313|218:314,1,55
283,342,296456,2,0,P|310:277|408:265,1,165
463,309,296843,1,0,0:0:0:0:
219,189,297037,1,0,0:0:0:0:
103,49,297230,5,0,0:0:0:0:
99,103,297326,1,0,0:0:0:0:
96,158,297423,1,0,0:0:0:0:
207,134,297617,5,0,0:0:0:0:
209,175,297713,1,0,0:0:0:0:
211,216,297810,1,0,0:0:0:0:
332,188,298005,5,0,0:0:0:0:
329,215,298101,1,0,0:0:0:0:
326,242,298198,1,0,0:0:0:0:
436,260,298392,5,0,0:0:0:0:
433,278,298488,1,0,0:0:0:0:
430,296,298585,1,0,0:0:0:0:
427,314,298682,1,0,0:0:0:0:
426,333,298779,6,0,B|304:323|304:323|235:344,1,165
263,335,299166,1,0,0:0:0:0:
134,232,299359,2,0,L|131:149,1,55
144,234,299553,2,0,B|138:115|138:115|183:156,1,165
247,193,299940,2,0,P|312:215|342:159,1,110
426,94,300327,6,0,B|442:59|442:59|315:57,1,165
241,54,300714,2,0,B|220:83|220:83|222:128,1,55
283,235,300908,2,0,B|289:217|289:217|277:184,1,55
157,141,301101,2,0,P|76:164|64:252,1,165
197,229,301488,2,0,P|228:191|225:157,1,55
169,23,301682,2,0,P|138:61|141:95,1,55
174,330,301876,6,0,L|184:225,1,55
137,65,302069,2,0,L|131:119,1,55
313,288,302263,2,0,L|258:282,1,55
1,106,302456,2,0,L|55:111,1,55
256,121,302650,6,0,L|232:188,1,55
289,232,302843,2,0,L|320:186,1,55
364,265,303037,2,0,L|323:301,1,55
337,374,303230,2,0,L|387:351,1,55
452,105,303424,6,0,P|379:91|334:105,1,110
345,99,303714,1,0,0:0:0:0:
345,99,303811,1,0,0:0:0:0:
207,166,304005,1,0,0:0:0:0:
234,164,304101,1,0,0:0:0:0:
260,172,304198,1,0,0:0:0:0:
116,316,304392,1,0,0:0:0:0:
119,288,304489,1,0,0:0:0:0:
122,261,304585,1,0,0:0:0:0:
152,50,304779,1,0,0:0:0:0:
338,162,304972,5,0,0:0:0:0:
319,59,305166,1,0,0:0:0:0:
422,40,305359,1,0,0:0:0:0:
440,143,305553,1,0,0:0:0:0:
296,246,305747,1,0,0:0:0:0:
295,259,305940,1,0,0:0:0:0:
294,273,306134,1,0,0:0:0:0:
293,287,306327,1,0,0:0:0:0:
292,300,306521,5,0,0:0:0:0:
292,300,307295,5,0,0:0:0:0:
132,243,307488,1,0,0:0:0:0:
133,229,307682,1,0,0:0:0:0:
134,215,307876,1,0,0:0:0:0:
140,200,308069,5,0,0:0:0:0:
140,200,308456,5,0,0:0:0:0:
324,158,308650,1,0,0:0:0:0:
324,158,309037,5,0,0:0:0:0:
140,200,309231,1,0,0:0:0:0:
195,19,309424,1,0,0:0:0:0:
214,116,309617,5,0,0:0:0:0:
231,111,309811,1,0,0:0:0:0:
249,107,310005,1,0,0:0:0:0:
269,108,310198,1,0,0:0:0:0:
269,108,310585,5,0,0:0:0:0:
201,301,310779,1,0,0:0:0:0:
405,255,310972,1,0,0:0:0:0:
286,213,311166,5,0,0:0:0:0:
372,143,311359,2,0,L|468:136,2,82.5000031471254
330,147,311940,1,0,0:0:0:0:
288,149,312133,1,0,0:0:0:0:
247,152,312327,2,0,L|192:155,1,41.2500015735627
92,244,312521,2,0,L|133:241,1,41.2500015735627
285,315,312714,5,0,0:0:0:0:
105,149,312908,1,0,0:0:0:0:
106,107,313004,1,0,0:0:0:0:
108,66,313101,1,0,0:0:0:0:
99,318,313295,1,0,0:0:0:0:
260,95,313488,1,0,0:0:0:0:
275,232,313682,1,0,0:0:0:0:
283,293,313778,1,0,0:0:0:0:
292,354,313875,1,0,0:0:0:0:
416,55,314069,1,0,0:0:0:0:
434,192,314263,5,0,0:0:0:0:
434,192,314456,6,0,P|377:161|368:160,1,55
365,71,314650,2,0,P|338:72|313:82,1,55
232,34,314843,2,0,P|215:54|204:79,1,55
111,101,315037,2,0,P|112:128|122:153,1,55
71,232,315230,2,0,P|93:249|119:260,1,55
425,181,315424,6,0,L|416:268,1,55
405,347,315617,2,0,L|334:295,1,55
271,246,315811,6,0,P|328:219|326:135,1,110
299,116,316101,1,0,0:0:0:0:
267,102,316198,2,0,P|209:128|218:230,1,165
504,341,316585,6,0,P|512:263|454:225,1,110
413,227,316876,1,0,0:0:0:0:
384,247,316972,2,0,P|375:324|441:365,1,165
457,81,317359,6,0,P|395:74|319:137,1,165
282,207,317746,1,0,0:0:0:0:
409,369,317940,1,0,0:0:0:0:
485,177,318134,1,0,0:0:0:0:
172,246,318327,1,0,0:0:0:0:
181,195,318423,1,0,0:0:0:0:
222,161,318520,1,0,0:0:0:0:
353,168,318714,1,0,0:0:0:0:
301,56,318908,6,0,P|210:38|122:82,1,165
144,62,319295,1,0,0:0:0:0:
116,242,319488,1,0,0:0:0:0:
408,136,319682,1,0,0:0:0:0:
431,185,319778,1,0,0:0:0:0:
429,239,319875,1,0,0:0:0:0:
401,286,319972,1,0,0:0:0:0:
355,315,320069,1,0,0:0:0:0:
149,313,320263,1,0,0:0:0:0:
240,51,320456,6,0,L|322:60,1,55
330,197,320650,2,0,L|275:190,1,55
232,71,320843,2,0,B|339:76|339:76|287:111,1,165
195,164,321230,1,0,0:0:0:0:
419,29,321424,1,0,0:0:0:0:
450,242,321617,1,0,0:0:0:0:
431,293,321713,1,0,0:0:0:0:
389,327,321810,1,0,0:0:0:0:
335,335,321907,1,0,0:0:0:0:
285,314,322005,6,0,L|278:138,1,131.99999597168
279,151,322295,1,0,0:0:0:0:
280,116,322392,1,0,0:0:0:0:
82,191,322585,2,0,B|53:256|53:256|94:343,1,131.99999597168
286,136,322972,1,0,0:0:0:0:
228,105,323068,1,0,0:0:0:0:
163,111,323165,1,0,0:0:0:0:
253,314,323359,2,0,P|299:317|340:293,1,65.9999979858399
377,246,323553,5,0,0:0:0:0:
276,37,323746,1,0,0:0:0:0:
253,79,323843,1,0,0:0:0:0:
268,124,323939,1,0,0:0:0:0:
453,243,324134,2,0,L|453:96,1,131.99999597168
345,221,324521,1,0,0:0:0:0:
344,265,324618,1,0,0:0:0:0:
342,309,324714,1,0,0:0:0:0:
283,91,324908,1,0,0:0:0:0:
218,78,325004,1,0,0:0:0:0:
153,66,325101,6,0,B|86:53|86:53|104:121|68:197,1,197.99999395752
73,196,325488,1,0,0:0:0:0:
53,312,325682,2,0,B|159:260|156:377|310:304,1,263.99999194336
326,290,326166,1,0,0:0:0:0:
336,263,326263,1,0,0:0:0:0:
314,61,326456,1,0,0:0:0:0:
287,80,326552,1,0,0:0:0:0:
268,107,326649,5,0,0:0:0:0:
132,275,326843,5,0,0:0:0:0:
176,297,326939,1,0,0:0:0:0:
220,319,327036,1,0,0:0:0:0:
258,293,327133,1,0,0:0:0:0:
296,261,327230,1,0,0:0:0:0:
132,275,327424,1,0,0:0:0:0:
296,261,327617,1,0,0:0:0:0:
257,234,327714,1,0,0:0:0:0:
219,202,327811,1,0,0:0:0:0:
220,319,328005,1,0,0:0:0:0:
375,188,328198,6,0,P|379:124|263:136,1,197.99999395752
261,147,328585,1,0,0:0:0:0:
363,276,328779,2,0,P|440:254|465:194,1,131.99999597168
383,27,329166,1,0,0:0:0:0:
340,16,329262,1,0,0:0:0:0:
297,23,329359,1,0,0:0:0:0:
174,240,329553,1,0,0:0:0:0:
234,254,329649,1,0,0:0:0:0:
290,241,329746,6,0,P|357:180|352:118,1,131.99999597168
350,120,330037,1,0,0:0:0:0:
330,99,330134,1,0,0:0:0:0:
89,43,330327,2,0,B|69:115|69:115|92:215,1,131.99999597168
200,268,330714,1,0,0:0:0:0:
232,261,330810,1,0,0:0:0:0:
264,255,330907,1,0,0:0:0:0:
392,342,331101,1,0,0:0:0:0:
435,345,331197,1,0,0:0:0:0:
479,349,331295,6,0,P|504:272|454:166,1,197.99999395752
458,169,331682,1,0,0:0:0:0:
315,78,331876,2,0,L|143:85,1,131.99999597168
356,191,332263,1,0,0:0:0:0:
356,191,332359,1,0,0:0:0:0:
356,191,332456,1,0,0:0:0:0:
128,276,332650,1,0,0:0:0:0:
128,276,332746,1,0,0:0:0:0:
128,276,332843,6,0,L|274:285,1,131.99999597168
416,185,333230,2,0,L|270:194,1,131.99999597168
284,193,333521,1,0,0:0:0:0:
289,199,333617,1,0,0:0:0:0:
261,41,333811,1,0,0:0:0:0:
102,70,334005,1,0,0:0:0:0:
130,229,334198,1,0,0:0:0:0:
403,238,334392,6,0,P|427:161|396:116,1,131.99999597168
387,113,334682,1,0,0:0:0:0:
369,110,334779,1,0,0:0:0:0:
231,237,334972,1,0,0:0:0:0:
497,195,335166,1,0,0:0:0:0:
272,49,335359,1,0,0:0:0:0:
272,49,335456,1,0,0:0:0:0:
272,49,335553,1,0,0:0:0:0:
223,51,335649,1,0,0:0:0:0:
184,80,335746,1,0,0:0:0:0:
167,126,335843,1,0,0:0:0:0:
180,173,335940,6,0,P|242:208|332:126,1,197.99999395752
248,128,336327,1,0,0:0:0:0:
263,229,336521,1,0,0:0:0:0:
278,330,336714,2,0,B|176:300|176:300|68:356,1,197.99999395752
111,245,337101,5,0,0:0:0:0:
122,203,337197,1,0,0:0:0:0:
132,161,337295,1,0,0:0:0:0:
111,121,337392,1,0,0:0:0:0:
89,83,337488,6,0,B|173:22|248:97|222:174|222:174|259:141|309:140|363:180,1,329.9999899292
282,237,338069,1,0,0:0:0:0:
146,139,338263,1,0,0:0:0:0:
391,53,338456,1,0,0:0:0:0:
391,53,338553,1,0,0:0:0:0:
391,53,338650,1,0,0:0:0:0:
392,85,338746,1,0,0:0:0:0:
394,118,338843,1,0,0:0:0:0:
396,151,338940,1,0,0:0:0:0:
398,184,339037,6,0,B|412:220|402:252|402:252|430:284|430:284|413:329|435:377,1,197.99999395752
501,322,339424,6,0,P|428:301|384:315,1,88
391,321,339714,1,0,0:0:0:0:
382,222,339811,6,0,P|308:263|284:309,1,98.9999969787599
298,305,340101,1,0,0:0:0:0:
221,235,340198,6,0,P|198:315|214:365,1,110
228,360,340488,1,0,0:0:0:0:
115,304,340585,6,0,P|56:279|52:198,1,110
44,206,340876,1,0,0:0:0:0:
55,171,340972,1,0,0:0:0:0:
171,86,341166,2,0,P|221:69|318:137,1,165
401,10,341553,1,0,0:0:0:0:
401,10,341650,1,0,0:0:0:0:
401,10,341746,1,0,0:0:0:0:
421,60,341842,1,0,0:0:0:0:
414,114,341939,1,0,0:0:0:0:
382,158,342036,1,0,0:0:0:0:
333,181,342134,6,0,L|151:176,1,165
142,177,342521,1,0,0:0:0:0:
210,258,342714,2,0,L|325:260,1,110
394,343,343101,1,0,0:0:0:0:
288,341,343295,5,0,0:0:0:0:
246,339,343391,1,0,0:0:0:0:
205,338,343488,1,0,0:0:0:0:
164,337,343585,1,0,0:0:0:0:
123,336,343682,6,0,B|66:266|66:266|86:189,1,165
94,170,344069,1,0,0:0:0:0:
199,81,344263,2,0,L|316:90,2,110
179,93,344746,1,0,0:0:0:0:
156,107,344843,1,0,0:0:0:0:
253,166,345037,1,0,0:0:0:0:
279,172,345133,1,0,0:0:0:0:
303,177,345230,6,0,P|356:159|319:73,1,165
275,86,345617,2,0,P|304:74|346:80,1,55
451,149,345811,5,0,0:0:0:0:
211,242,346198,5,0,0:0:0:0:
216,278,346392,1,0,0:0:0:0:
221,314,346585,1,0,0:0:0:0:
291,90,346779,6,0,B|372:95|413:84|413:84|395:106|401:134,1,165
448,186,347166,1,0,0:0:0:0:
385,315,347359,2,0,P|287:319|265:284,1,110
253,210,347746,1,0,0:0:0:0:
405,37,347940,1,0,0:0:0:0:
404,91,348036,1,0,0:0:0:0:
403,146,348133,1,0,0:0:0:0:
402,201,348230,1,0,0:0:0:0:
401,256,348327,5,0,0:0:0:0:
240,88,348617,1,0,0:0:0:0:
254,0,348714,1,0,0:0:0:0:
67,138,348908,1,0,0:0:0:0:
110,289,349101,5,0,0:0:0:0:
142,264,349197,1,0,0:0:0:0:
183,261,349294,1,0,0:0:0:0:
219,279,349391,1,0,0:0:0:0:
243,318,349488,5,0,0:0:0:0:
259,266,349584,1,0,0:0:0:0:
300,231,349681,1,0,0:0:0:0:
353,223,349778,1,0,0:0:0:0:
403,236,349876,5,0,0:0:0:0:
333,104,350166,1,0,0:0:0:0:
247,121,350263,1,0,0:0:0:0:
93,194,350456,1,0,0:0:0:0:
179,211,350553,1,0,0:0:0:0:
326,288,350746,1,0,0:0:0:0:
240,305,350843,1,0,0:0:0:0:
85,352,351037,1,0,0:0:0:0:
230,28,351230,1,0,0:0:0:0:
442,118,351424,5,0,0:0:0:0:
263,337,351617,1,0,0:0:0:0:
488,257,351811,1,0,0:0:0:0:
198,186,352005,1,0,0:0:0:0:
508,32,352198,1,0,0:0:0:0:
441,17,352294,1,0,0:0:0:0:
377,39,352391,1,0,0:0:0:0:
333,91,352488,1,0,0:0:0:0:
323,158,352585,1,0,0:0:0:0:
391,311,352972,5,0,0:0:0:0:
293,302,353638,5,0,0:0:0:0:
195,293,354305,5,0,0:0:0:0:
103,180,354805,6,0,P|133:163|164:158,2,55
219,98,355930,6,0,P|189:81|158:76,2,55
168,279,357545,5,0,0:0:0:0:
168,279,357660,1,0,0:0:0:0:
168,279,357776,1,0,0:0:0:0:
256,192,357891,12,0,363314,0:0:0:0:
