osu file format v14

[General]
AudioFilename: audio.mp3
AudioLeadIn: 0
PreviewTime: 114424
Countdown: 0
SampleSet: Soft
StackLeniency: 0.4
Mode: 0
LetterboxInBreaks: 0
EpilepsyWarning: 1
WidescreenStoryboard: 1

[Editor]
Bookmarks: 1548,17034,27319,41461,55175,60318,72318,83095,91339,99064,106744,114424,129784,137464,144848,166997,178064,190709,198288,203331,213410,217866,222930,227971,235562,245667,255772,265878,281244,294327,305298,316269,327241,331355,342327,353298,367189,374356,380549,386743,392936,406138,415738,434938,444538,452470,462492,479307,488902
DistanceSpacing: 0.9
BeatDivisor: 4
GridSize: 32
TimelineZoom: 1.4

[Metadata]
Title:The Pokemedley
TitleUnicode:The Pokémedley
Artist:FreddeGredde
ArtistUnicode:FreddeGredde
Creator:SaltKing
Version:Nostalgia
Source:ポケットモンスター
Tags:pokemon medley soundtrack ost video game instrumental marathon junichi masuda 増田順一 go ichinose 一之瀬剛 shota kageyama 景山将太 morikazu aoki 青木森一 hitomi sato 佐藤仁美 minako adachi 足立美奈子 tomoaki oga 大賀智章 red blue green yellow rgby gold silver crystal gsc ruby sapphire emerald rse diamond pearl platinum dppt black white bw x y xy omega ruby alpha sapphire oras ultra sun moon sm usum let's go pikachu eevee victory road the final title screen route 11 12 13 14 15 26 27 center goldenrod city lavaridge town 201 skyarrow bridge friends theme a new meeting apparel shop lavender 113 welcome to alola region battle ghetsis team rocket wild gym leader kanto version lorekeeper zinnia guzma necrozma plasma 216 underwater dive professor sycamore jubilife vendanturf 10 bicycle cheren bianca rival encounter trainer registeel regice regirock evolution hurry come along national park an unwavering heart emotions 209 1 elite four 4 opening champion at summit
BeatmapID:1908890
BeatmapSetID:913866

[Difficulty]
HPDrainRate:5
CircleSize:4
OverallDifficulty:8
ApproachRate:9
SliderMultiplier:1.8
SliderTickRate:1

[Events]
//Background and Video events
0,0,"sunmoon.png",0,0
//Break Periods
//Storyboard Layer 0 (Background)
//Storyboard Layer 1 (Fail)
//Storyboard Layer 2 (Pass)
//Storyboard Layer 3 (Foreground)
//Storyboard Sound Samples

[TimingPoints]
1548,375,4,1,1,50,1,0
1548,-200,4,1,1,30,0,0
7548,-153.846153846154,4,1,1,45,0,0
10454,-153.846153846154,4,1,1,5,0,0
10548,-133.333333333333,4,1,1,50,0,0
13548,-200,4,1,1,50,0,0
14207,-200,4,1,1,5,0,0
14298,361.44578313253,4,1,1,50,1,0
14298,-200,4,1,1,50,0,0
15159,476.190476190476,4,1,1,50,1,0
15159,-250,4,1,1,50,0,0
16653,468.75,4,1,1,25,1,0
16770,-100,4,1,1,50,0,0
17034,285.714285714286,4,1,1,50,1,0
17319,285.714285714286,4,1,1,50,1,0
17319,-111.111111111111,4,1,1,50,0,0
17819,-111.111111111111,4,1,1,5,0,0
17890,-111.111111111111,4,1,1,50,0,0
18390,-111.111111111111,4,1,1,5,0,0
18461,-111.111111111111,4,1,1,50,0,0
18961,-111.111111111111,4,1,1,5,0,0
19032,-111.111111111111,4,1,1,50,0,0
19533,-111.111111111111,4,1,1,5,0,0
19604,-111.111111111111,4,1,1,50,0,0
20104,-111.111111111111,4,1,1,5,0,0
20175,-111.111111111111,4,1,1,50,0,0
20676,-111.111111111111,4,1,1,5,0,0
20747,-166.666666666666,4,1,1,50,0,0
23033,-111.111111111111,4,1,1,50,0,0
25319,-250,4,1,1,50,0,0
26247,-125,4,1,1,50,0,0
27319,428.571428571429,4,1,1,40,1,0
27747,428.571428571429,4,1,1,40,1,0
27747,-95.2380952380952,4,1,1,40,0,0
55175,-111.111111111111,4,1,1,40,0,0
60318,-105.263157894737,4,1,1,50,0,1
72318,-105.263157894737,4,2,1,50,0,0
72532,508.474576271186,4,2,1,50,1,0
72532,-117.647058823529,4,2,1,50,0,0
73040,521.739130434783,4,2,1,50,1,0
73300,555.555555555556,4,2,1,50,1,0
73300,-153.846153846153,4,2,1,50,0,0
73577,521.739130434783,4,2,1,50,1,0
73837,571.428571428571,4,2,1,50,1,0
73837,-142.857142857143,4,2,1,50,0,0
74122,526.315789473684,4,2,1,50,1,0
74385,571.428571428571,4,2,1,50,1,0
74385,-117.647058823529,4,2,1,50,0,0
74956,476.190476190476,4,2,1,50,1,0
74956,-105.263157894737,4,2,1,50,0,0
75194,576.923076923077,4,2,1,50,1,0
75482,504.201680672269,4,2,1,50,1,0
75482,-105.263157894737,4,2,1,50,0,0
75734,600,4,2,1,50,1,0
76034,535.714285714286,4,2,1,50,1,0
76034,-105.263157894737,4,2,1,50,0,0
76569,550.45871559633,4,2,1,50,1,0
76569,-105.263157894737,4,2,1,50,0,0
77394,521.739130434783,4,2,1,50,1,0
77654,555.555555555556,4,2,1,50,1,0
77654,-117.647058823529,4,2,1,50,0,0
78209,566.037735849057,4,2,1,50,1,0
78209,-117.647058823529,4,2,1,50,0,0
78492,545.454545454546,4,2,1,50,1,0
78764,-105.263157894737,4,2,1,50,0,0
79309,517.241379310345,4,2,1,50,1,0
79567,560.747663551402,4,2,1,50,1,0
79847,-105.263157894737,4,2,1,50,0,0
80127,540.540540540541,4,2,1,50,1,0
80397,521.739130434783,4,2,1,50,1,0
80657,571.428571428571,4,2,1,50,1,0
80942,606.060606060606,4,2,1,50,1,0
80942,-105.263157894737,4,2,1,50,0,0
81245,491.803278688525,4,2,1,50,1,0
81490,550.45871559633,4,2,1,50,1,0
81490,-105.263157894737,4,2,1,50,0,0
82034,530.973451327434,4,2,1,50,1,0
82034,-105.263157894737,4,2,1,50,0,0
82564,571.428571428571,4,2,1,50,1,0
82849,495.867768595041,4,2,1,50,1,0
83096,606.060606060606,4,2,1,50,1,0
83399,491.803278688525,4,2,1,50,1,0
83644,521.739130434783,4,2,1,50,1,0
84165,594.059405940594,4,2,1,50,1,0
84462,495.867768595041,4,2,1,50,1,0
85205,521.739130434783,4,2,1,50,1,0
85987,500,4,2,1,50,1,0
86237,566.037735849057,4,2,1,50,1,0
86803,714.285714285714,4,2,1,50,1,0
86981,521.739130434783,4,2,1,50,1,0
87241,521.739130434783,4,2,1,50,1,0
87762,480,4,2,1,50,1,0
88137,428.571428571429,4,2,1,50,1,0
88244,500,4,2,1,50,1,0
88494,545.454545454546,4,2,1,50,1,0
89039,495.867768595041,4,2,1,50,1,0
89534,472.44094488189,4,2,1,50,1,0
89770,517.241379310345,4,2,1,50,1,0
90028,612.244897959184,4,2,1,50,1,0
90334,508.474576271186,4,2,1,50,1,0
90334,-117.647058823529,4,2,1,50,0,0
90842,476.190476190476,4,2,1,50,1,0
91080,517.241379310345,4,2,1,50,1,0
91339,-111.111111111111,4,2,1,50,0,0
91855,444.444444444444,4,2,1,50,1,0
92077,491.803278688525,4,2,1,50,1,0
92568,508.474576271186,4,2,1,50,1,0
92822,465.116279069767,4,2,1,50,1,0
93287,487.80487804878,4,2,1,50,1,0
93287,-111.111111111111,4,2,1,50,0,0
94018,480,4,2,1,50,1,0
94250,-111.111111111111,4,2,1,50,0,0
94258,483.870967741935,4,2,1,50,1,0
95217,-111.111111111111,4,2,1,50,0,0
95709,454.545454545455,4,2,1,50,1,0
96163,526.315789473684,4,2,1,50,1,0
96163,-111.111111111111,4,2,1,50,0,0
96426,480,4,2,1,50,1,0
96666,517.241379310345,4,2,1,50,1,0
96666,-111.111111111111,4,2,1,50,0,0
96924,425.531914893617,4,2,1,50,1,0
97136,500,4,2,1,50,1,0
97386,461.538461538462,4,2,1,50,1,0
97386,-111.111111111111,4,2,1,50,0,0
97847,555.555555555556,4,2,1,50,1,0
98124,437.956204379562,4,2,1,50,1,0
98342,480,4,2,1,50,1,0
99064,480,4,2,1,50,1,0
106744,-83.3333333333333,4,2,1,50,0,0
114424,-71.4285714285714,4,1,1,50,0,1
122104,-133.333333333333,4,1,1,50,0,0
125704,-71.4285714285714,4,1,1,50,0,0
125944,-71.4285714285714,4,1,1,50,0,1
128344,-71.4285714285714,4,1,1,35,0,1
128584,-71.4285714285714,4,1,1,40,0,1
128824,-71.4285714285714,4,1,1,45,0,1
129064,-71.4285714285714,4,1,1,50,0,1
129304,-71.4285714285714,4,1,1,55,0,1
129784,-83.3333333333333,4,2,1,50,0,0
132784,-74.0740740740741,4,2,1,50,0,0
133144,-83.3333333333333,4,2,1,50,0,0
137464,461.538461538462,4,2,1,50,1,0
137464,-250,4,2,1,50,0,0
143002,-133.333333333333,4,2,1,50,0,0
144834,461.538461538462,3,2,1,50,1,0
144834,-90.9090909090909,3,2,1,50,0,0
178078,315.789473684211,4,1,1,50,1,0
178078,-250,4,1,1,40,0,0
183130,-200,4,2,1,40,0,0
190709,-125,4,2,1,50,0,0
193235,-105.263157894737,4,2,1,50,0,0
203341,-90.9090909090909,4,1,1,50,0,1
213446,-100,4,2,1,50,0,0
215656,315.789473684211,4,2,1,50,1,0
217866,315.789473684211,4,2,1,50,1,0
217866,-111.111111111111,4,1,1,40,0,0
219681,-111.111111111111,4,1,1,5,0,0
219760,-99.9999999999999,4,1,1,40,0,0
219997,-111.111111111111,4,1,1,5,0,0
220076,-90.9090909090909,4,1,1,40,0,0
220313,-111.111111111111,4,1,1,5,0,0
220392,-111.111111111111,4,1,1,40,0,0
222918,-125,4,1,1,50,0,0
227971,-222.222222222222,4,2,1,40,0,0
229234,-222.222222222222,4,2,1,25,0,0
229787,-222.222222222222,4,2,1,5,0,0
229866,-222.222222222222,4,2,1,40,0,0
231760,-222.222222222222,4,2,1,25,0,0
232866,-125,4,1,1,50,0,0
235550,-105.263157894737,4,3,1,50,0,0
244708,-125,4,3,1,50,0,0
245339,-111.111111111111,4,3,1,50,0,0
265866,315.789473684211,3,1,1,50,1,0
265866,-153.846153846154,3,1,1,50,0,0
267050,-153.846153846154,3,1,1,5,0,0
267129,-153.846153846154,3,1,1,50,0,0
267366,-153.846153846154,3,1,1,5,0,0
267445,-153.846153846154,3,1,1,50,0,0
267681,-153.846153846154,3,1,1,5,0,0
267760,-153.846153846154,3,1,1,50,0,0
269023,-142.857142857143,3,1,1,50,0,0
269339,-133.333333333333,3,1,1,50,0,0
270839,-133.333333333333,3,1,1,5,0,0
270918,-133.333333333333,3,1,1,50,0,0
271155,-133.333333333333,3,1,1,5,0,0
271234,-133.333333333333,3,1,1,50,0,0
271471,-133.333333333333,3,1,1,5,0,0
271550,-133.333333333333,3,1,1,50,0,0
274629,-133.333333333333,3,1,1,5,0,0
274708,-133.333333333333,3,1,1,50,0,0
274944,-133.333333333333,3,1,1,5,0,0
275023,-133.333333333333,3,1,1,50,0,0
275260,-133.333333333333,3,1,1,5,0,0
275339,-133.333333333333,3,1,1,50,0,0
276523,-133.333333333333,3,1,1,5,0,0
276602,-133.333333333333,3,1,1,50,0,0
276839,-133.333333333333,3,1,1,5,0,0
276918,-133.333333333333,3,1,1,50,0,0
277155,-133.333333333333,3,1,1,5,0,0
277234,-133.333333333333,3,1,1,50,0,0
279444,-125,3,1,1,50,0,0
279760,-117.647058823529,3,1,1,50,0,0
280313,-133.333333333333,3,1,1,5,0,0
280392,-133.333333333333,3,1,1,50,0,0
281244,535.714285714286,4,2,1,20,1,0
281244,-166.666666666667,4,2,1,20,0,0
281779,368.098159509202,4,2,1,20,1,0
281779,-153.846153846154,4,2,1,20,0,0
283355,545.454545454546,4,2,1,20,1,0
283355,-181.818181818182,4,2,1,20,0,0
285045,560.747663551402,4,2,1,20,1,0
285045,-153.846153846154,4,2,1,20,0,0
285535,-153.846153846154,4,2,1,5,0,0
285605,512.820512820513,4,2,1,20,1,0
285605,-153.846153846154,4,2,1,20,0,0
286053,-153.846153846154,4,2,1,5,0,0
286117,413.793103448276,4,2,1,20,1,0
286117,-142.857142857143,4,2,1,20,0,0
287772,555.555555555556,4,2,1,20,1,0
287772,-166.666666666667,4,2,1,20,0,0
288883,545.454545454546,4,2,1,20,1,0
288883,-133.333333333333,4,2,1,20,0,0
289973,365.853658536585,4,2,1,20,1,0
289973,-133.333333333333,4,2,1,20,0,0
290247,-133.333333333333,4,2,1,5,0,0
290338,-181.818181818181,4,2,1,20,0,0
290521,-133.333333333333,4,2,1,5,0,0
290704,-153.846153846153,4,2,1,20,0,0
290887,-133.333333333333,4,2,1,5,0,0
291070,-133.333333333333,4,2,1,20,0,0
291253,-133.333333333333,4,2,1,5,0,0
291436,-133.333333333333,4,2,1,20,0,0
292492,441.176470588235,4,2,1,20,1,0
292716,365.853658536585,4,2,1,20,1,0
292899,357.142857142857,4,2,1,20,1,0
293702,-100,4,2,1,5,0,0
293791,-100,4,2,1,20,0,0
294327,342.857142857143,4,1,1,35,1,0
294327,-142.857142857143,4,1,1,35,0,0
304184,-142.857142857143,4,1,1,5,0,0
304269,-142.857142857143,4,1,1,40,0,0
305298,-100,4,1,1,40,0,0
316269,-90.9090909090909,4,2,1,50,0,0
324327,-100,4,2,1,50,0,0
326384,-181.818181818182,4,2,1,50,0,0
327069,-181.818181818182,4,2,1,5,0,0
327241,-111.111111111111,4,2,1,50,0,0
342155,-111.111111111111,4,1,1,50,0,0
365641,387.096774193548,4,1,1,50,1,0
370286,-90.9090909090909,4,1,1,50,0,0
373382,-111.111111111111,4,1,1,50,0,0
374356,387.096774193548,4,2,1,30,1,0
374356,-166.666666666667,4,2,1,30,0,0
377356,-166.666666666667,4,2,1,5,0,0
377452,-166.666666666667,4,2,1,30,0,0
380452,-166.666666666667,4,1,1,5,0,0
380548,-166.666666666667,4,1,1,30,0,0
386743,-117.647058823529,4,1,1,30,0,0
399130,-111.111111111111,4,1,1,30,0,0
405838,600,4,2,1,50,1,0
405838,-142.857142857143,4,2,1,35,0,0
406138,600,4,2,1,35,1,0
406138,-142.857142857143,4,2,1,35,0,0
415738,-117.647058823529,4,2,1,35,0,0
416938,631.578947368421,4,2,1,35,1,0
416938,-117.647058823529,4,2,1,35,0,0
417569,569.80056980057,4,2,1,35,1,0
418138,631.578947368421,4,2,1,35,1,0
418138,-117.647058823529,4,2,1,35,0,0
418769,626.304801670146,4,2,1,35,1,0
419082,606.060606060606,4,2,1,35,1,0
419385,588.235294117647,4,2,1,35,1,0
419385,-117.647058823529,4,2,1,35,0,0
419973,567.375886524823,4,2,1,35,1,0
420540,681.818181818182,4,2,1,35,1,0
420540,-117.647058823529,4,2,1,35,0,0
420880,521.739130434783,4,2,1,35,1,0
421140,645.161290322581,4,2,1,35,1,0
421140,-117.647058823529,4,2,1,35,0,0
421462,617.283950617284,4,2,1,35,1,0
421770,588.235294117647,4,2,1,35,1,0
421770,-117.647058823529,4,2,1,35,0,0
422946,645.161290322581,4,2,1,35,1,0
422946,-117.647058823529,4,2,1,35,0,0
423591,500,4,2,1,35,1,0
423841,625,4,2,1,35,1,0
424153,600,4,2,1,35,1,0
424153,-117.647058823529,4,2,1,35,0,0
424753,588.235294117647,4,2,1,35,1,0
424753,-117.647058823529,4,2,1,35,0,0
425047,603.015075376884,4,2,1,35,1,0
425348,600,4,2,1,35,1,0
425348,-105.263157894737,4,2,1,35,0,0
431338,-100,4,2,1,35,0,0
432538,-94.3396226415094,4,2,1,35,0,0
434948,-90.9090909090909,4,2,1,45,0,0
444548,588.235294117647,4,2,1,45,1,0
444548,-86.9565217391304,4,2,1,50,0,0
446884,566.037735849057,4,2,1,45,1,0
446884,-86.9565217391304,4,2,1,50,0,0
450280,545.454545454546,4,2,1,45,1,0
450280,-86.9565217391304,4,2,1,50,0,0
451370,550.45871559633,4,2,1,45,1,0
451370,-86.9565217391304,4,2,1,50,0,0
452470,272.727272727273,4,1,1,50,1,0
452470,-111.111111111111,4,1,1,50,0,0
460106,-142.857142857143,4,1,1,50,0,0
460924,-333.333333333333,4,1,1,50,0,0
461197,-333.333333333333,4,1,1,5,0,0
461214,-333.333333333333,4,1,1,50,0,0
461470,-333.333333333333,4,1,1,5,0,0
461487,-333.333333333333,4,1,1,50,0,0
461742,-333.333333333333,4,1,1,5,0,0
461759,-333.333333333333,4,1,1,50,0,0
462015,-333.333333333333,4,1,1,5,0,0
462032,-333.333333333333,4,1,1,50,0,0
462502,400,4,1,1,50,1,0
463302,400,4,1,1,50,1,0
463302,-142.857142857143,4,1,1,50,0,0
476102,-142.857142857143,4,2,1,35,0,0
479302,-100,4,1,1,50,0,1
485702,400,3,1,1,40,1,0
485702,-142.857142857143,3,1,1,40,0,0
488635,461.538461538462,4,1,1,40,1,0
491532,461.538461538462,4,1,1,50,1,0
492224,410.958904109589,4,1,1,50,1,0
492634,434.782608695652,4,1,1,50,1,0
493286,631.578947368421,4,1,1,50,1,0
493917,444.444444444444,4,1,1,50,1,0
494361,413.793103448276,4,1,1,50,1,0
494981,461.538461538462,4,1,1,50,1,0
495442,387.096774193548,4,1,1,50,1,0
495635,441.176470588235,4,1,1,50,1,0
496958,419.58041958042,4,1,1,50,1,0
497377,631.578947368421,4,1,1,50,1,0
498008,408.163265306122,4,1,1,50,1,0
498416,681.818181818182,4,1,1,50,1,0
499097,400,4,1,1,50,1,0
499497,422.535211267606,4,1,1,50,1,0
500130,652.173913043478,4,1,1,50,1,0
500782,434.782608695652,4,1,1,50,1,0

[Colours]
Combo1 : 241,41,162
Combo2 : 248,85,50
Combo3 : 247,151,9
Combo4 : 254,247,95
Combo5 : 103,250,82
Combo6 : 34,230,190
Combo7 : 31,186,237
Combo8 : 209,82,241

[HitObjects]
103,257,1548,5,2,0:2:0:0:
103,257,2298,1,2,0:2:0:0:
103,257,3048,1,2,0:2:0:0:
103,257,3798,2,0,P|116:181|107:142,1,90,2|2,0:2|0:2,0:0:0:0:
43,79,4548,6,0,L|149:96,1,90,2|0,0:2|0:0,0:0:0:0:
203,183,5298,2,0,L|97:166,1,90,2|0,0:2|0:0,0:0:0:0:
227,83,6048,2,0,L|333:100,2,90,2|0|0,0:2|0:0|0:2,0:0:0:0:
303,200,7173,1,2,0:0:0:0:
397,110,7548,6,0,P|426:92|468:81,2,58.4999973220826,0|0|8,0:2|0:2|0:2,0:2:0:0:
459,240,8298,2,0,P|464:211|462:182,2,58.4999973220826,0|0|8,0:2|0:2|0:2,0:2:0:0:
328,171,9048,2,0,P|350:189|376:203,2,58.4999973220826,0|0|8,0:2|0:2|0:2,0:2:0:0:
263,55,9798,1,0,0:0:0:0:
210,200,10173,2,0,L|198:91,1,87.749995983124,2|0,0:0|1:0,0:0:0:0:
200,112,10548,6,0,P|142:125|120:123,2,67.5000025749208,0|0|8,0:2|0:2|0:2,0:2:0:0:
45,187,11298,2,0,P|103:200|125:198,2,67.5000025749208,0|0|8,0:2|0:2|0:2,0:2:0:0:
200,268,12048,2,0,P|142:281|120:279,2,67.5000025749208,0|0|8,0:2|0:2|0:2,0:2:0:0:
284,144,12798,1,2,0:0:0:0:
263,307,13173,1,2,0:2:0:0:
272,231,13360,1,2,0:2:0:0:
338,351,13548,6,0,B|355:318|344:279|344:279|335:232|362:195,1,157.5,4|0,0:2|0:0,0:0:0:0:
359,199,14298,2,0,B|289:215|233:184|233:184|212:204|179:216,1,180
166,136,15159,6,0,P|114:220|136:268,1,144,4|0,0:2|0:0,0:0:0:0:
126,255,16653,2,0,L|92:251,2,22.5
227,315,17034,5,0,0:0:0:0:
225,279,17129,1,0,0:0:0:0:
224,243,17224,1,0,0:0:0:0:
222,205,17319,6,0,P|287:224|313:221,1,80.9999975280763
353,43,17604,2,0,L|357:174,1,121.499996292114,8|0,0:2|0:0,0:0:0:0:
356,164,17890,2,0,P|291:145|265:148,1,80.9999975280763
117,237,18176,2,0,P|205:241|236:214,1,121.499996292114,8|0,0:2|0:2,0:2:0:0:
228,223,18461,2,0,L|222:321,1,80.9999975280763
165,151,18747,2,8,L|159:29,1,121.499996292114,8|8,0:2|0:2,0:2:0:0:
129,61,19033,5,0,0:0:0:0:
243,79,19176,1,0,0:0:0:0:
87,127,19319,2,0,L|93:249,1,121.499996292114,2|0,0:0|0:0,0:0:0:0:
92,248,19604,6,0,P|42:236|-10:247,1,80.9999975280763
150,333,19890,2,0,P|203:310|283:315,1,121.499996292114,8|0,0:2|0:0,0:0:0:0:
265,310,20176,2,0,L|257:220,1,80.9999975280763
350,93,20461,2,0,L|344:236,1,121.499996292114,8|0,0:2|0:0,0:0:0:0:
401,313,20747,6,0,P|397:228|339:290,1,215.999993408203,4|2,0:2|0:2,0:2:0:0:
109,313,21890,2,0,P|113:228|172:290,1,215.999993408203,4|0,0:2|0:0,0:0:0:0:
256,192,23033,5,0,0:0:0:0:
256,192,23176,1,0,0:0:0:0:
323,292,23319,2,0,L|335:201,1,80.9999975280763,4|0,0:2|0:0,0:0:0:0:
178,172,23604,5,0,0:0:0:0:
178,172,23747,1,0,0:0:0:0:
244,284,23890,2,0,L|256:193,1,80.9999975280763,4|0,0:2|0:0,0:0:0:0:
100,152,24176,5,0,0:0:0:0:
100,152,24319,1,0,0:0:0:0:
165,277,24462,2,0,L|176:183,1,80.9999975280763,4|0,0:2|0:0,0:0:0:0:
22,132,24747,5,0,0:0:0:0:
22,132,24890,1,0,0:0:0:0:
78,274,25033,1,4,0:2:0:0:
107,108,25176,1,0,0:0:0:0:
107,108,25247,1,0,0:0:0:0:
107,108,25319,6,0,B|111:135|103:159|103:159|141:144|184:168|184:168|229:190|276:166,1,216
261,172,26247,2,0,L|259:212,2,36
225,101,26461,5,2,0:0:0:0:
225,101,27319,5,0,0:0:0:0:
252,124,27426,1,0,0:0:0:0:
286,135,27533,2,0,P|307:135|332:131,2,30
363,123,27747,5,4,0:2:0:0:
407,265,27961,1,0,0:0:0:0:
455,119,28175,2,0,P|399:129|339:113,1,94.499997116089
288,76,28497,1,0,0:0:0:0:
288,76,28604,2,0,L|286:176,1,94.499997116089,2|0,0:2|0:0,0:0:0:0:
225,265,29032,1,2,0:2:0:0:
221,236,29139,1,0,0:0:0:0:
217,207,29247,1,0,0:0:0:0:
146,339,29461,5,2,0:2:0:0:
332,319,29675,1,0,0:0:0:0:
180,263,29889,2,0,P|121:259|62:332,1,157.499995193482,2|0,0:2|0:0,0:0:0:0:
62,329,30318,2,0,L|57:222,1,94.499997116089,2|0,0:2|0:0,0:0:0:0:
37,80,30747,1,2,0:2:0:0:
59,109,30854,1,2,0:2:0:0:
92,126,30961,1,2,0:2:0:0:
128,133,31068,1,2,0:2:0:0:
165,129,31175,6,0,P|227:111|285:126,1,94.499997116089,4|0,0:2|0:0,0:0:0:0:
362,156,31497,1,2,0:2:0:0:
344,195,31604,2,0,L|336:38,1,141.749995674133,2|0,0:2|0:0,0:0:0:0:
300,88,32032,1,0,0:0:0:0:
454,161,32247,1,0,0:0:0:0:
253,191,32461,1,0,0:0:0:0:
225,200,32568,1,0,0:0:0:0:
196,206,32675,2,0,P|160:211|114:206,1,62.9999980773926,0|2,0:0|2:1,0:0:0:0:
52,150,32889,6,0,L|58:247,1,94.499997116089,2|0,0:2|0:0,0:0:0:0:
117,324,33211,1,0,0:0:0:0:
124,282,33318,1,0,0:0:0:0:
143,117,33532,1,0,0:0:0:0:
216,290,33747,2,0,P|167:278|110:285,1,94.499997116089,2|0,0:2|0:0,0:0:0:0:
265,212,34175,1,2,0:2:0:0:
292,203,34282,1,0,0:0:0:0:
320,202,34389,1,0,0:0:0:0:
482,241,34604,5,4,0:2:0:0:
308,278,34818,1,0,0:0:0:0:
403,121,35032,2,0,P|398:197|404:256,1,94.499997116089
404,289,35354,1,2,0:2:0:0:
361,273,35461,1,2,0:2:0:0:
209,199,35675,1,0,0:0:0:0:
274,331,35889,2,0,L|272:283,2,47.2499985580445,2|0|0,0:0|0:0|0:0,0:0:0:0:
317,207,36318,6,0,P|254:198|197:233,1,94.499997116089,2|0,0:2|0:0,0:0:0:0:
46,266,36747,2,0,P|113:294|185:269,1,141.749995674133,0|2,0:0|0:0,0:0:0:0:
176,275,37175,2,0,L|179:376,1,94.499997116089,2|0,0:2|0:0,0:0:0:0:
116,213,37604,1,2,0:2:0:0:
119,175,37711,1,2,0:2:0:0:
120,137,37818,1,2,0:2:0:0:
123,99,37925,1,2,0:2:0:0:
125,61,38032,5,6,0:2:0:0:
221,189,38247,1,0,0:0:0:0:
240,221,38354,1,0,0:0:0:0:
257,254,38461,2,0,L|268:132,1,94.499997116089
197,73,38782,1,0,0:0:0:0:
221,100,38889,2,0,P|292:129|372:108,1,141.749995674133
431,64,39318,2,0,P|434:93|441:114,2,47.2499985580445
487,172,39639,1,0,0:0:0:0:
454,195,39747,6,0,L|358:183,1,94.499997116089
266,171,40068,1,0,0:0:0:0:
281,205,40175,1,0,0:0:0:0:
335,336,40389,1,0,0:0:0:0:
189,260,40604,2,0,P|114:245|56:269,1,141.749995674133
55,269,41032,2,0,L|45:165,2,62.9999980773926,2|2|2,0:0|0:0|0:0,0:0:0:0:
131,332,41461,6,0,L|116:185,1,141.749995674133,4|2,0:2|0:2,0:0:0:0:
147,202,41836,1,2,0:2:0:0:
152,222,41889,1,2,0:2:0:0:
142,49,42104,1,2,0:2:0:0:
147,81,42211,1,2,0:2:0:0:
152,113,42318,2,0,P|206:105|266:114,1,94.499997116089,2|0,0:2|0:0,0:0:0:0:
349,144,42639,1,2,0:2:0:0:
318,102,42747,2,0,L|311:168,1,47.2499985580445,2|0,0:2|0:2,0:0:0:0:
363,278,42961,2,0,L|358:231,1,47.2499985580445,2|0,0:2|0:0,0:0:0:0:
400,359,43175,6,0,P|360:367|284:326,1,94.499997116089,6|0,0:2|0:0,0:0:0:0:
173,265,43604,2,0,P|213:257|289:298,1,94.499997116089,2|0,0:2|0:0,0:0:0:0:
84,277,44032,2,0,L|97:187,2,62.9999980773926,2|2|2,0:0|0:0|0:0,0:0:0:0:
20,174,44461,1,2,0:2:0:0:
41,149,44568,1,0,0:0:0:0:
71,135,44675,1,0,0:0:0:0:
103,133,44782,1,0,0:0:0:0:
134,143,44889,5,4,0:2:0:0:
285,191,45104,1,2,0:2:0:0:
252,198,45211,1,2,0:2:0:0:
219,191,45318,2,0,P|224:250|214:301,1,94.499997116089,2|0,0:2|0:0,0:0:0:0:
185,364,45639,1,2,0:2:0:0:
228,357,45747,1,2,0:2:0:0:
378,264,45961,1,2,0:2:0:0:
345,260,46068,1,2,0:2:0:0:
315,244,46175,1,2,0:2:0:0:
347,370,46389,1,2,0:2:0:0:
368,180,46604,6,0,L|375:40,1,94.499997116089,4|0,0:2|0:0,0:0:0:0:
205,30,47032,2,0,L|209:124,1,94.499997116089,2|0,0:2|0:0,0:0:0:0:
214,212,47354,1,0,0:0:0:0:
214,212,47461,2,0,P|147:191|126:191,2,62.9999980773926,2|2|2,0:0|0:0|0:0,0:0:0:0:
121,268,47889,2,0,P|56:294|40:308,2,62.9999980773926,2|2|2,0:0|0:0|0:0,0:0:0:0:
217,316,48318,5,4,0:2:0:0:
253,147,48532,1,2,0:2:0:0:
266,116,48639,1,2,0:2:0:0:
289,92,48747,1,2,0:2:0:0:
439,173,48961,1,2,0:2:0:0:
405,177,49068,1,2,0:2:0:0:
373,169,49175,2,0,L|368:286,1,94.499997116089,0|0,0:2|0:0,0:0:0:0:
217,246,49604,2,0,P|255:243|289:252,1,47.2499985580445,2|0,0:2|0:0,0:0:0:0:
401,338,49818,2,0,P|363:341|329:332,1,47.2499985580445,2|0,0:2|0:0,0:0:0:0:
166,379,50032,6,0,B|191:336|165:293|165:293|132:247|153:208|178:180,1,188.999994232178,6|0,0:2|0:0,0:0:0:0:
267,89,50675,1,2,0:0:0:0:
240,108,50782,1,2,0:0:0:0:
208,117,50889,1,2,0:0:0:0:
66,121,51104,1,0,0:2:0:0:
225,247,51318,1,6,0:2:0:0:
204,41,51532,1,2,0:2:0:0:
160,203,51747,6,0,P|148:251|165:299,2,62.9999980773926,2|2|2,0:2|0:2|0:2,0:0:0:0:
207,361,52175,1,4,0:2:0:0:
352,203,52604,6,0,P|364:251|347:299,2,62.9999980773926,2|2|2,0:2|0:2|0:2,0:0:0:0:
305,361,53032,1,4,0:2:0:0:
142,123,53461,5,2,0:2:0:0:
161,201,53604,1,2,0:2:0:0:
87,180,53747,1,2,0:2:0:0:
217,148,53889,1,4,0:2:0:0:
370,123,54318,5,2,0:2:0:0:
351,201,54461,1,2,0:2:0:0:
425,180,54604,1,2,0:2:0:0:
295,148,54747,2,0,B|264:146|240:134|240:134|201:153|145:153,1,141.749995674133,4|0,0:2|2:0,0:0:0:0:
158,152,55175,6,0,P|167:229|153:251,1,80.9999975280763,2|0,0:0|0:0,0:0:0:0:
88,200,55604,1,2,0:0:0:0:
232,284,55818,2,0,L|343:252,1,80.9999975280763,2|0,0:0|0:0,0:0:0:0:
403,368,56247,2,0,L|292:336,1,80.9999975280763,2|0,0:0|0:0,0:0:0:0:
380,207,56675,1,2,0:0:0:0:
459,298,56889,6,0,P|451:230|467:183,1,80.9999975280763,2|0,0:2|0:0,0:0:0:0:
420,61,57318,2,0,P|428:100|425:140,1,80.9999975280763,2|0,0:2|0:0,0:0:0:0:
287,181,57747,1,2,0:2:0:0:
341,105,57961,1,0,0:0:0:0:
341,105,58068,1,0,0:0:0:0:
341,105,58175,2,0,L|278:91,1,40.4999987640381,2|0,0:0|0:0,0:0:0:0:
213,136,58389,2,0,L|150:122,1,40.4999987640381,2|0,0:0|0:0,0:0:0:0:
86,52,58604,5,2,0:0:0:0:
140,222,58818,1,2,0:0:0:0:
173,127,59032,1,0,0:0:0:0:
160,271,59247,2,0,P|73:274|60:281,1,80.9999975280763,2|0,0:0|0:0,0:0:0:0:
218,208,59675,2,0,P|264:281|276:289,1,80.9999975280763,2|0,0:0|0:0,0:0:0:0:
143,172,60104,1,2,0:0:0:0:
207,348,60318,6,0,B|274:381|321:339|321:339|358:358|401:339,1,170.999995433807,4|0,0:2|0:0,0:0:0:0:
442,283,60854,1,0,0:0:0:0:
442,283,60961,2,0,L|448:386,2,85.4999977169037,2|0|0,0:0|0:0|0:0,0:0:0:0:
433,161,61604,1,2,0:0:0:0:
408,178,61711,1,0,0:0:0:0:
379,185,61818,1,0,0:0:0:0:
349,185,61925,1,0,0:0:0:0:
319,178,62032,5,0,0:0:0:0:
360,292,62247,1,2,0:2:0:0:
355,101,62461,1,2,0:2:0:0:
280,256,62675,5,2,0:2:0:0:
445,219,62889,1,2,0:2:0:0:
225,198,63104,2,0,L|131:190,1,85.4999977169037,2|0,0:2|0:0,0:0:0:0:
47,255,63532,1,2,0:0:0:0:
113,94,63747,6,0,L|284:107,1,170.999995433807,4|0,0:2|0:0,0:0:0:0:
421,141,64389,2,0,P|404:86|415:27,2,85.4999977169037
492,272,65032,1,2,0:0:0:0:
465,258,65139,1,0,0:0:0:0:
435,249,65247,2,0,P|392:249|367:261,1,42.7499988584519
295,373,65461,6,0,B|321:334|295:286|295:286|276:240|304:197,1,170.999995433807,4|0,0:2|0:0,0:0:0:0:
344,81,66104,2,0,L|227:102,2,85.4999977169037,2|0|0,0:0|0:0|0:0,0:0:0:0:
296,209,66747,2,0,L|224:203,1,42.7499988584519,2|0,0:0|0:0,0:0:0:0:
148,91,66961,2,0,L|200:82,1,42.7499988584519,2|0,0:0|0:0,0:0:0:0:
317,240,67175,6,0,L|143:222,1,170.999995433807,4|0,0:2|0:0,0:0:0:0:
0,209,67818,1,2,0:0:0:0:
99,151,68032,1,0,0:0:0:0:
38,293,68247,1,0,0:0:0:0:
36,103,68461,1,2,0:0:0:0:
65,110,68568,1,0,0:0:0:0:
93,118,68675,1,0,0:0:0:0:
121,125,68782,1,0,0:0:0:0:
149,132,68889,6,0,B|183:136|206:161|206:161|257:115|325:145,1,170.999995433807,4|0,0:2|0:0,0:0:0:0:
268,304,69532,2,0,L|274:213,2,85.4999977169037,2|0|0,0:0|0:0|0:0,0:0:0:0:
347,356,70068,1,0,0:0:0:0:
347,356,70175,2,0,L|351:286,1,42.7499988584519,2|0,0:2|0:2,0:2:0:0:
356,218,70389,2,0,L|360:148,1,42.7499988584519,2|0,0:2|0:2,0:2:0:0:
450,110,70604,6,0,P|396:135|266:116,1,170.999995433807,4|0,0:2|0:0,0:0:0:0:
191,49,71247,1,0,0:0:0:0:
364,55,71461,1,0,0:0:0:0:
211,138,71675,1,0,0:0:0:0:
211,138,71782,1,0,0:0:0:0:
211,138,71889,2,0,P|165:137|144:130,1,42.7499988584519,2|0,0:2|0:2,0:2:0:0:
53,61,72104,2,0,P|99:62|120:69,1,42.7499988584519,2|0,0:2|0:2,0:2:0:0:
85,232,72318,5,2,0:0:0:0:
85,232,72532,2,0,L|83:145,2,76.5000014591217,2|0|0,0:0|0:0|0:0,0:0:0:0:
37,304,73300,2,0,P|75:319|111:315,1,58.4999973220826,2|0,0:0|0:0,0:0:0:0:
168,249,73837,2,0,P|201:251|234:264,1,62.9999980773926,2|0,0:0|0:0,0:0:0:0:
341,328,74385,6,0,L|337:220,2,76.5000014591217,2|0|0,0:0|0:0|0:0,0:0:0:0:
431,246,75194,1,2,0:0:0:0:
371,145,75482,2,0,P|307:162|252:149,1,85.4999977169037,2|0,0:0|0:0,0:0:0:0:
119,124,76034,1,2,0:0:0:0:
187,239,76301,1,2,0:0:0:0:
206,76,76569,6,0,P|206:143|215:177,2,85.4999977169037,2|0|0,0:0|0:0|0:0,0:0:0:0:
298,186,77394,1,2,0:0:0:0:
187,232,77654,2,0,P|124:228|86:242,1,76.5000014591217,2|0,0:0|0:0,0:0:0:0:
44,341,78209,1,2,0:0:0:0:
12,210,78492,1,2,0:0:0:0:
148,299,78764,6,0,L|141:401,2,85.4999977169037,2|0|0,0:0|0:0|0:0,0:0:0:0:
248,344,79567,1,2,0:0:0:0:
254,193,79847,2,0,P|321:186|361:202,1,85.4999977169037,2|0,0:0|0:0,0:0:0:0:
398,312,80397,1,2,0:0:0:0:
433,211,80657,1,2,0:0:0:0:
305,340,80942,6,0,L|303:235,1,85.4999977169037,2|0,0:0|0:0,0:0:0:0:
183,150,81490,2,0,L|181:237,1,85.4999977169037,2|0,0:0|0:0,0:0:0:0:
192,322,81902,1,0,0:0:0:0:
192,322,82034,2,0,P|119:303|44:325,1,128.249996575356,2|0,0:0|0:0,0:0:0:0:
92,329,82564,1,2,0:0:0:0:
146,201,82849,1,2,0:0:0:0:
0,241,83096,6,0,L|92:255,1,90,2|0,0:0|0:0,0:0:0:0:
244,161,83644,2,0,P|149:164|98:186,1,135,2|0,0:0|0:0,0:0:0:0:
112,177,84165,2,0,L|116:80,1,90,2|0,0:0|0:0,0:0:0:0:
188,235,84709,2,0,L|194:369,1,135,2|0,0:0|0:0,0:0:0:0:
228,338,85205,5,2,0:0:0:0:
110,266,85465,1,2,0:0:0:0:
263,224,85726,1,2,0:0:0:0:
92,271,85987,1,2,0:0:0:0:
246,346,86237,2,0,P|314:339|365:349,2,90,2|0|0,0:0|0:0|0:0,0:0:0:0:
349,254,86981,1,2,0:0:0:0:
378,263,87111,1,2,0:0:0:0:
402,283,87241,6,0,P|400:198|408:172,1,90,2|0,0:0|0:0,0:0:0:0:
458,46,87762,2,0,P|460:131|452:157,1,90,2|0,0:0|0:0,0:0:0:0:
446,167,88137,1,0,0:0:0:0:
431,189,88244,1,2,0:0:0:0:
334,84,88494,1,2,0:0:0:0:
326,243,88766,1,2,0:0:0:0:
459,135,89039,2,0,L|493:146,2,22.5,2|0|0,0:0|0:0|0:0,0:0:0:0:
275,152,89286,5,2,0:0:0:0:
235,279,89534,1,2,0:0:0:0:
185,139,89770,1,2,0:0:0:0:
226,307,90028,1,2,0:0:0:0:
78,209,90334,2,0,B|116:189|147:205|147:205|195:226|232:199,1,153.000002918243,2|0,0:2|0:0,0:0:0:0:
293,101,91080,1,2,0:0:0:0:
362,225,91338,6,0,P|303:192|284:159,2,90,2|0|0,0:0|0:0|0:0,0:0:0:0:
377,132,92077,1,2,0:0:0:0:
224,204,92322,1,2,0:0:0:0:
280,64,92568,1,2,0:0:0:0:
238,222,92822,1,2,0:0:0:0:
179,80,93054,1,2,0:0:0:0:
82,216,93287,6,0,B|118:239|162:220|162:220|203:199|247:227,1,161.999995056153,2|0,0:0|0:0,0:0:0:0:
315,337,94018,1,2,0:0:0:0:
299,309,94138,1,2,0:0:0:0:
294,277,94258,1,2,0:0:0:0:
346,147,94499,1,2,0:0:0:0:
375,284,94741,1,2,0:0:0:0:
257,167,94983,1,2,0:0:0:0:
414,220,95225,6,0,B|434:238|442:254|442:254|441:190|456:132,1,161.999995056153,2|0,0:0|0:0,0:0:0:0:
483,34,95936,1,2,0:0:0:0:
483,34,96163,2,0,P|411:50|375:45,1,80.9999975280763,2|0,0:0|0:0,0:0:0:0:
276,143,96666,2,0,P|348:127|383:131,1,80.9999975280763,2|0,0:0|0:0,0:0:0:0:
214,229,97136,5,2,0:0:0:0:
169,139,97386,2,0,L|157:312,1,161.999995056153,2|0,0:0|0:0,0:0:0:0:
75,224,98124,1,2,0:0:0:0:
68,137,98342,1,2,0:0:0:0:
63,51,98582,1,2,0:0:0:0:
63,51,99064,5,2,0:0:0:0:
72,184,99304,1,0,0:0:0:0:
180,41,99544,1,10,0:0:0:0:
95,154,99784,1,0,0:0:0:0:
249,105,100024,1,2,0:0:0:0:
249,105,100264,1,2,0:0:0:0:
185,243,100504,2,0,L|180:151,1,90,8|0,0:2|0:0,0:0:0:0:
271,277,100984,5,2,0:0:0:0:
138,312,101224,1,0,0:0:0:0:
294,352,101464,1,10,0:2:0:0:
118,306,101704,1,0,0:0:0:0:
290,272,101944,2,0,P|343:280|396:272,1,90,2|0,0:0|0:0,0:0:0:0:
249,101,102424,2,0,L|248:213,1,90,8|0,0:0|0:0,0:0:0:0:
290,272,102784,1,0,0:0:0:0:
290,272,102904,6,0,P|237:268|188:289,1,90,2|0,0:0|0:0,0:0:0:0:
125,136,103384,2,0,P|148:183|190:215,1,90,10|0,0:0|0:0,0:0:0:0:
94,347,103864,1,2,0:0:0:0:
94,347,104104,2,0,P|123:303|130:250,1,90,2|8,0:0|0:0,0:0:0:0:
88,151,104584,1,2,0:0:0:0:
212,221,104824,5,2,0:0:0:0:
49,269,105064,1,0,0:0:0:0:
178,141,105304,1,8,0:0:0:0:
65,252,105544,1,0,0:0:0:0:
241,211,105784,2,0,P|290:205|348:209,1,90,2|0,0:0|0:0,0:0:0:0:
492,278,106264,1,2,0:0:0:0:
469,273,106384,1,2,0:2:0:0:
443,255,106504,1,2,0:2:0:0:
427,200,106624,1,2,0:2:0:0:
456,151,106744,6,2,L|353:132,1,53.9999983520508,4|2,1:2|0:0,0:0:0:0:
270,224,106984,2,0,L|373:205,1,53.9999983520508,0|0,1:2|0:0,0:0:0:0:
430,104,107224,1,8,1:3:0:0:
430,104,107344,2,0,L|327:85,1,53.9999983520508,0|8,1:0|0:3,0:0:0:0:
236,187,107584,2,0,L|339:168,1,53.9999983520508,0|8,1:2|0:3,0:0:0:0:
165,131,107824,2,0,P|150:195|180:256,1,107.999996704102,8|8,1:3|0:3,0:0:0:0:
240,332,108184,2,0,P|243:283|232:257,1,53.9999983520508,8|0,1:3|0:0,0:0:0:0:
82,151,108424,2,0,P|79:200|90:226,1,53.9999983520508,0|0,1:2|0:0,0:0:0:0:
155,311,108664,6,0,L|72:327,1,53.9999983520508,0|0,1:2|0:0,0:0:0:0:
206,238,108904,1,0,1:0:0:0:
206,238,109024,2,0,L|261:301,1,53.9999983520508,8|0,1:3|0:0,0:0:0:0:
113,227,109264,2,0,L|140:147,1,53.9999983520508,8|0,1:3|0:0,0:0:0:0:
174,54,109504,1,8,1:3:0:0:
174,54,109744,5,2,0:0:0:0:
198,83,109864,1,2,0:0:0:0:
237,94,109984,1,2,0:0:0:0:
281,84,110104,1,8,0:3:0:0:
347,56,110224,1,8,0:3:0:0:
419,91,110344,1,8,0:3:0:0:
419,91,110584,6,0,P|417:43|419:21,1,53.9999983520508,4|0,1:2|0:0,0:0:0:0:
351,205,110824,1,0,1:0:0:0:
351,205,110944,2,0,P|353:157|351:135,1,53.9999983520508,0|8,1:0|0:3,0:0:0:0:
438,300,111184,2,0,P|436:252|438:230,1,53.9999983520508,0|0,1:0|0:0,0:0:0:0:
288,281,111424,2,0,L|371:296,1,53.9999983520508,0|8,1:0|0:3,0:0:0:0:
245,195,111664,2,2,B|204:213|194:255|194:255|166:247|132:278,1,107.999996704102,2|0,1:0|0:0,0:0:0:0:
136,342,112024,1,2,0:0:0:0:
96,310,112144,1,2,0:0:0:0:
79,254,112264,2,0,L|84:196,1,53.9999983520508,2|0,1:2|0:0,0:0:0:0:
114,56,112504,6,0,L|118:109,1,53.9999983520508,0|0,1:2|0:0,0:0:0:0:
188,222,112744,1,0,1:0:0:0:
188,222,112864,2,0,L|192:168,1,53.9999983520508,8|0,1:3|0:0,0:0:0:0:
198,29,113104,2,0,L|202:82,1,53.9999983520508,8|0,1:3|0:0,0:0:0:0:
269,210,113344,1,8,1:3:0:0:
279,51,113584,2,0,P|345:77|409:63,1,107.999996704102,2|0,1:2|0:0,0:0:0:0:
381,74,113944,2,0,L|387:141,1,53.9999983520508,2|0,1:2|0:0,0:0:0:0:
452,213,114184,2,0,L|456:159,1,53.9999983520508,2|0,1:2|0:0,0:0:0:0:
511,275,114424,6,0,P|423:291|376:251,1,125.999996154785,4|0,0:2|0:3,0:0:0:0:
327,220,114784,1,0,0:0:0:0:
309,306,114904,2,0,P|251:284|193:305,1,125.999996154785,2|8,0:2|0:3,0:0:0:0:
138,382,115264,1,8,0:3:0:0:
110,306,115384,2,0,P|116:265|110:239,1,62.9999980773926,2|0,0:2|0:0,0:0:0:0:
33,129,115624,2,0,P|27:170|33:196,1,62.9999980773926
176,333,115864,2,0,P|185:241|160:183,1,125.999996154785,2|8,0:2|0:3,0:0:0:0:
104,163,116224,1,0,0:0:0:0:
174,122,116344,6,0,B|229:121|250:166|250:166|279:234|378:201,1,188.999994232178,2|0,0:2|0:0,0:0:0:0:
320,131,116824,1,2,0:2:0:0:
258,67,116944,2,0,P|219:51|174:47,1,62.9999980773926,2|0,0:2|0:0,0:0:0:0:
243,264,117184,2,0,P|282:280|327:284,2,62.9999980773926,2|0|0,0:2|0:0|0:0,0:0:0:0:
342,356,117544,1,0,0:0:0:0:
342,356,117784,2,0,L|339:264,1,83.9999974365235,0|8,0:0|0:3,0:0:0:0:
342,239,118024,1,8,0:3:0:0:
388,271,118144,1,2,0:2:0:0:
444,278,118264,6,0,P|501:256|522:229,1,62.9999980773926,2|0,0:2|0:0,0:0:0:0:
413,112,118504,2,0,P|388:134|452:121,1,188.999994232178,2|0,0:2|0:0,0:0:0:0:
473,45,118984,1,8,0:3:0:0:
473,45,119104,1,8,0:3:0:0:
379,33,119224,2,0,P|313:49|238:33,1,125.999996154785,2|8,0:2|0:3,0:0:0:0:
163,29,119584,1,0,0:0:0:0:
194,117,119704,2,0,B|131:108|63:129|63:129|87:91|88:63,1,188.999994232178,2|0,0:2|0:0,0:0:0:0:
172,190,120184,6,0,P|98:198|69:214,1,62.9999980773926,2|0,0:2|0:0,0:0:0:0:
114,338,120424,2,0,P|144:269|144:236,1,62.9999980773926
11,217,120664,2,0,P|54:277|83:294,2,62.9999980773926
114,338,121024,1,2,0:2:0:0:
137,254,121144,6,0,P|198:240|216:243,1,62.9999980773926,2|0,0:0|0:0,0:0:0:0:
360,299,121384,2,0,P|299:313|281:310,1,62.9999980773926,2|0,0:0|0:0,0:0:0:0:
314,166,121624,2,0,L|312:261,1,62.9999980773926,2|0,0:2|0:3,0:0:0:0:
185,380,121864,2,0,L|183:317,1,62.9999980773926,2|0,0:2|0:0,0:0:0:0:
395,204,122104,6,0,L|393:341,3,135.000005149842,4|0|0|0,0:2|0:0|0:0|0:0,2:0:0:0:
474,178,123784,1,0,0:0:0:0:
456,153,123904,1,0,0:0:0:0:
428,135,124024,6,0,P|380:129|345:142,1,67.5000025749208,4|0,0:2|0:0,0:0:0:0:
273,204,124504,1,2,0:2:0:0:
273,204,124624,1,2,0:2:0:0:
316,62,124864,2,0,P|211:76|187:75,1,101.250003862381,2|0,0:2|0:0,0:0:0:0:
83,59,125464,1,8,0:3:0:0:
111,105,125584,1,8,0:3:0:0:
126,157,125704,2,0,P|126:211|110:245,1,62.9999980773926,8|0,0:3|0:0,0:0:0:0:
39,326,125944,6,0,P|86:308|141:310,1,62.9999980773926
251,377,126184,2,0,P|211:345|180:277,1,125.999996154785,2|0,0:1|0:0,0:0:0:0:
215,200,126544,1,0,0:0:0:0:
215,200,126664,1,0,0:0:0:0:
257,274,126784,6,0,B|272:301|286:309|286:309|338:285|408:317,1,125.999996154785,4|0,0:2|0:0,0:0:0:0:
461,351,127144,2,0,L|458:273,1,62.9999980773926
320,159,127384,2,0,L|314:261,1,62.9999980773926
464,210,127624,1,0,0:0:0:0:
461,134,127744,6,0,B|459:100|465:76|465:76|369:105|295:73,1,188.999994232178,4|8,0:2|0:3,0:0:0:0:
168,49,128344,2,0,P|230:31|257:12,1,62.9999980773926,2|0,0:2|0:0,0:0:0:0:
85,101,128584,2,0,P|142:130|174:133,1,62.9999980773926,2|0,0:2|0:0,0:0:0:0:
141,288,128824,6,0,P|137:224|124:194,1,62.9999980773926,2|0,0:0|0:0,0:0:0:0:
253,280,129064,2,0,P|266:217|260:185,1,62.9999980773926,2|0,0:0|0:0,0:0:0:0:
347,339,129304,2,0,P|375:281|379:249,1,62.9999980773926,2|0,0:0|0:0,0:0:0:0:
324,135,129544,2,0,P|334:164|351:191,1,62.9999980773926,2|0,0:2|0:0,0:0:0:0:
479,136,129784,6,0,L|405:120,1,53.9999983520508,4|0,1:2|0:0,0:0:0:0:
370,56,130024,1,0,1:0:0:0:
370,56,130144,2,0,L|296:40,1,53.9999983520508,0|0,1:0|0:0,0:0:0:0:
198,114,130384,2,0,L|272:98,1,53.9999983520508,0|0,1:0|0:0,0:0:0:0:
147,195,130624,2,0,B|103:159|104:94|104:94|80:110|53:104,1,161.999995056153,2|2,1:0|0:0,0:0:0:0:
96,252,131224,1,0,1:0:0:0:
177,85,131464,2,0,P|183:125|215:157,1,53.9999983520508,2|0,0:0|0:0,0:0:0:0:
233,259,131704,6,0,P|227:219|195:187,1,53.9999983520508,0|0,1:0|0:0,0:0:0:0:
189,336,131944,1,0,1:0:0:0:
189,336,132064,2,0,P|226:350|270:339,1,53.9999983520508,0|0,1:0|0:0,0:0:0:0:
362,307,132304,2,0,P|324:292|280:303,1,53.9999983520508,0|0,1:0|0:0,0:0:0:0:
446,293,132544,1,0,1:0:0:0:
399,142,132784,6,0,L|391:232,2,91.1250003476143,2|2|2,1:0|1:0|1:0,0:1:0:0:
399,142,133384,2,0,P|334:141|311:125,1,53.9999983520508,2|0,0:0|0:0,0:0:0:0:
233,62,133624,6,0,P|298:63|321:79,1,53.9999983520508,0|0,1:0|0:0,0:0:0:0:
167,137,133864,1,0,1:0:0:0:
167,137,133984,2,0,P|135:80|137:52,1,53.9999983520508,0|0,1:0|0:0,0:0:0:0:
264,157,134224,2,0,P|230:212|205:224,1,53.9999983520508,0|0,1:0|0:0,0:0:0:0:
94,237,134464,2,0,P|172:254|216:296,1,107.999996704102,2|0,0:1|0:0,0:0:0:0:
251,339,134824,1,2,1:2:0:0:
314,300,134944,1,2,1:2:0:0:
384,330,135064,2,0,L|378:191,1,107.999996704102,0|0,1:0|1:0,1:0:0:0:
379,222,135544,6,0,L|449:235,1,53.9999983520508,0|0,1:0|0:0,0:0:0:0:
380,126,135784,1,0,1:0:0:0:
380,126,135904,2,0,L|310:112,1,53.9999983520508,0|0,1:0|0:0,0:0:0:0:
241,210,136144,2,0,L|311:197,1,53.9999983520508,0|0,1:0|0:0,0:0:0:0:
163,174,136384,2,0,P|159:217|167:250,1,53.9999983520508,0|0,1:0|0:0,0:0:0:0:
217,362,136624,2,0,P|223:304|213:270,2,80.9999975280763,0|0|0,1:0|1:0|1:0,0:0:0:0:
74,317,137224,1,0,1:0:0:0:
270,315,137464,6,0,B|312:328|343:311|343:311|377:291|417:310,1,144,2|2,0:0|0:0,0:0:0:0:
491,359,138848,1,0,0:0:0:0:
445,229,139310,6,0,L|452:152,1,72,2|0,0:0|0:0,0:0:0:0:
367,60,140233,2,0,L|373:131,1,72,2|0,0:0|0:0,0:0:0:0:
263,219,141156,5,2,0:0:0:0:
224,123,141617,1,2,0:0:0:0:
166,199,142079,1,2,0:0:0:0:
116,71,142540,1,2,0:0:0:0:
66,213,143002,5,2,0:0:0:0:
48,288,143233,1,0,0:0:0:0:
26,365,143464,2,0,P|82:358|112:334,1,67.5000025749208,2|0,0:0|0:0,0:0:0:0:
131,272,143925,2,0,P|162:259|195:260,1,67.5000025749208,2|0,0:0|0:0,0:0:0:0:
276,330,144387,1,2,0:0:0:0:
279,183,144617,1,2,0:0:0:0:
279,132,144733,1,2,0:0:0:0:
280,82,144834,6,0,P|355:104|403:95,1,99.0000030212403,0|0,1:0|0:0,0:0:0:0:
442,70,145180,1,0,1:0:0:0:
447,119,145295,1,0,1:0:0:0:
394,317,145526,2,0,B|410:275|395:244|395:244|375:204|400:143,1,148.50000453186,0|0,1:0|0:0,0:0:0:0:
328,278,145987,2,0,P|289:300|257:305,1,49.5000015106202,0|0,1:0|0:0,0:0:0:0:
174,346,146218,6,0,B|187:259,1,49.5000015106202,2|0,1:1|0:0,0:0:0:0:
232,188,146449,2,0,B|239:236,1,49.5000015106202,2|0,1:1|0:0,0:0:0:0:
102,341,146680,1,0,1:0:0:0:
110,291,146795,1,0,1:0:0:0:
119,241,146910,2,0,L|127:197,3,33.0000010070801,2|0|0|0,1:1|0:0|0:0|0:0,0:0:0:0:
206,344,147372,1,0,0:0:0:0:
75,207,147603,6,0,P|117:210|145:204,1,49.5000015106202,2|0,0:0|0:0,0:0:0:0:
146,39,147834,2,0,P|122:73|113:101,1,49.5000015106202,2|0,0:0|0:0,0:0:0:0:
249,179,148064,2,0,P|230:141|211:119,1,49.5000015106202,2|0,0:0|0:0,0:0:0:0:
204,280,148295,1,2,1:2:0:0:
382,174,148526,1,0,1:0:0:0:
251,292,148757,2,0,P|217:280|182:283,1,49.5000015106202,2|0,0:0|0:0,0:0:0:0:
364,351,148987,6,0,L|358:266,1,49.5000015106202,2|0,1:1|0:0,0:0:0:0:
459,222,149218,2,0,L|455:271,1,49.5000015106202,2|0,1:1|0:0,0:0:0:0:
274,324,149449,1,2,1:2:0:0:
385,181,149680,2,0,L|381:217,3,33.0000010070801,2|0|0|0,1:1|0:0|0:0|0:0,0:0:0:0:
480,30,150141,1,2,1:2:0:0:
440,59,150257,1,2,1:2:0:0:
394,76,150372,6,0,P|295:74|263:54,1,99.0000030212403,4|0,1:2|0:0,0:0:0:0:
219,41,150718,1,0,1:0:0:0:
219,41,150834,2,0,P|220:86|215:107,1,49.5000015106202,0|0,1:0|0:0,0:0:0:0:
105,175,151064,2,0,P|104:130|109:109,1,49.5000015106202,2|0,0:0|0:0,0:0:0:0:
174,279,151295,2,0,P|133:300|112:306,1,49.5000015106202,2|0,0:0|0:0,0:0:0:0:
232,173,151526,2,0,P|271:194|287:209,1,49.5000015106202,2|0,0:0|0:0,0:0:0:0:
292,350,151757,6,0,L|283:261,1,49.5000015106202,2|0,1:1|0:0,0:0:0:0:
370,217,151987,2,0,L|365:266,1,49.5000015106202,2|0,1:1|0:0,0:0:0:0:
454,344,152218,2,0,L|448:291,1,49.5000015106202,0|0,1:2|0:0,0:0:0:0:
424,126,152449,1,2,1:1:0:0:
504,240,152680,1,0,0:0:0:0:
460,219,152795,1,0,0:0:0:0:
411,225,152910,2,0,P|375:245|327:242,1,49.5000015106202,2|0,1:2|0:0,0:0:0:0:
213,314,153141,6,0,P|249:294|297:297,1,49.5000015106202,2|0,1:1|2:0,0:0:0:0:
114,237,153372,2,0,P|154:244|189:277,1,49.5000015106202,2|0,1:1|2:0,0:0:0:0:
81,103,153603,2,0,P|106:134|112:182,1,49.5000015106202,2|0,1:1|2:0,0:0:0:0:
121,311,153834,1,0,1:0:0:0:
201,142,154064,1,0,0:0:0:0:
201,142,154295,1,0,0:0:0:0:
285,323,154526,6,0,P|185:300|147:301,1,99.0000030212403,0|0,1:0|0:0,0:0:0:0:
58,318,154987,1,0,0:0:0:0:
245,217,155218,1,0,1:0:0:0:
69,93,155449,1,0,1:0:0:0:
74,130,155564,1,0,1:0:0:0:
79,168,155680,1,2,1:2:0:0:
146,132,155795,1,2,1:2:0:0:
224,125,155910,6,0,P|275:132|339:183,1,99.0000030212403,4|0,0:0|0:0,0:0:0:0:
375,208,156257,1,0,1:0:0:0:
388,160,156372,1,0,1:0:0:0:
476,332,156603,2,0,B|439:311|401:324|401:324|355:338|316:305,1,148.50000453186,0|0,1:0|0:0,0:0:0:0:
252,250,157064,2,0,P|252:317|241:339,1,49.5000015106202,0|0,1:0|0:0,0:0:0:0:
113,257,157295,6,0,L|184:269,1,49.5000015106202,2|0,1:1|0:0,0:0:0:0:
243,168,157526,2,0,L|194:176,1,49.5000015106202,2|0,1:1|0:0,0:0:0:0:
142,339,157757,2,0,L|190:347,1,49.5000015106202,0|0,1:1|0:0,0:0:0:0:
347,226,157987,2,0,P|245:252|218:266,1,99.0000030212403,2|0,1:1|0:0,0:0:0:0:
357,97,158449,1,2,1:2:0:0:
353,145,158564,1,2,0:0:0:0:
440,130,158680,6,0,P|395:123|355:107,1,49.5000015106202,2|0,0:0|0:0,0:0:0:0:
316,264,158910,2,0,P|344:228|377:202,1,49.5000015106202,2|0,0:0|0:0,0:0:0:0:
262,98,159141,2,0,P|278:140|284:182,1,49.5000015106202,2|0,0:0|0:0,0:0:0:0:
232,307,159372,1,0,1:0:0:0:
105,164,159603,2,0,L|198:151,1,66.0000020141602,2|0,0:1|0:0,0:0:0:0:
203,150,159834,2,0,P|187:192|181:234,1,49.5000015106202,2|0,0:0|0:0,0:0:0:0:
232,307,160064,6,0,L|152:290,1,49.5000015106202,2|0,1:1|0:0,0:0:0:0:
38,262,160295,2,0,L|118:245,1,49.5000015106202,2|0,1:1|0:0,0:0:0:0:
234,211,160526,1,0,1:0:0:0:
49,166,160757,2,0,L|109:154,3,33.0000010070801,2|0|0|0,1:1|0:0|0:0|0:0,0:0:0:0:
199,90,161218,1,2,1:2:0:0:
213,174,161334,1,2,1:2:0:0:
284,114,161449,6,0,P|338:96|395:104,1,99.0000030212403,4|0,0:2|0:0,0:0:0:0:
446,143,161795,1,0,1:0:0:0:
446,143,161910,2,0,P|457:121|461:96,1,49.5000015106202,0|0,1:0|0:0,0:0:0:0:
337,224,162141,2,0,P|361:280|382:295,1,49.5000015106202,2|0,0:0|0:0,0:0:0:0:
507,231,162372,2,0,P|483:222|459:221,1,49.5000015106202,2|0,0:0|0:0,0:0:0:0:
415,378,162603,2,0,P|433:362|447:341,1,49.5000015106202,2|0,0:0|0:0,0:0:0:0:
274,311,162834,6,0,L|266:407,1,49.5000015106202,2|0,1:1|0:0,0:0:0:0:
204,226,163064,2,0,L|199:176,1,49.5000015106202,2|0,1:1|0:0,0:0:0:0:
116,289,163295,2,0,L|108:385,1,49.5000015106202,0|0,1:0|0:0,0:0:0:0:
128,143,163526,1,2,1:1:0:0:
196,308,163757,1,0,0:0:0:0:
69,199,163987,2,0,L|-15:207,1,49.5000015106202,4|0,0:0|0:0,0:0:0:0:
192,100,164218,5,0,1:0:0:0:
308,221,164449,1,0,0:0:0:0:
308,221,164680,1,0,0:0:0:0:
287,46,164910,5,0,1:0:0:0:
222,217,165141,1,0,0:0:0:0:
378,83,165372,2,0,L|418:46,1,49.5000015106202,4|0,0:0|0:0,0:0:0:0:
404,237,165603,5,0,1:0:0:0:
287,46,165834,1,0,0:0:0:0:
287,46,166064,1,0,0:0:0:0:
283,295,166295,5,0,1:0:0:0:
492,109,166526,1,0,1:0:0:0:
173,100,166757,1,0,1:0:0:0:
357,332,166987,6,0,L|361:233,1,99.0000030212403,4|0,0:0|1:0,0:0:0:0:
432,168,167334,1,0,1:0:0:0:
429,207,167449,1,0,1:0:0:0:
422,384,167680,1,8,1:2:0:0:
361,233,167910,1,0,3:0:0:0:
322,223,168026,1,0,3:0:0:0:
282,223,168141,1,2,3:2:0:0:
243,232,168257,1,2,3:2:0:0:
208,250,168372,6,0,L|204:200,1,49.5000015106202,2|0,0:0|0:0,0:0:0:0:
235,41,168603,2,0,L|193:68,1,49.5000015106202,2|0,0:0|0:0,0:0:0:0:
40,125,168834,2,0,L|84:146,1,49.5000015106202,2|0,0:0|0:0,0:0:0:0:
205,201,169064,6,0,L|201:151,1,49.5000015106202,0|0,1:0|0:0,0:0:0:0:
194,69,169295,2,0,L|152:96,1,49.5000015106202,0|0,1:0|0:0,0:0:0:0:
85,147,169526,2,0,L|129:168,1,49.5000015106202,0|0,1:0|0:0,0:0:0:0:
275,250,169757,6,0,L|282:124,1,99.0000030212403,0|0,1:0|1:0,0:0:0:0:
359,123,170103,2,0,L|353:221,1,99.0000030212403,0|0,1:0|1:0,0:0:0:0:
432,185,170449,2,0,L|437:95,1,49.5000015106202,8|0,1:2|0:0,0:0:0:0:
506,273,170680,1,0,3:0:0:0:
470,290,170795,1,0,3:0:0:0:
429,293,170910,1,0,3:2:0:0:
390,282,171026,1,0,3:2:0:0:
358,258,171141,6,0,L|341:301,2,33.0000010070801,2|0|0,0:0|0:0|0:0,0:0:0:0:
267,276,171372,2,0,L|226:298,2,33.0000010070801,2|0|0,0:0|0:0|0:0,0:0:0:0:
177,241,171603,2,0,L|131:231,2,33.0000010070801,2|0|0,0:0|0:0|0:0,0:0:0:0:
143,154,171834,2,0,L|114:117,2,33.0000010070801,10|0|0,0:0|0:0|0:0,0:0:0:0:
69,199,172064,5,0,3:0:0:0:
59,252,172180,1,0,3:0:0:0:
87,300,172295,1,0,3:0:0:0:
137,322,172410,1,0,3:0:0:0:
190,310,172526,6,0,P|265:288|322:309,1,99.0000030212403,4|0,0:0|1:0,0:0:0:0:
371,324,172872,1,0,1:0:0:0:
369,284,172987,1,0,1:0:0:0:
364,99,173218,1,8,1:2:0:0:
440,253,173449,1,0,3:0:0:0:
408,276,173564,1,0,3:0:0:0:
369,284,173680,1,2,3:2:0:0:
330,277,173795,1,2,3:2:0:0:
298,253,173910,6,0,L|283:329,1,49.5000015106202,2|0,0:0|0:0,0:0:0:0:
318,115,174141,2,0,L|391:89,1,49.5000015106202,2|0,0:0|0:0,0:0:0:0:
184,165,174372,2,0,L|125:114,1,49.5000015106202,2|0,0:0|0:0,0:0:0:0:
307,204,174603,6,0,L|292:280,1,49.5000015106202,0|0,1:0|0:0,0:0:0:0:
271,130,174834,2,0,L|344:104,1,49.5000015106202,0|0,1:0|0:0,0:0:0:0:
221,197,175065,2,0,L|162:146,1,49.5000015106202,0|0,1:0|0:0,0:0:0:0:
394,178,175295,6,0,L|371:296,1,99.0000030212403,0|0,1:0|1:0,0:0:0:0:
350,354,175641,1,0,1:0:0:0:
320,327,175757,1,0,1:0:0:0:
157,198,175987,1,8,1:2:0:0:
247,344,176218,1,0,1:0:0:0:
252,304,176334,1,0,1:0:0:0:
257,264,176449,1,0,1:0:0:0:
261,224,176564,1,0,1:0:0:0:
265,184,176680,6,0,P|258:144|241:124,1,49.5000015106202,2|0,0:1|0:0,0:0:0:0:
74,170,176910,2,0,P|112:183|137:179,1,49.5000015106202,2|0,0:1|0:0,0:0:0:0:
178,25,177141,2,0,P|146:51|138:75,1,49.5000015106202,2|0,0:1|0:0,0:0:0:0:
251,230,177372,6,0,P|264:191|260:166,1,49.5000015106202,8|0,1:2|0:0,0:0:0:0:
154,279,177603,1,0,1:0:0:0:
177,310,177718,1,0,1:0:0:0:
211,329,177834,2,0,P|240:336|277:332,1,49.5000015106202,0|0,1:0|1:0,0:0:0:0:
443,324,178078,6,0,B|406:309|357:323|357:323|378:285|369:240|369:240|360:200|374:168|374:168|386:200|398:206,1,288,4|2,0:2|0:0,2:0:0:0:
394,203,180604,6,0,B|338:178|279:206|279:206|210:243|163:193|163:193|181:200|207:197,1,288,0|2,0:0|0:0,2:0:0:0:
204,197,182972,1,0,0:0:0:0:
205,169,183051,1,0,0:0:0:0:
207,140,183130,6,0,L|209:79,1,45
125,57,183446,2,0,L|128:101,1,45
287,132,183762,2,0,L|289:71,1,45,8|0,0:3|0:0,0:0:0:0:
205,50,184078,2,0,L|208:94,1,45
367,150,184393,6,0,L|417:162,3,45
232,209,185025,1,8,0:3:0:0:
300,177,185183,1,0,0:0:0:0:
190,147,185341,1,0,0:0:0:0:
302,258,185499,1,0,1:0:0:0:
302,258,185578,1,0,1:0:0:0:
302,258,185656,6,0,L|296:323,1,45
216,372,185972,2,0,L|211:327,1,45
232,209,186288,2,0,L|226:274,1,45,8|0,0:3|0:0,0:0:0:0:
146,323,186604,2,0,L|141:278,1,45
161,155,186920,6,0,L|155:220,2,45
169,69,187393,1,8,0:3:0:0:
85,107,187551,2,0,P|52:120|33:122,1,45,8|0,0:3|0:0,0:0:0:0:
47,26,187867,2,0,P|80:13|99:11,1,45,0|0,0:0|1:0,0:0:0:0:
112,11,188104,1,0,1:0:0:0:
134,15,188183,5,2,2:0:0:0:
208,92,188499,1,0,0:0:0:0:
305,45,188814,1,2,0:0:0:0:
376,126,189130,1,0,0:0:0:0:
338,227,189446,5,2,0:0:0:0:
400,128,189762,1,0,0:0:0:0:
499,190,190078,1,2,0:0:0:0:
437,289,190394,1,0,0:0:0:0:
400,128,190709,5,2,0:0:0:0:
434,275,190867,1,0,0:0:0:0:
302,176,191025,1,2,0:0:0:0:
434,192,191183,1,0,0:0:0:0:
286,260,191341,5,2,0:0:0:0:
319,99,191499,1,2,0:0:0:0:
319,99,191578,1,0,0:0:0:0:
319,99,191656,1,0,0:0:0:0:
365,226,191814,1,0,0:0:0:0:
188,161,191972,6,0,P|137:168|114:181,1,72,2|0,0:1|0:0,0:0:0:0:
151,326,192288,2,0,P|170:278|170:251,1,72,2|0,0:1|0:0,0:0:0:0:
28,194,192604,1,0,1:0:0:0:
32,218,192683,1,0,1:0:0:0:
44,239,192762,1,0,1:0:0:0:
62,256,192841,1,0,1:0:0:0:
82,269,192920,2,0,L|139:269,1,36,0|0,1:0|1:0,1:0:0:0:
180,339,193078,2,0,L|216:339,1,36,0|0,1:0|1:0,1:0:0:0:
364,257,193235,6,2,P|298:244|242:260,1,85.4999977169037,2|2,0:0|0:0,0:0:0:0:
213,268,193472,1,0,1:0:0:0:
213,268,193551,1,0,1:0:0:0:
220,87,193709,2,0,L|229:193,1,85.4999977169037,2|0,0:0|0:0,0:0:0:0:
129,89,194025,1,2,0:0:0:0:
309,133,194183,2,0,L|318:239,1,85.4999977169037,2|0,1:0|0:0,0:0:0:0:
393,357,194499,6,0,L|400:271,1,85.4999977169037,2|0,0:0|0:0,0:0:0:0:
417,196,194735,1,0,1:0:0:0:
417,196,194814,1,0,1:0:0:0:
283,290,194972,2,0,P|216:295|173:274,1,85.4999977169037,2|0,0:0|0:0,0:0:0:0:
316,218,195288,1,2,0:0:0:0:
213,370,195446,2,0,P|150:346|120:309,1,85.4999977169037,2|0,1:0|0:0,0:0:0:0:
127,158,195762,6,0,P|137:224|120:268,1,85.4999977169037,2|0,0:0|0:0,0:0:0:0:
68,292,195999,1,0,1:0:0:0:
68,292,196078,1,0,1:0:0:0:
213,218,196235,2,0,L|323:180,1,85.4999977169037,2|0,0:0|0:0,0:0:0:0:
180,302,196551,1,2,0:0:0:0:
226,126,196709,2,0,L|336:88,1,85.4999977169037,2|0,1:0|0:0,0:0:0:0:
464,41,197025,6,0,L|441:155,1,85.4999977169037,2|0,0:0|0:0,0:0:0:0:
421,202,197262,1,0,1:0:0:0:
421,202,197341,1,0,1:0:0:0:
306,98,197499,2,0,P|245:82|192:92,2,85.4999977169037,2|0|0,0:0|0:0|0:0,0:0:0:0:
200,208,197972,2,0,P|159:221|117:222,1,85.4999977169037,2|0,1:0|0:0,0:0:0:0:
68,161,198209,1,0,0:0:0:0:
68,161,198288,6,0,P|80:228|59:337,1,170.999995433807,4|0,0:0|0:0,0:0:0:0:
222,375,198762,2,2,P|210:308|231:199,1,170.999995433807,2|2,1:2|0:2,0:2:0:0:
339,165,199235,1,2,1:0:0:0:
216,107,199393,1,0,1:0:0:0:
317,243,199551,6,0,B|364:259|396:223|396:223|436:176|506:215,1,170.999995433807,2|0,1:2|0:0,0:0:0:0:
339,165,200025,2,0,B|292:181|260:145|260:145|220:98|150:137,1,170.999995433807,2|0,1:2|0:0,0:0:0:0:
45,218,200499,1,2,1:0:0:0:
106,69,200656,1,0,0:0:0:0:
106,69,200735,1,0,1:0:0:0:
106,69,200814,6,0,P|103:147|93:191,2,85.4999977169037,2|0|0,1:2|0:0|0:0,0:0:0:0:
204,194,201288,2,0,P|207:272|217:316,2,85.4999977169037,2|0|0,1:2|0:0|0:0,0:0:0:0:
89,257,201762,2,0,P|86:335|76:379,1,85.4999977169037,2|0,1:0|1:0,0:0:0:0:
208,279,202078,5,2,1:2:0:0:
338,257,202235,1,0,0:0:0:0:
292,380,202393,1,0,0:0:0:0:
266,219,202551,5,2,1:2:0:0:
372,343,202709,1,0,0:0:0:0:
372,343,202788,1,0,0:0:0:0:
372,343,202867,1,0,0:0:0:0:
415,193,203025,2,0,P|422:140|448:66,1,128.249996575356,2|0,1:0|0:0,0:0:0:0:
450,34,203341,6,0,P|399:55|348:55,1,99.0000030212403,6|0,0:2|0:0,0:0:0:0:
315,234,203656,2,0,P|321:180|347:135,1,99.0000030212403,10|0,0:2|0:0,0:0:0:0:
214,16,203972,2,0,P|257:48|283:93,1,99.0000030212403,2|0,0:2|0:0,0:0:0:0:
221,218,204288,1,8,0:2:0:0:
93,105,204446,6,0,L|215:96,1,99.0000030212403,2|0,0:0|0:0,0:0:0:0:
371,153,204762,2,0,B|320:183|271:151|271:151|218:120|156:156,1,198.000006042481,2|0,0:0|0:0,0:0:0:0:
26,196,205235,1,2,0:2:0:0:
221,219,205393,1,2,0:2:0:0:
66,296,205551,1,10,0:2:0:0:
99,119,205709,1,2,0:2:0:0:
168,288,205867,6,0,P|227:308|277:288,1,99.0000030212403,0|0,0:2|0:0,0:0:0:0:
395,238,206183,2,0,P|336:218|286:238,1,99.0000030212403,8|0,0:2|0:0,0:0:0:0:
417,335,206499,1,0,0:0:0:0:
493,263,206656,2,0,L|484:162,1,99.0000030212403,0|8,0:0|0:2,0:0:0:0:
395,238,206972,1,0,0:0:0:0:
485,165,207130,6,0,L|476:64,1,99.0000030212403
276,103,207446,2,0,P|348:96|400:103,1,99.0000030212403,8|0,0:2|0:0,0:0:0:0:
214,56,207762,2,0,B|188:108|218:150|218:150|252:199|209:264,1,198.000006042481,2|8,0:2|0:2,0:0:0:0:
53,206,208235,1,2,0:0:0:0:
53,206,208314,1,2,0:0:0:0:
53,206,208393,6,0,L|160:195,1,99.0000030212403,6|0,0:2|0:0,0:0:0:0:
195,379,208709,2,0,L|131:291,1,99.0000030212403,10|0,0:2|0:0,0:0:0:0:
274,178,209025,2,0,L|230:276,1,99.0000030212403,2|0,0:2|0:0,0:0:0:0:
388,356,209341,1,8,0:2:0:0:
365,227,209499,6,0,P|358:168|367:108,1,99.0000030212403,2|0,0:0|0:0,0:0:0:0:
499,95,209814,2,0,P|413:110|289:65,1,198.000006042481,2|0,0:0|0:0,0:0:0:0:
169,22,210288,1,2,0:2:0:0:
247,168,210446,1,2,0:2:0:0:
73,93,210604,1,10,0:2:0:0:
263,19,210762,1,2,0:2:0:0:
130,181,210920,6,0,L|134:283,1,99.0000030212403
218,366,211235,1,2,0:2:0:0:
77,340,211393,1,2,0:2:0:0:
235,287,211551,1,2,0:2:0:0:
235,287,211709,2,0,P|296:312|350:308,1,99.0000030212403,2|0,0:0|0:0,0:0:0:0:
493,281,212025,2,0,P|432:256|378:260,1,99.0000030212403,2|0,0:0|0:0,0:0:0:0:
423,364,212341,1,2,0:2:0:0:
442,223,212499,2,0,L|435:103,1,99.0000030212403,2|0,0:1|0:0,0:0:0:0:
423,0,212814,1,0,0:0:0:0:
512,138,212972,1,0,0:0:0:0:
346,81,213130,2,0,P|282:93|237:92,1,99.0000030212403,8|0,0:2|0:0,0:0:0:0:
90,108,213446,5,2,0:0:0:0:
202,157,213604,1,2,0:0:0:0:
115,24,213762,2,0,L|117:140,1,90,8|0,0:0|0:0,0:0:0:0:
89,208,213999,1,2,0:0:0:0:
89,208,214078,2,0,P|160:200|202:210,1,90
174,345,214393,1,10,0:0:0:0:
152,321,214472,1,0,0:0:0:0:
141,291,214551,1,0,0:0:0:0:
305,257,214709,5,0,0:0:0:0:
222,282,214867,1,0,0:0:0:0:
362,326,215025,1,2,0:0:0:0:
362,326,215104,1,0,0:0:0:0:
306,167,215262,1,2,0:0:0:0:
306,167,215341,2,0,L|304:259,1,90
396,120,215656,5,2,0:0:0:0:
293,67,215813,1,2,0:0:0:0:
416,130,215971,2,0,L|471:157,2,45,2|0|0,0:1|0:0|0:0,0:0:0:0:
343,194,216287,5,2,0:0:0:0:
293,67,216444,1,2,0:0:0:0:
351,214,216603,1,2,0:1:0:0:
362,243,216682,1,0,0:0:0:0:
375,271,216761,1,0,0:0:0:0:
245,204,216919,5,2,0:0:0:0:
293,67,217076,1,2,0:0:0:0:
239,224,217234,1,2,0:1:0:0:
227,258,217313,1,0,0:0:0:0:
215,292,217392,1,0,0:0:0:0:
130,147,217550,5,0,1:0:0:0:
293,67,217708,1,0,1:0:0:0:
134,227,217866,5,0,0:0:0:0:
134,227,218023,2,0,P|128:168|131:132,1,80.9999975280763
203,272,218339,2,0,P|154:306|63:271,1,161.999995056153,2|0,0:0|0:0,0:0:0:0:
208,182,218813,1,2,0:0:0:0:
287,279,218971,1,0,0:0:0:0:
237,126,219129,6,0,L|233:222,1,80.9999975280763
177,72,219444,2,0,P|234:46|308:88,1,121.499996292114,2|0,0:2|0:0,0:0:0:0:
308,91,219760,2,0,P|361:116|428:92,1,135,2|0,0:2|0:0,0:0:0:0:
479,30,220076,2,0,B|475:86|475:86|490:117|490:117|482:196,1,148.50000453186,2|0,0:0|0:0,0:0:0:0:
457,341,220392,5,0,0:0:0:0:
512,258,220550,1,0,0:0:0:0:
512,258,220629,1,0,0:0:0:0:
512,258,220708,1,0,0:0:0:0:
385,301,220866,2,0,B|368:327|376:354|376:354|294:331|244:361,1,161.999995056153,2|0,0:0|0:0,0:0:0:0:
135,272,221339,1,2,0:0:0:0:
197,376,221497,2,0,L|204:271,1,80.9999975280763
212,190,221813,5,2,0:2:0:0:
94,260,221971,1,10,0:2:0:0:
140,146,222129,1,2,0:2:0:0:
202,295,222287,1,2,0:2:0:0:
67,181,222444,1,2,0:2:0:0:
207,113,222602,1,2,0:2:0:0:
105,241,222760,1,2,0:2:0:0:
136,61,222918,6,0,P|182:85|280:76,1,144,4|8,0:2|0:2,0:0:0:0:
386,31,223392,1,0,0:0:0:0:
382,49,223471,1,0,0:0:0:0:
377,70,223550,2,0,L|384:144,1,72
466,229,223866,2,0,L|472:157,1,72,8|0,0:2|0:0,0:0:0:0:
384,279,224181,6,0,P|320:282|299:299,1,72
255,335,224418,1,0,0:0:0:0:
255,335,224497,2,0,L|164:324,1,72,2|0,0:0|0:0,0:0:0:0:
192,187,224813,2,0,L|227:271,1,72,2|0,0:0|0:0,0:0:0:0:
83,315,225129,2,0,L|138:241,1,72,2|0,0:0|0:0,0:0:0:0:
144,234,225366,1,0,0:0:0:0:
160,210,225444,6,0,P|167:163|148:121,1,72
99,77,225760,2,0,P|155:89|225:63,1,108,8|0,0:2|0:0,0:0:0:0:
228,35,226076,2,0,L|231:106,1,72,2|0,0:2|0:0,0:0:0:0:
356,79,226392,2,0,L|359:8,1,72,2|0,0:0|0:0,0:0:0:0:
406,174,226708,6,0,P|363:191|307:180,1,72,2|0,0:2|0:0,0:0:0:0:
248,152,227023,1,0,0:0:0:0:
261,253,227181,2,0,L|269:334,2,72,2|0|0,0:2|0:0|0:2,0:0:0:0:
176,285,227655,1,2,0:2:0:0:
189,369,227813,1,0,0:0:0:0:
97,283,227971,6,0,B|96:240|136:212|136:212|155:163|133:123,1,161.999995056153,4|0,0:0|0:0,0:0:0:0:
373,137,229234,2,0,B|360:171|374:209|374:209|410:237|412:282,1,141.749995674133,4|0,0:0|0:0,0:0:0:0:
409,265,229866,2,0,P|450:247|479:248,2,53.9999983520508,2|0|0,0:0|0:0|0:0,0:0:0:0:
426,344,230497,6,0,P|362:332|330:240,1,161.999995056153,4|0,0:0|0:0,0:0:0:0:
86,344,231760,2,0,P|150:332|182:240,1,161.999995056153,4|0,0:0|0:0,0:0:0:0:
71,64,232866,1,0,0:0:0:0:
71,64,233023,6,0,L|64:146,1,72,2|0,0:2|0:0,0:0:0:0:
148,200,233339,2,0,L|141:128,1,72,0|0,0:2|0:0,0:0:0:0:
233,64,233655,2,0,L|226:146,2,72,2|0|0,0:2|0:0|0:0,0:0:0:0:
311,137,234129,1,2,0:2:0:0:
311,137,234208,1,2,0:2:0:0:
311,137,234287,6,0,P|301:178|279:205,1,72,4|0,0:2|0:0,0:0:0:0:
414,256,234602,2,0,P|383:226|371:194,2,72
455,184,235076,1,2,0:2:0:0:
321,273,235234,1,2,0:2:0:0:
293,281,235313,1,0,0:0:0:0:
264,281,235392,1,0,0:0:0:0:
237,269,235471,1,0,0:0:0:0:
219,246,235550,6,0,L|214:364,1,113.999996955872,4|0,0:2|0:0,0:0:0:0:
134,271,235866,2,0,L|130:144,1,113.999996955872
126,65,236181,1,0,0:0:0:0:
48,200,236392,1,0,0:0:0:0:
48,200,236497,2,0,P|20:226|-26:239,2,56.9999984779358,2|2|2,0:2|0:2|0:2,0:2:0:0:
59,117,236813,6,0,P|118:145|187:129,1,113.999996955872,2|0,0:2|0:0,0:0:0:0:
252,93,237129,2,0,B|283:76|283:76|330:102|397:91,1,113.999996955872,2|0,0:1|0:0,0:0:0:0:
453,82,237444,1,0,0:0:0:0:
426,242,237655,1,0,0:0:0:0:
426,242,237760,2,0,L|417:146,2,56.9999984779358,2|0|0,0:2|0:0|1:0,0:0:0:0:
430,322,238076,6,0,P|380:309|355:275,1,56.9999984779358,2|0,0:2|0:0,0:0:0:0:
334,239,238286,1,2,0:2:0:0:
297,315,238392,2,0,P|220:353|162:348,1,113.999996955872,2|0,0:2|0:0,0:0:0:0:
151,255,238708,2,0,P|228:217|286:222,1,113.999996955872
334,239,239023,1,2,0:2:0:0:
334,239,239129,2,0,L|330:167,1,56.9999984779358,2|2,0:2|0:2,0:2:0:0:
266,80,239339,6,0,L|262:136,1,56.9999984779358,2|0,0:2|0:0,0:0:0:0:
254,216,239550,1,2,0:2:0:0:
183,126,239655,2,0,L|169:308,1,170.999995433807,4|0,0:2|0:0,0:0:0:0:
169,296,240287,1,2,1:2:0:0:
125,283,240392,1,2,1:2:0:0:
79,293,240497,1,2,1:2:0:0:
30,353,240602,6,0,P|36:290|25:192,1,113.999996955872,2|0,0:2|0:0,0:0:0:0:
13,149,240918,1,2,0:1:0:0:
160,258,241129,1,0,0:0:0:0:
160,258,241234,2,0,P|215:284|287:269,1,113.999996955872
349,249,241550,2,2,B|340:327|340:327|369:393,1,113.999996955872,2|2,0:1|0:0,0:0:0:0:
436,300,241866,6,0,L|455:154,1,113.999996955872,2|0,0:2|0:0,0:0:0:0:
365,116,242181,1,2,0:0:0:0:
365,116,242287,2,0,L|375:187,2,56.9999984779358,2|0|0,0:2|0:0|0:0,0:0:0:0:
171,67,242708,1,0,0:0:0:0:
171,67,242813,2,0,B|208:60|208:60|265:88|320:69,1,113.999996955872,2|0,0:1|0:0,0:0:0:0:
290,162,243129,6,0,P|231:156|204:147,1,56.9999984779358,2|0,0:2|0:0,0:0:0:0:
137,133,243339,1,2,0:2:0:0:
175,220,243444,2,0,P|87:208|34:188,1,113.999996955872,2|0,0:2|0:0,0:0:0:0:
6,126,243760,2,0,L|13:285,1,113.999996955872
88,340,244076,1,2,0:2:0:0:
98,295,244181,1,2,0:2:0:0:
107,250,244287,1,2,0:2:0:0:
172,282,244392,6,0,P|213:291|250:285,1,56.9999984779358,2|0,0:2|0:0,0:0:0:0:
305,263,244602,1,2,0:2:0:0:
212,217,244708,2,0,P|272:198|327:133,1,144,4|0,0:2|0:0,0:0:0:0:
324,138,245339,1,2,1:0:0:0:
346,177,245444,1,0,1:0:0:0:
385,195,245550,1,0,1:0:0:0:
396,119,245655,6,0,L|387:6,1,107.999996704102,4|0,0:2|0:0,0:0:0:0:
465,46,245971,1,0,0:0:0:0:
433,208,246181,1,0,0:0:0:0:
433,208,246287,2,0,B|404:219|394:215|394:215|363:251|324:256,1,107.999996704102,2|0,0:1|0:0,0:0:0:0:
261,223,246602,1,2,0:2:0:0:
263,260,246708,1,2,0:2:0:0:
266,297,246813,1,2,0:2:0:0:
184,270,246918,6,0,P|104:269|41:294,1,107.999996704102
15,197,247234,2,0,P|95:198|158:173,1,107.999996704102,0|0,0:0|1:0,0:0:0:0:
221,140,247550,2,0,P|179:135|146:120,1,53.9999983520508,2|0,1:2|0:0,0:0:0:0:
66,109,247760,1,2,0:2:0:0:
66,109,247866,1,0,0:0:0:0:
66,109,248181,6,0,P|151:106|215:130,1,107.999996704102,2|0,0:2|0:0,0:0:0:0:
260,146,248497,2,0,P|247:100|248:63,1,53.9999983520508,2|0,0:2|0:0,0:0:0:0:
333,186,248708,1,2,0:2:0:0:
333,186,248813,2,0,P|299:220|267:237,1,53.9999983520508,2|0,0:2|0:0,0:0:0:0:
180,188,249023,1,2,0:2:0:0:
180,188,249129,2,0,B|192:226|192:226|175:330,1,107.999996704102,2|0,0:1|0:0,0:0:0:0:
268,383,249444,6,0,L|265:292,1,53.9999983520508,2|0,0:2|0:0,0:0:0:0:
336,239,249655,1,2,0:2:0:0:
336,239,249760,2,0,L|334:292,1,53.9999983520508,2|0,0:2|0:0,0:0:0:0:
412,368,249971,1,2,0:2:0:0:
412,368,250076,2,0,L|410:314,1,53.9999983520508,2|0,0:2|0:0,0:0:0:0:
442,230,250287,1,2,0:2:0:0:
442,230,250392,2,0,P|377:242|301:228,1,107.999996704102,2|0,0:2|0:0,0:0:0:0:
259,190,250708,6,0,L|264:297,1,107.999996704102,2|0,0:1|0:0,0:0:0:0:
183,212,251023,2,0,L|187:158,2,53.9999983520508,0|0|0,1:0|1:0|1:0,0:0:0:0:
177,315,251339,2,0,P|114:291|44:310,1,107.999996704102,2|2,0:1|0:2,0:0:0:0:
0,344,251655,1,2,0:2:0:0:
3,306,251760,1,2,0:2:0:0:
6,268,251866,1,2,0:2:0:0:
65,216,251971,6,0,L|57:92,1,107.999996704102,2|0,0:2|0:0,0:0:0:0:
142,34,252287,2,0,L|135:141,1,107.999996704102
149,225,252602,1,2,0:0:0:0:
216,74,252813,1,0,0:0:0:0:
216,74,252918,2,0,P|273:54|337:67,1,107.999996704102
392,139,253234,6,0,P|335:159|271:146,1,107.999996704102,2|0,0:2|0:0,0:0:0:0:
208,154,253550,2,0,L|218:224,1,53.9999983520508,2|0,0:2|1:0,0:0:0:0:
282,280,253760,2,0,L|292:189,2,53.9999983520508,2|0|0,1:2|0:0|0:0,0:0:0:0:
180,282,254076,1,2,0:2:0:0:
180,282,254181,2,0,L|190:352,1,53.9999983520508,2|0,0:2|0:0,0:0:0:0:
282,280,254392,1,2,0:2:0:0:
282,280,254497,6,0,P|352:277|407:300,1,107.999996704102,2|2,0:2|0:2,0:0:0:0:
454,338,254813,1,0,0:0:0:0:
464,152,255023,1,2,0:2:0:0:
464,152,255129,2,0,P|474:94|496:66,2,53.9999983520508,2|0|0,0:2|0:0|0:0,0:0:0:0:
396,204,255444,1,2,0:2:0:0:
381,168,255550,1,2,0:2:0:0:
375,130,255655,1,2,0:2:0:0:
411,58,255760,6,0,P|345:78|276:58,1,107.999996704102,4|0,0:2|0:0,0:0:0:0:
238,40,256076,1,0,0:0:0:0:
250,188,256287,1,2,0:2:0:0:
250,188,256392,2,0,P|253:124|251:110,2,53.9999983520508,2|2|2,0:2|0:2|0:2,0:0:0:0:
177,148,256708,2,0,P|118:125|51:141,1,107.999996704102,2|0,0:2|0:0,0:0:0:0:
11,215,257023,6,0,L|1:120,1,53.9999983520508,2|0,0:2|0:0,0:0:0:0:
111,216,257234,1,2,0:2:0:0:
111,216,257339,2,0,L|97:344,1,107.999996704102,2|0,0:2|0:0,0:0:0:0:
190,295,257655,1,0,1:0:0:0:
227,289,257760,1,0,1:0:0:0:
264,296,257866,1,0,1:0:0:0:
329,348,257971,2,0,P|320:273|337:223,1,107.999996704102,2|0,0:2|0:0,0:0:0:0:
427,207,258287,6,0,P|372:207|273:185,1,107.999996704102,2|0,0:2|0:0,0:0:0:0:
220,167,258602,2,0,P|275:167|374:145,1,107.999996704102,2|0,0:2|0:0,0:0:0:0:
277,240,258918,2,0,P|207:239|188:235,1,53.9999983520508,2|0,0:2|0:0,0:0:0:0:
148,194,259129,1,2,0:2:0:0:
148,194,259234,2,0,L|153:315,1,107.999996704102,2|0,0:2|0:0,0:0:0:0:
71,355,259550,6,0,L|74:274,1,53.9999983520508,2|0,0:2|0:0,0:0:0:0:
43,207,259760,1,2,0:2:0:0:
43,207,259866,2,0,P|98:210|160:186,1,107.999996704102,2|0,0:2|0:0,0:0:0:0:
166,110,260181,2,0,L|172:43,2,53.9999983520508,2|0|0,1:2|1:0|1:0,0:0:0:0:
229,188,260497,1,2,0:2:0:0:
258,29,260708,1,2,0:2:0:0:
258,29,260813,6,0,P|303:41|388:34,1,107.999996704102,2|0,0:2|0:0,0:0:0:0:
453,19,261129,1,2,0:2:0:0:
425,204,261339,1,2,0:2:0:0:
425,204,261444,2,0,L|423:112,1,53.9999983520508,2|2,0:2|0:2,0:0:0:0:
343,105,261655,1,2,0:2:0:0:
343,105,261760,2,0,L|346:227,1,107.999996704102,2|0,0:2|0:0,0:0:0:0:
401,298,262076,6,0,P|336:286|314:291,1,53.9999983520508,2|0,0:2|0:0,0:0:0:0:
274,334,262287,1,2,0:2:0:0:
274,334,262392,2,0,P|212:344|128:322,1,107.999996704102,2|0,0:2|0:0,0:0:0:0:
98,264,262708,1,2,1:2:0:0:
96,301,262813,1,0,1:0:0:0:
94,338,262918,1,2,1:2:0:0:
25,269,263023,2,0,L|22:147,1,107.999996704102,0|2,0:0|0:2,0:0:0:0:
103,79,263339,6,0,L|100:186,1,107.999996704102,2|0,0:2|0:0,0:0:0:0:
98,264,263655,1,2,0:2:0:0:
180,126,263866,1,2,0:2:0:0:
180,126,263971,2,0,P|220:121|256:137,1,53.9999983520508,2|0,0:2|0:0,0:0:0:0:
300,186,264181,1,2,0:2:0:0:
300,186,264287,2,0,P|281:123|285:58,1,107.999996704102,2|0,0:2|0:0,0:0:0:0:
381,22,264602,6,0,P|379:75|361:126,1,107.999996704102,2|0,0:2|0:0,0:0:0:0:
300,186,264918,1,2,0:2:0:0:
484,205,265129,1,2,0:2:0:0:
484,205,265234,2,0,L|401:217,1,53.9999983520508,2|0,1:2|1:0,0:0:0:0:
419,347,265444,2,0,L|450:269,1,53.9999983520508,2|0,1:2|1:0,0:0:0:0:
325,219,265655,2,0,L|376:284,1,53.9999983520508,2|0,1:2|1:0,0:0:0:0:
263,349,265866,6,0,B|288:308|261:264|261:264|231:217|263:161,1,175.499991966248,4|0,0:2|0:0,0:0:0:0:
223,103,266497,1,0,0:0:0:0:
306,96,266655,1,0,0:0:0:0:
178,166,266813,6,0,P|125:172|87:163,1,87.749995983124
51,139,267129,2,0,L|61:243,1,87.749995983124
56,264,267444,2,0,L|46:373,1,87.749995983124
121,381,267760,6,0,L|130:307,1,58.4999973220826
206,275,268076,1,2,0:2:0:0:
208,355,268234,1,0,0:0:0:0:
282,306,268392,1,2,0:2:0:0:
128,322,268550,1,2,0:2:0:0:
285,381,268708,6,0,P|309:376|336:358,2,38.9999982147218,2|0|0,0:2|0:0|0:0,0:0:0:0:
361,300,269023,2,0,P|376:280|386:248,2,41.9999987182618,2|0|0,0:2|0:0|0:0,0:0:0:0:
352,191,269339,2,0,P|351:166|338:133,2,45.0000017166138,2|0|0,0:2|0:0|0:0,0:0:0:0:
429,207,269655,5,2,0:2:0:0:
386,88,269813,2,0,B|352:68|317:82|317:82|269:94|239:56,2,135.000005149842,2|0|2,0:2|0:0|0:2,0:0:0:0:
275,157,270602,6,0,P|206:131|184:95,1,101.250003862381
186,84,270918,2,0,P|121:120|80:113,1,101.250003862381
73,115,271234,2,0,P|59:187|27:215,1,101.250003862381
0,137,271550,5,2,0:2:0:0:
123,226,271708,2,0,P|197:198|266:220,2,135.000005149842,2|0|0,0:2|0:0|0:0,0:0:0:0:
191,349,272497,6,0,L|198:277,1,67.5000025749208,2|0,0:0|0:0,0:0:0:0:
341,284,272813,2,0,L|275:313,1,67.5000025749208,2|0,0:0|0:0,0:0:0:0:
211,186,273129,2,0,L|269:228,1,67.5000025749208,2|0,0:0|0:0,0:0:0:0:
341,284,273444,5,2,0:2:0:0:
473,199,273602,2,0,P|402:218|331:197,1,135.000005149842,2|0,0:2|0:0,0:0:0:0:
250,156,274076,1,2,0:2:0:0:
286,261,274234,1,2,0:2:0:0:
321,124,274392,6,0,L|315:17,1,101.250003862381
366,67,274708,2,0,P|303:79|247:54,1,101.250003862381,2|0,0:0|0:0,0:0:0:0:
234,48,275023,2,0,P|185:36|136:49,1,101.250003862381,2|0,0:2|0:0,0:0:0:0:
90,115,275339,5,2,0:2:0:0:
165,241,275497,2,0,B|164:210|149:193|149:193|188:165|186:105,1,135.000005149842,2|0,0:2|0:0,0:0:0:0:
240,206,275971,1,2,0:2:0:0:
78,239,276129,1,2,0:2:0:0:
242,288,276287,6,0,P|314:299|345:329,1,101.250003862381
305,343,276602,2,2,L|313:239,1,101.250003862381
295,206,276918,2,0,L|287:105,1,101.250003862381,2|0,0:2|0:0,0:0:0:0:
212,138,277234,5,2,0:2:0:0:
359,98,277392,2,0,B|400:90|400:90|453:130|516:98,1,135.000005149842,2|0,0:2|0:0,0:0:0:0:
463,24,277866,1,2,0:2:0:0:
390,178,278023,1,2,0:2:0:0:
390,178,278102,1,2,0:2:0:0:
390,178,278181,6,0,P|384:257|414:312,1,135.000005149842,2|0,0:2|0:0,0:0:0:0:
504,227,278813,1,2,0:2:0:0:
299,274,279129,6,0,L|231:290,2,45.0000017166138,2|0|0,0:2|0:0|0:0,0:0:0:0:
181,335,279444,2,0,L|123:294,2,48,2|0|0,0:2|0:0|0:0,0:0:0:0:
56,273,279760,2,0,L|50:202,2,51.0000009727478,2|0|0,0:2|0:0|0:0,0:0:0:0:
3,150,280076,6,0,P|68:136|128:172,1,114.750002188683,2|0,0:0|0:0,0:0:0:0:
144,177,280392,2,0,L|141:99,1,67.5000025749208,0|0,0:0|2:0,2:0:0:0:
141,109,281244,6,0,P|208:117|245:109,1,94.4999971160889,2|0,0:0|0:0,0:0:0:0:
234,112,281779,2,0,L|238:233,1,116.999994644165,2|2,0:0|0:0,0:0:0:0:
237,229,283355,6,0,P|224:274|243:328,2,99.0000030212403,2|2|2,0:0|0:0|0:0,0:0:0:0:
301,274,284627,1,2,0:0:0:0:
301,274,285045,6,0,P|359:290|404:280,1,102.374995313645,2|0,0:0|0:0,0:0:0:0:
399,281,285605,2,0,P|448:246|469:205,1,102.374995313645,2|0,0:0|0:0,0:0:0:0:
467,209,286117,2,0,P|398:207|331:185,1,125.999996154785,2|2,0:0|0:0,0:0:0:0:
344,191,287772,6,0,L|337:72,1,107.999996704102,2|2,0:0|0:0,0:0:0:0:
337,83,288883,1,2,0:0:0:0:
260,131,289064,2,0,P|206:133|188:128,1,45.0000017166138,2|0,0:0|0:0,0:0:0:0:
130,79,289428,2,0,L|134:143,2,45.0000017166138,2|0|0,0:0|0:0|0:0,0:0:0:0:
65,201,289973,6,0,P|133:197|188:219,1,101.250003862381,2|0,0:0|0:0,0:0:0:0:
164,206,290338,2,0,L|172:262,1,49.5000015106202,2|0,0:0|0:0,0:0:0:0:
248,241,290704,2,0,L|285:286,1,58.4999973220826,2|0,0:0|0:0,0:0:0:0:
342,227,291070,2,0,L|407:250,1,67.5000025749208,2|0,0:0|0:0,0:0:0:0:
411,164,291436,1,2,0:0:0:0:
356,308,291802,1,0,0:0:0:0:
318,124,292168,5,4,0:0:0:0:
253,288,292492,2,0,L|234:334,2,45,2|0|0,0:0|0:0|0:0,0:0:0:0:
276,210,292899,1,2,0:0:0:0:
208,232,293077,1,2,0:0:0:0:
138,193,293256,1,2,0:0:0:0:
54,204,293434,1,2,0:0:0:0:
8,281,293613,2,0,P|48:291|77:287,1,45,2|0,0:1|0:0,0:0:0:0:
130,277,293791,1,0,1:0:0:0:
130,277,294149,1,2,0:0:0:0:
87,134,294327,6,0,P|81:61|91:0,2,125.999996154785,2|2|2,0:2|0:2|0:2,0:0:0:0:
151,294,295355,1,2,0:0:0:0:
188,201,295527,2,0,L|235:212,1,31.4999990386963,2|2,0:2|0:2,0:0:0:0:
272,296,295698,6,0,B|198:278|198:278|145:295,2,125.999996154785,2|2|2,0:2|0:2|0:2,0:0:0:0:
454,336,296727,1,2,0:0:0:0:
381,376,296898,1,0,0:0:0:0:
428,262,297069,6,0,P|438:217|432:173,1,62.9999980773926,2|0,0:2|0:0,0:0:0:0:
355,153,297412,2,0,P|345:198|351:242,1,62.9999980773926,2|0,0:2|0:0,0:0:0:0:
435,108,297755,1,2,0:0:0:0:
312,78,297927,2,0,L|280:70,1,31.4999990386963,2|2,0:2|0:2,0:0:0:0:
203,47,298098,2,0,P|212:109|186:179,1,125.999996154785,2|0,0:2|0:0,0:0:0:0:
133,233,298612,5,2,0:2:0:0:
104,151,298784,1,0,0:0:0:0:
192,168,298955,1,0,0:0:0:0:
50,217,299127,5,2,0:2:0:0:
216,244,299298,1,2,0:2:0:0:
104,151,299469,1,2,0:2:0:0:
168,306,299641,1,2,0:2:0:0:
266,184,299812,6,0,P|329:177|397:211,1,125.999996154785
463,265,300327,1,0,0:0:0:0:
408,126,300498,2,0,P|401:63|436:-1,1,125.999996154785,2|0,0:0|0:0,0:0:0:0:
512,84,301184,5,0,0:0:0:0:
319,73,301527,2,0,L|247:68,1,62.9999980773926
172,62,301869,1,2,0:2:0:0:
223,212,302212,1,2,0:2:0:0:
188,27,302555,5,2,0:0:0:0:
143,193,302898,2,0,P|146:246|153:266,2,41.9999987182618,2|2|2,0:2|0:2|0:2,0:2:0:0:
200,136,303241,1,2,0:2:0:0:
170,319,303584,1,2,0:0:0:0:
143,234,303755,1,0,0:0:0:0:
314,266,303927,6,0,P|249:250|216:260,1,94.499997116089,2|0,0:0|0:0,0:0:0:0:
223,256,304269,2,0,L|228:173,1,62.9999980773926,2|0,0:0|0:0,0:0:0:0:
234,74,304612,1,2,0:2:0:0:
144,183,304784,1,2,0:2:0:0:
298,130,304955,1,2,0:2:0:0:
124,85,305127,1,2,0:2:0:0:
324,129,305298,6,0,L|486:113,1,135,4|0,0:2|0:0,0:0:0:0:
500,107,305641,2,0,P|484:161|489:208,1,90
438,341,305984,2,0,P|438:296|423:253,1,90
324,212,306327,1,0,0:0:0:0:
356,308,306498,1,0,0:0:0:0:
356,144,306669,6,0,B|320:129|286:148|286:148|243:165|194:134,1,135,2|0,0:0|0:0,0:0:0:0:
184,128,307012,1,0,0:0:0:0:
259,57,307184,1,0,0:0:0:0:
243,226,307355,2,0,L|234:325,1,90
323,246,307698,1,0,0:0:0:0:
153,288,307869,1,2,0:2:0:0:
153,288,307955,1,2,0:2:0:0:
153,288,308041,6,0,B|116:294|93:307|93:307|105:235|76:173,1,180,2|0,0:0|0:0,0:0:0:0:
32,110,308555,1,2,0:2:0:0:
133,27,308727,2,0,L|125:128,1,90,2|0,0:2|0:0,0:0:0:0:
223,228,309069,2,0,L|215:138,1,90,2|2,0:2|0:2,0:0:0:0:
211,97,309327,1,2,0:2:0:0:
211,97,309412,6,0,P|281:130|384:105,1,180,2|0,0:0|0:0,0:0:0:0:
460,16,309927,1,2,0:2:0:0:
469,146,310098,2,0,L|475:253,1,90,2|0,0:2|0:0,0:0:0:0:
419,341,310441,1,0,0:0:0:0:
357,236,310612,1,2,0:2:0:0:
357,236,310698,1,2,0:2:0:0:
357,236,310784,6,0,B|314:263|299:298|298:337|298:337|261:311|211:327,1,180,2|0,0:0|0:0,0:0:0:0:
94,365,311298,2,0,P|84:292|72:254,2,90,2|0|0,0:0|0:0|0:0,0:0:0:0:
183,243,311812,2,0,P|186:155|201:71,1,135,2|0,0:0|0:0,0:0:0:0:
210,69,312155,6,0,B|183:91|147:89|147:89|85:52|8:82,1,180,2|0,0:0|0:0,0:0:0:0:
163,178,312669,2,0,P|224:168|278:133,1,90,2|0,0:0|0:0,0:0:0:0:
320,26,313012,1,0,0:0:0:0:
410,135,313184,2,0,P|323:177|256:155,1,135,2|0,0:0|0:0,0:0:0:0:
248,155,313527,6,0,B|266:206|247:248|247:248|262:290|262:290|253:337,1,180,2|0,0:0|0:0,0:0:0:0:
342,230,314041,1,2,0:0:0:0:
166,302,314212,1,0,0:0:0:0:
335,314,314384,1,0,0:0:0:0:
173,215,314555,2,0,P|106:235|84:324,1,135,2|0,0:0|0:0,0:0:0:0:
63,336,314898,6,0,L|56:150,1,180,2|0,0:0|0:0,0:0:0:0:
182,42,315412,1,2,0:2:0:0:
182,42,315498,1,2,0:2:0:0:
182,42,315584,1,2,0:2:0:0:
173,215,315755,1,2,0:2:0:0:
78,52,315926,1,2,0:2:0:0:
231,153,316098,1,0,0:0:0:0:
260,164,316184,1,0,0:0:0:0:
294,162,316269,6,0,L|429:116,1,99.0000030212403,2|0,1:2|0:0,0:0:0:0:
436,298,316612,2,0,L|328:204,1,99.0000030212403,2|0,1:2|0:0,0:0:0:0:
486,101,316955,2,0,L|458:240,1,99.0000030212403,2|0,1:2|0:0,0:0:0:0:
242,176,317298,2,0,L|401:124,1,148.50000453186,2|0,0:1|0:0,0:0:0:0:
460,103,317641,5,2,0:0:0:0:
360,233,317812,1,2,0:0:0:0:
325,58,317984,1,2,0:0:0:0:
436,200,318155,2,0,P|437:268|401:304,1,99.0000030212403,2|0,1:2|0:0,0:0:0:0:
177,237,318498,2,0,B|218:268|267:241|267:241|315:205|362:236,1,198.000006042481,0|2,0:0|0:0,0:0:0:0:
225,174,318927,1,2,0:0:0:0:
225,174,319012,6,0,P|155:158|117:179,1,99.0000030212403,2|0,1:2|0:0,0:0:0:0:
125,314,319355,2,0,P|173:261|174:217,1,99.0000030212403,2|0,1:2|0:0,0:0:0:0:
39,154,319698,2,0,P|60:222|97:245,1,99.0000030212403,2|0,1:2|0:0,0:0:0:0:
255,211,320041,2,0,P|203:161|131:167,1,148.50000453186,2|0,0:1|0:0,0:0:0:0:
96,190,320384,5,2,0:0:0:0:
202,41,320555,1,2,0:0:0:0:
177,237,320727,1,2,0:0:0:0:
105,53,320898,2,0,P|140:56|210:36,1,99.0000030212403,2|0,1:2|0:0,0:0:0:0:
401,149,321241,2,0,B|376:141|361:108|361:108|291:144|227:122,1,198.000006042481,2|0,1:2|0:0,0:0:0:0:
150,80,321669,1,0,0:0:0:0:
150,80,321755,6,0,P|151:165|142:208,1,99.0000030212403,2|0,1:2|0:0,0:0:0:0:
311,171,322098,2,0,P|236:129|204:100,1,99.0000030212403,2|0,1:2|0:0,0:0:0:0:
149,276,322441,2,0,P|222:232|263:218,1,99.0000030212403,2|0,1:2|0:0,0:0:0:0:
139,31,322784,2,0,P|152:103|148:177,1,148.50000453186,2|0,0:1|0:0,0:0:0:0:
131,221,323127,5,2,0:0:0:0:
226,122,323298,1,2,0:0:0:0:
42,165,323469,1,2,0:0:0:0:
223,204,323641,2,0,P|271:195|339:205,1,99.0000030212403,2|0,1:2|0:0,0:0:0:0:
373,312,323984,2,0,P|352:259|391:155,1,148.50000453186
447,141,324327,6,0,B|407:159|361:137|361:137|307:109|234:128,1,180,4|0,0:0|0:0,0:0:0:0:
123,161,324841,1,2,0:0:0:0:
246,191,325012,1,2,0:0:0:0:
126,71,325184,2,0,P|128:119|117:181,1,90,2|0,0:0|0:0,0:0:0:0:
37,261,325527,1,2,1:2:0:0:
192,242,325698,6,0,B|264:236|310:265|310:265|331:228|388:222,1,180,4|0,0:0|0:0,0:0:0:0:
290,157,326212,1,0,1:0:0:0:
178,284,326384,6,0,B|256:281|305:310|305:310|325:270|384:255,1,222.750006797791,4|0,0:0|0:0,0:0:0:0:
454,264,327241,5,2,0:0:0:0:
386,341,327412,1,0,0:0:0:0:
421,200,327584,2,0,P|425:132|412:67,1,121.499996292114,2|0,1:2|0:0,0:0:0:0:
408,45,327926,5,2,0:0:0:0:
503,132,328097,1,0,0:0:0:0:
343,132,328269,2,0,P|270:123|248:109,1,80.9999975280763,2|0,1:2|0:0,0:0:0:0:
205,71,328527,1,0,1:0:0:0:
205,71,328612,6,0,P|210:133|190:175,1,80.9999975280763,2|0,1:0|0:0,0:0:0:0:
55,151,328955,2,0,P|106:115|152:111,1,80.9999975280763,2|0,0:1|0:0,0:0:0:0:
199,241,329298,2,0,P|142:214|116:176,1,80.9999975280763,2|0,0:1|0:0,0:0:0:0:
55,151,329555,1,0,0:0:0:0:
55,151,329641,1,2,0:1:0:0:
90,319,329812,2,0,L|110:250,1,40.4999987640381
198,162,329984,5,2,0:0:0:0:
204,201,330069,1,2,0:0:0:0:
211,240,330155,1,2,0:0:0:0:
219,279,330241,1,2,0:0:0:0:
226,318,330327,6,0,P|264:300|295:300,1,40.4999987640381,2|0,3:2|3:0,3:0:0:0:
380,366,330498,1,0,3:0:0:0:
380,366,330584,1,0,3:0:0:0:
380,366,330669,6,0,P|345:342|329:315,1,40.4999987640381,2|0,3:2|3:0,3:0:0:0:
338,205,330841,1,0,3:0:0:0:
338,205,330927,1,0,3:0:0:0:
338,205,331012,6,0,P|334:246|319:273,1,40.4999987640381,2|0,3:2|3:0,3:0:0:0:
174,364,331184,1,0,3:0:0:0:
174,364,331270,1,0,3:0:0:0:
174,363,331355,6,0,L|166:260,2,80.9999975280763,2|0|0,0:0|0:0|0:0,0:0:0:0:
225,234,331869,2,0,P|172:210|133:216,1,80.9999975280763,2|0,1:2|0:0,0:0:0:0:
16,239,332212,2,0,P|69:263|108:257,1,80.9999975280763,2|0,1:2|0:0,0:0:0:0:
72,104,332555,1,0,1:0:0:0:
72,104,332727,6,0,L|76:195,1,80.9999975280763,2|0,0:0|0:0,0:0:0:0:
169,282,333069,2,0,L|172:201,1,80.9999975280763,2|0,0:0|1:0,0:0:0:0:
255,97,333412,2,0,L|259:188,1,80.9999975280763,2|0,0:0|0:0,0:0:0:0:
265,311,333755,1,0,1:0:0:0:
265,311,333927,1,0,0:0:0:0:
378,223,334098,6,0,P|318:228|302:227,1,40.4999987640381,2|0,0:0|0:0,0:0:0:0:
218,182,334269,2,0,P|278:177|294:178,1,40.4999987640381,2|0,0:0|0:0,0:0:0:0:
356,298,334441,1,2,0:0:0:0:
332,146,334612,1,2,0:0:0:0:
325,118,334698,1,2,0:0:0:0:
324,89,334784,1,2,0:0:0:0:
497,113,334955,2,0,L|378:110,1,80.9999975280763,2|0,0:0|0:0,0:0:0:0:
249,102,335298,1,0,0:0:0:0:
335,242,335469,6,0,P|325:178|336:137,1,80.9999975280763,0|0,0:0|1:0,0:0:0:0:
341,127,335727,1,0,1:0:0:0:
341,127,335812,1,0,1:0:0:0:
199,158,335984,2,0,L|97:146,1,80.9999975280763,2|0,0:0|1:0,0:0:0:0:
11,127,336327,1,2,0:0:0:0:
44,248,336498,2,0,L|170:236,1,121.499996292114,2|0,0:0|0:0,0:0:0:0:
206,230,336841,6,0,P|204:277|213:324,2,80.9999975280763,2|0|0,0:0|0:0|0:0,0:0:0:0:
253,376,337355,2,0,P|195:388|144:367,1,80.9999975280763,2|0,1:2|0:0,0:0:0:0:
287,271,337698,2,0,P|345:259|396:280,1,80.9999975280763,2|0,1:2|0:0,0:0:0:0:
457,369,338041,1,0,1:0:0:0:
457,369,338212,6,0,P|454:323|459:268,1,80.9999975280763,2|0,0:0|0:0,0:0:0:0:
367,183,338555,2,0,P|369:223|366:263,1,80.9999975280763,2|0,0:0|1:0,0:0:0:0:
265,373,338898,2,0,P|262:327|267:272,1,80.9999975280763,2|0,0:0|0:0,0:0:0:0:
287,175,339241,1,0,1:0:0:0:
287,175,339412,1,0,0:0:0:0:
191,269,339584,6,0,L|185:347,1,40.4999987640381,2|0,1:2|1:0,0:0:0:0:
103,186,339755,2,0,L|99:145,1,40.4999987640381,2|0,1:2|1:0,0:0:0:0:
103,316,339927,1,2,0:0:0:0:
207,183,340098,2,0,P|282:174|305:179,1,80.9999975280763,2|0,0:0|1:0,0:0:0:0:
324,184,340355,1,0,1:0:0:0:
324,184,340441,2,0,L|320:71,1,80.9999975280763,2|0,1:2|0:0,0:0:0:0:
364,5,340784,1,2,1:2:0:0:
401,187,340955,6,0,P|378:241|281:246,1,161.999995056153,2|0,0:0|0:0,0:0:0:0:
176,201,341469,1,2,1:2:0:0:
324,184,341641,1,2,0:0:0:0:
197,298,341812,1,2,0:0:0:0:
197,298,341898,1,2,0:0:0:0:
197,298,341984,2,0,L|94:290,1,80.9999975280763,2|0,0:0|0:0,0:0:0:0:
77,290,342241,1,0,0:0:0:0:
77,290,342327,6,0,P|115:214|87:128,1,161.999995056153,4|0,0:2|0:0,0:0:0:0:
2,207,342841,1,2,0:2:0:0:
192,191,343012,2,0,B|285:181|285:181,1,80.9999975280763,2|0,0:0|0:0,0:0:0:0:
300,178,343269,1,0,0:0:0:0:
328,174,343355,1,2,0:2:0:0:
225,83,343527,1,2,0:2:0:0:
238,226,343698,6,0,P|228:274|201:315,1,80.9999975280763,2|0,0:2|0:0,0:0:0:0:
358,349,344041,2,0,P|321:316|299:272,1,80.9999975280763,2|0,0:2|0:0,0:0:0:0:
190,384,344384,2,0,P|236:368|285:371,1,80.9999975280763,0|0,0:2|0:0,0:0:0:0:
296,371,344641,1,0,0:0:0:0:
324,374,344727,2,0,P|364:372|402:358,1,80.9999975280763,2|0,0:2|0:0,0:0:0:0:
426,232,345069,5,0,0:0:0:0:
351,291,345241,1,0,0:0:0:0:
341,203,345412,1,0,0:0:0:0:
442,322,345584,1,2,0:0:0:0:
407,157,345755,2,0,L|388:54,1,80.9999975280763,2|0,0:0|0:0,0:0:0:0:
242,115,346098,2,0,P|303:124|343:109,1,80.9999975280763
287,36,346441,5,2,0:2:0:0:
207,193,346612,1,2,0:2:0:0:
207,193,346698,1,0,0:0:0:0:
207,193,346784,1,0,0:0:0:0:
164,80,346955,2,0,P|169:30|170:-17,2,80.9999975280763,2|0|0,0:2|0:0|0:0,0:0:0:0:
106,218,347469,2,0,P|101:168|100:121,1,80.9999975280763
68,285,347812,6,0,B|112:308|154:280|154:280|194:259|245:282,1,161.999995056153,2|0,0:2|0:0,0:0:0:0:
297,351,348327,1,2,0:2:0:0:
292,202,348498,2,0,L|289:101,1,80.9999975280763,2|0,0:0|0:0,0:0:0:0:
290,92,348755,1,0,0:0:0:0:
290,63,348841,1,2,0:2:0:0:
217,197,349012,1,2,0:2:0:0:
379,108,349184,6,0,P|427:94|490:111,1,80.9999975280763,2|0,0:2|0:2,0:2:0:0:
335,186,349527,2,0,P|300:152|286:88,1,80.9999975280763,2|0,0:2|0:2,0:2:0:0:
215,14,349869,2,0,L|211:108,1,80.9999975280763,2|0,0:0|0:0,0:0:0:0:
142,237,350212,2,0,L|138:156,1,80.9999975280763,2|0,0:0|0:0,0:0:0:0:
44,73,350555,5,2,0:2:0:0:
36,218,350727,2,0,L|32:312,1,80.9999975280763,2|0,0:2|0:0,0:0:0:0:
163,356,351069,1,2,0:2:0:0:
220,246,351241,2,0,P|165:233|111:248,1,80.9999975280763,2|0,0:2|0:0,0:0:0:0:
252,336,351584,1,0,0:0:0:0:
287,188,351755,1,0,0:0:0:0:
371,353,351927,6,0,L|349:256,1,80.9999975280763,2|0,0:2|0:0,0:0:0:0:
347,246,352184,1,0,0:0:0:0:
355,219,352269,2,0,L|372:140,1,80.9999975280763
416,13,352612,1,0,0:0:0:0:
280,120,352784,1,0,0:0:0:0:
280,120,352869,1,0,0:0:0:0:
280,120,352955,1,0,0:0:0:0:
445,91,353127,1,0,0:0:0:0:
273,33,353298,6,0,B|228:36|206:76|206:76|171:121|105:98,1,161.999995056153,4|0,0:2|0:0,0:0:0:0:
0,77,353812,1,0,0:0:0:0:
148,29,353984,1,0,0:0:0:0:
148,29,354155,1,0,0:0:0:0:
60,152,354327,2,0,L|69:241,1,80.9999975280763
160,361,354669,6,0,L|168:280,1,80.9999975280763
148,158,355012,2,0,P|213:198|243:199,1,80.9999975280763,2|0,0:0|0:0,0:0:0:0:
299,67,355355,2,0,P|231:103|215:128,1,80.9999975280763,2|0,0:0|0:0,0:0:0:0:
304,243,355698,2,0,P|306:166|292:140,1,80.9999975280763,2|0,0:0|0:0,0:0:0:0:
375,22,356041,6,0,B|396:70|369:119|369:119|393:166|384:216,1,161.999995056153
420,285,356555,1,0,0:0:0:0:
420,285,356727,2,0,B|436:242|436:242|480:211,1,80.9999975280763
335,281,357069,2,0,B|319:324|319:324|275:355,1,80.9999975280763
178,267,357412,6,0,B|223:259|223:259|272:281,2,80.9999975280763
56,204,357927,1,2,2:0:0:0:
64,230,358012,1,2,2:0:0:0:
73,256,358098,1,2,1:2:0:0:
66,283,358184,1,2,2:0:0:0:
57,309,358269,1,2,2:0:0:0:
123,177,358441,2,0,L|151:105,1,40.4999987640381
57,31,358612,2,0,L|71:68,1,40.4999987640381
293,76,358784,6,0,B|234:69|196:93|196:93|171:63|122:64,1,161.999995056153,4|0,0:2|0:0,0:0:0:0:
263,177,359298,1,0,0:0:0:0:
393,114,359469,1,0,0:0:0:0:
393,114,359641,1,0,0:0:0:0:
343,260,359812,2,0,L|348:165,1,80.9999975280763
257,67,360155,6,0,L|261:147,1,80.9999975280763
265,299,360498,2,0,P|199:279|167:286,1,80.9999975280763,2|0,0:0|0:0,0:0:0:0:
184,128,360841,2,0,P|199:195|221:219,1,80.9999975280763,2|0,0:0|0:0,0:0:0:0:
74,282,361184,2,0,P|124:234|134:203,1,80.9999975280763,2|0,0:0|0:0,0:0:0:0:
88,76,361527,5,2,0:2:0:0:
88,76,361698,1,0,0:0:0:0:
55,205,361869,1,0,0:0:0:0:
5,76,362041,1,0,0:0:0:0:
184,128,362212,2,0,L|272:152,1,80.9999975280763,2|0,0:2|0:0,0:0:0:0:
376,56,362555,2,0,L|288:80,1,80.9999975280763
340,226,362898,6,0,P|335:156|346:110,2,80.9999975280763,2|0|0,0:2|0:0|0:0,0:0:0:0:
423,338,363412,1,0,0:0:0:0:
423,338,363584,2,0,P|428:268|417:222,1,80.9999975280763,2|0,0:2|0:0,0:0:0:0:
237,329,363927,1,0,0:0:0:0:
263,322,364012,1,0,0:0:0:0:
290,315,364098,1,0,0:0:0:0:
317,308,364184,1,0,0:0:0:0:
344,301,364269,5,2,0:2:0:0:
302,384,364441,1,0,0:0:0:0:
283,240,364612,2,0,L|277:176,2,53.9999983520508
305,114,364955,2,0,P|272:110|223:130,1,80.9999975280763
205,260,365298,2,0,L|199:313,2,53.9999983520508
119,151,365641,6,0,L|123:276,1,120,2|0,0:2|0:0,0:0:0:0:
45,336,366028,1,0,0:0:0:0:
45,336,366157,2,0,L|48:263,1,60
83,189,366415,2,0,P|35:198|-6:189,2,60,2|0|0,0:0|0:0|0:0,0:0:0:0:
44,110,366802,2,0,P|6:79|-13:41,2,60,2|0|0,0:0|0:0|0:0,0:0:0:0:
132,130,367189,5,0,0:0:0:0:
302,78,367447,1,0,0:0:0:0:
205,218,367705,1,2,0:2:0:0:
205,176,367834,1,2,0:2:0:0:
207,134,367963,5,2,0:2:0:0:
383,158,368221,1,0,0:0:0:0:
235,244,368479,1,2,0:2:0:0:
253,206,368608,1,2,0:2:0:0:
273,169,368737,5,2,0:2:0:0:
423,266,368995,1,0,0:0:0:0:
253,282,369253,1,2,0:2:0:0:
285,255,369382,1,2,0:2:0:0:
319,229,369511,5,2,0:2:0:0:
413,380,369769,1,2,0:2:0:0:
252,321,370027,1,2,0:2:0:0:
293,311,370156,1,2,0:2:0:0:
334,302,370286,6,0,P|320:256|332:170,1,132.00000402832,2|0,0:0|0:0,0:0:0:0:
410,102,370673,2,0,L|402:3,2,66.0000020141602,2|2|2,0:2|0:2|0:2,0:2:0:0:
307,93,371060,6,0,P|246:124|173:117,1,132.00000402832,2|0,0:0|0:0,0:0:0:0:
94,75,371447,2,0,L|81:147,2,66.0000020141602,2|2|2,0:2|0:2|0:2,0:2:0:0:
4,200,371834,6,0,P|65:231|138:224,1,132.00000402832,2|0,0:0|0:0,0:0:0:0:
209,185,372221,1,2,0:2:0:0:
216,277,372350,2,0,L|222:347,1,66.0000020141602,2|2,0:2|0:2,0:2:0:0:
289,222,372608,6,0,P|289:151|237:104,1,132.00000402832,2|0,0:0|0:0,0:0:0:0:
157,94,372995,1,2,0:2:0:0:
218,22,373124,2,0,P|290:25|313:13,1,66.0000020141602,2|2,0:2|0:2,0:2:0:0:
410,82,373382,6,0,L|356:96,1,53.9999983520508,2|0,2:0|2:0,2:0:0:0:
363,175,373641,2,0,L|415:161,1,53.9999983520508,2|0,2:0|2:0,2:0:0:0:
415,161,374356,6,0,P|424:224|410:285,1,107.999996704102,2|0,0:0|0:0,0:0:0:0:
243,267,375130,2,0,P|293:227|352:209,1,107.999996704102,2|0,0:0|0:0,0:0:0:0:
431,364,375904,2,0,P|371:340|326:297,2,107.999996704102,2|0|2,0:0|0:0|0:0,0:0:0:0:
334,212,377065,2,0,P|279:232|253:257,1,80.9999975280763,2|0,0:1|0:0,0:0:0:0:
262,246,377452,6,0,L|264:122,1,107.999996704102,2|0,0:0|0:0,0:0:0:0:
95,146,378226,2,0,L|201:209,1,107.999996704102,2|0,0:0|0:0,0:0:0:0:
271,45,379001,2,0,L|162:105,2,107.999996704102,2|0|0,0:0|0:0|0:0,0:0:0:0:
187,201,380162,2,0,L|113:157,1,80.9999975280763,2|0,0:1|0:0,0:0:0:0:
117,159,380549,6,0,P|128:224|114:272,1,107.999996704102,2|0,0:2|0:0,0:0:0:0:
67,340,381130,1,0,0:0:0:0:
164,330,381323,2,0,L|288:316,1,107.999996704102,2|0,0:2|0:0,0:0:0:0:
397,298,381904,1,0,0:0:0:0:
290,348,382097,5,2,0:2:0:0:
426,332,382291,1,2,0:2:0:0:
318,243,382485,2,0,L|313:176,1,53.9999983520508,2|0,0:2|0:0,0:0:0:0:
427,120,382872,1,2,0:2:0:0:
415,218,383065,1,0,0:0:0:0:
339,154,383259,1,2,0:2:0:0:
498,225,383452,1,2,0:2:0:0:
318,243,383646,6,0,P|261:248|203:277,1,107.999996704102,2|0,0:2|0:0,0:0:0:0:
151,344,384226,1,0,0:0:0:0:
127,256,384420,2,0,B|132:232|141:218|141:218|131:186|130:137,1,107.999996704102,2|0,0:0|0:0,0:0:0:0:
152,39,385001,1,0,0:0:0:0:
152,163,385194,5,2,0:2:0:0:
181,34,385388,1,2,0:2:0:0:
41,99,385581,2,0,L|110:91,1,53.9999983520508,2|0,0:2|0:0,0:0:0:0:
258,73,385968,1,2,0:2:0:0:
218,175,386162,1,2,0:2:0:0:
181,34,386356,1,2,0:2:0:0:
184,38,386549,1,0,0:0:0:0:
295,142,386743,6,0,L|287:239,1,76.5000014591217,2|0,0:2|0:0,0:0:0:0:
385,305,387130,2,0,L|378:228,1,76.5000014591217,2|0,0:2|0:0,0:0:0:0:
480,137,387517,5,2,0:2:0:0:
466,242,387710,1,2,0:2:0:0:
447,349,387904,2,0,P|403:340|343:356,1,76.5000014591217,2|0,0:0|0:0,0:0:0:0:
240,269,388291,5,2,0:2:0:0:
264,375,388485,1,2,0:2:0:0:
280,239,388678,2,0,L|289:141,1,76.5000014591217,2|0,0:2|0:0,0:0:0:0:
187,16,389065,5,2,0:2:0:0:
173,122,389259,1,2,0:2:0:0:
161,228,389452,1,2,0:2:0:0:
234,207,389646,1,0,0:0:0:0:
94,170,389839,6,0,P|54:176|9:200,1,76.5000014591217,2|0,0:2|0:0,0:0:0:0:
65,329,390226,2,0,P|105:323|150:299,1,76.5000014591217,2|0,0:2|0:0,0:0:0:0:
219,211,390614,5,2,0:2:0:0:
292,288,390807,1,2,0:2:0:0:
365,365,391001,2,0,P|360:305|370:259,1,76.5000014591217,2|0,0:0|0:0,0:0:0:0:
445,195,391388,5,2,0:2:0:0:
475,300,391581,1,2,0:2:0:0:
482,169,391775,2,0,L|485:74,1,76.5000014591217,2|0,0:2|0:0,0:0:0:0:
342,52,392162,5,2,0:2:0:0:
287,106,392355,1,2,0:2:0:0:
186,112,392549,1,2,0:2:0:0:
93,42,392743,1,2,0:2:0:0:
70,200,392936,5,0,0:0:0:0:
108,114,393130,1,0,0:0:0:0:
165,193,393323,1,8,0:2:0:0:
165,193,393710,5,0,0:0:0:0:
222,272,393903,1,0,0:0:0:0:
260,186,394097,1,8,0:2:0:0:
260,186,394485,5,0,0:0:0:0:
298,100,394679,1,0,0:0:0:0:
355,179,394872,1,8,0:2:0:0:
355,179,395259,5,0,0:0:0:0:
412,258,395452,1,0,0:0:0:0:
450,172,395646,1,8,0:2:0:0:
450,172,396033,5,0,0:0:0:0:
506,248,396226,1,0,0:0:0:0:
412,258,396420,1,8,0:2:0:0:
412,258,396807,5,0,0:0:0:0:
318,268,397001,1,0,0:0:0:0:
374,344,397194,1,10,0:2:0:0:
374,344,397388,1,2,0:2:0:0:
357,191,397581,5,2,0:2:0:0:
290,345,397775,1,8,0:2:0:0:
272,193,397968,1,2,0:2:0:0:
412,258,398162,1,0,0:2:0:0:
213,274,398356,5,2,0:2:0:0:
297,95,398549,1,2,0:2:0:0:
412,258,398743,1,2,0:2:0:0:
412,258,399130,5,2,0:2:0:0:
281,282,399323,1,2,0:2:0:0:
281,282,399420,1,0,0:0:0:0:
281,282,399517,2,0,L|141:301,1,121.499996292114,8|0,0:2|0:0,0:0:0:0:
116,305,399904,5,2,0:2:0:0:
31,200,400097,1,2,0:2:0:0:
31,200,400194,1,0,0:0:0:0:
31,200,400291,2,0,L|151:217,1,121.499996292114,8|0,0:2|0:0,0:0:0:0:
195,222,400678,5,2,0:2:0:0:
179,64,400872,1,2,0:2:0:0:
179,64,400968,1,0,0:0:0:0:
179,64,401065,2,0,P|164:132|174:171,1,80.9999975280763,8|0,0:2|0:0,0:0:0:0:
331,118,401452,6,0,L|255:125,1,40.4999987640381,2|0,0:0|0:0,0:0:0:0:
192,221,401646,2,0,L|268:228,1,40.4999987640381,2|0,0:0|0:0,0:0:0:0:
353,145,401839,2,0,L|233:152,1,80.9999975280763,8|0,0:2|0:0,0:0:0:0:
443,79,402226,5,2,0:2:0:0:
465,241,402420,1,2,0:2:0:0:
465,241,402517,1,0,0:0:0:0:
465,241,402614,2,0,P|396:240|340:264,1,121.499996292114,8|0,0:2|0:0,0:0:0:0:
317,291,403001,5,2,0:2:0:0:
421,319,403194,1,0,0:0:0:0:
317,188,403388,1,2,0:2:0:0:
317,188,403581,1,2,0:2:0:0:
353,355,403775,5,2,0:2:0:0:
395,194,403968,1,0,0:0:0:0:
243,248,404162,1,2,0:2:0:0:
421,319,404356,1,0,0:0:0:0:
355,133,404549,5,10,0:2:0:0:
239,328,404743,1,10,0:2:0:0:
125,147,404936,2,0,L|233:142,1,80.9999975280763,10|0,0:2|2:0,0:0:0:0:
205,143,405838,6,0,P|200:102|202:86,1,31.4999990386963,2|0,0:0|0:0,0:0:0:0:
284,166,406138,2,0,P|248:213|126:168,1,188.999994232178,2|0,0:0|0:0,0:0:0:0:
45,95,407338,2,0,P|23:98|8:98,2,31.4999990386963
39,174,407788,2,0,P|7:208|2:221,1,31.4999990386963,2|0,0:0|0:0,0:0:0:0:
74,245,408088,2,0,P|71:291|75:304,1,31.4999990386963,2|0,0:0|0:0,0:0:0:0:
151,273,408388,1,2,0:0:0:0:
151,273,408538,6,0,B|181:301|234:290|234:290|292:275|345:310,1,188.999994232178,2|0,0:0|0:0,0:0:0:0:
450,343,409738,2,0,L|445:291,1,31.4999990386963,2|0,0:0|0:0,0:0:0:0:
458,219,410038,2,0,P|412:232|403:232,1,31.4999990386963,2|0,0:0|0:0,0:0:0:0:
368,157,410338,2,0,P|414:144|423:144,1,31.4999990386963,2|0,0:0|0:0,0:0:0:0:
349,244,410638,1,2,0:0:0:0:
292,190,410788,1,2,0:0:0:0:
275,269,410938,6,0,P|251:322|211:245,1,188.999994232178,2|0,0:0|0:0,0:0:0:0:
255,136,412138,2,0,P|209:135|199:138,1,31.4999990386963,2|0,0:0|0:0,0:0:0:0:
131,182,412438,2,0,P|177:183|187:180,1,31.4999990386963,2|0,0:0|0:0,0:0:0:0:
61,138,412738,1,2,0:0:0:0:
61,138,412888,2,0,L|54:219,1,62.9999980773926,2|2,0:0|0:0,0:0:0:0:
46,278,413338,6,0,B|85:284|115:256|115:256|154:309|244:301,1,188.999994232178,2|0,0:0|0:0,0:0:0:0:
375,269,414538,1,2,0:0:0:0:
287,352,414838,1,2,0:0:0:0:
306,209,415138,1,2,0:0:0:0:
376,358,415438,1,2,0:0:0:0:
444,207,415738,6,0,P|395:182|291:225,1,153.000002918243
238,295,416638,1,2,0:0:0:0:
262,138,416938,2,0,B|271:84|260:32|260:32|280:63|311:79,1,153.000002918243,2|0,0:0|0:0,0:0:0:0:
290,66,418138,6,0,P|348:62|379:51,2,76.5000014591217,2|0|0,0:0|0:0|0:0,0:0:0:0:
187,40,419082,1,2,0:0:0:0:
235,204,419385,2,0,B|231:217|232:233|232:233|214:207|225:176|225:176|235:150|228:95,1,153.000002918243,2|0,0:0|0:0,0:0:0:0:
229,112,420540,6,0,P|182:128|149:127,1,76.5000014591217
67,64,421140,2,0,L|74:166,1,76.5000014591217
57,244,421770,2,0,B|98:255|130:231|130:231|164:208|205:226,1,153.000002918243,2|0,0:2|0:0,0:0:0:0:
321,321,422946,6,0,B|280:332|248:308|248:308|214:285|173:303,1,153.000002918243,2|2,0:2|0:0,0:0:0:0:
206,375,423841,1,2,0:0:0:0:
321,321,424153,2,0,P|382:310|416:315,1,76.5000014591217,2|0,0:0|0:0,0:0:0:0:
503,226,424753,2,0,P|442:237|408:232,1,76.5000014591217,2|0,0:0|0:0,0:0:0:0:
296,179,425348,6,0,P|345:234|292:338,1,170.999995433807,8|8,0:3|0:3,0:0:0:0:
264,256,426248,1,8,0:3:0:0:
270,110,426548,2,0,L|275:-10,1,85.4999977169037,8|0,0:3|0:0,0:0:0:0:
159,131,427148,2,0,L|164:221,1,85.4999977169037,2|0,0:0|0:0,0:0:0:0:
170,337,427748,6,0,P|99:328|48:344,2,85.4999977169037,8|0|2,0:3|0:0|0:0,0:0:0:0:
245,381,428648,1,8,0:3:0:0:
316,282,428948,2,0,P|241:288|206:308,1,85.4999977169037,8|0,0:3|0:0,0:0:0:0:
383,354,429548,2,0,P|412:285|407:243,1,85.4999977169037,2|0,0:0|0:0,0:0:0:0:
340,148,430148,6,0,L|345:197,1,42.7499988584519,2|0,0:0|0:0,0:0:0:0:
412,275,430448,2,0,L|416:229,1,42.7499988584519,2|0,0:0|0:0,0:0:0:0:
430,142,430748,1,2,0:0:0:0:
430,142,430898,1,2,0:0:0:0:
344,190,431048,2,0,P|292:190|263:183,1,42.7499988584519,2|0,0:0|0:0,0:0:0:0:
215,126,431348,6,0,L|225:237,1,90,2|0,0:0|0:0,0:0:0:0:
232,296,431798,1,2,0:0:0:0:
149,251,431948,2,0,P|85:250|71:254,1,45,2|0,0:0|0:0,0:0:0:0:
56,330,432248,2,0,P|120:331|132:327,1,45,2|0,0:0|0:0,0:0:0:0:
25,245,432548,6,0,L|14:171,1,47.7000000727844,2|0,0:0|0:0,0:0:0:0:
128,118,432848,2,0,L|122:175,1,47.7000000727844,2|0,0:0|0:0,0:0:0:0:
59,83,433148,1,2,0:0:0:0:
193,61,433298,1,2,0:0:0:0:
119,35,433448,1,2,0:0:0:0:
206,137,433598,1,2,0:0:0:0:
269,42,433748,6,0,L|297:-2,5,31.800000048523
291,134,434348,2,0,L|298:191,1,47.7000000727844,2|0,0:0|0:0,0:0:0:0:
393,42,434648,2,2,L|386:99,1,47.7000000727844
405,207,434948,6,0,L|416:324,1,99.0000030212403,4|0,0:2|0:0,0:0:0:0:
390,344,435348,2,0,L|387:388,2,33.0000010070801
299,193,435848,1,0,1:0:0:0:
301,225,435948,1,0,1:0:0:0:
303,257,436048,1,0,1:0:0:0:
307,289,436148,6,0,P|226:295|197:308,1,99.0000030212403,2|0,1:2|0:0,0:0:0:0:
134,354,436598,1,2,0:2:0:0:
132,242,436748,2,0,L|130:124,1,99.0000030212403,2|2,0:2|1:2,0:0:0:0:
130,109,437148,1,0,1:0:0:0:
129,76,437248,1,0,1:0:0:0:
129,43,437348,5,0,1:0:0:0:
239,171,437648,2,0,P|226:185|203:203,2,33.0000010070801
168,128,437948,1,2,0:2:0:0:
347,104,438248,1,0,1:0:0:0:
379,98,438348,1,0,1:0:0:0:
411,91,438448,1,0,1:0:0:0:
443,82,438548,6,0,P|439:144|451:205,1,99.0000030212403,2|0,1:2|0:0,0:0:0:0:
367,316,439148,2,0,P|371:254|359:193,1,99.0000030212403,2|2,0:2|1:2,0:0:0:0:
360,184,439548,1,0,1:0:0:0:
392,190,439648,1,0,1:0:0:0:
424,197,439748,5,0,1:0:0:0:
268,240,440048,2,0,L|217:256,2,33.0000010070801
234,166,440348,1,2,0:2:0:0:
137,285,440648,2,0,P|138:327|144:348,1,49.5000015106202,2|2,1:2|0:2,0:0:0:0:
156,209,440948,5,2,1:2:0:0:
63,245,441098,1,2,1:2:0:0:
174,170,441248,5,2,1:2:0:0:
90,158,441398,1,2,1:2:0:0:
195,131,441548,5,2,1:2:0:0:
111,25,441848,1,2,1:2:0:0:
112,57,441948,1,0,1:0:0:0:
114,89,442048,1,0,1:0:0:0:
115,121,442148,5,0,1:0:0:0:
0,30,442448,1,0,1:0:0:0:
191,67,442748,5,2,1:2:0:0:
282,83,442898,1,2,1:2:0:0:
178,89,443048,5,2,1:2:0:0:
263,169,443198,1,2,1:2:0:0:
165,112,443348,5,2,1:2:0:0:
248,269,443648,1,2,1:2:0:0:
311,88,443948,1,2,1:2:0:0:
382,268,444248,1,2,0:0:0:0:
410,195,444398,1,2,0:0:0:0:
440,317,444548,5,6,1:2:0:0:
292,176,444842,1,2,0:0:0:0:
353,349,445136,2,0,L|367:220,1,103.500001974106,2|0,0:0|1:0,0:0:0:0:
384,79,445724,1,2,1:2:0:0:
271,222,446018,1,2,0:0:0:0:
484,153,446312,1,2,0:0:0:0:
312,105,446606,1,2,0:0:0:0:
447,256,446884,5,2,1:2:0:0:
278,215,447167,1,0,1:0:0:0:
247,219,447261,1,0,1:0:0:0:
219,232,447355,1,0,1:0:0:0:
196,253,447450,2,0,L|200:123,1,103.500001974106,0|0,1:0|0:0,0:0:0:0:
202,55,447874,1,2,0:0:0:0:
109,141,448016,2,0,P|53:153|3:149,2,103.500001974106,2|0|0,1:2|0:0|0:0,0:0:0:0:
285,69,448865,1,2,0:0:0:0:
323,146,449006,1,2,0:0:0:0:
331,1,449148,5,2,1:2:0:0:
241,149,449431,1,0,1:0:0:0:
243,179,449525,1,0,1:0:0:0:
240,209,449619,1,0,1:0:0:0:
234,239,449714,1,0,1:0:0:0:
141,369,449997,1,2,1:2:0:0:
286,312,450280,6,0,P|353:309|409:320,1,103.500001974106,2|0,1:2|1:0,0:0:0:0:
417,327,450643,1,0,1:0:0:0:
445,337,450734,1,0,1:0:0:0:
471,353,450825,2,0,L|467:225,1,103.500001974106,0|0,1:0|0:0,0:0:0:0:
461,164,451234,1,0,0:0:0:0:
394,248,451370,5,2,1:2:0:0:
288,75,451645,1,2,0:0:0:0:
279,174,451782,1,2,0:0:0:0:
216,110,451920,2,0,P|150:99|128:107,1,51.7500009870529,2|0,1:2|1:0,0:0:0:0:
237,238,452195,2,0,P|303:249|325:241,1,51.7500009870529,2|0,1:2|1:0,0:0:0:0:
353,56,452470,6,0,L|365:222,1,161.999995056153,6|8,0:2|0:2,0:0:0:0:
264,335,452879,2,0,L|275:173,1,161.999995056153,2|0,0:2|0:0,0:0:0:0:
353,56,453288,2,0,P|307:66|249:54,1,80.9999975280763,10|0,0:2|0:0,0:0:0:0:
121,160,453560,6,0,B|163:187|203:166|203:166|249:147|296:188,1,161.999995056153,2|8,0:2|0:2,0:2:0:0:
168,98,453970,2,0,B|126:71|86:92|86:92|40:111|-7:70,1,161.999995056153,2|0,0:2|0:0,0:0:0:0:
240,55,454379,2,0,P|251:106|236:148,1,80.9999975280763,10|0,0:2|0:0,0:0:0:0:
166,254,454651,6,0,B|147:203|147:203|170:84,1,161.999995056153,2|8,0:2|0:2,0:0:0:0:
236,205,455060,1,2,0:2:0:0:
247,304,455197,2,0,L|256:395,1,80.9999975280763,0|0,0:2|0:0,0:0:0:0:
326,249,455470,2,0,L|333:168,1,80.9999975280763,10|0,0:2|0:0,0:0:0:0:
397,313,455742,6,0,P|310:333|232:288,1,161.999995056153,2|8,0:2|0:2,0:0:0:0:
94,217,456151,2,0,P|181:197|259:242,1,161.999995056153,2|0,0:2|0:0,0:0:0:0:
166,291,456560,1,8,0:2:0:0:
117,119,456697,1,8,0:2:0:0:
94,217,456833,6,0,B|98:279|71:320|71:320|101:330|130:365,1,161.999995056153,2|8,0:0|0:0,0:0:0:0:
246,285,457242,1,2,0:0:0:0:
246,285,457379,2,0,P|199:292|149:287,1,80.9999975280763
311,341,457651,2,0,P|362:353|409:352,1,80.9999975280763,10|0,0:0|0:0,0:0:0:0:
353,115,457924,6,0,L|363:284,1,161.999995056153,2|8,0:0|0:0,0:0:0:0:
440,150,458333,1,2,0:0:0:0:
440,150,458470,2,0,L|444:46,1,80.9999975280763
276,64,458742,2,0,L|272:144,1,80.9999975280763,10|0,0:0|0:0,0:0:0:0:
260,317,459015,5,4,0:2:0:0:
136,89,459424,5,4,0:2:0:0:
387,98,459833,5,4,0:2:0:0:
159,233,460106,6,0,P|114:237|32:206,1,125.999996154785,2|0,0:2|0:0,0:0:0:0:
186,309,460515,2,0,P|243:332|306:331,1,125.999996154785,2|0,0:2|0:0,0:0:0:0:
440,282,460924,6,0,P|463:252|378:274,1,242.999992584229,0|2,0:0|2:0,2:0:0:0:
372,267,462502,6,0,P|329:258|303:258,2,60,0|0|0,0:2|0:0|0:0,0:0:0:0:
453,194,462902,2,0,P|496:185|522:185,2,60,0|0|0,0:2|0:0|0:0,0:0:0:0:
326,145,463302,6,0,P|238:140|200:147,1,125.999996154785,4|0,0:2|0:0,0:0:0:0:
109,186,463902,1,2,0:2:0:0:
120,99,464102,1,2,0:2:0:0:
180,245,464302,1,2,0:2:0:0:
180,245,464902,5,0,0:0:0:0:
172,272,465002,1,0,0:0:0:0:
164,299,465102,1,0,0:0:0:0:
138,384,465302,1,0,0:0:0:0:
75,299,465502,1,0,0:0:0:0:
247,346,465702,2,0,P|302:352|331:343,2,62.9999980773926,2|0|0,0:2|0:0|0:0,0:0:0:0:
345,267,466302,1,2,0:2:0:0:
371,277,466402,1,2,0:2:0:0:
393,294,466502,6,0,L|405:177,1,94.499997116089,2|0,0:2|0:0,0:0:0:0:
387,175,466902,2,0,L|377:84,1,62.9999980773926
245,31,467302,1,2,0:0:0:0:
236,121,467502,1,0,0:0:0:0:
315,81,467702,1,0,0:0:0:0:
175,70,467902,2,0,L|121:85,1,31.4999990386963,2|0,0:0|0:0,0:0:0:0:
67,148,468102,6,0,P|112:150|167:170,1,94.499997116089,2|0,0:2|0:0,0:0:0:0:
181,182,468502,1,0,0:0:0:0:
264,78,468702,1,2,0:2:0:0:
264,106,468802,1,2,0:2:0:0:
265,134,468902,2,0,L|262:246,1,94.499997116089,2|0,0:2|0:0,0:0:0:0:
262,256,469302,1,0,0:0:0:0:
181,182,469502,1,2,0:2:0:0:
346,222,469702,6,0,P|397:225|439:212,1,94.499997116089,6|0,0:2|0:0,0:0:0:0:
460,194,470102,1,0,0:0:0:0:
399,300,470302,1,2,0:2:0:0:
384,147,470502,2,0,L|380:66,1,62.9999980773926,2|0,0:2|0:0,0:0:0:0:
378,56,470802,1,0,0:0:0:0:
375,28,470902,1,0,0:0:0:0:
460,128,471102,1,0,0:0:0:0:
280,55,471302,6,0,L|285:174,1,94.499997116089
271,174,471702,2,0,P|225:167|179:173,1,62.9999980773926
95,213,472102,1,2,0:2:0:0:
139,73,472302,1,2,0:2:0:0:
139,73,472702,1,2,0:2:0:0:
190,250,472902,6,0,P|244:238|306:252,1,94.499997116089,2|0,0:2|0:0,0:0:0:0:
357,273,473302,2,0,L|354:197,1,62.9999980773926,2|0,0:2|0:0,0:0:0:0:
355,211,473902,1,0,0:0:0:0:
362,297,474102,1,0,0:0:0:0:
441,248,474302,1,0,0:0:0:0:
283,266,474502,6,0,P|212:277|184:269,1,94.499997116089
115,251,474902,2,0,L|119:292,2,41.9999987182618,2|2|2,0:2|0:2|0:2,0:0:0:0:
46,178,475302,2,0,L|38:240,1,62.9999980773926,8|0,0:2|0:0,0:0:0:0:
191,271,475702,2,0,L|183:205,1,62.9999980773926,8|0,0:2|0:0,0:0:0:0:
164,67,476102,5,0,0:0:0:0:
251,171,476302,1,2,0:0:0:0:
251,171,476502,1,2,0:0:0:0:
251,171,476702,1,2,0:0:0:0:
318,26,476902,2,0,L|324:134,1,94.499997116089,0|2,0:0|0:0,0:0:0:0:
326,148,477302,1,2,0:0:0:0:
399,78,477502,1,2,0:0:0:0:
401,106,477602,1,2,0:0:0:0:
403,134,477702,5,2,0:0:0:0:
413,302,477902,1,2,0:0:0:0:
466,209,478102,1,0,0:0:0:0:
477,190,478202,1,0,0:0:0:0:
477,190,478502,5,0,0:0:0:0:
334,288,478702,2,0,P|250:318|193:312,1,125.999996154785,0|0,0:0|1:0,0:0:0:0:
131,275,479202,1,0,1:0:0:0:
131,275,479302,6,0,L|124:385,1,90,4|0,0:2|0:0,0:0:0:0:
44,201,479702,2,0,L|38:111,1,90,4|0,0:2|0:0,0:0:0:0:
17,303,480102,1,0,0:0:0:0:
119,158,480302,1,2,0:2:0:0:
159,157,480402,1,2,0:2:0:0:
196,171,480502,1,2,0:2:0:0:
118,45,480702,1,2,0:2:0:0:
173,43,480802,1,2,0:2:0:0:
225,63,480902,5,2,0:2:0:0:
264,234,481102,1,2,0:2:0:0:
345,84,481302,2,0,L|384:23,2,45
254,256,481702,1,2,0:2:0:0:
409,226,481902,1,2,0:2:0:0:
372,208,482002,1,2,0:2:0:0:
331,205,482102,1,2,0:2:0:0:
454,113,482302,1,2,0:2:0:0:
402,88,482402,1,2,0:2:0:0:
345,84,482502,5,6,0:2:0:0:
356,299,482702,1,2,0:2:0:0:
198,211,482902,2,0,L|309:220,1,90,2|0,0:1|0:0,0:0:0:0:
442,228,483302,1,0,0:0:0:0:
236,306,483502,1,0,0:0:0:0:
195,302,483602,1,0,0:0:0:0:
155,295,483702,2,0,P|122:253|141:140,1,135,2|0,0:0|0:0,0:0:0:0:
107,357,484102,5,2,0:2:0:0:
32,161,484302,1,2,0:2:0:0:
239,218,484502,2,0,L|307:235,2,45,2|0|0,0:2|0:2|0:2,0:2:0:0:
40,309,484902,5,2,0:2:0:0:
73,332,485002,1,2,0:2:0:0:
116,342,485102,1,2,0:2:0:0:
159,332,485202,1,2,0:2:0:0:
201,306,485302,5,2,0:2:0:0:
248,287,485402,1,2,0:2:0:0:
301,288,485502,1,2,0:2:0:0:
365,320,485602,1,2,0:2:0:0:
407,384,485702,6,0,L|414:299,1,62.9999980773926,4|0,0:2|2:0,0:0:0:0:
502,334,486102,2,0,L|495:249,1,62.9999980773926,4|0,0:2|2:0,0:0:0:0:
496,271,486702,1,0,0:0:0:0:
493,245,486802,1,0,0:0:0:0:
489,220,486902,6,0,P|447:230|398:223,1,62.9999980773926,0|0,0:0|2:0,2:0:0:0:
405,99,487302,2,0,P|434:130|453:176,1,62.9999980773926,0|0,0:0|2:0,2:0:0:0:
340,234,487702,2,0,P|352:192|382:153,1,62.9999980773926,0|0,0:0|2:0,2:0:0:0:
260,62,488102,6,0,L|270:122,1,41.9999987182618,2|0,0:0|0:0,0:0:0:0:
222,220,488368,2,0,L|215:178,1,41.9999987182618,2|0,0:0|0:0,0:0:0:0:
184,91,488635,5,2,0:2:0:0:
295,180,488788,1,2,0:2:0:0:
320,0,488942,1,6,0:2:0:0:
