osu file format v14

[General]
AudioFilename: audio.mp3
AudioLeadIn: 0
PreviewTime: 67602
Countdown: 0
SampleSet: Soft
StackLeniency: 0.6
Mode: 0
LetterboxInBreaks: 0
SkinPreference:Default
WidescreenStoryboard: 1

[Editor]
DistanceSpacing: 1.4
BeatDivisor: 4
GridSize: 4
TimelineZoom: 2.3

[Metadata]
Title:Maybe (Tronix DJ Remix) (Nightcore Mix)
TitleUnicode:Maybe (Tronix DJ Remix) (Nightcore Mix)
Artist:Freda
ArtistUnicode:Freda
Creator:Andrea
Version:Ex's Hard
Source:
Tags:osuplayer111 Appetible - Ex - -_Ex_- Full Version Female Vocals English Hard Trance Electronic Sped Speed Up
BeatmapID:3456432
BeatmapSetID:1691507

[Difficulty]
HPDrainRate:5
CircleSize:3.8
OverallDifficulty:6.5
ApproachRate:8
SliderMultiplier:1.4
SliderTickRate:1

[Events]
//Background and Video events
0,0,"BG.jpg",0,0
//Break Periods
2,78836,88576
2,122974,127541
//Storyboard Layer 0 (Background)
//Storyboard Layer 1 (Fail)
//Storyboard Layer 2 (Pass)
//Storyboard Layer 3 (Foreground)
//Storyboard Layer 4 (Overlay)
//Storyboard Sound Samples

[TimingPoints]
16,344.827586206897,4,2,1,60,1,0
11050,-125,4,2,1,60,0,0
33119,-111.111111111111,4,2,1,60,0,0
33377,-111.111111111111,4,2,1,5,0,0
33464,-111.111111111111,4,2,1,60,0,0
40016,-100,4,2,1,70,0,0
45188,-100,4,2,1,60,0,0
45533,-90.9090909090909,4,2,1,80,0,1
66222,-111.111111111111,4,2,1,80,0,1
67860,-111.111111111111,4,2,1,5,0,1
67947,-90.9090909090909,4,2,1,80,0,1
69240,-90.9090909090909,4,2,1,5,0,1
69326,-90.9090909090909,4,2,1,80,0,1
70618,-90.9090909090909,4,2,1,5,0,1
70705,-90.9090909090909,4,2,1,80,0,1
71998,-90.9090909090909,4,2,1,5,0,1
72084,-90.9090909090909,4,2,1,80,0,1
73377,-90.9090909090909,4,2,1,5,0,1
73464,-90.9090909090909,4,2,1,80,0,1
74412,-90.9090909090909,4,2,1,80,0,1
74498,-90.9090909090909,4,2,1,80,0,1
76912,-90.9090909090909,4,2,1,80,0,1
77516,-90.9090909090909,4,2,1,5,0,1
77602,-90.9090909090909,4,2,1,80,0,1
78119,-90.9090909090909,4,2,1,70,0,1
78636,-100,4,2,1,70,0,0
99584,-100,4,2,1,5,0,0
99671,-100,4,2,1,70,0,0
100016,-100,4,2,1,60,0,0
100360,-100,4,2,1,70,0,0
106480,-100,4,2,1,5,0,0
106567,-100,4,2,1,70,0,0
107860,-100,4,2,1,5,0,0
107947,-100,4,2,1,70,0,0
109239,-100,4,2,1,5,0,0
109326,-100,4,2,1,70,0,0
114067,-100,4,2,1,5,0,0
114153,-100,4,2,1,70,0,0
114756,-100,4,2,1,5,0,0
114843,-100,4,2,1,70,0,0
117515,-100,4,2,1,5,0,0
117602,-100,4,2,1,70,0,0
118205,-100,4,2,1,5,0,0
118291,-100,4,2,1,70,0,0
118894,-100,4,2,1,5,0,0
118981,-100,4,2,1,70,0,0
119584,-100,4,2,1,5,0,0
119671,-100,4,2,1,70,0,0
122084,-100,4,2,1,60,0,0
122774,-111.111111111111,4,2,1,60,0,0
128291,-100,4,2,1,70,0,0
133809,-90.9090909090909,4,2,1,80,0,1
151653,-90.9090909090909,4,2,1,5,0,1
151740,-90.9090909090909,4,2,1,80,0,1
155878,-100,4,2,1,70,0,0
156136,-100,4,2,1,5,0,0
156222,-100,4,2,1,70,0,0
157515,-100,4,2,1,5,0,0
157602,-100,4,2,1,70,0,0
158894,-100,4,2,1,5,0,0
158981,-100,4,2,1,70,0,0
159671,-100,4,2,1,70,0,0
160360,-100,4,2,1,70,0,0
161653,-100,4,2,1,5,0,0
161740,-100,4,2,1,70,0,0
162429,-100,4,2,1,70,0,0
163032,-100,4,2,1,5,0,0
163119,-100,4,2,1,70,0,0
166567,-100,4,2,1,60,0,0
166912,-100,4,2,1,70,0,0

[Colours]
Combo1 : 239,237,143
Combo2 : 255,128,128
Combo3 : 128,191,255
SliderBorder : 255,128,128
SliderTrackOverride : 128,191,255

[HitObjects]
170,195,11050,6,0,P|90:176|7:158,2,168,6|2|2,1:0|0:0|0:0,0:0:0:0:
227,248,12257,1,2,1:0:0:0:
268,181,12429,6,0,P|348:162|431:144,2,168,2|2|2,1:0|0:0|0:0,0:0:0:0:
227,248,13636,1,2,0:0:0:0:
281,305,13809,5,2,1:0:0:0:
281,305,14153,1,0,0:0:0:0:
340,356,14326,2,0,P|382:348|410:343,1,56,2|10,0:0|0:3,0:0:0:0:
447,286,14671,2,0,P|489:294|517:299,1,56,0|2,0:0|0:0,0:0:0:0:
415,200,15016,1,2,1:0:0:0:
471,145,15188,6,0,P|461:100|457:78,1,56,2|0,1:0|0:0,0:0:0:0:
394,14,15533,2,0,P|384:59|380:81,1,56,2|0,0:0|0:0,0:0:0:0:
344,137,15878,2,0,P|307:127|217:107,1,112,10|2,0:3|0:0,0:0:0:0:
178,56,16395,1,2,0:0:0:0:
126,114,16567,6,0,B|20:86|20:86|50:148,2,168,2|2|2,1:0|0:0|0:0,0:0:0:0:
165,181,17774,1,2,1:0:0:0:
137,254,17947,6,0,B|31:282|31:282|61:220,2,168,2|2|2,1:0|0:0|0:0,0:0:0:0:
165,181,19153,1,2,0:0:0:0:
229,226,19326,5,2,1:0:0:0:
229,226,19671,1,0,0:0:0:0:
265,155,19843,2,0,P|255:110|251:89,1,56,2|10,0:0|0:3,0:0:0:0:
326,71,20188,2,0,P|336:26|340:5,1,56,0|2,0:0|0:0,0:0:0:0:
429,87,20533,1,2,1:0:0:0:
408,172,20705,6,0,P|371:163|339:155,1,56,2|0,1:0|0:0,0:0:0:0:
425,261,21050,2,0,P|462:252|494:244,1,56,2|0,0:0|0:0,0:0:0:0:
396,344,21395,2,0,P|339:334|287:286,1,112,10|2,0:3|0:0,0:0:0:0:
257,233,21912,1,2,0:0:0:0:
201,288,22084,6,0,P|160:297|87:313,1,112,6|2,1:0|0:0,0:0:0:0:
21,275,22602,1,0,0:0:0:0:
21,353,22774,1,10,0:3:0:0:
105,221,23119,2,0,P|93:171|89:149,1,56,2|2,0:0|1:0,0:0:0:0:
95,87,23464,6,0,P|143:97|222:113,1,112,2|2,1:0|0:0,0:0:0:0:
282,123,23981,1,0,0:0:0:0:
237,187,24153,1,10,0:3:0:0:
322,318,24498,2,0,P|364:312|402:307,1,56,2|2,0:0|0:0,0:0:0:0:
455,301,24843,6,0,P|473:254|458:171,1,112,2|0,1:0|0:0,0:0:0:0:
419,131,25360,2,0,P|386:140|347:152,1,56,2|10,0:0|0:3,0:0:0:0:
326,214,25705,2,0,P|293:205|254:193,1,56,0|2,0:0|0:0,0:0:0:0:
201,164,26050,1,2,1:0:0:0:
148,222,26222,6,0,P|160:258|169:290,1,56,2|0,1:0|0:0,0:0:0:0:
66,192,26567,2,0,P|78:156|87:124,1,56,2|0,0:0|0:0,0:0:0:0:
84,60,26912,1,10,0:3:0:0:
201,164,27257,1,2,0:0:0:0:
298,41,27602,6,0,P|351:17|417:26,1,112,2|0,1:0|0:0,0:0:0:0:
470,61,28119,1,2,0:0:0:0:
438,132,28291,2,0,P|451:179|459:212,1,56,10|0,0:3|0:0,0:0:0:0:
476,260,28636,1,2,0:0:0:0:
361,367,28981,6,0,P|303:355|237:342,1,112,2|2,1:0|0:0,0:0:0:0:
208,279,29498,1,0,0:0:0:0:
142,322,29671,2,0,P|151:356|158:387,1,56,10|0,0:3|0:0,0:0:0:0:
58,291,30016,1,2,0:0:0:0:
156,169,30360,6,0,P|203:183|286:211,1,112,2|0,1:0|0:0,0:0:0:0:
334,236,30878,2,0,P|324:280|317:315,1,56,2|10,0:0|0:3,0:0:0:0:
413,184,31222,2,0,P|423:228|430:263,1,56,2|0,0:0|0:0,0:0:0:0:
334,132,31567,1,2,1:0:0:0:
417,40,31740,5,2,1:0:0:0:
256,192,31826,12,6,33119,1:0:0:0:
83,137,34498,5,6,0:0:0:0:
83,137,34671,2,0,P|147:118|227:98,1,125.999996154785,2|2,0:0|0:0,0:0:0:0:
291,78,35188,1,2,0:0:0:0:
291,78,35361,2,0,P|355:97|435:117,1,125.999996154785,2|2,0:0|0:0,0:0:0:0:
502,183,35878,6,0,L|482:258,1,62.9999980773926,2|2,0:0|0:0,0:0:0:0:
426,308,36222,2,0,L|446:383,1,62.9999980773926,2|2,0:0|0:0,0:0:0:0:
342,256,36567,1,2,0:0:0:0:
342,256,36740,1,2,0:0:0:0:
305,340,36912,2,0,P|275:351|230:359,1,62.9999980773926,2|2,0:0|0:0,0:0:0:0:
128,353,37257,5,2,0:0:0:0:
128,353,37429,2,0,P|83:325|67:248,1,125.999996154785,2|2,0:0|0:0,0:0:0:0:
103,177,37947,1,2,0:0:0:0:
103,177,38119,2,0,P|166:162|245:146,1,125.999996154785,2|2,0:0|0:0,0:0:0:0:
319,144,38636,6,0,P|354:157|393:172,1,62.9999980773926,2|2,0:0|0:0,0:0:0:0:
453,211,38981,2,0,P|488:198|527:183,1,62.9999980773926,2|2,0:0|0:0,0:0:0:0:
432,96,39326,1,2,0:0:0:0:
480,22,39498,2,0,L|514:35,2,31.4999990386963,2|2|2,0:0|0:0|0:0,0:0:0:0:
380,28,39843,5,0,1:0:0:0:
380,28,39929,1,0,1:0:0:0:
380,28,40016,1,6,1:0:0:0:
257,180,40360,1,0,1:0:0:0:
110,49,40705,1,2,1:0:0:0:
6,215,41050,1,0,1:0:0:0:
190,281,41395,6,0,P|228:271|272:259,2,70,6|2|0,1:0|0:0|1:0,0:0:0:0:
106,229,41912,1,0,0:0:0:0:
175,159,42084,2,0,P|213:169|257:181,2,70,2|2|0,1:0|0:0|1:0,0:0:0:0:
89,115,42602,5,6,1:0:0:0:
89,115,42688,1,2,1:0:0:0:
89,115,42774,2,0,P|104:67|115:30,1,70,6|0,1:0|1:0,0:0:0:0:
196,1,43119,2,0,P|211:49|222:86,1,70,2|0,1:0|1:0,0:0:0:0:
298,121,43464,2,0,L|348:107,3,35,2|0|0|0,1:0|1:0|1:0|1:0,0:0:0:0:
358,92,43809,2,0,L|408:106,3,35,2|0|6|2,1:0|1:0|1:0|1:0,0:0:0:0:
419,127,44153,6,0,P|483:113|513:106,1,70,6|2,1:0|0:0,0:0:0:0:
415,237,44498,2,0,P|351:223|321:216,1,70,6|2,0:0|0:0,0:0:0:0:
326,215,44757,1,2,0:0:0:0:
305,209,44843,1,2,0:0:0:0:
234,277,45016,1,2,0:0:0:0:
297,351,45188,2,0,L|338:342,3,35,2|0|0|0,1:0|1:0|1:0|1:0,0:0:0:0:
361,340,45533,5,6,1:0:0:0:
456,289,45705,2,0,P|482:247|465:130,1,154.000004699707,2|2,0:0|0:0,0:0:0:0:
413,57,46222,1,2,1:0:0:0:
338,135,46395,2,0,P|291:123|254:113,1,77.0000023498536,2|0,0:0|1:0,0:0:0:0:
168,63,46740,1,2,0:0:0:0:
95,142,46912,6,0,P|109:189|119:223,1,77.0000023498536,2|2,1:0|0:0,0:0:0:0:
131,233,47171,1,2,0:0:0:0:
144,251,47257,2,0,P|130:298|120:332,1,77.0000023498536,2|2,1:0|0:0,0:0:0:0:
235,207,47602,1,2,1:0:0:0:
235,207,47774,1,2,0:0:0:0:
300,292,47947,2,0,P|330:314|397:333,1,77.0000023498536,2|2,1:0|0:0,0:0:0:0:
389,324,48205,1,2,0:0:0:0:
410,317,48291,5,2,1:0:0:0:
490,244,48464,2,0,P|477:180|383:127,1,154.000004699707,2|2,0:0|0:0,0:0:0:0:
319,68,48981,1,2,1:0:0:0:
237,137,49153,2,0,P|246:179|256:232,1,77.0000023498536,2|0,0:0|1:0,0:0:0:0:
268,319,49498,1,2,0:0:0:0:
164,286,49671,6,0,P|118:270|84:260,1,77.0000023498536,2|2,1:0|0:0,0:0:0:0:
68,255,49929,1,2,0:0:0:0:
45,247,50016,2,0,P|30:203|28:156,1,77.0000023498536,2|2,1:0|0:0,0:0:0:0:
55,72,50360,1,2,1:0:0:0:
55,72,50533,1,2,0:0:0:0:
152,118,50705,2,0,P|196:108|241:97,1,77.0000023498536,2|2,1:0|0:0,0:0:0:0:
250,103,50964,1,2,0:0:0:0:
270,113,51050,5,2,1:0:0:0:
238,215,51222,2,0,P|282:225|413:253,1,154.000004699707,2|2,0:0|0:0,0:0:0:0:
494,221,51740,1,2,1:0:0:0:
450,122,51912,2,0,P|462:77|472:38,1,77.0000023498536,2|8,0:0|1:0,0:0:0:0:
345,144,52257,1,2,0:0:0:0:
256,82,52429,6,0,P|199:62|174:55,1,77.0000023498536,2|2,1:0|0:0,0:0:0:0:
163,44,52688,1,2,0:0:0:0:
142,34,52774,2,0,P|85:54|60:61,1,77.0000023498536,10|2,1:0|0:0,0:0:0:0:
5,146,53119,1,2,1:0:0:0:
5,146,53291,1,2,0:0:0:0:
95,205,53464,2,0,P|152:185|177:178,1,77.0000023498536,10|10,1:0|1:0,0:0:0:0:
190,175,53722,1,8,1:0:0:0:
212,171,53809,5,2,1:0:0:0:
305,224,53981,2,0,P|292:290|270:392,1,154.000004699707,2|2,0:0|0:0,0:0:0:0:
191,267,54498,1,2,1:0:0:0:
128,355,54671,2,0,P|89:369|47:376,1,77.0000023498536,2|8,0:0|1:0,0:0:0:0:
1,280,55016,1,2,0:0:0:0:
52,185,55188,6,0,P|91:199|133:206,1,77.0000023498536,2|2,1:0|0:0,0:0:0:0:
147,196,55447,1,2,0:0:0:0:
169,190,55533,2,0,P|208:176|250:169,1,77.0000023498536,10|2,1:0|0:0,0:0:0:0:
333,238,55878,1,2,1:0:0:0:
333,238,56050,1,2,0:0:0:0:
411,164,56222,2,0,P|419:122|419:68,1,77.0000023498536,10|10,1:0|1:0,0:0:0:0:
413,65,56481,1,8,1:0:0:0:
402,44,56567,5,4,1:0:0:0:
324,119,56740,2,0,P|248:125|174:86,1,154.000004699707,2|2,0:0|0:0,0:0:0:0:
104,14,57257,1,2,1:0:0:0:
25,87,57429,2,0,P|38:130|50:173,1,77.0000023498536,2|8,0:0|1:0,0:0:0:0:
26,267,57774,1,2,0:0:0:0:
109,337,57947,5,2,1:0:0:0:
187,263,58119,2,0,P|176:223|172:207,2,38.5000011749268,2|2|10,0:0|0:0|1:0,0:0:0:0:
257,345,58464,1,2,0:0:0:0:
337,273,58636,2,0,P|396:292|431:303,1,77.0000023498536,2|2,1:0|0:0,0:0:0:0:
504,243,58981,1,10,1:0:0:0:
459,144,59153,6,0,P|469:102|474:81,2,38.5000011749268,10|8|2,1:0|1:0|1:0,0:0:0:0:
358,184,59498,2,0,P|307:173|190:143,1,154.000004699707,2|2,0:0|0:0,0:0:0:0:
178,252,60016,1,2,1:0:0:0:
268,310,60188,2,0,P|319:299|362:290,1,77.0000023498536,2|8,0:0|1:0,0:0:0:0:
198,376,60533,1,2,0:0:0:0:
113,311,60705,5,2,1:0:0:0:
160,213,60878,2,0,L|199:222,2,38.5000011749268,2|2|10,0:0|0:0|1:0,0:0:0:0:
54,192,61222,1,2,0:0:0:0:
105,96,61395,2,0,P|93:48|85:14,1,77.0000023498536,2|2,1:0|0:0,0:0:0:0:
212,118,61740,1,10,1:0:0:0:
291,45,61912,6,0,P|304:9|308:-3,2,38.5000011749268,10|8|2,1:0|1:0|1:0,0:0:0:0:
212,118,62257,2,0,P|226:166|255:285,1,154.000004699707,2|2,0:0|0:0,0:0:0:0:
184,351,62774,1,2,1:0:0:0:
292,359,62947,2,0,P|346:349|380:342,1,77.0000023498536,2|8,0:0|1:0,0:0:0:0:
473,365,63291,1,2,0:0:0:0:
510,263,63464,5,2,1:0:0:0:
414,213,63636,2,0,P|370:225|356:228,2,38.5000011749268,2|2|10,0:0|0:0|1:0,0:0:0:0:
506,157,63981,1,2,0:0:0:0:
424,87,64153,2,0,P|437:35|448:-9,1,77.0000023498536,2|2,1:0|0:0,0:0:0:0:
331,129,64498,1,10,1:0:0:0:
255,51,64671,6,0,P|210:34|191:28,2,38.5000011749268,10|8|2,1:0|1:0|1:0,0:0:0:0:
331,129,65016,2,0,P|316:183|292:284,1,154.000004699707,2|2,0:0|0:0,0:0:0:0:
235,369,65533,1,2,1:0:0:0:
180,276,65705,2,0,P|139:288|99:301,1,77.0000023498536,2|8,0:0|1:0,0:0:0:0:
6,269,66050,5,2,0:0:0:0:
6,269,66136,1,2,0:0:0:0:
6,269,66222,2,0,P|19:203|23:187,1,62.9999980773926,4|0,1:0|0:0,0:0:0:0:
79,131,66567,2,0,P|66:65|62:49,1,62.9999980773926,8|0,0:3|0:0,0:0:0:0:
171,165,66912,5,2,0:0:0:0:
171,165,67084,1,0,0:0:0:0:
229,82,67257,2,0,P|269:93|308:104,1,62.9999980773926,8|0,0:3|1:0,0:0:0:0:
303,112,67516,1,0,1:0:0:0:
316,125,67602,1,4,1:0:0:0:
395,56,67774,1,0,0:0:0:0:
437,155,67947,6,0,P|483:144|516:137,1,77.0000023498536,8|0,1:0|0:0,0:0:0:0:
418,269,68291,2,0,P|372:258|339:251,1,77.0000023498536,2|0,1:0|0:0,0:0:0:0:
237,277,68636,2,0,P|252:330|261:364,1,77.0000023498536,8|0,1:0|0:0,0:0:0:0:
137,243,68981,6,0,P|113:186|132:112,1,115.50000352478,2|0,1:0|0:0,0:0:0:0:
131,113,69326,2,0,P|180:127|211:134,1,77.0000023498536,8|0,1:0|0:0,0:0:0:0:
271,47,69671,2,0,P|320:33|351:26,1,77.0000023498536,2|0,1:0|0:0,0:0:0:0:
450,54,70016,1,8,1:0:0:0:
419,161,70188,5,8,1:0:0:0:
419,161,70274,1,8,1:0:0:0:
419,161,70360,2,0,P|370:147|339:140,1,77.0000023498536,2|0,1:0|0:0,0:0:0:0:
284,231,70705,2,0,P|235:245|204:252,1,77.0000023498536,8|0,1:0|0:0,0:0:0:0:
149,341,71050,2,0,P|100:327|69:320,1,77.0000023498536,2|0,1:0|0:0,0:0:0:0:
1,241,71395,2,0,P|50:227|81:220,1,77.0000023498536,8|0,1:0|0:0,0:0:0:0:
170,169,71740,6,0,P|163:121|150:43,1,115.50000352478,2|0,1:0|0:0,0:0:0:0:
164,35,72084,2,0,P|215:49|246:57,1,77.0000023498536,8|0,1:0|0:0,0:0:0:0:
313,130,72429,2,0,P|364:116|395:108,1,77.0000023498536,2|0,1:0|0:0,0:0:0:0:
254,215,72774,1,8,1:0:0:0:
337,299,72947,5,8,1:0:0:0:
337,299,73033,1,8,1:0:0:0:
337,299,73119,1,6,1:0:0:0:
420,231,73291,1,0,0:0:0:0:
496,307,73464,2,0,P|483:350|475:384,1,77.0000023498536,8|0,1:0|0:0,0:0:0:0:
420,231,73809,2,0,P|433:188|441:154,1,77.0000023498536,2|0,1:0|0:0,0:0:0:0:
400,56,74153,2,0,P|351:38|269:56,1,115.50000352478,8|2,1:0|0:0,0:0:0:0:
269,62,74498,5,6,1:0:0:0:
97,192,74843,2,0,P|51:180|16:172,1,77.0000023498536,8|0,1:0|0:0,0:0:0:0:
97,295,75188,2,0,P|143:283|178:275,1,77.0000023498536,6|0,1:0|0:0,0:0:0:0:
258,211,75533,1,8,1:0:0:0:
334,300,75705,5,8,1:0:0:0:
334,300,75791,1,8,1:0:0:0:
334,300,75878,2,0,P|316:361|309:385,1,77.0000023498536,6|0,1:0|0:0,0:0:0:0:
419,246,76222,2,0,P|437:307|444:331,1,77.0000023498536,8|0,1:0|0:0,0:0:0:0:
334,192,76567,2,0,P|316:253|309:277,1,77.0000023498536,6|0,1:0|0:0,0:0:0:0:
419,138,76912,1,8,1:0:0:0:
352,67,77084,5,8,1:0:0:0:
352,67,77171,1,8,1:0:0:0:
352,67,77257,2,0,P|304:79|207:106,1,115.50000352478,6|0,1:0|0:0,0:0:0:0:
220,112,77602,2,0,P|165:99|132:92,1,77.0000023498536,4|0,1:0|0:0,0:0:0:0:
61,25,77947,1,6,1:0:0:0:
10,120,78119,2,0,L|22:166,1,38.5000011749268,0|0,1:0|1:0,0:0:0:0:
32,186,78291,2,0,L|24:243,3,38.5000011749268,8|0|0|0,1:0|1:0|1:0|1:0,0:0:0:0:
25,259,78636,5,6,1:0:0:0:
32,102,89326,6,0,L|66:114,3,35,10|2|2|10,1:0|0:0|0:0|1:0,0:0:0:0:
85,129,89671,2,0,P|131:117|226:94,1,140,6|8,1:0|1:0,0:0:0:0:
302,149,90188,1,0,0:0:0:0:
238,222,90360,2,0,P|251:274|259:309,1,70,2|2,1:0|0:0,0:0:0:0:
260,310,90619,1,2,0:0:0:0:
265,330,90705,2,0,P|304:356|336:366,1,70,8|0,1:0|0:0,0:0:0:0:
418,331,91050,6,0,P|452:277|447:196,1,140,2|8,1:0|1:0,0:0:0:0:
458,104,91567,1,0,0:0:0:0:
365,133,91740,2,0,P|311:121|271:111,1,70,2|0,1:0|0:0,0:0:0:0:
225,50,92084,1,10,1:0:0:0:
160,124,92257,5,10,1:0:0:0:
160,124,92343,1,10,1:0:0:0:
160,124,92429,2,0,P|173:179|193:269,1,140,2|8,1:0|1:0,0:0:0:0:
137,343,92947,1,0,0:0:0:0:
53,292,93119,2,0,P|63:241|71:201,1,70,2|2,1:0|0:0,0:0:0:0:
73,203,93378,1,2,0:0:0:0:
80,179,93464,2,0,L|62:95,1,70,8|0,1:0|0:0,0:0:0:0:
126,33,93809,6,0,P|186:12|276:30,1,140,2|8,1:0|1:0,0:0:0:0:
326,94,94326,1,0,0:0:0:0:
257,163,94498,2,0,P|219:153|180:143,1,70,2|2,1:0|0:0,0:0:0:0:
168,140,94757,1,2,0:0:0:0:
147,136,94843,1,8,1:0:0:0:
219,259,95016,5,10,1:0:0:0:
219,259,95102,1,10,1:0:0:0:
219,259,95188,2,0,P|275:246|367:226,1,140,6|8,1:0|1:0,0:0:0:0:
431,290,95705,1,0,0:0:0:0:
492,213,95878,2,0,P|501:170|505:138,1,70,2|2,1:0|0:0,0:0:0:0:
495,125,96136,1,2,0:0:0:0:
487,105,96222,2,0,P|498:52|506:12,1,70,8|6,1:0|1:0,0:0:0:0:
377,96,96567,6,0,P|302:90|237:56,1,140,6|8,1:0|1:0,0:0:0:0:
157,16,97084,1,0,0:0:0:0:
77,74,97257,2,0,P|36:63|-1:53,2,70,6|2|8,1:0|0:0|1:0,0:0:0:0:
158,146,97774,5,2,1:0:0:0:
158,146,97860,1,2,1:0:0:0:
158,146,97947,2,0,P|144:192|134:224,1,70,6|2,1:0|0:0,0:0:0:0:
257,236,98291,2,0,P|271:282|281:314,1,70,8|2,1:0|0:0,0:0:0:0:
168,366,98636,2,0,P|121:351|93:343,1,70,6|2,1:0|0:0,0:0:0:0:
8,352,98981,1,8,1:0:0:0:
13,258,99153,5,6,1:0:0:0:
13,258,99240,1,2,1:0:0:0:
13,258,99326,2,0,P|60:243|88:235,1,70,6|0,1:0|0:0,0:0:0:0:
166,190,99671,2,0,P|213:205|241:213,1,70,14|0,1:0|0:0,0:0:0:0:
303,279,100016,2,0,L|343:267,3,35,6|0|0|0,1:0|1:0|1:0|1:0,0:0:0:0:
360,262,100360,2,0,L|400:274,3,35,14|0|8|8,1:0|1:0|1:0|1:0,0:0:0:0:
416,283,100705,5,6,1:0:0:0:
416,283,101740,1,6,1:0:0:0:
482,211,101912,1,6,1:0:0:0:
405,149,102084,6,0,P|420:84|437:1,1,140,6|2,1:0|1:0,0:0:0:0:
314,77,102602,2,0,P|258:60|173:36,1,140,2|0,0:0|0:0,0:0:0:0:
82,21,103119,2,0,P|64:57|47:96,1,70,2|0,1:0|0:0,0:0:0:0:
10,173,103464,5,2,1:0:0:0:
10,173,103809,1,2,1:0:0:0:
90,228,103981,2,0,P|134:216|167:208,1,70,2|0,0:0|1:0,0:0:0:0:
230,143,104326,2,0,P|274:155|307:163,1,70,2|0,0:0|1:0,0:0:0:0:
389,124,104671,6,0,P|436:170|438:257,1,140,2|0,0:0|0:0,0:0:0:0:
414,335,105188,2,0,P|369:322|336:313,1,70,2|0,1:0|0:0,0:0:0:0:
254,254,105533,2,0,P|299:241|332:232,1,70,2|0,1:0|0:0,0:0:0:0:
251,350,105878,1,2,1:0:0:0:
55,350,106222,6,0,P|20:284|38:199,1,140,2|8,1:0|1:0,0:0:0:0:
44,123,106740,2,0,P|97:142|184:173,1,140,2|0,0:0|0:0,0:0:0:0:
248,236,107257,2,0,L|323:219,1,70,8|2,1:0|0:0,0:0:0:0:
407,257,107602,6,0,B|430:211|430:211|402:120,1,140,2|8,1:0|1:0,0:0:0:0:
462,46,108119,2,0,P|402:29|318:13,1,140,2|0,0:0|0:0,0:0:0:0:
252,80,108636,1,8,1:0:0:0:
182,25,108809,5,10,1:0:0:0:
182,25,108895,1,10,1:0:0:0:
182,25,108981,2,0,P|130:40|98:48,1,70,2|0,1:0|0:0,0:0:0:0:
27,90,109326,1,8,1:0:0:0:
94,160,109498,2,0,P|140:148|178:140,1,70,2|2,0:0|1:0,0:0:0:0:
78,256,109843,2,0,P|32:244|-6:236,1,70,2|8,0:0|1:0,0:0:0:0:
113,350,110188,5,2,1:0:0:0:
113,350,110274,1,2,1:0:0:0:
113,350,110360,2,0,P|167:335|191:329,1,70,6|0,1:0|0:0,0:0:0:0:
256,269,110705,2,0,P|310:284|334:290,1,70,8|0,1:0|0:0,0:0:0:0:
207,174,111050,2,0,P|194:98|220:34,1,140,2|8,1:0|1:0,0:0:0:0:
315,16,111567,5,8,1:0:0:0:
315,16,111653,1,8,1:0:0:0:
315,16,111740,2,0,P|362:30|396:41,1,70,6|0,1:0|0:0,0:0:0:0:
475,9,112084,1,8,1:0:0:0:
505,102,112257,2,0,P|494:142|467:248,1,140,2|0,0:0|0:0,0:0:0:0:
407,314,112774,2,0,P|451:345|490:353,1,70,8|2,1:0|0:0,0:0:0:0:
375,221,113119,6,0,P|321:230|288:252,1,70,2|0,1:0|0:0,0:0:0:0:
255,320,113464,1,8,1:0:0:0:
173,265,113636,2,0,P|186:205|204:124,1,140,2|0,0:0|0:0,0:0:0:0:
231,34,114153,1,8,1:0:0:0:
141,58,114326,5,8,1:0:0:0:
141,58,114412,1,8,1:0:0:0:
141,58,114498,2,0,P|89:45|56:36,1,70,2|0,1:0|0:0,0:0:0:0:
12,118,114843,1,8,1:0:0:0:
81,188,115016,2,0,P|132:179|162:174,1,70,2|2,0:0|1:0,0:0:0:0:
204,256,115360,2,0,P|255:247|285:242,1,70,2|8,0:0|1:0,0:0:0:0:
346,178,115705,1,2,0:0:0:0:
394,263,115878,6,0,P|383:312|375:355,1,70,2|0,1:0|0:0,0:0:0:0:
475,211,116222,2,0,P|464:162|456:119,1,70,8|0,1:0|0:0,0:0:0:0:
409,58,116567,2,0,P|343:25|266:46,1,140,2|8,1:0|1:0,0:0:0:0:
215,110,117084,5,8,1:0:0:0:
215,110,117171,1,8,1:0:0:0:
215,110,117257,2,0,P|226:158|234:198,1,70,6|0,1:0|0:0,0:0:0:0:
277,264,117602,1,8,1:0:0:0:
211,336,117774,2,0,P|156:323|62:304,1,140,2|0,0:0|0:0,0:0:0:0:
28,224,118291,1,8,1:0:0:0:
28,224,118464,1,6,1:0:0:0:
97,154,118636,6,0,P|86:104|79:73,1,70,6|0,1:0|0:0,0:0:0:0:
145,10,118981,1,8,1:0:0:0:
215,77,119153,2,0,P|275:108|366:105,1,140,2|0,0:0|0:0,0:0:0:0:
420,44,119671,1,8,1:0:0:0:
494,122,119843,5,8,1:0:0:0:
494,122,119929,1,8,1:0:0:0:
494,122,120016,2,0,P|482:163|472:204,1,70,6|0,1:0|1:0,0:0:0:0:
392,289,120360,2,0,P|380:248|370:207,1,70,10|0,1:0|1:0,0:0:0:0:
483,345,120705,1,6,1:0:0:0:
483,345,120878,1,0,1:0:0:0:
391,380,121050,2,0,P|334:370|300:364,1,70,10|8,1:0|1:0,0:0:0:0:
307,352,121309,1,8,1:0:0:0:
292,337,121395,6,0,P|245:346|199:355,1,70,6|0,1:0|1:0,0:0:0:0:
166,270,121740,2,0,P|213:261|259:252,1,70,10|0,1:0|1:0,0:0:0:0:
308,192,122084,2,0,L|296:150,3,35,2|0|0|0,1:0|1:0|1:0|1:0,0:0:0:0:
280,141,122429,2,0,L|292:99,3,35,8|0|0|0,1:0|1:0|1:0|1:0,0:0:0:0:
298,83,122774,5,6,1:0:0:0:
328,110,128291,6,0,P|381:101|473:84,2,140,6|2|2,1:0|1:0|1:0,0:0:0:0:
164,219,129326,1,2,1:0:0:0:
18,87,129671,2,0,P|64:41|148:35,2,140,6|2|6,1:0|1:0|1:0,0:0:0:0:
3,282,130705,1,2,1:0:0:0:
3,282,130878,1,0,1:0:0:0:
79,342,131050,6,0,P|131:332|171:324,1,70,6|2,1:0|0:0,0:0:0:0:
162,313,131309,1,2,0:0:0:0:
178,300,131395,2,0,P|230:310|270:318,1,70,2|0,1:0|1:0,0:0:0:0:
333,360,131740,2,0,P|343:308|351:268,1,70,6|2,1:0|0:0,0:0:0:0:
362,277,131999,1,2,0:0:0:0:
375,261,132084,1,6,1:0:0:0:
325,176,132257,6,0,L|291:186,2,35,0|0|6,1:0|1:0|1:0,0:0:0:0:
376,92,132602,1,2,0:0:0:0:
316,14,132774,2,0,P|260:25|231:30,1,70,6|0,1:0|1:0,0:0:0:0:
168,86,133119,2,0,L|116:72,3,35,6|0|0|0,1:0|1:0|1:0|1:0,0:0:0:0:
114,62,133464,2,0,L|62:76,3,35,6|0|0|0,1:0|1:0|1:0|1:0,0:0:0:0:
56,81,133809,5,6,1:0:0:0:
36,186,133981,2,0,L|-6:176,2,38.5000011749268,2|2|0,0:0|0:0|1:0,0:0:0:0:
136,226,134326,1,2,0:0:0:0:
77,316,134498,2,0,P|122:345|154:353,1,77.0000023498536,2|2,1:0|0:0,0:0:0:0:
166,346,134757,1,2,0:0:0:0:
188,341,134843,2,0,P|233:312|265:304,1,77.0000023498536,0|2,1:0|0:0,0:0:0:0:
350,356,135188,6,0,P|405:368|490:338,1,115.50000352478,2|2,1:0|0:0,0:0:0:0:
480,340,135533,2,0,P|470:290|462:255,1,77.0000023498536,0|2,1:0|0:0,0:0:0:0:
393,182,135878,2,0,P|346:200|308:214,2,77.0000023498536,2|2|2,1:0|0:0|1:0,0:0:0:0:
462,99,136395,1,2,0:0:0:0:
405,7,136567,5,2,1:0:0:0:
320,74,136740,2,0,L|337:130,2,38.5000011749268,2|2|0,0:0|0:0|1:0,0:0:0:0:
228,17,137084,1,2,0:0:0:0:
174,111,137257,2,0,P|121:103|81:97,1,77.0000023498536,2|2,1:0|0:0,0:0:0:0:
74,97,137516,1,2,0:0:0:0:
51,95,137602,2,0,P|40:143|32:176,1,77.0000023498536,0|2,1:0|0:0,0:0:0:0:
31,278,137947,6,0,P|85:263|148:247,1,115.50000352478,2|2,1:0|0:0,0:0:0:0:
161,234,138291,2,0,P|213:243|253:251,1,77.0000023498536,0|2,1:0|0:0,0:0:0:0:
344,258,138636,2,0,L|326:347,2,77.0000023498536,2|2|2,1:0|0:0|1:0,0:0:0:0:
417,178,139153,1,2,0:0:0:0:
313,145,139326,6,0,P|287:85|310:18,1,115.50000352478,2|2,1:0|0:0,0:0:0:0:
315,23,139671,2,0,P|387:37|408:40,1,77.0000023498536,8|2,1:0|0:0,0:0:0:0:
491,76,140016,1,2,1:0:0:0:
434,167,140188,2,0,L|387:156,2,38.5000011749268,2|2|8,0:0|0:0|1:0,0:0:0:0:
501,251,140533,1,2,0:0:0:0:
445,342,140705,6,0,P|386:325|306:305,1,115.50000352478,2|2,1:0|0:0,0:0:0:0:
311,299,141050,2,0,P|267:313|232:323,1,77.0000023498536,8|2,1:0|0:0,0:0:0:0:
135,359,141395,1,2,1:0:0:0:
55,286,141567,2,0,L|15:303,2,38.5000011749268,2|2|8,0:0|0:0|1:0,0:0:0:0:
142,222,141912,1,10,1:0:0:0:
49,167,142084,6,0,P|34:105|60:42,1,115.50000352478,2|2,1:0|0:0,0:0:0:0:
66,41,142429,2,0,P|126:54|164:63,1,77.0000023498536,8|2,1:0|0:0,0:0:0:0:
216,135,142774,2,0,P|276:122|314:113,1,77.0000023498536,2|2,1:0|0:0,0:0:0:0:
313,112,143033,1,2,0:0:0:0:
335,108,143119,2,0,P|355:145|357:195,1,77.0000023498536,8|2,1:0|0:0,0:0:0:0:
275,248,143464,6,0,P|207:233|154:222,1,115.50000352478,2|2,1:0|0:0,0:0:0:0:
136,218,143809,2,0,P|95:228|54:240,1,77.0000023498536,8|2,1:0|0:0,0:0:0:0:
7,330,144153,2,0,P|48:340|89:352,1,77.0000023498536,2|2,1:0|0:0,0:0:0:0:
186,375,144498,2,0,P|227:365|268:353,1,77.0000023498536,10|10,1:0|1:0,0:0:0:0:
282,349,144757,1,10,1:0:0:0:
304,344,144843,6,0,P|345:354|386:366,1,77.0000023498536,6|0,1:0|0:0,0:0:0:0:
461,293,145188,1,8,1:0:0:0:
392,220,145360,1,2,0:0:0:0:
392,220,145447,1,2,0:0:0:0:
392,220,145533,2,0,P|403:170|423:96,1,115.50000352478,2|2,1:0|0:0,0:0:0:0:
437,90,145878,2,0,P|425:40|417:4,1,77.0000023498536,8|2,1:0|0:0,0:0:0:0:
323,94,146222,6,0,P|268:78|202:62,1,115.50000352478,2|2,1:0|0:0,0:0:0:0:
193,49,146567,2,0,P|136:59|103:65,1,77.0000023498536,8|2,1:0|0:0,0:0:0:0:
9,64,146912,2,0,P|23:111|35:149,1,77.0000023498536,2|2,1:0|0:0,0:0:0:0:
97,255,147257,2,0,P|111:208|123:170,1,77.0000023498536,8|10,1:0|1:0,0:0:0:0:
128,159,147516,1,8,1:0:0:0:
137,138,147602,6,0,P|191:126|231:119,1,77.0000023498536,2|0,1:0|0:0,0:0:0:0:
295,191,147947,1,8,1:0:0:0:
359,105,148119,2,0,L|352:63,2,38.5000011749268,2|2|2,0:0|0:0|1:0,0:0:0:0:
446,185,148464,1,2,0:0:0:0:
446,185,148550,1,2,0:0:0:0:
446,185,148636,2,0,P|431:240|422:270,1,77.0000023498536,8|2,1:0|0:0,0:0:0:0:
325,299,148981,6,0,P|340:354|349:384,1,77.0000023498536,2|2,1:0|0:0,0:0:0:0:
233,301,149326,2,0,P|178:286|148:277,1,77.0000023498536,8|2,1:0|0:0,0:0:0:0:
278,203,149671,2,0,P|333:188|363:179,2,77.0000023498536,2|2|8,1:0|0:0|1:0,0:0:0:0:
179,159,150188,5,10,1:0:0:0:
179,159,150274,1,10,1:0:0:0:
179,159,150360,2,0,P|191:103|202:54,1,77.0000023498536,2|2,1:0|0:0,0:0:0:0:
90,3,150705,2,0,P|102:59|113:108,1,77.0000023498536,8|2,1:0|0:0,0:0:0:0:
75,181,151050,2,0,P|19:171|-12:165,1,77.0000023498536,2|2,1:0|0:0,0:0:0:0:
112,274,151395,2,0,P|171:268|231:226,1,115.50000352478,8|0,1:0|0:0,0:0:0:0:
235,220,151740,6,0,P|289:206|317:201,1,77.0000023498536,2|2,1:0|0:0,0:0:0:0:
361,296,152084,2,0,P|415:310|443:315,1,77.0000023498536,8|2,1:0|0:0,0:0:0:0:
492,221,152429,1,2,1:0:0:0:
492,221,152602,1,2,0:0:0:0:
422,139,152774,2,0,P|433:88|441:47,1,77.0000023498536,8|10,1:0|1:0,0:0:0:0:
444,41,153033,1,10,1:0:0:0:
450,18,153119,5,2,1:0:0:0:
289,162,153464,2,0,P|299:215|307:254,1,77.0000023498536,8|2,1:0|0:0,0:0:0:0:
401,282,153809,2,0,P|391:335|383:374,1,77.0000023498536,2|2,1:0|0:0,0:0:0:0:
279,371,154153,2,0,P|230:359|188:349,1,77.0000023498536,8|2,1:0|0:0,0:0:0:0:
181,348,154412,1,2,0:0:0:0:
158,342,154498,5,6,1:0:0:0:
256,192,154584,12,6,155878,1:0:0:0:
363,291,156222,6,0,P|378:341|388:377,1,70,8|0,1:0|0:0,0:0:0:0:
263,250,156567,2,0,P|248:300|238:336,1,70,2|0,1:0|0:0,0:0:0:0:
355,198,156912,1,8,1:0:0:0:
297,120,157084,5,2,0:0:0:0:
297,120,157171,1,2,0:0:0:0:
297,120,157257,2,0,P|306:76|315:34,1,70,2|0,1:0|0:0,0:0:0:0:
191,150,157602,2,0,P|141:138|105:128,1,70,8|2,1:0|0:0,0:0:0:0:
41,78,157947,2,0,P|53:37|65:-5,1,70,2|2,1:0|0:0,0:0:0:0:
7,172,158291,2,0,P|19:210|32:251,1,70,8|2,1:0|0:0,0:0:0:0:
33,259,158550,1,2,0:0:0:0:
39,279,158636,5,2,1:0:0:0:
219,374,158981,2,0,P|274:363|310:355,1,70,8|2,1:0|0:0,0:0:0:0:
381,329,159326,1,2,1:0:0:0:
339,240,159498,2,0,L|351:179,2,35,2|2|10,0:0|0:0|1:0,0:0:0:0:
254,290,159843,1,2,0:0:0:0:
177,230,160016,6,0,L|161:140,1,70,2|2,1:0|0:0,0:0:0:0:
160,140,160274,1,2,0:0:0:0:
154,119,160360,2,0,L|243:93,1,70,8|2,1:0|0:0,0:0:0:0:
316,74,160705,2,0,P|302:129|296:157,1,70,2|2,1:0|0:0,0:0:0:0:
346,228,161050,2,0,P|332:283|326:311,1,70,8|10,1:0|1:0,0:0:0:0:
323,315,161309,1,10,1:0:0:0:
316,334,161395,5,6,1:0:0:0:
471,107,161740,2,0,P|417:93|387:86,1,70,8|2,1:0|0:0,0:0:0:0:
330,24,162084,2,0,P|276:38|246:45,1,70,2|2,1:0|0:0,0:0:0:0:
189,108,162429,2,0,P|135:94|105:87,1,70,8|2,1:0|0:0,0:0:0:0:
52,20,162774,6,0,P|42:67|33:108,1,70,6|0,1:0|0:0,0:0:0:0:
10,188,163119,1,8,1:0:0:0:
10,188,163291,1,2,0:0:0:0:
94,238,163464,2,0,P|147:223|184:211,1,70,6|0,1:0|0:0,0:0:0:0:
85,338,163809,1,8,1:0:0:0:
186,372,163981,5,10,1:0:0:0:
186,372,164153,2,0,P|232:361|268:351,1,70,6|0,1:0|0:0,0:0:0:0:
349,323,164498,1,8,1:0:0:0:
349,323,164671,1,2,0:0:0:0:
281,252,164843,2,0,P|292:196|298:166,1,70,6|2,1:0|0:0,0:0:0:0:
364,113,165188,1,8,1:0:0:0:
279,63,165360,6,0,L|228:81,2,35,2|2|6,1:0|1:0|1:0,0:0:0:0:
362,10,165705,1,0,1:0:0:0:
439,71,165878,2,0,P|489:62|528:53,1,70,6|0,1:0|1:0,0:0:0:0:
464,182,166222,2,0,L|426:168,3,35,6|0|0|0,1:0|1:0|1:0|1:0,0:0:0:0:
417,153,166567,2,0,L|379:167,3,35,6|0|0|0,1:0|1:0|1:0|1:0,0:0:0:0:
360,179,166912,5,6,1:0:0:0:
