osu file format v14

[General]
AudioFilename: audio.mp3
AudioLeadIn: 0
PreviewTime: 66267
Countdown: 0
SampleSet: Soft
StackLeniency: 0.7
Mode: 0
LetterboxInBreaks: 0
WidescreenStoryboard: 1

[Editor]
DistanceSpacing: 0.1
BeatDivisor: 4
GridSize: 32
TimelineZoom: 1.8

[Metadata]
Title:Ultraviolet
TitleUnicode:Ultraviolet
Artist:Fred V & Grafix
ArtistUnicode:Fred V & Grafix
Creator:Dayno
Version:Insane
Source:
Tags:mrpotato electronic liquid funk dnb drum & and 'n' bass english chelsea watts female vocalist vocals oxygen hospital records collab collaboration ultra violet
BeatmapID:2643867
BeatmapSetID:1272355

[Difficulty]
HPDrainRate:6
CircleSize:4
OverallDifficulty:8
ApproachRate:9
SliderMultiplier:1.2
SliderTickRate:1

[Events]
//Background and Video events
0,0,"PotatoSmile.jpg",0,0
//Break Periods
//Storyboard Layer 0 (Background)
//Storyboard Layer 1 (Fail)
//Storyboard Layer 2 (Pass)
//Storyboard Layer 3 (Foreground)
//Storyboard Layer 4 (Overlay)
//Storyboard Sound Samples

[TimingPoints]
61,344.827586206897,4,2,1,50,1,0
61,-100,4,2,1,50,0,0
21440,-100,4,2,1,60,0,0
22129,-200,4,2,1,40,0,0
24802,-200,4,2,1,5,0,0
24888,-200,4,2,1,40,0,0
41354,-200,4,2,1,5,0,0
41440,-200,4,2,1,40,0,0
44112,-200,4,2,1,5,0,0
44198,-100,4,2,1,50,0,0
55233,-83.3333333333333,4,2,2,55,0,0
60750,-76.9230769230769,4,2,2,60,0,0
63509,-76.9230769230769,4,2,3,60,0,0
66267,-66.6666666666667,4,2,3,65,0,1
84198,-76.9230769230769,4,2,1,50,0,0
85578,-76.9230769230769,4,2,3,60,0,0
88336,-66.6666666666667,4,2,3,60,0,1
104888,-200,4,2,1,50,0,0
110405,-100,4,2,1,50,0,0
150405,-100,4,2,1,45,0,0
154457,-100,4,2,1,5,0,0
154543,-200,4,2,1,45,0,0
162733,-200,4,2,1,5,0,0
162819,-200,4,2,1,45,0,0
165578,-100,4,2,1,50,0,0
171095,-76.9230769230769,4,2,2,55,0,0
173854,-76.9230769230769,4,2,3,60,0,0
176612,-66.6666666666667,4,2,3,65,0,1
194543,-76.9230769230769,4,2,1,50,0,0
195923,-76.9230769230769,4,2,3,60,0,0
198681,-66.6666666666667,4,2,3,65,0,1
215233,-66.6666666666667,4,2,1,50,0,0
215578,-200,4,2,1,50,0,0

[Colours]
Combo1 : 109,18,52
Combo2 : 200,6,74
Combo3 : 27,27,180
Combo4 : 101,65,245

[HitObjects]
77,67,61,6,0,L|69:141,1,60,0|0,3:0|0:0,0:0:0:0:
172,23,405,2,0,L|165:82,1,60,0|0,3:0|0:0,0:0:0:0:
223,196,750,1,8,0:1:0:0:
279,133,923,2,0,L|271:99,2,30,0|0|0,0:0|0:0|0:0,0:0:0:0:
406,223,1267,1,8,0:0:0:0:
334,206,1440,5,0,0:0:0:0:
199,294,1612,1,8,0:0:0:0:
274,285,1785,2,0,L|336:305,1,60,0|0,3:0|0:0,0:0:0:0:
141,341,2129,2,0,L|83:359,1,60,8|0,0:1|0:0,0:0:0:0:
24,297,2474,1,0,0:0:0:0:
24,297,2647,1,0,0:0:0:0:
79,219,2819,6,0,P|59:181|38:165,1,60,0|0,3:0|0:0,0:0:0:0:
162,66,3164,2,0,P|140:86|113:98,1,60,0|0,3:0|0:0,0:0:0:0:
8,68,3509,1,8,0:1:0:0:
143,173,3681,1,0,0:0:0:0:
143,173,3854,1,0,0:0:0:0:
266,25,4026,1,8,0:0:0:0:
245,100,4198,5,0,0:0:0:0:
383,170,4371,1,8,0:0:0:0:
362,95,4543,2,0,P|412:70|464:89,1,90,0|0,3:0|0:0,0:0:0:0:
462,82,4888,2,0,L|472:187,1,90,8|0,0:1|0:0,0:0:0:0:
477,207,5233,1,0,0:0:0:0:
477,207,5405,1,0,0:0:0:0:
424,289,5578,6,0,P|410:323|409:363,1,60,0|0,3:0|0:0,0:0:0:0:
304,382,5923,2,0,P|299:352|287:325,1,60,0|0,3:0|0:0,0:0:0:0:
204,231,6267,1,8,0:1:0:0:
281,200,6440,2,0,L|323:212,2,30,0|0|0,0:0|0:0|0:0,0:0:0:0:
167,146,6785,1,8,0:0:0:0:
91,185,6957,5,0,0:0:0:0:
22,23,7129,1,8,0:0:0:0:
98,62,7302,2,0,L|177:48,1,60,0|0,3:0|0:0,0:0:0:0:
249,21,7647,2,0,L|328:35,1,60,8|0,0:1|0:0,0:0:0:0:
366,122,7992,1,0,0:0:0:0:
366,122,8164,1,0,0:0:0:0:
281,200,8336,6,0,B|253:212|253:212|221:210,1,60,0|0,3:0|0:0,0:0:0:0:
366,122,8681,2,0,B|395:120|395:120|423:132,1,60,0|0,3:0|0:0,0:0:0:0:
508,273,9026,1,8,0:1:0:0:
395,214,9198,1,0,0:0:0:0:
395,214,9371,1,0,0:0:0:0:
339,356,9543,1,8,0:0:0:0:
303,283,9716,5,0,0:0:0:0:
256,139,9888,1,8,0:0:0:0:
220,212,10061,2,0,P|170:217|126:174,1,90,4|0,3:2|0:0,0:0:0:0:
112,169,10405,1,8,0:1:0:0:
70,289,10578,1,8,3:0:0:0:
112,169,10750,1,4,3:0:0:0:
102,384,11095,6,0,P|136:349|152:337,1,60,0|0,3:0|0:0,0:0:0:0:
178,218,11440,2,0,P|197:240|220:259,1,60,0|0,3:0|0:0,0:0:0:0:
337,205,11785,1,8,0:1:0:0:
385,283,11957,2,0,L|379:324,2,30,0|0|0,0:0|0:0|0:0,0:0:0:0:
507,128,12302,1,8,0:0:0:0:
430,157,12474,5,0,0:0:0:0:
324,11,12647,1,8,0:0:0:0:
401,40,12819,2,0,L|380:105,1,60,0|0,3:0|0:0,0:0:0:0:
239,0,13164,2,0,L|257:57,1,60,8|0,0:1|0:0,0:0:0:0:
147,46,13509,1,0,0:0:0:0:
147,46,13681,1,0,0:0:0:0:
85,115,13854,6,0,P|43:126|25:125,1,60,0|0,3:0|0:0,0:0:0:0:
172,167,14198,2,0,P|201:167|230:177,1,60,0|0,3:0|0:0,0:0:0:0:
168,327,14543,1,8,0:1:0:0:
102,203,14716,1,0,0:0:0:0:
102,203,14888,1,0,0:0:0:0:
37,363,15061,1,8,0:0:0:0:
15,290,15233,5,0,0:0:0:0:
188,251,15405,1,8,0:0:0:0:
168,327,15578,2,0,B|204:338|204:338|274:312,1,90,0|0,3:0|0:0,0:0:0:0:
282,306,15923,2,0,P|323:291|365:306,1,90,8|0,0:1|0:0,0:0:0:0:
391,332,16267,1,0,0:0:0:0:
391,332,16440,1,0,0:0:0:0:
512,231,16612,6,0,L|441:250,1,60,0|0,3:0|0:0,0:0:0:0:
352,180,16957,2,0,L|409:164,1,60,0|0,3:0|0:0,0:0:0:0:
383,65,17302,1,8,0:1:0:0:
463,47,17474,2,0,L|499:53,2,30,0|0|0,0:0|0:0|0:0,0:0:0:0:
254,84,17819,1,8,0:0:0:0:
326,125,17992,5,0,0:0:0:0:
246,0,18164,1,8,0:0:0:0:
174,41,18336,2,0,P|166:71|163:125,1,60,0|0,3:0|0:0,0:0:0:0:
117,188,18681,2,0,P|125:218|127:272,1,60,8|0,0:1|0:0,0:0:0:0:
73,312,19026,1,0,0:0:0:0:
73,312,19198,1,0,0:0:0:0:
202,258,19371,6,0,L|301:281,1,90,0|0,3:0|0:0,0:0:0:0:
221,343,19716,2,0,L|308:363,1,90,0|0,3:0|0:0,0:0:0:0:
340,374,20061,1,8,0:1:0:0:
289,278,20233,1,0,0:0:0:0:
289,278,20405,1,0,0:0:0:0:
391,159,20578,1,8,0:0:0:0:
368,244,20750,5,0,0:0:0:0:
498,202,20923,1,8,0:0:0:0:
475,117,21095,2,0,L|491:47,1,60,0|0,3:0|0:0,0:0:0:0:
368,244,21440,1,8,0:1:0:0:
368,244,22129,5,2,0:0:0:0:
284,102,22647,2,0,L|305:190,1,90,2|2,0:0|0:0,0:0:0:0:
305,190,23509,5,2,0:0:0:0:
188,80,24026,2,0,L|209:168,1,90,2|2,0:0|0:0,0:0:0:0:
209,168,24888,5,2,0:0:0:0:
101,145,25578,2,0,P|97:155|94:180,1,30,2|0,0:0|0:0,0:0:0:0:
166,251,25923,2,0,P|155:247|131:244,1,30,2|0,0:0|0:0,0:0:0:0:
24,256,26267,6,0,P|38:253|53:249,1,30,2|0,0:0|0:0,0:0:0:0:
93,175,26612,2,0,L|85:103,2,60,2|2|2,0:0|0:0|0:0,0:0:0:0:
93,175,27647,5,2,0:0:0:0:
188,80,28164,2,0,P|233:57|282:55,1,90,2|2,0:0|0:0,0:0:0:0:
271,53,29026,5,2,0:0:0:0:
343,99,29543,2,0,P|388:122|437:124,1,90,2|2,0:0|0:0,0:0:0:0:
426,126,30405,5,2,0:0:0:0:
505,200,31095,2,0,L|468:189,1,30,2|0,0:0|0:0,0:0:0:0:
433,254,31440,2,0,L|396:265,1,30,2|0,0:0|0:0,0:0:0:0:
502,333,31785,6,0,L|465:322,1,30,2|0,0:0|0:0,0:0:0:0:
353,331,32129,2,0,P|379:345|399:377,2,60,2|2|2,0:0|0:0|0:0,0:0:0:0:
353,331,33164,5,2,0:0:0:0:
353,331,34543,5,2,0:0:0:0:
282,304,34888,2,0,P|299:279|325:265,2,60,2|2|2,0:0|0:0|0:0,0:0:0:0:
282,304,35923,5,2,0:0:0:0:
282,304,37302,5,2,0:0:0:0:
282,304,38681,5,2,0:0:0:0:
212,343,39026,2,0,P|198:330|184:325,1,30,2|0,0:0|0:0,0:0:0:0:
85,319,39371,2,0,P|98:312|108:301,1,30,2|0,0:0|0:0,0:0:0:0:
153,232,39716,2,0,L|145:194,1,30,2|0,0:0|0:0,0:0:0:0:
246,175,40061,6,0,L|239:204,1,30,2|0,0:0|0:0,0:0:0:0:
333,129,40405,1,2,0:0:0:0:
333,129,40578,2,0,L|340:159,1,30,2|0,0:0|0:0,0:0:0:0:
248,91,40923,1,2,0:0:0:0:
248,91,41096,2,0,L|254:61,1,30,2|0,0:0|0:0,0:0:0:0:
254,61,41440,5,2,0:0:0:0:
254,61,42819,5,2,0:0:0:0:
254,61,44198,5,0,3:0:0:0:
321,152,44371,1,0,3:0:0:0:
333,45,44543,1,8,0:0:0:0:
243,193,44716,1,2,0:0:0:0:
243,193,44802,1,0,0:0:0:0:
243,193,44888,1,0,0:0:0:0:
328,262,45061,1,0,3:0:0:0:
328,262,45233,2,0,L|319:335,1,60,10|0,0:2|0:0,0:0:0:0:
322,345,45492,1,0,3:0:0:0:
322,345,45578,5,0,3:0:0:0:
217,272,45750,1,0,3:0:0:0:
124,299,45923,2,0,P|85:269|75:236,1,60,8|2,0:0|0:0,0:0:0:0:
73,236,46181,1,0,0:0:0:0:
74,226,46267,1,0,0:0:0:0:
76,216,46353,1,0,0:0:0:0:
78,206,46439,1,0,3:0:0:0:
37,114,46612,2,0,P|67:105|99:108,1,60,10|0,0:0|0:0,0:0:0:0:
117,121,46871,1,0,3:0:0:0:
117,121,46957,5,0,3:0:0:0:
221,62,47129,1,0,3:0:0:0:
127,20,47302,1,8,0:0:0:0:
225,159,47474,1,0,0:0:0:0:
289,6,47647,2,0,P|301:32|305:62,1,60,2|0,0:0|3:0,0:0:0:0:
397,59,47992,2,0,P|393:88|380:115,1,60,10|0,0:0|0:0,0:0:0:0:
365,137,48250,1,0,3:0:0:0:
365,137,48336,6,0,L|356:205,1,60,2|0,3:2|3:0,0:0:0:0:
233,221,48681,2,0,L|224:153,1,60,10|0,0:0|0:0,0:0:0:0:
351,296,49026,2,0,L|342:364,1,60,2|0,0:0|3:0,0:0:0:0:
212,234,49371,2,0,L|204:174,1,60,10|0,0:0|0:0,0:0:0:0:
203,152,49629,1,0,3:0:0:0:
203,152,49716,5,0,3:0:0:0:
319,205,49888,1,0,3:0:0:0:
380,115,50061,2,0,P|416:115|453:125,1,60,8|2,0:0|0:0,0:0:0:0:
466,125,50319,1,0,0:0:0:0:
463,115,50405,1,0,0:0:0:0:
461,105,50491,1,0,0:0:0:0:
459,95,50577,1,0,3:0:0:0:
291,122,50750,2,0,L|307:46,1,60,10|0,0:0|0:0,0:0:0:0:
311,39,51009,1,0,3:0:0:0:
311,39,51095,6,0,P|277:24|229:29,1,60,0|0,3:0|3:0,0:0:0:0:
199,148,51440,1,8,0:0:0:0:
90,38,51612,2,0,P|92:67|106:94,1,60,2|0,0:0|0:0,0:0:0:0:
199,148,51957,1,0,3:0:0:0:
0,132,52129,2,0,P|18:155|43:171,1,60,8|0,0:0|0:0,0:0:0:0:
69,177,52388,1,0,3:0:0:0:
69,177,52474,5,0,3:0:0:0:
118,284,52647,1,0,3:0:0:0:
184,177,52819,1,8,0:0:0:0:
30,259,52992,1,0,0:0:0:0:
168,341,53164,2,0,P|194:315|224:301,1,60,2|0,0:0|3:0,0:0:0:0:
287,249,53509,2,0,P|322:239|355:242,1,60,10|0,0:0|0:0,0:0:0:0:
374,247,53767,1,0,3:0:0:0:
374,247,53854,6,0,L|364:312,1,60,2|0,3:2|3:0,0:0:0:0:
496,367,54198,2,0,L|486:302,1,60,10|0,0:0|0:0,0:0:0:0:
431,192,54543,2,0,L|440:132,1,60,2|0,0:0|3:0,0:0:0:0:
349,27,54888,2,0,L|358:86,1,60,10|0,0:0|0:0,0:0:0:0:
364,108,55147,1,0,3:0:0:0:
364,108,55233,5,8,3:0:0:0:
289,169,55405,1,0,3:0:0:0:
254,63,55578,2,0,P|206:91|195:134,1,71.9999978027344,8|0,0:0|0:0,0:0:0:0:
194,128,55836,1,0,0:0:0:0:
194,128,55923,1,8,3:0:0:0:
89,111,56095,1,0,3:0:0:0:
170,261,56267,2,0,P|136:216|92:211,1,71.9999978027344,8|0,0:0|0:0,0:0:0:0:
99,210,56525,1,0,0:0:0:0:
99,210,56612,5,8,3:0:0:0:
251,241,56785,1,0,3:0:0:0:
230,373,56957,2,0,P|263:328|307:323,1,71.9999978027344,10|0,0:0|0:0,0:0:0:0:
301,322,57215,1,0,0:0:0:0:
301,322,57302,1,8,3:0:0:0:
412,326,57474,1,0,3:0:0:0:
370,145,57647,2,0,L|360:234,1,71.9999978027344,8|0,0:0|0:0,0:0:0:0:
362,244,57905,1,0,0:0:0:0:
362,244,57992,5,8,3:0:0:0:
289,114,58164,1,0,3:0:0:0:
206,165,58336,2,0,L|216:254,1,71.9999978027344,8|0,0:0|0:0,0:0:0:0:
220,261,58594,1,0,0:0:0:0:
220,261,58681,1,8,3:0:0:0:
91,179,58854,1,0,3:0:0:0:
158,99,59026,2,0,B|121:87|121:87|87:55,1,71.9999978027344,8|0,0:0|0:0,0:0:0:0:
75,48,59284,1,0,0:0:0:0:
75,48,59371,5,8,3:0:0:0:
136,252,59543,1,0,3:0:0:0:
289,114,59716,2,0,B|252:125|252:125|218:157,1,71.9999978027344,10|0,0:0|0:0,0:0:0:0:
206,165,59974,1,0,0:0:0:0:
206,165,60061,1,8,3:0:0:0:
334,46,60233,1,0,3:0:0:0:
401,233,60405,2,0,L|410:150,1,71.9999978027344,10|0,0:0|0:0,0:0:0:0:
334,46,60750,5,8,3:0:0:0:
486,230,60923,1,0,3:0:0:0:
329,121,61095,2,0,L|319:211,1,77.9999964294435,8|0,0:1|0:0,0:0:0:0:
209,309,61440,1,8,3:0:0:0:
408,161,61612,1,0,3:0:0:0:
234,223,61785,2,0,L|242:145,1,77.9999964294435,8|0,0:1|0:0,0:0:0:0:
131,69,62129,5,8,3:0:0:0:
320,198,62302,1,0,3:0:0:0:
160,166,62474,2,0,L|151:243,1,77.9999964294435,8|0,0:1|0:0,0:0:0:0:
42,291,62819,1,8,3:0:0:0:
243,146,62991,1,0,3:0:0:0:
73,209,63164,2,0,L|81:131,1,77.9999964294435,8|0,0:1|0:0,0:0:0:0:
152,244,63509,5,0,3:0:0:0:
152,244,63681,1,0,3:0:0:0:
131,41,63854,1,8,3:1:0:0:
248,230,64026,1,0,3:0:0:0:
287,84,64198,1,0,3:0:0:0:
287,84,64371,1,0,3:0:0:0:
204,301,64543,1,8,3:1:0:0:
159,127,64716,1,0,3:0:0:0:
286,235,64888,6,0,P|264:233|227:222,1,38.9999982147218,0|0,3:0|3:0,0:0:0:0:
413,263,65061,2,0,P|432:258|451:257,1,38.9999982147218,0|0,3:0|3:0,0:0:0:0:
245,304,65233,2,0,P|223:302|186:291,1,38.9999982147218,0|0,3:0|3:0,0:0:0:0:
371,190,65406,2,0,P|390:185|409:184,1,38.9999982147218,0|0,3:0|3:0,0:0:0:0:
311,109,65577,5,0,3:0:0:0:
313,70,65663,1,0,3:0:0:0:
333,38,65749,1,0,3:0:0:0:
367,19,65836,1,0,3:0:0:0:
405,19,65923,1,0,3:0:0:0:
440,34,66009,1,0,3:0:0:0:
448,70,66095,1,0,3:0:0:0:
423,98,66181,1,0,3:0:0:0:
391,108,66267,6,0,P|370:142|381:209,1,90.0000034332277,0|0,3:0|0:0,0:0:0:0:
236,36,66612,2,0,P|283:18|331:16,1,90.0000034332277,10|0,0:1|0:0,0:0:0:0:
276,170,66957,2,0,P|226:162|183:139,1,90.0000034332277,2|0,0:0|3:0,0:0:0:0:
79,82,67302,1,10,0:1:0:0:
0,226,67474,1,0,0:0:0:0:
0,226,67561,1,0,0:0:0:0:
0,226,67647,6,0,B|56:197|56:197|187:243,1,180.000006866455,2|8,3:0|0:1,0:0:0:0:
175,365,68164,1,2,0:0:0:0:
195,358,68250,1,0,0:0:0:0:
216,350,68336,1,0,0:0:0:0:
238,343,68422,1,0,0:0:0:0:
259,335,68508,1,0,3:0:0:0:
402,368,68681,2,0,P|426:321|487:318,1,90.0000034332277,10|0,0:1|0:0,0:0:0:0:
485,315,68940,1,0,0:0:0:0:
485,315,69026,6,0,L|461:212,1,90.0000034332277,0|0,3:0|0:0,0:0:0:0:
296,164,69371,2,0,P|352:164|381:135,1,90.0000034332277,10|0,0:1|0:0,0:0:0:0:
448,42,69716,2,0,P|411:16|367:21,1,90.0000034332277,2|0,0:0|3:0,0:0:0:0:
265,82,70061,1,10,0:1:0:0:
462,175,70233,1,0,0:0:0:0:
462,175,70319,1,0,0:0:0:0:
462,175,70405,6,0,P|466:277|446:367,1,180.000006866455,2|8,3:0|0:1,0:0:0:0:
296,164,70923,1,2,0:0:0:0:
296,164,71009,1,0,0:0:0:0:
296,164,71095,1,0,0:0:0:0:
316,317,71267,1,0,3:0:0:0:
396,221,71440,1,10,0:1:0:0:
236,295,71612,2,0,L|191:300,1,45.0000017166138,0|0,0:0|0:0,0:0:0:0:
76,262,71785,6,0,P|92:207|127:183,1,90.0000034332277,0|0,3:0|0:0,0:0:0:0:
19,69,72129,2,0,L|118:101,1,90.0000034332277,10|0,0:1|0:0,0:0:0:0:
273,47,72474,2,0,L|174:15,1,90.0000034332277,2|0,0:0|3:0,0:0:0:0:
327,165,72819,1,10,0:1:0:0:
389,54,72992,1,0,0:0:0:0:
389,54,73078,1,0,0:0:0:0:
389,54,73164,6,0,P|429:20|479:35,1,90.0000034332277,2|0,3:0|0:0,0:0:0:0:
327,165,73509,1,8,0:1:0:0:
440,207,73681,1,2,0:0:0:0:
448,227,73767,1,0,0:0:0:0:
453,249,73853,1,0,0:0:0:0:
455,272,73939,1,0,0:0:0:0:
453,294,74025,1,2,3:0:0:0:
280,366,74198,2,0,B|278:324|278:324|302:282,1,90.0000034332277,10|0,0:1|0:0,0:0:0:0:
323,258,74457,1,0,0:0:0:0:
323,258,74543,6,0,L|225:241,1,90.0000034332277,0|0,3:0|0:0,0:0:0:0:
72,192,74888,1,8,0:1:0:0:
179,153,75061,1,2,0:0:0:0:
179,153,75147,1,0,0:0:0:0:
179,153,75233,1,2,0:0:0:0:
180,305,75405,1,2,3:0:0:0:
72,192,75578,1,10,0:1:0:0:
54,346,75750,1,2,0:0:0:0:
29,122,75923,6,0,P|69:77|115:69,1,90.0000034332277,2|0,3:0|0:0,0:0:0:0:
252,178,76267,2,0,P|212:223|166:231,1,90.0000034332277,10|0,0:1|0:0,0:0:0:0:
216,70,76612,2,0,P|256:25|302:17,1,90.0000034332277,2|0,0:0|3:0,0:0:0:0:
252,178,76957,1,10,0:1:0:0:
404,88,77129,1,0,0:0:0:0:
404,88,77216,1,0,0:0:0:0:
404,88,77302,6,0,L|386:-11,1,90.0000034332277,0|0,3:0|0:0,0:0:0:0:
500,215,77647,2,0,B|465:187|465:187|402:189,1,90.0000034332277,10|0,0:1|0:0,0:0:0:0:
395,203,77905,1,0,0:0:0:0:
380,201,77991,1,2,0:0:0:0:
365,199,78077,1,0,0:0:0:0:
350,197,78163,1,0,3:0:0:0:
469,342,78336,2,0,L|362:350,1,90.0000034332277,10|0,0:1|0:0,0:0:0:0:
346,352,78595,1,0,0:0:0:0:
346,352,78681,6,0,P|338:292|359:262,1,90.0000034332277,2|0,3:0|0:0,0:0:0:0:
156,211,79026,1,8,0:1:0:0:
245,305,79198,1,2,0:0:0:0:
245,305,79285,1,0,0:0:0:0:
245,305,79371,1,0,0:0:0:0:
254,177,79543,1,0,3:0:0:0:
145,301,79716,2,0,L|53:280,1,90.0000034332277,10|0,0:1|0:0,0:0:0:0:
31,276,79974,1,0,0:0:0:0:
31,276,80061,5,0,3:0:0:0:
156,211,80233,1,0,0:0:0:0:
127,111,80405,2,0,P|90:145|86:202,1,90.0000034332277,10|0,0:1|0:0,0:0:0:0:
256,72,80750,2,0,P|244:29|211:0,1,90.0000034332277,2|0,0:0|3:0,0:0:0:0:
127,111,81095,1,10,0:1:0:0:
268,184,81267,1,0,0:0:0:0:
268,184,81354,1,0,0:0:0:0:
268,184,81440,6,0,B|323:207|323:207|439:164,1,180.000006866455,2|8,3:0|0:1,0:0:0:0:
371,28,81957,1,2,0:0:0:0:
353,41,82043,1,0,0:0:0:0:
340,60,82129,1,0,0:0:0:0:
332,81,82215,1,0,0:0:0:0:
331,103,82301,1,0,3:0:0:0:
442,200,82474,2,0,P|462:253|451:292,1,90.0000034332277,10|0,0:1|0:0,0:0:0:0:
444,315,82733,1,0,0:0:0:0:
444,315,82819,5,0,3:0:0:0:
286,211,82992,1,0,0:0:0:0:
339,346,83164,2,0,L|250:336,1,90.0000034332277,10|0,0:1|0:0,0:0:0:0:
3,258,83509,2,0,L|92:268,1,90.0000034332277,2|0,0:0|3:0,0:0:0:0:
286,211,83854,2,0,L|196:200,1,90.0000034332277,10|0,0:1|0:0,0:0:0:0:
167,199,84112,1,0,0:0:0:0:
167,199,84198,6,0,P|148:154|152:118,1,77.9999964294435,2|0,3:2|0:0,0:0:0:0:
180,40,84543,1,10,0:0:0:0:
30,21,84716,2,0,P|54:50|90:66,1,77.9999964294435,2|0,0:0|0:0,0:0:0:0:
180,40,85061,1,2,3:2:0:0:
249,113,85233,2,0,P|273:83|309:67,1,77.9999964294435,10|0,0:1|0:0,0:0:0:0:
511,201,85578,5,0,3:0:0:0:
511,201,85750,1,0,3:0:0:0:
332,160,85923,1,8,3:1:0:0:
477,76,86095,1,2,3:0:0:0:
452,280,86267,1,2,3:0:0:0:
452,280,86440,1,2,3:0:0:0:
332,160,86612,1,10,3:1:0:0:
266,331,86785,1,2,3:0:0:0:
70,251,86957,6,0,L|21:241,1,38.9999982147218,2|0,3:0|3:0,3:0:0:0:
136,331,87129,2,0,L|174:338,1,38.9999982147218,0|0,3:0|3:0,3:0:0:0:
256,210,87302,2,0,L|217:202,1,38.9999982147218,2|0,3:0|3:0,3:0:0:0:
126,345,87474,2,0,L|164:352,1,38.9999982147218,0|0,3:0|3:0,3:0:0:0:
370,305,87646,5,2,3:0:0:0:
358,341,87732,1,0,3:0:0:0:
325,359,87818,1,0,3:0:0:0:
287,352,87905,1,0,3:0:0:0:
259,324,87992,1,2,3:0:0:0:
247,286,88078,1,0,3:0:0:0:
246,247,88164,1,0,3:0:0:0:
256,210,88250,1,0,3:0:0:0:
276,176,88336,6,0,P|290:127|285:83,1,90.0000034332277,0|2,3:0|0:0,0:0:0:0:
366,212,88681,1,8,0:1:0:0:
212,133,88854,1,2,0:0:0:0:
212,133,88940,1,0,0:0:0:0:
212,133,89026,1,0,0:0:0:0:
364,68,89198,1,0,3:0:0:0:
256,210,89371,1,10,0:1:0:0:
176,50,89543,1,0,0:0:0:0:
176,50,89629,1,0,0:0:0:0:
176,50,89716,6,0,L|156:250,1,180.000006866455,0|8,3:0|0:1,0:0:0:0:
1,131,90233,1,2,0:0:0:0:
22,136,90319,1,0,0:0:0:0:
42,146,90405,1,0,0:0:0:0:
59,161,90491,1,0,0:0:0:0:
73,179,90577,1,0,3:0:0:0:
163,309,90750,2,0,P|212:288|248:227,1,90.0000034332277,10|0,0:1|0:0,0:0:0:0:
251,230,91009,1,0,0:0:0:0:
251,230,91095,6,0,L|265:332,1,90.0000034332277,0|2,3:0|0:0,0:0:0:0:
337,170,91440,1,8,0:1:0:0:
424,288,91612,1,2,0:0:0:0:
424,288,91698,1,0,0:0:0:0:
424,288,91785,1,0,0:0:0:0:
426,127,91957,1,0,3:0:0:0:
344,260,92129,1,10,0:1:0:0:
512,237,92302,1,0,0:0:0:0:
426,127,92474,6,0,B|474:132|474:132|532:108,1,90.0000034332277,0|2,3:0|0:0,0:0:0:0:
389,27,92819,2,0,B|350:42|350:42|302:37,1,90.0000034332277,8|2,0:1|0:0,0:0:0:0:
274,35,93078,1,0,0:0:0:0:
274,35,93164,1,0,0:0:0:0:
191,164,93336,1,0,3:0:0:0:
15,32,93509,2,0,L|20:76,1,45.0000017166138,8|0,0:1|0:0,0:0:0:0:
118,85,93681,2,0,L|111:144,1,45.0000017166138
92,226,93854,6,0,P|44:201|28:170,1,90.0000034332277,0|2,3:0|0:0,0:0:0:0:
123,347,94198,2,0,P|146:309|186:291,1,90.0000034332277,8|2,0:1|0:0,0:0:0:0:
218,297,94457,1,0,0:0:0:0:
232,294,94543,1,0,0:0:0:0:
247,291,94629,1,0,0:0:0:0:
262,288,94715,1,0,3:0:0:0:
425,244,94888,1,10,0:1:0:0:
352,157,95061,1,0,0:0:0:0:
352,157,95147,1,0,0:0:0:0:
352,157,95233,6,0,L|339:250,1,90.0000034332277,0|2,3:0|0:0,0:0:0:0:
484,185,95578,2,0,L|471:92,1,90.0000034332277,8|2,0:1|0:0,0:0:0:0:
469,71,95836,1,0,0:0:0:0:
469,71,95923,1,0,0:0:0:0:
352,157,96095,1,0,3:0:0:0:
338,0,96267,2,0,P|369:35|376:79,1,90.0000034332277,10|0,0:1|0:0,0:0:0:0:
236,171,96612,6,0,P|244:127|274:94,1,90.0000034332277,0|2,3:0|0:0,0:0:0:0:
161,28,96957,1,8,0:1:0:0:
110,122,97129,1,2,0:0:0:0:
95,139,97215,1,0,0:0:0:0:
77,151,97301,1,0,0:0:0:0:
55,159,97387,1,0,0:0:0:0:
33,160,97473,1,0,3:0:0:0:
140,278,97647,1,10,0:1:0:0:
0,260,97819,1,0,0:0:0:0:
0,260,97905,1,0,0:0:0:0:
0,260,97992,5,0,3:0:0:0:
167,190,98164,1,2,0:0:0:0:
120,357,98336,1,8,0:1:0:0:
246,223,98509,1,2,0:0:0:0:
249,245,98595,1,0,0:0:0:0:
253,267,98681,1,0,0:0:0:0:
257,289,98767,1,0,0:0:0:0:
260,311,98853,1,0,3:0:0:0:
390,166,99026,1,10,0:1:0:0:
382,210,99112,1,0,0:0:0:0:
374,254,99198,1,0,0:0:0:0:
366,299,99284,1,0,0:0:0:0:
359,343,99371,6,0,P|400:358|459:335,1,90.0000034332277,0|0,3:0|0:0,0:0:0:0:
311,198,99716,1,8,0:1:0:0:
470,151,99888,1,2,0:0:0:0:
470,151,99974,1,0,0:0:0:0:
470,151,100061,1,0,0:0:0:0:
374,254,100233,1,0,3:0:0:0:
394,97,100405,1,10,0:1:0:0:
478,260,100578,1,0,0:0:0:0:
310,117,100750,6,0,L|212:97,1,90.0000034332277,0|2,3:0|0:0,0:0:0:0:
89,45,101095,1,8,0:1:0:0:
127,198,101267,1,2,0:0:0:0:
119,176,101353,1,0,0:0:0:0:
107,157,101439,1,0,0:0:0:0:
91,142,101525,1,0,0:0:0:0:
72,130,101611,1,0,3:0:0:0:
169,298,101785,2,0,P|204:270|223:230,1,90.0000034332277,10|0,0:1|0:0,0:0:0:0:
230,203,102043,1,0,0:0:0:0:
230,203,102129,6,0,B|275:191|275:191|319:203,1,90.0000034332277,0|2,3:0|0:0,0:0:0:0:
461,243,102474,1,8,0:1:0:0:
380,322,102647,2,0,L|373:265,1,45.0000017166138,2|0,0:0|0:0,0:0:0:0:
400,125,102819,2,0,L|405:169,1,45.0000017166138,0|0,0:0|0:0,0:0:0:0:
291,106,102992,1,0,3:0:0:0:
482,168,103164,1,8,0:1:0:0:
309,234,103336,1,0,0:0:0:0:
309,234,103423,1,0,0:0:0:0:
309,234,103509,6,0,P|269:205|215:207,1,90.0000034332277,0|2,3:0|0:0,0:0:0:0:
370,74,103854,2,0,P|335:101|291:106,1,90.0000034332277,8|2,0:1|0:0,0:0:0:0:
266,98,104112,1,0,0:0:0:0:
264,83,104198,1,0,0:0:0:0:
262,68,104284,1,0,0:0:0:0:
259,53,104370,1,0,3:0:0:0:
126,105,104543,1,10,0:1:0:0:
309,234,104716,1,0,0:0:0:0:
309,234,104802,1,0,0:0:0:0:
309,234,104888,5,0,3:0:0:0:
167,255,105233,2,0,L|133:249,1,30,2|0,0:0|0:0,0:0:0:0:
199,331,105578,2,0,L|228:325,1,30,2|0,0:0|0:0,0:0:0:0:
119,355,105923,2,0,L|89:349,1,30,2|0,0:0|0:0,0:0:0:0:
29,285,106267,6,0,P|26:261|28:246,1,30,2|0,0:0|0:0,0:0:0:0:
81,177,106612,1,2,0:0:0:0:
81,177,106785,2,0,P|81:162|78:147,1,30,2|0,0:0|0:0,0:0:0:0:
11,70,107129,1,2,0:0:0:0:
11,70,107302,2,0,P|11:85|8:100,1,30,2|0,0:0|0:0,0:0:0:0:
8,99,107647,5,0,0:0:0:0:
101,27,108164,1,2,0:0:0:0:
101,27,108336,2,0,L|143:33,1,30,2|2,0:0|0:0,0:0:0:0:
211,92,108681,1,2,0:0:0:0:
211,92,108854,1,2,0:0:0:0:
305,56,109026,6,0,P|295:74|291:87,1,30,2|0,0:0|0:0,0:0:0:0:
370,98,109371,2,0,P|375:112|382:124,1,30,2|0,0:0|0:0,0:0:0:0:
447,78,109716,2,0,P|461:82|475:85,1,30,2|0,0:0|0:0,0:0:0:0:
475,85,110061,1,2,0:0:0:0:
382,124,110405,6,0,L|373:197,1,60,2|0,3:2|0:0,0:0:0:0:
450,303,110750,2,0,P|426:277|391:259,2,60,8|0|0,0:0|0:0|0:0,0:0:0:0:
366,347,111267,1,0,3:0:0:0:
289,201,111440,2,0,L|282:261,1,60,8|0,0:0|0:0,0:0:0:0:
191,350,111698,1,0,0:0:0:0:
191,350,111785,6,0,L|175:210,1,120,2|8,3:2|0:0,0:0:0:0:
75,163,112302,1,0,0:0:0:0:
94,294,112474,1,0,0:0:0:0:
156,128,112647,1,0,3:0:0:0:
19,240,112819,1,8,0:0:0:0:
177,230,112992,1,0,0:0:0:0:
0,113,113164,6,0,B|27:134|27:134|68:143,1,60,2|0,3:2|0:0,0:0:0:0:
180,10,113509,2,0,B|154:15|154:15|127:36,2,60,8|0|0,0:0|0:0|0:0,0:0:0:0:
195,100,114026,1,0,3:0:0:0:
298,41,114198,2,0,L|369:29,1,60,8|0,0:0|0:0,0:0:0:0:
302,137,114457,1,0,0:0:0:0:
302,137,114543,6,0,B|274:174|274:174|301:256,1,120,2|8,3:2|0:0,0:0:0:0:
346,383,115061,1,0,0:0:0:0:
413,239,115233,1,2,0:2:0:0:
441,334,115405,1,0,3:0:0:0:
297,243,115578,2,0,P|267:226|237:222,1,60,8|0,0:0|0:0,0:0:0:0:
258,363,115923,6,0,L|242:298,1,60,2|0,3:2|0:0,0:0:0:0:
166,175,116267,2,0,L|151:233,2,60,8|0|0,0:0|0:0|0:0,0:0:0:0:
127,333,116785,1,0,3:0:0:0:
9,255,116957,2,0,P|39:253|69:238,1,60,8|0,0:0|0:0,0:0:0:0:
165,174,117216,1,0,0:0:0:0:
165,174,117302,6,0,P|138:161|109:160,1,60,2|0,3:2|0:0,0:0:0:0:
33,62,117647,2,0,L|17:195,1,120,8|0,0:0|0:0,0:0:0:0:
197,71,118164,1,0,3:0:0:0:
109,160,118336,1,8,0:0:0:0:
105,8,118509,1,0,0:0:0:0:
253,133,118681,6,0,B|276:106|276:106|280:79,1,60,2|0,3:2|0:0,0:0:0:0:
358,2,119026,2,0,B|381:29|381:29|385:54,2,60,8|0|0,0:0|0:0|0:0,0:0:0:0:
484,91,119543,1,0,3:0:0:0:
404,164,119716,2,0,P|387:157|338:149,1,60,8|0,0:0|0:0,0:0:0:0:
483,230,119974,1,0,0:0:0:0:
483,230,120061,6,0,P|445:265|454:349,1,120,2|8,3:2|0:0,0:0:0:0:
273,202,120578,1,0,0:0:0:0:
362,313,120750,1,2,0:2:0:0:
354,223,120923,1,0,3:0:0:0:
294,355,121095,1,8,0:0:0:0:
197,181,121267,1,0,0:0:0:0:
159,288,121440,6,0,L|173:346,1,60,2|0,3:2|0:0,0:0:0:0:
60,252,121785,2,0,L|74:193,2,60,8|0|0,0:0|0:0|0:0,0:0:0:0:
197,181,122302,1,0,3:0:0:0:
135,88,122474,2,0,P|104:72|67:65,1,60,8|0,0:0|0:0,0:0:0:0:
240,98,122733,1,0,0:0:0:0:
240,98,122819,6,0,P|268:90|340:19,1,120,2|8,3:2|0:0,0:0:0:0:
458,171,123336,1,0,0:0:0:0:
364,116,123509,1,0,0:0:0:0:
410,256,123681,1,0,3:0:0:0:
453,96,123854,1,8,0:0:0:0:
493,250,124026,1,0,0:0:0:0:
345,202,124198,6,0,L|328:283,1,60,2|0,3:2|0:0,0:0:0:0:
428,365,124543,2,0,L|415:306,2,60,8|0|0,0:0|0:0|0:0,0:0:0:0:
332,260,125061,1,0,3:0:0:0:
238,301,125233,2,0,P|198:279|163:272,1,60,8|0,0:0|0:0,0:0:0:0:
53,373,125492,1,0,0:0:0:0:
53,373,125578,6,0,P|97:341|76:276,1,120,2|8,3:2|0:0,0:0:0:0:
17,190,126095,1,0,0:0:0:0:
137,165,126267,1,2,0:0:0:0:
6,278,126440,1,0,3:0:0:0:
24,114,126612,1,8,0:0:0:0:
151,243,126785,1,0,0:0:0:0:
110,89,126957,6,0,L|187:78,1,60,2|0,3:2|0:0,0:0:0:0:
270,204,127302,2,0,L|210:195,2,60,8|0|0,0:0|0:0|0:0,0:0:0:0:
324,70,127819,1,0,3:0:0:0:
394,137,127992,2,0,P|417:104|422:71,1,60,8|0,0:0|0:0,0:0:0:0:
483,174,128250,1,0,0:0:0:0:
483,174,128336,6,0,B|457:215|457:215|486:294,1,120,2|8,3:2|0:0,0:0:0:0:
360,228,128854,1,0,0:0:0:0:
386,356,129026,1,0,0:0:0:0:
281,269,129198,1,0,3:0:0:0:
266,373,129371,1,8,0:0:0:0:
360,228,129543,1,0,0:0:0:0:
221,315,129716,6,0,P|207:283|212:248,1,60,2|0,3:2|0:0,0:0:0:0:
83,327,130061,2,0,P|104:306|113:278,2,60,8|0|0,0:0|0:0|0:0,0:0:0:0:
6,245,130578,1,0,3:0:0:0:
145,204,130750,2,0,L|74:179,1,60,8|0,0:0|0:0,0:0:0:0:
0,106,131009,1,0,0:0:0:0:
0,106,131095,6,0,L|144:76,1,120,2|8,3:2|0:0,0:0:0:0:
229,168,131612,1,0,0:0:0:0:
206,58,131785,1,2,0:0:0:0:
206,58,131871,1,0,0:0:0:0:
206,58,131957,1,0,3:0:0:0:
145,204,132129,1,8,0:0:0:0:
281,99,132302,1,0,0:0:0:0:
409,151,132474,6,0,P|381:162|359:182,1,60,2|2,3:2|0:0,0:0:0:0:
284,305,132819,1,8,0:0:0:0:
459,276,132992,2,0,P|448:248|428:226,1,60,2|0,0:0|0:0,0:0:0:0:
383,345,133336,1,0,3:0:0:0:
226,221,133509,2,0,L|300:235,1,60,10|0,0:0|0:0,0:0:0:0:
162,316,133854,6,0,L|55:336,1,90,0|0,3:0|0:0,0:0:0:0:
48,340,134198,1,8,0:0:0:0:
125,196,134371,2,0,P|100:225|87:253,1,60,2|0,0:0|0:0,0:0:0:0:
11,125,134716,1,0,3:0:0:0:
63,52,134888,2,0,P|88:81|101:109,1,60,10|0,0:0|0:0,0:0:0:0:
287,47,135233,6,0,P|216:54|153:31,1,120,0|8,3:0|0:0,0:0:0:0:
241,150,135750,1,2,0:0:0:0:
370,57,135923,2,0,L|346:123,1,60,2|0,0:0|3:0,0:0:0:0:
469,228,136267,2,0,L|445:162,1,60,10|0,0:0|0:0,0:0:0:0:
354,234,136612,6,0,L|330:300,1,60,2|2,3:2|0:0,0:0:0:0:
512,313,136957,2,0,P|480:301|436:307,1,60,10|2,0:0|0:0,0:0:0:0:
310,366,137302,2,0,P|339:365|367:354,1,60,2|0,0:0|3:0,0:0:0:0:
255,296,137647,2,0,P|227:284|197:283,1,60,10|0,0:0|0:0,0:0:0:0:
33,321,137992,6,0,L|138:341,1,90,0|0,3:0|0:0,0:0:0:0:
149,345,138336,1,8,0:0:0:0:
109,189,138509,2,0,B|99:219|99:219|103:251,1,60,2|0,0:0|0:0,0:0:0:0:
17,162,138854,1,0,3:0:0:0:
154,123,139026,2,0,B|153:79|153:79|134:36,1,90,10|0,0:0|0:0,0:0:0:0:
117,11,139371,6,0,L|183:29,1,60,0|2,3:0|0:0,0:0:0:0:
245,149,139716,1,8,0:0:0:0:
300,31,139888,2,0,P|277:53|263:83,1,60,2|0,0:0|0:0,0:0:0:0:
397,218,140233,1,0,3:0:0:0:
342,100,140405,2,0,P|365:122|379:152,1,60,10|0,0:0|0:0,0:0:0:0:
500,51,140750,6,0,P|474:89|458:176,1,120,0|8,3:0|0:0,0:0:0:0:
492,246,141267,1,2,0:0:0:0:
384,330,141440,2,0,P|378:300|360:277,1,60,2|0,0:0|3:0,0:0:0:0:
378,145,141785,2,0,P|372:174|354:197,1,60,10|0,0:0|0:0,0:0:0:0:
229,270,142129,6,0,P|255:251|292:248,1,60,2|2,3:2|0:0,0:0:0:0:
132,276,142474,2,0,P|136:244|160:215,1,60,8|0,0:0|0:0,0:0:0:0:
58,343,142819,2,0,P|39:316|36:279,1,60,2|0,0:0|3:0,0:0:0:0:
122,144,143164,2,0,L|33:161,1,90,10|0,0:0|0:0,0:0:0:0:
9,176,143509,6,0,L|74:189,1,60,0|2,3:0|0:0,0:0:0:0:
199,128,143854,1,8,0:0:0:0:
65,73,144026,2,0,L|130:60,1,60,2|0,0:0|0:0,0:0:0:0:
216,34,144371,1,0,3:0:0:0:
278,149,144543,2,0,L|266:207,1,60,10|0,0:0|0:0,0:0:0:0:
304,68,144888,6,0,P|334:85|353:117,1,60,0|2,3:0|0:0,0:0:0:0:
512,22,145233,2,0,P|479:21|419:93,1,120,10|0,0:0|0:0,0:0:0:0:
403,185,145750,1,0,3:0:0:0:
483,269,145923,2,0,L|503:332,1,60,10|0,0:0|0:0,0:0:0:0:
396,266,146267,6,0,B|362:278|362:278|298:264,1,90,2|0,3:2|0:0,0:0:0:0:
274,262,146612,2,0,P|299:299|306:393,1,120,8|0,0:0|0:0,0:0:0:0:
192,278,147129,1,0,3:0:0:0:
128,206,147302,2,0,P|144:170|162:148,1,60,8|0,0:0|0:0,0:0:0:0:
0,206,147647,6,0,P|27:217|52:234,1,60,0|0,3:0|0:0,0:0:0:0:
116,42,147992,2,0,P|96:97|46:140,1,120,10|0,0:0|0:0,0:0:0:0:
216,52,148509,1,0,3:0:0:0:
322,113,148681,2,0,L|432:86,1,90,10|0,0:0|0:0,0:0:0:0:
435,88,149026,6,0,P|440:117|426:167,1,60,0|2,3:0|0:0,0:0:0:0:
388,242,149371,2,0,P|386:269|466:294,1,120,8|0,0:0|0:0,0:0:0:0:
282,216,149888,1,0,3:0:0:0:
327,366,150061,2,0,L|309:306,1,60,10|0,0:0|0:0,0:0:0:0:
160,384,150405,6,0,L|177:326,1,60,0|0,3:0|0:0,0:0:0:0:
30,262,150750,2,0,B|79:237|79:237|145:240,1,120,8|0,0:0|0:0,0:0:0:0:
167,165,151267,1,0,3:0:0:0:
104,108,151440,2,0,P|85:82|80:46,1,60,10|0,0:0|0:0,0:0:0:0:
24,141,151785,6,0,P|17:170|0:193,1,60,0|0,3:0|0:0,0:0:0:0:
167,165,152129,2,0,P|221:142|295:141,1,120
455,110,152647,2,0,P|395:107|340:83,1,120,0|0,0:0|0:0,0:0:0:0:
214,27,153164,6,0,B|234:116|234:116|214:180|214:180|233:259,1,240,0|0,0:0|0:0,0:0:0:0:
125,153,154026,2,0,L|149:270,1,120,0|0,0:0|0:0,0:0:0:0:
434,201,154543,6,0,P|395:181|316:187,3,120,2|2|2|2,0:0|0:0|0:0|0:0,0:0:0:0:
327,95,157302,6,0,P|285:108|233:168,3,120,2|2|2|2,0:0|0:0|0:0|0:0,0:0:0:0:
177,98,160061,6,0,P|156:137|162:216,3,120,2|2|2|2,0:0|0:0|0:0|0:0,0:0:0:0:
263,352,162819,6,0,L|143:338,3,120,2|2|2|2,0:0|0:0|0:0|0:0,0:0:0:0:
143,338,165578,5,0,3:0:0:0:
97,196,165750,1,0,3:0:0:0:
238,288,165923,1,10,0:0:0:0:
67,280,166095,1,0,0:0:0:0:
67,280,166181,1,0,0:0:0:0:
67,280,166267,1,2,0:0:0:0:
191,183,166440,1,0,3:0:0:0:
0,129,166612,2,0,L|72:122,1,60,10|0,0:0|0:0,0:0:0:0:
94,123,166871,1,0,3:0:0:0:
94,123,166957,5,2,3:0:0:0:
237,20,167129,1,0,3:0:0:0:
154,72,167302,2,0,P|129:55|100:47,1,60,8|2,0:0|0:0,0:0:0:0:
237,20,167647,1,2,0:0:0:0:
195,184,167819,1,0,3:0:0:0:
287,107,167992,2,0,P|311:90|340:82,1,60,10|0,0:0|0:0,0:0:0:0:
373,84,168250,1,0,3:0:0:0:
373,84,168336,5,0,3:0:0:0:
487,193,168509,1,0,3:0:0:0:
370,204,168681,2,0,L|313:185,1,60,10|0,0:0|0:0,0:0:0:0:
287,107,169026,2,0,L|230:125,1,60,2|0,0:0|3:0,0:0:0:0:
176,58,169371,2,0,L|149:111,1,60,10|0,0:0|0:0,0:0:0:0:
141,136,169629,1,0,3:0:0:0:
141,136,169716,5,2,3:0:0:0:
49,207,169888,1,0,3:0:0:0:
159,303,170061,2,0,P|153:273|136:248,1,60,8|2,0:0|0:0,0:0:0:0:
251,218,170405,1,0,0:0:0:0:
251,218,170492,1,0,0:0:0:0:
251,218,170578,1,0,3:0:0:0:
346,287,170750,2,0,P|375:281|400:264,1,60,10|0,0:0|0:0,0:0:0:0:
427,244,171009,1,0,3:0:0:0:
427,244,171095,5,8,3:0:0:0:
403,39,171267,1,0,3:0:0:0:
509,186,171440,2,0,P|483:169|426:156,1,77.9999964294435,10|0,0:1|0:0,0:0:0:0:
293,101,171785,5,10,3:0:0:0:
255,279,171957,1,0,3:0:0:0:
362,159,172130,2,0,P|336:175|279:189,1,77.9999964294435,10|0,0:1|0:0,0:0:0:0:
144,243,172474,5,10,3:0:0:0:
106,65,172646,1,0,3:0:0:0:
219,184,172819,2,0,P|193:167|136:154,1,77.9999964294435,10|2,0:1|0:0,0:0:0:0:
38,103,173164,5,8,3:0:0:0:
0,291,173336,1,2,0:0:0:0:
73,179,173509,2,0,P|47:195|-10:209,1,77.9999964294435,10|0,0:1|0:0,0:0:0:0:
147,154,173854,5,0,3:0:0:0:
147,154,174026,1,0,3:0:0:0:
260,238,174198,1,8,3:1:0:0:
121,282,174371,1,2,3:0:0:0:
254,163,174543,1,2,3:0:0:0:
254,163,174716,1,2,3:0:0:0:
197,321,174888,1,10,3:1:0:0:
147,154,175061,1,2,3:0:0:0:
285,274,175233,6,0,P|308:269|329:260,1,38.9999982147218,2|0,3:0|3:0,0:0:0:0:
449,183,175405,2,0,P|431:176|412:173,1,38.9999982147218,0|0,3:0|3:0,0:0:0:0:
321,357,175578,2,0,P|340:360|358:367,1,38.9999982147218,2|0,3:0|3:0,0:0:0:0:
505,297,175750,2,0,P|486:303|467:307,1,38.9999982147218,0|0,3:0|3:0,0:0:0:0:
285,274,175922,5,2,3:0:0:0:
254,251,176008,1,0,3:0:0:0:
213,247,176094,1,0,3:0:0:0:
176,256,176181,1,0,3:0:0:0:
148,282,176267,1,2,3:0:0:0:
144,320,176353,1,0,3:0:0:0:
167,350,176439,1,0,3:0:0:0:
205,358,176525,1,0,3:0:0:0:
237,338,176612,6,0,P|254:288|249:228,1,90.0000034332277,2|0,3:0|0:0,0:0:0:0:
157,73,176957,1,8,0:1:0:0:
64,202,177129,1,0,0:0:0:0:
64,202,177216,1,0,0:0:0:0:
64,202,177302,1,0,0:0:0:0:
237,144,177474,1,0,3:0:0:0:
70,116,177647,1,8,0:1:0:0:
254,251,177819,1,0,0:0:0:0:
254,251,177905,1,0,0:0:0:0:
254,251,177992,6,0,P|299:265|434:238,1,180.000006866455,2|8,3:0|0:1,0:0:0:0:
494,72,178509,1,0,0:0:0:0:
491,94,178595,1,0,0:0:0:0:
488,116,178681,1,0,0:0:0:0:
485,139,178767,1,0,0:0:0:0:
483,161,178853,1,0,3:0:0:0:
357,13,179026,2,0,L|369:111,1,90.0000034332277,8|0,0:1|0:0,0:0:0:0:
373,132,179285,1,0,0:0:0:0:
373,132,179371,6,0,P|318:144|261:129,1,90.0000034332277,2|0,3:0|0:0,0:0:0:0:
107,60,179716,1,8,0:1:0:0:
240,55,179888,1,0,0:0:0:0:
240,55,179974,1,0,0:0:0:0:
240,55,180061,1,0,0:0:0:0:
129,232,180233,1,0,3:0:0:0:
206,146,180405,1,8,0:1:0:0:
262,324,180578,1,0,0:0:0:0:
131,132,180750,6,0,P|87:143|51:169,1,90.0000034332277,2|0,3:0|0:0,0:0:0:0:
115,352,181095,2,0,L|127:240,1,90.0000034332277,8|0,0:1|0:0,0:0:0:0:
129,232,181354,1,0,0:0:0:0:
129,232,181440,1,2,0:0:0:0:
206,146,181612,1,0,3:0:0:0:
262,324,181785,1,8,0:1:0:0:
270,303,181871,1,0,0:0:0:0:
285,286,181957,1,0,0:0:0:0:
303,272,182043,1,0,0:0:0:0:
324,263,182129,6,0,L|307:387,1,90.0000034332277,2|0,3:0|0:0,0:0:0:0:
430,276,182474,2,0,L|417:186,1,90.0000034332277,8|0,0:1|0:0,0:0:0:0:
400,166,182733,1,0,0:0:0:0:
402,151,182819,1,0,0:0:0:0:
404,136,182905,1,0,0:0:0:0:
406,121,182991,1,0,3:0:0:0:
308,235,183164,1,8,0:1:0:0:
206,146,183336,1,0,0:0:0:0:
206,146,183423,1,0,0:0:0:0:
206,146,183509,6,0,B|162:131|162:131|88:141,1,90.0000034332277,2|0,3:0|0:0,0:0:0:0:
242,51,183854,2,0,B|285:56|285:56|329:41,1,90.0000034332277,8|0,0:1|0:0,0:0:0:0:
357,30,184112,1,0,0:0:0:0:
357,30,184198,1,0,0:0:0:0:
327,216,184371,1,0,3:0:0:0:
206,146,184543,2,0,P|173:184|168:232,1,90.0000034332277,8|0,0:1|0:0,0:0:0:0:
6,95,184888,6,0,P|39:133|44:181,1,90.0000034332277,2|0,3:0|0:0,0:0:0:0:
0,278,185233,1,8,0:1:0:0:
136,326,185405,1,0,0:0:0:0:
157,320,185491,1,0,0:0:0:0:
179,314,185577,1,0,0:0:0:0:
201,309,185663,1,0,0:0:0:0:
223,303,185749,1,0,3:0:0:0:
351,210,185923,1,8,0:1:0:0:
206,146,186095,1,0,0:0:0:0:
206,146,186181,1,0,0:0:0:0:
206,146,186267,5,2,3:0:0:0:
356,109,186440,1,0,0:0:0:0:
259,229,186612,1,8,0:1:0:0:
365,25,186785,1,0,0:0:0:0:
342,26,186871,1,0,0:0:0:0:
321,33,186957,1,2,0:0:0:0:
303,47,187043,1,0,0:0:0:0:
290,65,187129,1,0,3:0:0:0:
83,16,187302,1,8,0:1:0:0:
106,18,187388,1,0,0:0:0:0:
127,25,187474,1,0,0:0:0:0:
145,39,187560,1,0,0:0:0:0:
160,55,187647,6,0,L|145:169,1,90.0000034332277,2|0,3:0|0:0,0:0:0:0:
290,65,187992,1,8,0:1:0:0:
344,230,188164,1,0,0:0:0:0:
344,230,188250,1,0,0:0:0:0:
344,230,188336,1,0,0:0:0:0:
450,111,188509,1,0,3:0:0:0:
260,175,188681,1,8,0:1:0:0:
457,242,188854,1,0,0:0:0:0:
304,362,189026,6,0,P|281:316|286:255,1,90.0000034332277,2|0,3:0|0:0,0:0:0:0:
339,136,189371,1,8,0:1:0:0:
200,301,189543,1,0,0:0:0:0:
177,305,189629,1,0,0:0:0:0:
155,309,189715,1,0,0:0:0:0:
133,314,189801,1,0,0:0:0:0:
111,318,189887,1,0,3:0:0:0:
0,190,190061,2,0,L|104:206,1,90.0000034332277,8|0,0:1|0:0,0:0:0:0:
116,208,190319,1,0,0:0:0:0:
116,208,190405,6,0,B|134:158|134:158|124:110,1,90.0000034332277,2|0,3:0|0:0,0:0:0:0:
228,0,190750,1,8,0:1:0:0:
283,112,190923,2,0,L|343:124,1,45.0000017166138
498,35,191095,2,0,L|453:43,1,45.0000017166138,0|0,0:0|0:0,0:0:0:0:
464,195,191267,1,0,3:0:0:0:
371,32,191440,1,8,0:1:0:0:
331,220,191612,1,0,0:0:0:0:
331,220,191698,1,0,0:0:0:0:
331,220,191785,6,0,P|283:242|217:244,1,90.0000034332277,2|0,3:0|0:0,0:0:0:0:
23,153,192129,2,0,P|67:159|107:179,1,90.0000034332277,8|0,0:1|0:0,0:0:0:0:
135,188,192388,1,0,0:0:0:0:
132,173,192474,1,2,0:0:0:0:
130,158,192560,1,0,0:0:0:0:
127,143,192646,1,0,3:0:0:0:
239,16,192819,1,8,0:1:0:0:
236,38,192905,1,0,0:0:0:0:
234,60,192991,1,0,0:0:0:0:
232,83,193077,1,0,0:0:0:0:
229,105,193164,6,0,L|334:119,1,90.0000034332277,2|0,3:0|0:0,0:0:0:0:
461,71,193509,1,8,0:1:0:0:
327,20,193681,1,0,0:0:0:0:
327,20,193767,1,0,0:0:0:0:
327,20,193854,1,0,0:0:0:0:
459,165,194026,1,0,3:0:0:0:
354,198,194198,1,8,0:1:0:0:
446,265,194371,1,0,0:0:0:0:
446,265,194457,1,0,0:0:0:0:
446,265,194543,6,0,L|460:349,1,77.9999964294435,2|0,3:2|0:0,0:0:0:0:
327,351,194888,2,0,L|355:186,1,155.999992858887,8|0,0:0|0:0,0:0:0:0:
253,257,195405,1,0,3:0:0:0:
209,183,195578,2,0,P|176:219|167:257,1,77.9999964294435,8|0,0:0|0:0,0:0:0:0:
35,91,195923,5,0,3:0:0:0:
35,91,196095,1,0,3:0:0:0:
92,269,196267,1,8,3:1:0:0:
183,50,196440,1,0,3:0:0:0:
3,216,196612,1,0,3:0:0:0:
3,216,196785,1,0,3:0:0:0:
265,261,196957,1,8,3:1:0:0:
119,133,197129,1,0,3:0:0:0:
174,297,197302,6,0,L|168:258,1,38.9999982147218,0|0,3:0|3:0,0:0:0:0:
266,134,197474,2,0,L|260:172,1,38.9999982147218,0|0,3:0|3:0,0:0:0:0:
293,362,197647,2,0,L|298:323,1,38.9999982147218,0|0,3:0|3:0,0:0:0:0:
259,118,197819,2,0,L|253:156,1,38.9999982147218,0|0,3:0|3:0,0:0:0:0:
370,266,197991,5,0,3:0:0:0:
408,272,198078,1,0,3:0:0:0:
444,259,198164,1,0,3:0:0:0:
468,228,198250,1,0,3:0:0:0:
469,189,198336,1,0,3:0:0:0:
453,154,198422,1,0,3:0:0:0:
423,130,198508,1,0,3:0:0:0:
385,124,198594,1,0,3:0:0:0:
348,135,198681,6,0,L|248:116,1,90.0000034332277,0|2,3:0|0:0,0:0:0:0:
97,155,199026,2,0,P|80:210|91:254,1,90.0000034332277,10|0,0:1|0:0,0:0:0:0:
233,310,199371,2,0,P|237:265|221:224,1,90.0000034332277,2|0,0:0|3:0,0:0:0:0:
125,60,199716,1,8,0:1:0:0:
0,137,199888,1,0,0:0:0:0:
0,137,199974,1,0,0:0:0:0:
0,137,200061,6,0,L|183:156,1,180.000006866455,2|8,3:0|0:1,0:0:0:0:
295,40,200578,1,2,0:0:0:0:
278,55,200664,1,0,0:0:0:0:
266,74,200750,1,0,0:0:0:0:
260,95,200836,1,0,0:0:0:0:
260,118,200922,1,0,3:0:0:0:
442,202,201095,2,0,P|425:157|381:123,1,90.0000034332277,8|0,0:1|0:0,0:0:0:0:
379,109,201354,1,0,0:0:0:0:
379,109,201440,6,0,L|481:127,1,90.0000034332277,0|0,3:0|0:0,0:0:0:0:
228,249,201785,2,0,P|269:203|316:203,1,90.0000034332277,10|0,0:1|0:0,0:0:0:0:
443,328,202129,2,0,P|400:314|376:277,1,90.0000034332277,2|0,0:0|3:0,0:0:0:0:
308,124,202474,1,10,0:1:0:0:
228,249,202647,1,0,0:0:0:0:
228,249,202733,1,0,0:0:0:0:
228,249,202819,6,0,B|150:266|150:266|33:232,1,180.000006866455,2|8,3:0|0:1,0:0:0:0:
126,369,203336,1,2,0:0:0:0:
147,363,203422,1,0,0:0:0:0:
169,358,203508,1,0,0:0:0:0:
191,352,203594,1,0,0:0:0:0:
213,347,203680,1,0,3:0:0:0:
330,182,203854,1,10,0:1:0:0:
355,358,204026,2,0,L|343:302,1,45.0000017166138,0|0,0:0|0:0,0:0:0:0:
502,273,204198,6,0,P|451:292|434:336,1,90.0000034332277,0|2,3:0|0:0,0:0:0:0:
405,182,204543,2,0,P|405:137|434:105,1,90.0000034332277,10|2,0:1|0:0,0:0:0:0:
274,4,204888,2,0,P|303:36|303:80,1,90.0000034332277,2|0,0:0|3:0,0:0:0:0:
217,180,205233,1,10,0:1:0:0:
150,10,205405,1,0,0:0:0:0:
150,10,205492,1,0,0:0:0:0:
150,10,205578,6,0,L|140:108,1,90.0000034332277,2|0,3:0|0:0,0:0:0:0:
67,217,205923,1,10,0:1:0:0:
217,180,206095,1,2,0:0:0:0:
197,191,206181,1,0,0:0:0:0:
182,207,206267,1,0,0:0:0:0:
171,227,206353,1,0,0:0:0:0:
164,248,206439,1,2,3:0:0:0:
318,331,206612,2,0,P|300:289|265:262,1,90.0000034332277,10|0,0:1|0:0,0:0:0:0:
246,248,206871,1,0,0:0:0:0:
246,248,206957,6,0,L|366:266,1,90.0000034332277,0|2,3:0|0:0,0:0:0:0:
504,153,207302,1,8,0:1:0:0:
347,190,207474,1,2,0:0:0:0:
347,190,207561,1,0,0:0:0:0:
347,190,207647,1,2,0:0:0:0:
438,89,207819,1,2,3:0:0:0:
456,278,207992,1,10,0:1:0:0:
342,100,208164,1,2,0:0:0:0:
169,172,208336,6,0,P|172:126|202:90,1,90.0000034332277,0|0,3:0|0:0,0:0:0:0:
250,248,208681,2,0,P|293:263|319:302,1,90.0000034332277,10|0,0:1|0:0,0:0:0:0:
142,274,209026,2,0,P|126:317|87:343,1,90.0000034332277,2|0,0:0|3:0,0:0:0:0:
33,91,209371,1,8,0:1:0:0:
77,85,209457,1,0,0:0:0:0:
119,99,209543,1,0,0:0:0:0:
152,129,209629,1,0,0:0:0:0:
168,171,209716,6,0,L|282:154,1,90.0000034332277,0|2,3:0|0:0,0:0:0:0:
460,72,210061,2,0,L|371:58,1,90.0000034332277,10|0,0:1|0:0,0:0:0:0:
343,54,210319,1,0,0:0:0:0:
336,67,210405,1,2,0:0:0:0:
332,82,210491,1,0,0:0:0:0:
330,96,210577,1,0,3:0:0:0:
392,201,210750,2,0,P|404:243|407:309,1,90.0000034332277,10|0,0:1|0:0,0:0:0:0:
404,321,211009,1,0,0:0:0:0:
404,321,211095,6,0,L|297:331,1,90.0000034332277,2|0,3:0|0:0,0:0:0:0:
132,218,211440,1,8,0:1:0:0:
324,257,211612,1,2,0:0:0:0:
324,257,211698,1,0,0:0:0:0:
324,257,211785,1,0,0:0:0:0:
207,342,211957,1,0,3:0:0:0:
78,162,212129,2,0,P|62:200|68:262,1,90.0000034332277,10|0,0:1|0:0,0:0:0:0:
71,276,212388,1,0,0:0:0:0:
71,276,212474,5,0,3:0:0:0:
187,164,212647,1,2,0:0:0:0:
54,49,212819,2,0,L|154:32,1,90.0000034332277,10|2,0:1|0:0,0:0:0:0:
298,103,213164,2,0,L|209:87,1,90.0000034332277,2|0,0:0|3:0,0:0:0:0:
374,4,213509,1,10,0:1:0:0:
486,104,213681,1,0,0:0:0:0:
486,104,213767,1,0,0:0:0:0:
486,104,213854,6,0,P|431:148|434:267,1,180.000006866455,2|8,3:0|0:1,0:0:0:0:
266,190,214371,1,2,0:0:0:0:
287,194,214457,1,0,0:0:0:0:
307,205,214543,1,0,0:0:0:0:
323,220,214629,1,0,0:0:0:0:
333,240,214715,1,0,3:0:0:0:
128,258,214888,2,0,L|225:273,1,90.0000034332277,10|0,0:1|0:0,0:0:0:0:
250,279,215147,1,0,0:0:0:0:
250,279,215233,5,0,3:0:0:0:
117,336,215578,2,0,L|126:372,1,30,2|0,0:0|0:0,0:0:0:0:
128,258,215923,2,0,L|136:229,1,30,2|0,0:0|0:0,0:0:0:0:
39,334,216267,2,0,L|31:304,1,30,2|0,0:0|0:0,0:0:0:0:
0,232,216612,6,0,P|14:227|29:224,1,30,2|0,0:0|0:0,0:0:0:0:
119,172,216957,1,2,0:0:0:0:
119,172,217129,2,0,P|104:169|90:164,1,30,2|0,0:0|0:0,0:0:0:0:
0,102,217474,1,2,0:0:0:0:
0,102,217646,2,0,P|14:99|28:94,1,30,2|0,0:0|0:0,0:0:0:0:
119,172,218509,5,2,0:0:0:0:
119,172,218681,2,0,L|115:208,1,30,2|2,0:0|0:0,0:0:0:0:
174,280,219026,1,2,0:0:0:0:
174,280,219198,1,2,0:0:0:0:
261,357,219371,6,0,P|275:350|290:347,1,30,2|0,0:0|0:0,0:0:0:0:
325,274,219716,2,0,P|339:279|351:287,1,30,2|0,0:0|0:0,0:0:0:0:
427,250,220061,2,0,P|433:263|436:278,1,30,2|0,0:0|0:0,0:0:0:0:
436,278,220405,1,2,0:0:0:0:
313,195,220750,5,2,0:0:0:0:
